osu file format v14

[General]
AudioFilename: audio.mp3
AudioLeadIn: 0
PreviewTime: 72018
Countdown: 0
SampleSet: Normal
StackLeniency: 0.7
Mode: 1
LetterboxInBreaks: 0
WidescreenStoryboard: 1

[Editor]
Bookmarks: 23465,35102,73472,85018
DistanceSpacing: 0.6
BeatDivisor: 12
GridSize: 32
TimelineZoom: 2.3

[Metadata]
Title:Scary Point
TitleUnicode:怖いところ
Artist:Hakushi Hasegawa
ArtistUnicode:長谷川白紙
Creator:woosungko
Version:Futsuu
Source:
Tags:エアにに japanese pop nu jazz progressive art breakcore air ni ni
BeatmapID:3505279
BeatmapSetID:1715489

[Difficulty]
HPDrainRate:7
CircleSize:2
OverallDifficulty:3
ApproachRate:10
SliderMultiplier:1.4
SliderTickRate:1

[Events]
//Background and Video events
0,0,"tabisumika.jpg",0,-100
//Break Periods
2,45574,47714
//Storyboard Layer 0 (Background)
//Storyboard Layer 1 (Fail)
//Storyboard Layer 2 (Pass)
//Storyboard Layer 3 (Foreground)
//Storyboard Layer 4 (Overlay)
//Storyboard Sound Samples

[TimingPoints]
284,363.636363636364,4,1,0,90,1,0
284,-100,4,1,0,90,0,0
2829,-100,4,1,0,90,0,1
6071,-100,4,1,0,90,0,1
6102,-100,4,1,0,90,0,0
8647,-100,4,1,0,90,0,1
11890,-100,4,1,0,90,0,1
11920,-100,4,1,0,90,0,0
14465,-100,4,1,0,90,0,1
17708,-100,4,1,0,90,0,1
17738,-100,4,1,0,90,0,0
20284,-100,4,1,0,90,0,1
22102,-100,4,1,0,90,0,0
23526,-100,4,1,0,100,0,0
23556,-100,4,1,0,100,0,1
34556,-100,4,1,0,100,0,0
35162,-100,4,1,0,80,0,0
45344,-100,4,1,0,80,0,0
45374,697.674418604651,4,1,0,80,1,0
45374,-52.1212121212121,4,1,0,80,0,0
45432,-100,4,1,0,40,0,0
48106,-100,4,1,0,90,0,0
48164,545.454545454545,4,1,0,90,1,0
48164,-66.6666666666667,4,1,0,90,0,0
48436,444.444444444444,4,1,0,90,1,8
48880,400,4,1,0,90,1,8
49080,365.853658536585,4,1,0,90,1,8
49258,359.281437125748,4,1,0,90,1,8
49437,342.857142857143,4,1,0,90,1,8
49608,300,4,1,0,90,1,8
49758,266.666666666667,4,1,0,90,1,8
50291,363.636363636364,4,1,0,90,1,1
50291,-100,4,1,0,90,0,1
50442,-100,4,1,0,90,0,1
50503,-100,4,1,0,90,0,1
51715,-100,4,1,0,90,0,1
53169,-100,4,1,0,90,0,1
54654,-100,4,1,0,90,0,0
57200,-100,4,1,0,90,0,1
60441,-100,4,1,0,90,0,1
60472,-100,4,1,0,90,0,0
63018,-100,4,1,0,90,0,1
67745,-100,4,1,0,90,0,0
70291,-100,4,1,0,90,0,1
72078,-100,4,1,0,90,0,1
72109,-100,4,1,0,90,0,0
73532,-100,4,1,0,100,0,0
73563,-100,4,1,0,100,0,1
76079,-100,4,1,0,100,0,1
76109,-100,4,1,0,100,0,0
76381,-100,4,1,0,100,0,1
78988,-100,4,1,0,100,0,1
79018,-100,4,1,0,100,0,0
79291,-100,4,1,0,100,0,1
81927,-100,4,1,0,100,0,0
82200,-100,4,1,0,100,0,1
84563,-100,4,1,0,100,0,0
84806,-100,4,1,0,100,0,0
85109,-100,4,1,0,100,0,1
90381,-100,4,1,0,100,0,0
90624,-100,4,1,0,100,0,0
90927,-100,4,1,0,100,0,1
95260,-100,4,1,0,100,0,1
95291,-100,4,1,0,100,0,0
96806,-100,4,1,0,80,0,0
96836,-100,4,1,0,80,0,0

[HitObjects]
256,192,284,5,12,0:0:0:0:
256,192,647,1,4,0:0:0:0:
256,192,1011,1,4,0:0:0:0:
256,192,1284,1,12,0:0:0:0:
256,192,1859,1,4,0:0:0:0:
256,192,2829,1,12,0:0:0:0:
256,192,3193,1,0,0:0:0:0:
256,192,3374,1,0,0:0:0:0:
256,192,3556,1,8,0:0:0:0:
256,192,3920,1,0,0:0:0:0:
256,192,4284,1,0,0:0:0:0:
256,192,4465,1,8,0:0:0:0:
256,192,4829,1,0,0:0:0:0:
256,192,5193,1,8,0:0:0:0:
256,192,5374,1,0,0:0:0:0:
256,192,6102,1,12,0:0:0:0:
256,192,6465,1,4,0:0:0:0:
256,192,6829,1,4,0:0:0:0:
256,192,7102,1,12,0:0:0:0:
256,192,7677,1,4,0:0:0:0:
256,192,8647,1,12,0:0:0:0:
256,192,9011,1,0,0:0:0:0:
256,192,9193,1,8,0:0:0:0:
256,192,9374,1,8,0:0:0:0:
256,192,9738,1,0,0:0:0:0:
256,192,10102,1,0,0:0:0:0:
256,192,10284,1,8,0:0:0:0:
256,192,10647,1,8,0:0:0:0:
256,192,10829,1,8,0:0:0:0:
256,192,11193,1,0,0:0:0:0:
256,192,11920,1,12,0:0:0:0:
256,192,12284,1,4,0:0:0:0:
256,192,12647,1,4,0:0:0:0:
256,192,12920,1,12,0:0:0:0:
256,192,13496,1,4,0:0:0:0:
256,192,14465,1,12,0:0:0:0:
256,192,14829,1,0,0:0:0:0:
256,192,15011,1,0,0:0:0:0:
256,192,15193,1,8,0:0:0:0:
256,192,15556,1,0,0:0:0:0:
256,192,15920,1,8,0:0:0:0:
256,192,16102,1,0,0:0:0:0:
256,192,16465,1,0,0:0:0:0:
256,192,16647,1,8,0:0:0:0:
256,192,17011,1,0,0:0:0:0:
256,192,17738,1,12,0:0:0:0:
256,192,18102,1,4,0:0:0:0:
256,192,18465,1,4,0:0:0:0:
256,192,18738,1,12,0:0:0:0:
256,192,19314,1,4,0:0:0:0:
256,192,20284,1,12,0:0:0:0:
256,192,20647,1,12,0:0:0:0:
256,192,21011,1,8,0:0:0:0:
256,192,21374,1,0,0:0:0:0:
256,192,21738,1,8,0:0:0:0:
256,192,23556,1,12,0:0:0:0:
256,192,24102,1,8,0:0:0:0:
256,192,24284,1,0,0:0:0:0:
256,192,24647,1,8,0:0:0:0:
256,192,24920,1,0,0:0:0:0:
256,192,25738,1,0,0:0:0:0:
256,192,26011,1,0,0:0:0:0:
256,192,26374,1,8,0:0:0:0:
256,192,27011,1,0,0:0:0:0:
256,192,27193,1,0,0:0:0:0:
256,192,27556,1,8,0:0:0:0:
256,192,27829,1,0,0:0:0:0:
256,192,28647,1,8,0:0:0:0:
256,192,29011,1,8,0:0:0:0:
256,192,29284,1,0,0:0:0:0:
256,192,29920,1,0,0:0:0:0:
256,192,30102,1,8,0:0:0:0:
256,192,30465,1,8,0:0:0:0:
256,192,30738,1,0,0:0:0:0:
256,192,31556,1,0,0:0:0:0:
256,192,31829,1,0,0:0:0:0:
256,192,32193,1,8,0:0:0:0:
256,192,32829,1,8,0:0:0:0:
256,192,33011,1,0,0:0:0:0:
256,192,33374,1,0,0:0:0:0:
256,192,33647,1,8,0:0:0:0:
256,192,34556,1,12,0:0:0:0:
256,192,34829,1,12,0:0:0:0:
256,192,35193,1,4,0:0:0:0:
256,192,35920,1,8,0:0:0:0:
256,192,36647,1,0,0:0:0:0:
256,192,37011,1,0,0:0:0:0:
256,192,37374,1,8,0:0:0:0:
256,192,37738,1,8,0:0:0:0:
256,192,38102,1,0,0:0:0:0:
256,192,38829,1,8,0:0:0:0:
256,192,39556,1,8,0:0:0:0:
256,192,41011,1,8,0:0:0:0:
256,192,41738,1,8,0:0:0:0:
256,192,42465,1,0,0:0:0:0:
256,192,43193,1,8,0:0:0:0:
256,192,43556,1,8,0:0:0:0:
256,192,44284,1,0,0:0:0:0:
256,192,44647,1,8,0:0:0:0:
256,192,45011,1,0,0:0:0:0:
256,192,45374,1,12,0:0:0:0:
256,192,48164,12,0,50024,0:0:0:0:
256,192,50291,5,12,0:0:0:0:
256,192,50472,12,0,54291,0:0:0:0:
256,192,54654,5,12,0:0:0:0:
256,192,55018,1,4,0:0:0:0:
256,192,55381,1,12,0:0:0:0:
256,192,55654,1,12,0:0:0:0:
256,192,56230,1,4,0:0:0:0:
256,192,57200,1,12,0:0:0:0:
256,192,57563,1,0,0:0:0:0:
256,192,57745,1,0,0:0:0:0:
256,192,57927,1,8,0:0:0:0:
256,192,58291,1,0,0:0:0:0:
256,192,58654,1,8,0:0:0:0:
256,192,58836,1,8,0:0:0:0:
256,192,59200,1,0,0:0:0:0:
256,192,59381,1,0,0:0:0:0:
256,192,59745,1,8,0:0:0:0:
256,192,60472,1,12,0:0:0:0:
256,192,60836,1,4,0:0:0:0:
256,192,61200,1,12,0:0:0:0:
256,192,61472,1,12,0:0:0:0:
256,192,62048,1,4,0:0:0:0:
256,192,63018,1,12,0:0:0:0:
256,192,63200,12,0,67381,0:0:0:0:
256,192,67745,5,12,0:0:0:0:
256,192,68109,1,4,0:0:0:0:
256,192,68472,1,12,0:0:0:0:
256,192,68745,1,12,0:0:0:0:
256,192,69321,1,4,0:0:0:0:
256,192,70291,1,12,0:0:0:0:
256,192,70654,1,8,0:0:0:0:
256,192,70836,1,0,0:0:0:0:
256,192,71200,1,8,0:0:0:0:
256,192,71381,1,0,0:0:0:0:
256,192,71745,1,0,0:0:0:0:
256,192,72109,1,8,0:0:0:0:
256,192,73563,1,12,0:0:0:0:
256,192,74109,1,8,0:0:0:0:
256,192,74291,1,0,0:0:0:0:
256,192,74654,1,8,0:0:0:0:
256,192,74927,1,0,0:0:0:0:
256,192,75745,1,0,0:0:0:0:
256,192,76018,1,0,0:0:0:0:
256,192,76381,1,12,0:0:0:0:
256,192,77018,1,0,0:0:0:0:
256,192,77200,1,0,0:0:0:0:
256,192,77563,1,8,0:0:0:0:
256,192,77836,1,0,0:0:0:0:
256,192,78472,1,8,0:0:0:0:
256,192,78654,1,8,0:0:0:0:
256,192,79018,1,0,0:0:0:0:
256,192,79291,1,12,0:0:0:0:
256,192,80109,1,0,0:0:0:0:
256,192,80472,1,8,0:0:0:0:
256,192,80745,1,8,0:0:0:0:
256,192,81381,1,8,0:0:0:0:
256,192,81563,1,8,0:0:0:0:
256,192,81836,1,0,0:0:0:0:
256,192,82200,1,12,0:0:0:0:
256,192,82836,1,8,0:0:0:0:
256,192,83018,1,0,0:0:0:0:
256,192,83381,1,8,0:0:0:0:
256,192,83654,1,8,0:0:0:0:
256,192,84563,1,12,0:0:0:0:
256,192,84836,1,12,0:0:0:0:
256,192,85109,1,12,0:0:0:0:
256,192,85745,1,8,0:0:0:0:
256,192,86018,1,0,0:0:0:0:
256,192,86291,1,0,0:0:0:0:
256,192,86563,1,8,0:0:0:0:
256,192,87200,1,0,0:0:0:0:
256,192,87472,1,8,0:0:0:0:
256,192,87745,1,0,0:0:0:0:
256,192,88018,1,12,0:0:0:0:
256,192,88654,1,8,0:0:0:0:
256,192,88927,1,8,0:0:0:0:
256,192,89200,1,0,0:0:0:0:
256,192,89472,1,0,0:0:0:0:
256,192,90381,1,12,0:0:0:0:
256,192,90654,1,12,0:0:0:0:
256,192,90927,1,12,0:0:0:0:
256,192,91563,1,8,0:0:0:0:
256,192,91836,1,0,0:0:0:0:
256,192,92109,1,8,0:0:0:0:
256,192,92381,1,0,0:0:0:0:
256,192,93018,1,8,0:0:0:0:
256,192,93291,1,0,0:0:0:0:
256,192,93563,1,0,0:0:0:0:
256,192,93836,1,12,0:0:0:0:
256,192,94472,1,0,0:0:0:0:
256,192,94745,1,8,0:0:0:0:
256,192,95018,1,8,0:0:0:0:
256,192,95291,1,4,0:0:0:0:
256,192,95472,12,0,96472,0:0:0:0:
256,192,96836,5,4,0:0:0:0:
256,192,97563,1,8,0:0:0:0:
256,192,98291,1,0,0:0:0:0:
256,192,99018,1,8,0:0:0:0:
256,192,99381,1,8,0:0:0:0:
256,192,99745,1,0,0:0:0:0:
256,192,100109,1,12,0:0:0:0:
256,192,101109,1,4,0:0:0:0:
256,192,102654,1,8,0:0:0:0:
256,192,103381,1,8,0:0:0:0:
256,192,104109,1,8,0:0:0:0:
256,192,104836,1,8,0:0:0:0:
256,192,105200,1,12,0:0:0:0:
