osu file format v14

[General]
AudioFilename: audio.mp3
AudioLeadIn: 0
PreviewTime: 12738
Countdown: 0
SampleSet: Normal
StackLeniency: 0.7
Mode: 1
LetterboxInBreaks: 0
WidescreenStoryboard: 1

[Editor]
Bookmarks: 12899,33544,44835,48383,53544,64834,68382,70962,85157,95478,100640,106769,110317,115535,125857,136180,141341,146502,156180,161986,168115,177470,212294,233584,233664,233745,233826,233906,233987,234068,234148
DistanceSpacing: 0.8
BeatDivisor: 4
GridSize: 16
TimelineZoom: 2.1

[Metadata]
Title:Sabaku de
TitleUnicode:砂漠で
Artist:Hakushi Hasegawa
ArtistUnicode:長谷川白紙
Creator:_gt
Version:Oni
Source:
Tags:jazz avant pop surreal electronic jazz fusion electronica progressive breakcore idm desert maltine records japanese air ni エアにに アイフォーン・シックス・プラス iphone 6 plus six MARU-168
BeatmapID:3358656
BeatmapSetID:1616787

[Difficulty]
HPDrainRate:5
CircleSize:5
OverallDifficulty:5
ApproachRate:9
SliderMultiplier:1.4
SliderTickRate:1

[Events]
//Background and Video events
0,0,"osu1920.jpg",0,0
//Break Periods
2,146622,155580
//Storyboard Layer 0 (Background)
//Storyboard Layer 1 (Fail)
//Storyboard Layer 2 (Pass)
//Storyboard Layer 3 (Foreground)
//Storyboard Layer 4 (Overlay)
//Storyboard Sound Samples

[TimingPoints]
1286,322.58064516129,4,1,0,60,1,8
1286,-125,4,1,0,60,0,0
7092,-100,4,1,0,70,0,0
7172,-101.687937534036,4,1,0,70,0,0
7253,-103.286655426977,4,1,0,70,0,0
7333,-104.797516874948,4,1,0,70,0,0
7414,-106.222361897208,4,1,0,70,0,0
7495,-107.563435307402,4,1,0,70,0,0
7575,-108.823317124647,4,1,0,70,0,0
7656,-110.004856649169,4,1,0,70,0,0
7737,-111.111111111111,4,1,0,70,0,0
12575,-125,4,1,0,70,0,0
12898,-83.3333333333333,4,1,0,90,0,8
12979,-85.9044434072037,4,1,0,90,0,8
13059,-88.5548807652176,4,1,0,90,0,8
13140,-91.2870929175277,4,1,0,90,0,8
13220,-94.1036028881028,4,1,0,90,0,8
13301,-97.00701154458,4,1,0,90,0,8
13382,-100,4,1,0,90,0,8
13544,-71.4285714285714,4,1,0,90,0,8
13624,-74.358026708821,4,1,0,90,0,8
13704,-77.4076259044162,4,1,0,90,0,8
13785,-80.582296402538,4,1,0,90,0,8
13865,-83.8871676742127,4,1,0,90,0,8
13946,-87.3275795622503,4,1,0,90,0,8
14027,-90.9090909090909,4,1,0,90,0,8
14189,-83.3333333333333,4,1,0,90,0,8
14269,-85.9044434072037,4,1,0,90,0,8
14349,-88.5548807652176,4,1,0,90,0,8
14430,-91.2870929175277,4,1,0,90,0,8
14510,-94.1036028881028,4,1,0,90,0,8
14591,-97.00701154458,4,1,0,90,0,8
14672,-100,4,1,0,90,0,8
14834,-71.4285714285714,4,1,0,90,0,8
14915,-74.358026708821,4,1,0,90,0,8
14994,-77.4076259044162,4,1,0,90,0,8
15075,-80.582296402538,4,1,0,90,0,8
15155,-83.8871676742127,4,1,0,90,0,8
15236,-87.3275795622503,4,1,0,90,0,8
15317,-90.9090909090909,4,1,0,90,0,8
15479,-83.3333333333333,4,1,0,90,0,8
15560,-85.9044434072037,4,1,0,90,0,8
15639,-88.5548807652176,4,1,0,90,0,8
15720,-91.2870929175277,4,1,0,90,0,8
15800,-94.1036028881028,4,1,0,90,0,8
15881,-97.00701154458,4,1,0,90,0,8
15962,-100,4,1,0,90,0,8
16124,-71.4285714285714,4,1,0,90,0,8
16205,-74.358026708821,4,1,0,90,0,8
16284,-77.4076259044162,4,1,0,90,0,8
16365,-80.582296402538,4,1,0,90,0,8
16445,-83.8871676742127,4,1,0,90,0,8
16526,-87.3275795622503,4,1,0,90,0,8
16607,-90.9090909090909,4,1,0,90,0,8
16769,-83.3333333333333,4,1,0,90,0,8
17011,-92.2234933083601,4,1,0,90,0,8
17253,-102.062072615966,4,1,0,90,0,8
17495,-112.950250451231,4,1,0,90,0,8
17737,-125,4,1,0,90,0,8
18060,-83.3333333333333,4,1,0,90,0,8
18140,-85.9044434072037,4,1,0,90,0,8
18220,-88.5548807652176,4,1,0,90,0,8
18301,-91.2870929175277,4,1,0,90,0,8
18381,-94.1036028881028,4,1,0,90,0,8
18462,-97.00701154458,4,1,0,90,0,8
18543,-100,4,1,0,90,0,8
18705,-71.4285714285714,4,1,0,90,0,8
18785,-74.358026708821,4,1,0,90,0,8
18865,-77.4076259044162,4,1,0,90,0,8
18946,-80.582296402538,4,1,0,90,0,8
19026,-83.8871676742127,4,1,0,90,0,8
19107,-87.3275795622503,4,1,0,90,0,8
19188,-90.9090909090909,4,1,0,90,0,8
19350,-83.3333333333333,4,1,0,90,0,8
19431,-85.9044434072037,4,1,0,90,0,8
19510,-88.5548807652176,4,1,0,90,0,8
19591,-91.2870929175277,4,1,0,90,0,8
19671,-94.1036028881028,4,1,0,90,0,8
19752,-97.00701154458,4,1,0,90,0,8
19833,-100,4,1,0,90,0,8
19995,-71.4285714285714,4,1,0,90,0,8
20076,-74.358026708821,4,1,0,90,0,8
20155,-77.4076259044162,4,1,0,90,0,8
20236,-80.582296402538,4,1,0,90,0,8
20316,-83.8871676742127,4,1,0,90,0,8
20397,-87.3275795622503,4,1,0,90,0,8
20478,-90.9090909090909,4,1,0,90,0,8
20640,-83.3333333333333,4,1,0,90,0,8
20721,-85.9044434072037,4,1,0,90,0,8
20800,-88.5548807652176,4,1,0,90,0,8
20881,-91.2870929175277,4,1,0,90,0,8
20961,-94.1036028881028,4,1,0,90,0,8
21042,-97.00701154458,4,1,0,90,0,8
21123,-100,4,1,0,90,0,8
21285,-71.4285714285714,4,1,0,90,0,8
21366,-74.358026708821,4,1,0,90,0,8
21445,-77.4076259044162,4,1,0,90,0,8
21526,-80.582296402538,4,1,0,90,0,8
21606,-83.8871676742127,4,1,0,90,0,8
21687,-87.3275795622503,4,1,0,90,0,8
21768,-90.9090909090909,4,1,0,90,0,8
21930,-83.3333333333333,4,1,0,90,0,8
22172,-92.2234933083601,4,1,0,90,0,8
22414,-102.062072615966,4,1,0,90,0,8
22656,-112.950250451231,4,1,0,90,0,8
22898,-125,4,1,0,90,0,8
23215,-83.3333333333333,4,1,0,90,0,8
23295,-85.9044434072037,4,1,0,90,0,8
23375,-88.5548807652176,4,1,0,90,0,8
23456,-91.2870929175277,4,1,0,90,0,8
23536,-94.1036028881028,4,1,0,90,0,8
23617,-97.00701154458,4,1,0,90,0,8
23698,-100,4,1,0,90,0,8
23860,-71.4285714285714,4,1,0,90,0,8
23940,-74.358026708821,4,1,0,90,0,8
24020,-77.4076259044162,4,1,0,90,0,8
24101,-80.582296402538,4,1,0,90,0,8
24181,-83.8871676742127,4,1,0,90,0,8
24262,-87.3275795622503,4,1,0,90,0,8
24343,-90.9090909090909,4,1,0,90,0,8
24505,-83.3333333333333,4,1,0,90,0,8
24586,-85.9044434072037,4,1,0,90,0,8
24665,-88.5548807652176,4,1,0,90,0,8
24746,-91.2870929175277,4,1,0,90,0,8
24826,-94.1036028881028,4,1,0,90,0,8
24907,-97.00701154458,4,1,0,90,0,8
24988,-100,4,1,0,90,0,8
25150,-71.4285714285714,4,1,0,90,0,8
25231,-74.358026708821,4,1,0,90,0,8
25310,-77.4076259044162,4,1,0,90,0,8
25391,-80.582296402538,4,1,0,90,0,8
25471,-83.8871676742127,4,1,0,90,0,8
25552,-87.3275795622503,4,1,0,90,0,8
25633,-90.9090909090909,4,1,0,90,0,8
25795,-83.3333333333333,4,1,0,90,0,8
25876,-85.9044434072037,4,1,0,90,0,8
25955,-88.5548807652176,4,1,0,90,0,8
26036,-91.2870929175277,4,1,0,90,0,8
26116,-94.1036028881028,4,1,0,90,0,8
26197,-97.00701154458,4,1,0,90,0,8
26278,-100,4,1,0,90,0,8
26440,-71.4285714285714,4,1,0,90,0,8
26521,-74.358026708821,4,1,0,90,0,8
26600,-77.4076259044162,4,1,0,90,0,8
26681,-80.582296402538,4,1,0,90,0,8
26761,-83.8871676742127,4,1,0,90,0,8
26842,-87.3275795622503,4,1,0,90,0,8
26923,-90.9090909090909,4,1,0,90,0,8
27092,-83.3333333333333,4,1,0,90,0,8
27334,-92.2234933083601,4,1,0,90,0,8
27576,-102.062072615966,4,1,0,90,0,8
27818,-112.950250451231,4,1,0,90,0,8
28060,-125,4,1,0,90,0,8
28367,-83.3333333333333,4,1,0,90,0,8
28447,-85.9044434072037,4,1,0,90,0,8
28527,-88.5548807652176,4,1,0,90,0,8
28608,-91.2870929175277,4,1,0,90,0,8
28688,-94.1036028881028,4,1,0,90,0,8
28769,-97.00701154458,4,1,0,90,0,8
28850,-100,4,1,0,90,0,8
29012,-71.4285714285714,4,1,0,90,0,8
29092,-74.358026708821,4,1,0,90,0,8
29172,-77.4076259044162,4,1,0,90,0,8
29253,-80.582296402538,4,1,0,90,0,8
29333,-83.8871676742127,4,1,0,90,0,8
29414,-87.3275795622503,4,1,0,90,0,8
29495,-90.9090909090909,4,1,0,90,0,8
29657,-83.3333333333333,4,1,0,90,0,8
29738,-85.9044434072037,4,1,0,90,0,8
29817,-88.5548807652176,4,1,0,90,0,8
29898,-91.2870929175277,4,1,0,90,0,8
29978,-94.1036028881028,4,1,0,90,0,8
30059,-97.00701154458,4,1,0,90,0,8
30140,-100,4,1,0,90,0,8
30302,-71.4285714285714,4,1,0,90,0,8
30383,-74.358026708821,4,1,0,90,0,8
30462,-77.4076259044162,4,1,0,90,0,8
30543,-80.582296402538,4,1,0,90,0,8
30623,-83.8871676742127,4,1,0,90,0,8
30704,-87.3275795622503,4,1,0,90,0,8
30785,-90.9090909090909,4,1,0,90,0,8
30947,-83.3333333333333,4,1,0,90,0,8
31028,-85.9044434072037,4,1,0,90,0,8
31107,-88.5548807652176,4,1,0,90,0,8
31188,-91.2870929175277,4,1,0,90,0,8
31268,-94.1036028881028,4,1,0,90,0,8
31349,-97.00701154458,4,1,0,90,0,8
31430,-100,4,1,0,90,0,8
31592,-62.5,4,1,0,90,0,8
33221,-100,4,1,0,70,0,0
44835,322.58064516129,4,1,0,60,1,0
44835,-111.111111111111,4,1,0,60,0,0
48383,322.58064516129,4,1,0,70,1,0
48383,-105.263157894737,4,1,0,70,0,0
52495,-108.195055171314,4,1,0,70,0,0
52737,-112.121938098229,4,1,0,70,0,0
52979,-117.483643524805,4,1,0,70,0,0
53221,-125,4,1,0,70,0,0
53544,-133.333333333333,4,1,0,70,0,0
54189,-100,4,1,0,70,0,0
64834,322.58064516129,4,1,0,60,1,0
64834,-111.111111111111,4,1,0,60,0,0
68382,322.58064516129,4,1,0,80,1,0
68382,-105.263157894737,4,1,0,80,0,0
70397,-107.005010632565,4,1,0,80,0,0
70478,-108.692351919872,4,1,0,80,0,0
70558,-110.324424222959,4,1,0,80,0,0
70639,-111.900736505995,4,1,0,80,0,0
70720,-113.421050034314,4,1,0,80,0,0
70800,-114.885362707459,4,1,0,80,0,0
70881,-116.293892281666,4,1,0,80,0,0
70962,-117.647058823529,4,1,0,80,0,0
71042,-117.526912973986,4,1,0,80,0,0
71123,-117.406318404511,4,1,0,80,0,0
71203,-117.285274619671,4,1,0,80,0,0
71284,-117.163781135378,4,1,0,80,0,0
71365,-117.041837479,4,1,0,80,0,0
71445,-116.919443189473,4,1,0,80,0,0
71526,-116.796597817408,4,1,0,80,0,0
71607,-116.673300925204,4,1,0,80,0,0
71687,-116.549552087157,4,1,0,80,0,0
71768,-116.425350889572,4,1,0,80,0,0
71849,-116.300696930869,4,1,0,80,0,0
71929,-116.1755898217,4,1,0,80,0,0
72010,-116.050029185052,4,1,0,80,0,0
72091,-115.924014656362,4,1,0,80,0,0
72171,-115.797545883624,4,1,0,80,0,0
72252,-115.670622527502,4,1,0,80,0,0
72333,-115.543244261434,4,1,0,80,0,0
72413,-115.415410771749,4,1,0,80,0,0
72494,-115.287121757771,4,1,0,80,0,0
72575,-115.158376931929,4,1,0,80,0,0
72655,-115.029176019869,4,1,0,80,0,0
72736,-114.899518760559,4,1,0,80,0,0
72816,-114.769404906399,4,1,0,80,0,0
72897,-114.638834223332,4,1,0,80,0,0
72978,-114.507806490948,4,1,0,80,0,0
73058,-114.376321502594,4,1,0,80,0,0
73139,-114.244379065483,4,1,0,80,0,0
73220,-114.1119790008,4,1,0,80,0,0
73300,-113.979121143805,4,1,0,80,0,0
73381,-113.845805343949,4,1,0,80,0,0
73462,-113.712031464971,4,1,0,80,0,0
73542,-113.577799385011,4,1,0,80,0,0
73623,-113.443108996711,4,1,0,80,0,0
73704,-113.307960207323,4,1,0,80,0,0
73784,-113.172352938812,4,1,0,80,0,0
73865,-113.036287127962,4,1,0,80,0,0
73946,-112.899762726481,4,1,0,80,0,0
74026,-112.7627797011,4,1,0,80,0,0
74107,-112.625338033682,4,1,0,80,0,0
74188,-112.487437721322,4,1,0,80,0,0
74268,-112.349078776446,4,1,0,80,0,0
74349,-112.21026122692,4,1,0,80,0,0
74429,-112.070985116143,4,1,0,80,0,0
74510,-111.931250503154,4,1,0,80,0,0
74591,-111.791057462729,4,1,0,80,0,0
74671,-111.65040608548,4,1,0,80,0,0
74752,-111.509296477954,4,1,0,80,0,0
74833,-111.367728762735,4,1,0,80,0,0
74913,-111.225703078534,4,1,0,80,0,0
74994,-111.083219580294,4,1,0,80,0,0
75075,-110.940278439279,4,1,0,80,0,0
75155,-110.796879843178,4,1,0,80,0,0
75236,-110.653023996189,4,1,0,80,0,0
75317,-110.508711119122,4,1,0,80,0,0
75397,-110.36394144949,4,1,0,80,0,0
75478,-110.2187152416,4,1,0,80,0,0
75559,-110.073032766644,4,1,0,80,0,0
75639,-109.926894312794,4,1,0,80,0,0
75720,-109.780300185289,4,1,0,80,0,0
75801,-109.633250706525,4,1,0,80,0,0
75881,-109.485746216144,4,1,0,80,0,0
75962,-109.337787071121,4,1,0,80,0,0
76042,-109.189373645851,4,1,0,80,0,0
76123,-109.040506332236,4,1,0,80,0,0
76204,-108.891185539767,4,1,0,80,0,0
76284,-108.741411695612,4,1,0,80,0,0
76365,-108.591185244694,4,1,0,80,0,0
76446,-108.440506649778,4,1,0,80,0,0
76526,-108.289376391549,4,1,0,80,0,0
76607,-108.137794968693,4,1,0,80,0,0
76688,-107.985762897975,4,1,0,80,0,0
76768,-107.833280714317,4,1,0,80,0,0
76849,-107.680348970877,4,1,0,80,0,0
76930,-107.526968239122,4,1,0,80,0,0
77010,-107.373139108904,4,1,0,80,0,0
77091,-107.218862188532,4,1,0,80,0,0
77172,-107.064138104849,4,1,0,80,0,0
77252,-106.908967503295,4,1,0,80,0,0
77333,-106.753351047984,4,1,0,80,0,0
77414,-106.59728942177,4,1,0,80,0,0
77494,-106.440783326314,4,1,0,80,0,0
77575,-106.283833482153,4,1,0,80,0,0
77655,-106.126440628761,4,1,0,80,0,0
77736,-105.968605524615,4,1,0,80,0,0
77817,-105.81032894726,4,1,0,80,0,0
77897,-105.651611693364,4,1,0,80,0,0
77978,-105.492454578784,4,1,0,80,0,0
78059,-105.332858438619,4,1,0,80,0,0
78139,-105.172824127271,4,1,0,80,0,0
78220,-105.0123525185,4,1,0,80,0,0
78301,-104.851444505478,4,1,0,80,0,0
78381,-104.690101000839,4,1,0,80,0,0
78462,-104.528322936736,4,1,0,80,0,0
78543,-104.366111264886,4,1,0,80,0,0
78623,-104.203466956621,4,1,0,80,0,0
78704,-104.040391002934,4,1,0,80,0,0
78785,-103.876884414526,4,1,0,80,0,0
78865,-103.712948221847,4,1,0,80,0,0
78946,-103.54858347514,4,1,0,80,0,0
79027,-103.383791244485,4,1,0,80,0,0
79107,-103.218572619833,4,1,0,80,0,0
79188,-103.052928711044,4,1,0,80,0,0
79268,-102.886860647929,4,1,0,80,0,0
79349,-102.720369580278,4,1,0,80,0,0
79430,-102.553456677895,4,1,0,80,0,0
79510,-102.38612313063,4,1,0,80,0,0
79591,-102.218370148407,4,1,0,80,0,0
79672,-102.050198961253,4,1,0,80,0,0
79752,-101.881610819323,4,1,0,80,0,0
79833,-101.712606992924,4,1,0,80,0,0
79914,-101.543188772541,4,1,0,80,0,0
79994,-101.373357468853,4,1,0,80,0,0
80075,-101.203114412753,4,1,0,80,0,0
80156,-101.032460955369,4,1,0,80,0,0
80236,-100.861398468076,4,1,0,80,0,0
80317,-100.689928342509,4,1,0,80,0,0
80398,-100.518051990579,4,1,0,80,0,0
80478,-100.345770844478,4,1,0,80,0,0
80559,-100.173086356691,4,1,0,80,0,0
80640,-100,4,1,0,80,0,0
80720,-101.504917233306,4,1,0,80,0,0
80801,-102.97806370396,4,1,0,80,0,0
80881,-104.418603705002,4,1,0,80,0,0
80962,-105.825819935275,4,1,0,80,0,0
81043,-107.199111435697,4,1,0,80,0,0
81123,-108.537990839299,4,1,0,80,0,0
81204,-109.842081005441,4,1,0,80,0,0
81285,-111.111111111111,4,1,0,70,0,0
83945,-112.514433311745,4,1,0,70,0,0
84026,-113.871904613587,4,1,0,70,0,0
84107,-115.183582414688,4,1,0,70,0,0
84187,-116.449667827125,4,1,0,70,0,0
84268,-117.670494953157,4,1,0,70,0,0
84349,-118.846519949509,4,1,0,70,0,0
84429,-119.97831002112,4,1,0,70,0,0
84510,-121.066532471606,4,1,0,60,0,0
84591,-122.111943922872,4,1,0,60,0,0
84671,-123.115379801392,4,1,0,60,0,0
84752,-124.077744173788,4,1,0,60,0,0
84833,-125,4,1,0,60,0,0
85148,-83.3333333333333,4,1,0,90,0,8
85229,-85.9044434072037,4,1,0,90,0,8
85309,-88.5548807652176,4,1,0,90,0,8
85390,-91.2870929175277,4,1,0,90,0,8
85470,-94.1036028881028,4,1,0,90,0,8
85551,-97.00701154458,4,1,0,90,0,8
85632,-100,4,1,0,90,0,8
85794,-71.4285714285714,4,1,0,90,0,8
85874,-74.358026708821,4,1,0,90,0,8
85954,-77.4076259044162,4,1,0,90,0,8
86035,-80.582296402538,4,1,0,90,0,8
86115,-83.8871676742127,4,1,0,90,0,8
86196,-87.3275795622503,4,1,0,90,0,8
86277,-90.9090909090909,4,1,0,90,0,8
86439,-83.3333333333333,4,1,0,90,0,8
86519,-85.9044434072037,4,1,0,90,0,8
86599,-88.5548807652176,4,1,0,90,0,8
86680,-91.2870929175277,4,1,0,90,0,8
86760,-94.1036028881028,4,1,0,90,0,8
86841,-97.00701154458,4,1,0,90,0,8
86922,-100,4,1,0,90,0,8
87084,-71.4285714285714,4,1,0,90,0,8
87165,-74.358026708821,4,1,0,90,0,8
87244,-77.4076259044162,4,1,0,90,0,8
87325,-80.582296402538,4,1,0,90,0,8
87405,-83.8871676742127,4,1,0,90,0,8
87486,-87.3275795622503,4,1,0,90,0,8
87567,-90.9090909090909,4,1,0,90,0,8
87729,-83.3333333333333,4,1,0,90,0,8
87810,-85.9044434072037,4,1,0,90,0,8
87889,-88.5548807652176,4,1,0,90,0,8
87970,-91.2870929175277,4,1,0,90,0,8
88050,-94.1036028881028,4,1,0,90,0,8
88131,-97.00701154458,4,1,0,90,0,8
88212,-100,4,1,0,90,0,8
88374,-71.4285714285714,4,1,0,90,0,8
88455,-74.358026708821,4,1,0,90,0,8
88534,-77.4076259044162,4,1,0,90,0,8
88615,-80.582296402538,4,1,0,90,0,8
88695,-83.8871676742127,4,1,0,90,0,8
88776,-87.3275795622503,4,1,0,90,0,8
88857,-90.9090909090909,4,1,0,90,0,8
89026,-83.3333333333333,4,1,0,90,0,8
89268,-92.2234933083601,4,1,0,90,0,8
89510,-102.062072615966,4,1,0,90,0,8
89752,-112.950250451231,4,1,0,90,0,8
89994,-125,4,1,0,90,0,8
90310,-83.3333333333333,4,1,0,90,0,8
90390,-85.9044434072037,4,1,0,90,0,8
90470,-88.5548807652176,4,1,0,90,0,8
90551,-91.2870929175277,4,1,0,90,0,8
90631,-94.1036028881028,4,1,0,90,0,8
90712,-97.00701154458,4,1,0,90,0,8
90793,-100,4,1,0,90,0,8
90955,-71.4285714285714,4,1,0,90,0,8
91035,-74.358026708821,4,1,0,90,0,8
91115,-77.4076259044162,4,1,0,90,0,8
91196,-80.582296402538,4,1,0,90,0,8
91276,-83.8871676742127,4,1,0,90,0,8
91357,-87.3275795622503,4,1,0,90,0,8
91438,-90.9090909090909,4,1,0,90,0,8
91600,-83.3333333333333,4,1,0,90,0,8
91681,-85.9044434072037,4,1,0,90,0,8
91760,-88.5548807652176,4,1,0,90,0,8
91841,-91.2870929175277,4,1,0,90,0,8
91921,-94.1036028881028,4,1,0,90,0,8
92002,-97.00701154458,4,1,0,90,0,8
92083,-100,4,1,0,90,0,8
92245,-71.4285714285714,4,1,0,90,0,8
92326,-74.358026708821,4,1,0,90,0,8
92405,-77.4076259044162,4,1,0,90,0,8
92486,-80.582296402538,4,1,0,90,0,8
92566,-83.8871676742127,4,1,0,90,0,8
92647,-87.3275795622503,4,1,0,90,0,8
92728,-90.9090909090909,4,1,0,90,0,8
92890,-83.3333333333333,4,1,0,90,0,8
92971,-85.9044434072037,4,1,0,90,0,8
93050,-88.5548807652176,4,1,0,90,0,8
93131,-91.2870929175277,4,1,0,90,0,8
93211,-94.1036028881028,4,1,0,90,0,8
93292,-97.00701154458,4,1,0,90,0,8
93373,-100,4,1,0,90,0,8
93535,-71.4285714285714,4,1,0,90,0,8
93616,-74.358026708821,4,1,0,90,0,8
93695,-77.4076259044162,4,1,0,90,0,8
93776,-80.582296402538,4,1,0,90,0,8
93856,-83.8871676742127,4,1,0,90,0,8
93937,-87.3275795622503,4,1,0,90,0,8
94018,-90.9090909090909,4,1,0,90,0,8
94187,-83.3333333333333,4,1,0,90,0,8
94429,-92.2234933083601,4,1,0,90,0,8
94671,-102.062072615966,4,1,0,90,0,8
94913,-112.950250451231,4,1,0,90,0,8
95155,-125,4,1,0,90,0,8
95398,-140.845070422535,4,1,0,90,0,0
95478,-147.058823529412,4,1,0,20,0,0
96769,-142.857142857143,4,1,0,40,0,0
98059,-142.857142857143,4,1,0,50,0,8
98381,-139.712941228281,4,1,0,50,0,8
98704,-136.637941626599,4,1,0,50,0,8
99026,-133.630620956212,4,1,0,50,0,8
99349,-130.689489643678,4,1,0,50,0,8
99671,-127.813090900188,4,1,0,50,0,8
99994,-125,4,1,0,60,0,0
100074,-122.234214595706,4,1,0,60,0,0
100155,-119.35432798473,4,1,0,60,0,0
100236,-116.364596266758,4,1,0,60,0,0
100317,-113.270459830493,4,1,0,60,0,0
100397,-110.078554082767,4,1,0,60,0,0
100478,-106.796694792197,4,1,0,60,0,0
100559,-103.433836076057,4,1,0,60,0,0
100640,-100,4,1,0,70,0,0
103220,-100,4,1,0,80,0,0
106769,322.58064516129,4,1,0,60,1,0
106769,-111.111111111111,4,1,0,60,0,0
110317,322.58064516129,4,1,0,50,1,0
110317,-125,4,1,0,50,0,0
114187,335.195530726257,7,1,0,50,1,0
114187,-120.295698924731,4,1,0,50,0,0
114438,-126.976523563795,4,1,0,50,0,0
114689,-132.964482200893,4,1,0,50,0,0
114940,-138.251216612822,4,1,0,50,0,0
115192,-142.857142857143,4,1,0,50,0,0
115535,322.58064516129,4,1,0,40,1,0
115535,-117.647058823529,4,1,0,40,0,0
115615,-117.511423779051,4,1,0,40,0,0
115696,-117.375570677927,4,1,0,40,0,0
115776,-117.239500038428,4,1,0,40,0,0
115857,-117.103212383825,4,1,0,40,0,0
115938,-116.966708242398,4,1,0,40,0,0
116018,-116.82998814743,4,1,0,40,0,0
116099,-116.693052637211,4,1,0,40,0,0
116180,-116.555902255039,4,1,0,40,0,0
116260,-116.41853754922,4,1,0,40,0,0
116341,-116.280959073068,4,1,0,40,0,0
116422,-116.143167384903,4,1,0,40,0,0
116502,-116.005163048056,4,1,0,40,0,0
116583,-115.866946630863,4,1,0,40,0,0
116663,-115.728518706666,4,1,0,40,0,0
116744,-115.589879853814,4,1,0,40,0,0
116825,-115.451030655661,4,1,0,40,0,0
116905,-115.311971700563,4,1,0,40,0,0
116986,-115.172703581877,4,1,0,40,0,0
117067,-115.033226897961,4,1,0,40,0,0
117147,-114.893542252171,4,1,0,40,0,0
117228,-114.753650252857,4,1,0,40,0,0
117309,-114.613551513365,4,1,0,40,0,0
117389,-114.473246652027,4,1,0,40,0,0
117470,-114.332736292167,4,1,0,40,0,0
117551,-114.192021062091,4,1,0,40,0,0
117631,-114.051101595084,4,1,0,40,0,0
117712,-113.909978529413,4,1,0,40,0,0
117792,-113.768652508315,4,1,0,40,0,0
117873,-113.627124179996,4,1,0,40,0,0
117954,-113.48539419763,4,1,0,40,0,0
118034,-113.343463219348,4,1,0,40,0,0
118115,-113.20133190824,4,1,0,50,0,0
118196,-113.059000932345,4,1,0,50,0,0
118276,-112.916470964647,4,1,0,50,0,0
118357,-112.773742683072,4,1,0,50,0,0
118438,-112.630816770477,4,1,0,50,0,0
118518,-112.48769391465,4,1,0,50,0,0
118599,-112.344374808301,4,1,0,50,0,0
118680,-112.200860149055,4,1,0,50,0,0
118760,-112.057150639445,4,1,0,50,0,0
118841,-111.913246986908,4,1,0,50,0,0
118921,-111.769149903775,4,1,0,50,0,0
119002,-111.624860107265,4,1,0,50,0,0
119083,-111.480378319476,4,1,0,50,0,0
119163,-111.335705267379,4,1,0,50,0,0
119244,-111.190841682808,4,1,0,50,0,0
119325,-111.045788302454,4,1,0,50,0,0
119405,-110.900545867854,4,1,0,50,0,0
119486,-110.755115125384,4,1,0,50,0,0
119567,-110.609496826247,4,1,0,50,0,0
119647,-110.463691726467,4,1,0,50,0,0
119728,-110.317700586881,4,1,0,50,0,0
119809,-110.171524173121,4,1,0,50,0,0
119889,-110.025163255613,4,1,0,50,0,0
119970,-109.878618609563,4,1,0,50,0,0
120050,-109.731891014944,4,1,0,50,0,0
120131,-109.584981256491,4,1,0,50,0,0
120212,-109.437890123684,4,1,0,50,0,0
120292,-109.290618410739,4,1,0,50,0,0
120373,-109.143166916601,4,1,0,50,0,0
120454,-108.995536444923,4,1,0,50,0,0
120534,-108.847727804062,4,1,0,50,0,0
120615,-108.699741807063,4,1,0,50,0,0
120696,-108.551579271647,4,1,0,60,0,0
120776,-108.4032410202,4,1,0,60,0,0
120857,-108.254727879756,4,1,0,60,0,0
120937,-108.106040681989,4,1,0,60,0,0
121018,-107.957180263195,4,1,0,60,0,0
121099,-107.808147464282,4,1,0,60,0,0
121179,-107.658943130751,4,1,0,60,0,0
121260,-107.509568112687,4,1,0,60,0,0
121341,-107.360023264743,4,1,0,60,0,0
121421,-107.210309446123,4,1,0,60,0,0
121502,-107.06042752057,4,1,0,60,0,0
121583,-106.910378356349,4,1,0,60,0,0
121663,-106.760162826232,4,1,0,60,0,0
121744,-106.609781807482,4,1,0,60,0,0
121825,-106.459236181838,4,1,0,60,0,0
121905,-106.308526835499,4,1,0,60,0,0
121986,-106.157654659106,4,1,0,60,0,0
122066,-106.006620547725,4,1,0,60,0,0
122147,-105.855425400834,4,1,0,60,0,0
122228,-105.7040701223,4,1,0,60,0,0
122308,-105.552555620366,4,1,0,60,0,0
122389,-105.400882807634,4,1,0,60,0,0
122470,-105.249052601042,4,1,0,60,0,0
122550,-105.097065921851,4,1,0,60,0,0
122631,-104.944923695624,4,1,0,60,0,0
122712,-104.792626852207,4,1,0,60,0,0
122792,-104.640176325714,4,1,0,60,0,0
122873,-104.487573054502,4,1,0,60,0,0
122954,-104.334817981157,4,1,0,60,0,0
123034,-104.181912052471,4,1,0,60,0,0
123115,-104.028856219424,4,1,0,60,0,0
123195,-103.875651437164,4,1,0,60,0,0
123276,-103.722298664984,4,1,0,70,0,0
123357,-103.568798866305,4,1,0,70,0,0
123437,-103.415153008655,4,1,0,70,0,0
123518,-103.261362063645,4,1,0,70,0,0
123599,-103.107427006951,4,1,0,70,0,0
123679,-102.953348818289,4,1,0,70,0,0
123760,-102.799128481397,4,1,0,70,0,0
123841,-102.644766984013,4,1,0,70,0,0
123921,-102.49026531785,4,1,0,70,0,0
124002,-102.335624478574,4,1,0,70,0,0
124083,-102.180845465783,4,1,0,70,0,0
124163,-102.025929282986,4,1,0,70,0,0
124244,-101.870876937575,4,1,0,70,0,0
124324,-101.715689440805,4,1,0,70,0,0
124405,-101.56036780777,4,1,0,70,0,0
124486,-101.404913057378,4,1,0,70,0,0
124566,-101.249326212331,4,1,0,70,0,0
124647,-101.093608299093,4,1,0,70,0,0
124728,-100.937760347875,4,1,0,70,0,0
124808,-100.781783392604,4,1,0,70,0,0
124889,-100.6256784709,4,1,0,70,0,0
124970,-100.469446624051,4,1,0,70,0,0
125050,-100.313088896987,4,1,0,70,0,0
125131,-100.156606338257,4,1,0,70,0,0
125212,-100,4,1,0,70,0,0
125857,-83.3333333333333,4,1,0,90,0,9
125924,-85.9044434072037,4,1,0,90,0,9
126004,-88.5548807652176,4,1,0,90,0,9
126085,-91.2870929175277,4,1,0,90,0,9
126165,-94.1036028881028,4,1,0,90,0,9
126246,-97.00701154458,4,1,0,90,0,9
126327,-100,4,1,0,90,0,9
126489,-71.4285714285714,4,1,0,90,0,9
126569,-74.358026708821,4,1,0,90,0,9
126649,-77.4076259044162,4,1,0,90,0,9
126730,-80.582296402538,4,1,0,90,0,9
126810,-83.8871676742127,4,1,0,90,0,9
126891,-87.3275795622503,4,1,0,90,0,9
126972,-90.9090909090909,4,1,0,90,0,9
127134,-83.3333333333333,4,1,0,90,0,9
127214,-85.9044434072037,4,1,0,90,0,9
127294,-88.5548807652176,4,1,0,90,0,9
127375,-91.2870929175277,4,1,0,90,0,9
127455,-94.1036028881028,4,1,0,90,0,9
127536,-97.00701154458,4,1,0,90,0,9
127617,-100,4,1,0,90,0,9
127779,-71.4285714285714,4,1,0,90,0,9
127860,-74.358026708821,4,1,0,90,0,9
127939,-77.4076259044162,4,1,0,90,0,9
128020,-80.582296402538,4,1,0,90,0,9
128100,-83.8871676742127,4,1,0,90,0,9
128181,-87.3275795622503,4,1,0,90,0,9
128262,-90.9090909090909,4,1,0,90,0,9
128424,-83.3333333333333,4,1,0,90,0,9
128505,-85.9044434072037,4,1,0,90,0,9
128584,-88.5548807652176,4,1,0,90,0,9
128665,-91.2870929175277,4,1,0,90,0,9
128745,-94.1036028881028,4,1,0,90,0,9
128826,-97.00701154458,4,1,0,90,0,9
128907,-100,4,1,0,90,0,9
129069,-71.4285714285714,4,1,0,90,0,9
129405,-76.9230769230769,4,1,0,90,0,1
130051,-83.3333333333333,4,1,0,90,0,1
130696,-90.9090909090909,4,1,0,90,0,1
131017,-83.3333333333333,4,1,0,90,0,1
131097,-86.095146323813,4,1,0,90,0,1
131178,-88.65635660766,4,1,0,90,0,1
131258,-91.016545486012,4,1,0,90,0,1
131339,-93.178835800399,4,1,0,90,0,1
131420,-95.1492562037448,4,1,0,90,0,1
131500,-96.9361017325424,4,1,0,90,0,1
131581,-98.5493273867628,4,1,0,90,0,1
131662,-83.3333333333333,4,1,0,90,0,1
131742,-86.095146323813,4,1,0,90,0,1
131823,-88.65635660766,4,1,0,90,0,1
131903,-91.016545486012,4,1,0,90,0,1
131984,-93.178835800399,4,1,0,90,0,1
132065,-95.1492562037448,4,1,0,90,0,1
132145,-96.9361017325424,4,1,0,90,0,1
132226,-98.5493273867628,4,1,0,90,0,1
132306,-83.3333333333333,4,1,0,90,0,1
132386,-86.095146323813,4,1,0,90,0,1
132467,-88.65635660766,4,1,0,90,0,1
132547,-91.016545486012,4,1,0,90,0,1
132628,-93.178835800399,4,1,0,90,0,1
132709,-95.1492562037448,4,1,0,90,0,1
132789,-96.9361017325424,4,1,0,90,0,1
132870,-98.5493273867628,4,1,0,90,0,1
132951,-83.3333333333333,4,1,0,90,0,1
133031,-86.095146323813,4,1,0,90,0,1
133112,-88.65635660766,4,1,0,90,0,1
133192,-91.016545486012,4,1,0,90,0,1
133273,-93.178835800399,4,1,0,90,0,1
133354,-95.1492562037448,4,1,0,90,0,1
133434,-96.9361017325424,4,1,0,90,0,1
133515,-98.5493273867628,4,1,0,90,0,1
133596,-83.3333333333333,4,1,0,90,0,1
133676,-86.095146323813,4,1,0,90,0,1
133757,-88.65635660766,4,1,0,90,0,1
133837,-91.016545486012,4,1,0,90,0,1
133918,-93.178835800399,4,1,0,90,0,1
133999,-95.1492562037448,4,1,0,90,0,1
134079,-96.9361017325424,4,1,0,90,0,1
134160,-98.5493273867628,4,1,0,90,0,1
134241,-83.3333333333333,4,1,0,90,0,1
134321,-86.095146323813,4,1,0,90,0,1
134402,-88.65635660766,4,1,0,90,0,1
134482,-91.016545486012,4,1,0,90,0,1
134563,-93.178835800399,4,1,0,90,0,1
134644,-95.1492562037448,4,1,0,90,0,1
134724,-96.9361017325424,4,1,0,90,0,1
134805,-98.5493273867628,4,1,0,90,0,1
134888,-83.3333333333333,4,1,0,90,0,1
134968,-86.095146323813,4,1,0,90,0,1
135049,-88.65635660766,4,1,0,90,0,1
135129,-91.016545486012,4,1,0,90,0,1
135210,-93.178835800399,4,1,0,90,0,1
135291,-95.1492562037448,4,1,0,90,0,1
135371,-96.9361017325424,4,1,0,90,0,1
135452,-98.5493273867628,4,1,0,90,0,1
135534,-100,4,1,0,100,0,1
135696,-96.9361017325424,4,1,0,100,0,1
135776,-95.1492562037448,4,1,0,100,0,1
135857,-93.178835800399,4,1,0,100,0,1
135938,-91.016545486012,4,1,0,100,0,1
136018,-88.65635660766,4,1,0,100,0,1
136180,-83.3333333333333,4,1,0,90,0,8
136257,-85.9044434072037,4,1,0,90,0,8
136337,-88.5548807652176,4,1,0,90,0,8
136418,-91.2870929175277,4,1,0,90,0,8
136498,-94.1036028881028,4,1,0,90,0,8
136579,-97.00701154458,4,1,0,90,0,8
136660,-100,4,1,0,90,0,8
136822,-71.4285714285714,4,1,0,90,0,8
136902,-74.358026708821,4,1,0,90,0,8
136982,-77.4076259044162,4,1,0,90,0,8
137063,-80.582296402538,4,1,0,90,0,8
137143,-83.8871676742127,4,1,0,90,0,8
137224,-87.3275795622503,4,1,0,90,0,8
137305,-90.9090909090909,4,1,0,90,0,8
137467,-83.3333333333333,4,1,0,90,0,8
137547,-85.9044434072037,4,1,0,90,0,8
137627,-88.5548807652176,4,1,0,90,0,8
137708,-91.2870929175277,4,1,0,90,0,8
137788,-94.1036028881028,4,1,0,90,0,8
137869,-97.00701154458,4,1,0,90,0,8
137950,-100,4,1,0,90,0,8
138112,-71.4285714285714,4,1,0,90,0,8
138193,-74.358026708821,4,1,0,90,0,8
138272,-77.4076259044162,4,1,0,90,0,8
138353,-80.582296402538,4,1,0,90,0,8
138433,-83.8871676742127,4,1,0,90,0,8
138514,-87.3275795622503,4,1,0,90,0,8
138595,-90.9090909090909,4,1,0,90,0,8
138757,-83.3333333333333,4,1,0,90,0,8
138838,-85.9044434072037,4,1,0,90,0,8
138917,-88.5548807652176,4,1,0,90,0,8
138998,-91.2870929175277,4,1,0,90,0,8
139078,-94.1036028881028,4,1,0,90,0,8
139159,-97.00701154458,4,1,0,90,0,8
139240,-100,4,1,0,90,0,8
139402,-71.4285714285714,4,1,0,90,0,8
139483,-74.358026708821,4,1,0,90,0,8
139562,-77.4076259044162,4,1,0,90,0,8
139643,-80.582296402538,4,1,0,90,0,8
139723,-83.8871676742127,4,1,0,90,0,8
139804,-87.3275795622503,4,1,0,90,0,8
139885,-90.9090909090909,4,1,0,90,0,8
140047,-83.3333333333333,4,1,0,90,0,8
140289,-92.2234933083601,4,1,0,90,0,8
140531,-102.062072615966,4,1,0,90,0,8
140773,-112.950250451231,4,1,0,90,0,8
141015,-125,4,1,0,90,0,8
141341,-83.3333333333333,4,1,0,90,0,9
141420,-85.9044434072037,4,1,0,90,0,9
141500,-88.5548807652176,4,1,0,90,0,9
141581,-91.2870929175277,4,1,0,90,0,9
141661,-94.1036028881028,4,1,0,90,0,9
141742,-97.00701154458,4,1,0,90,0,9
141823,-100,4,1,0,90,0,9
141985,-71.4285714285714,4,1,0,90,0,9
142065,-74.358026708821,4,1,0,90,0,9
142145,-77.4076259044162,4,1,0,90,0,9
142226,-80.582296402538,4,1,0,90,0,9
142306,-83.8871676742127,4,1,0,90,0,9
142387,-87.3275795622503,4,1,0,90,0,9
142468,-90.9090909090909,4,1,0,90,0,9
142630,-83.3333333333333,4,1,0,90,0,9
142710,-85.9044434072037,4,1,0,90,0,9
142790,-88.5548807652176,4,1,0,90,0,9
142871,-91.2870929175277,4,1,0,90,0,9
142951,-94.1036028881028,4,1,0,90,0,9
143032,-97.00701154458,4,1,0,90,0,9
143113,-100,4,1,0,90,0,9
143275,-71.4285714285714,4,1,0,90,0,9
143356,-74.358026708821,4,1,0,90,0,9
143435,-77.4076259044162,4,1,0,90,0,9
143516,-80.582296402538,4,1,0,90,0,9
143596,-83.8871676742127,4,1,0,90,0,9
143677,-87.3275795622503,4,1,0,90,0,9
143758,-90.9090909090909,4,1,0,90,0,9
143920,-83.3333333333333,4,1,0,90,0,9
144001,-85.9044434072037,4,1,0,90,0,9
144080,-88.5548807652176,4,1,0,90,0,9
144161,-91.2870929175277,4,1,0,90,0,9
144241,-94.1036028881028,4,1,0,90,0,9
144322,-97.00701154458,4,1,0,90,0,9
144403,-100,4,1,0,90,0,9
144565,-71.4285714285714,4,1,0,90,0,9
144646,-74.358026708821,4,1,0,90,0,9
144725,-77.4076259044162,4,1,0,90,0,9
144806,-80.582296402538,4,1,0,90,0,9
144886,-83.8871676742127,4,1,0,90,0,9
144967,-87.3275795622503,4,1,0,90,0,9
145048,-90.9090909090909,4,1,0,90,0,9
145210,-83.3333333333333,4,1,0,90,0,9
145452,-92.2234933083601,4,1,0,90,0,9
145694,-102.062072615966,4,1,0,90,0,9
145936,-112.950250451231,4,1,0,90,0,9
146178,-125,4,1,0,90,0,9
146422,-140.845070422535,4,1,0,90,0,8
146502,-147.058823529412,4,1,0,30,0,0
156180,-111.111111111111,4,1,0,60,0,0
161986,-100,4,1,0,70,0,0
192954,-90.9090909090909,4,1,0,70,0,0
193034,-100,4,1,0,70,0,0
212294,322.58064516129,4,1,0,80,1,0
212294,-111.111111111111,4,1,0,80,0,8
212374,-109.7262670683,4,1,0,80,0,8
212455,-108.358683162696,4,1,0,80,0,8
212535,-107.008144270913,4,1,0,80,0,8
212616,-105.674437950781,4,1,0,80,0,8
212697,-104.357354407919,4,1,0,80,0,8
212777,-103.056686462742,4,1,0,80,0,8
212858,-101.772229517864,4,1,0,80,0,8
212939,-100.503781525921,4,1,0,80,0,8
213019,-99.251142957786,4,1,0,80,0,8
213100,-98.0141167711807,4,1,0,80,0,8
213180,-96.7925083796832,4,1,0,80,0,8
213261,-95.5861256221183,4,1,0,80,0,8
213342,-94.3947787323299,4,1,0,80,0,8
213422,-93.2182803093306,4,1,0,80,0,8
213584,-83.3333333333333,4,1,0,90,0,9
213664,-85.9044434072037,4,1,0,90,0,9
213744,-88.5548807652176,4,1,0,90,0,9
213825,-91.2870929175277,4,1,0,90,0,9
213905,-94.1036028881028,4,1,0,90,0,9
213986,-97.00701154458,4,1,0,90,0,9
214067,-100,4,1,0,90,0,9
214229,-71.4285714285714,4,1,0,90,0,9
214309,-74.358026708821,4,1,0,90,0,9
214389,-77.4076259044162,4,1,0,90,0,9
214470,-80.582296402538,4,1,0,90,0,9
214550,-83.8871676742127,4,1,0,90,0,9
214631,-87.3275795622503,4,1,0,90,0,9
214712,-90.9090909090909,4,1,0,90,0,9
214874,-83.3333333333333,4,1,0,90,0,9
214954,-85.9044434072037,4,1,0,90,0,9
215034,-88.5548807652176,4,1,0,90,0,9
215115,-91.2870929175277,4,1,0,90,0,9
215195,-94.1036028881028,4,1,0,90,0,9
215276,-97.00701154458,4,1,0,90,0,9
215357,-100,4,1,0,90,0,9
215519,-71.4285714285714,4,1,0,90,0,9
215600,-74.358026708821,4,1,0,90,0,9
215679,-77.4076259044162,4,1,0,90,0,9
215760,-80.582296402538,4,1,0,90,0,9
215840,-83.8871676742127,4,1,0,90,0,9
215921,-87.3275795622503,4,1,0,90,0,9
216002,-90.9090909090909,4,1,0,90,0,9
216164,-83.3333333333333,4,1,0,90,0,9
216245,-85.9044434072037,4,1,0,90,0,9
216324,-88.5548807652176,4,1,0,90,0,9
216405,-91.2870929175277,4,1,0,90,0,9
216485,-94.1036028881028,4,1,0,90,0,9
216566,-97.00701154458,4,1,0,90,0,9
216647,-100,4,1,0,90,0,9
216809,-71.4285714285714,4,1,0,90,0,9
216890,-74.358026708821,4,1,0,90,0,9
216969,-77.4076259044162,4,1,0,90,0,9
217050,-80.582296402538,4,1,0,90,0,9
217130,-83.8871676742127,4,1,0,90,0,9
217211,-87.3275795622503,4,1,0,90,0,9
217292,-90.9090909090909,4,1,0,90,0,9
217455,-83.3333333333333,4,1,0,90,0,8
217696,-92.2234933083601,4,1,0,90,0,8
217938,-102.062072615966,4,1,0,90,0,8
218180,-112.950250451231,4,1,0,90,0,8
218422,-125,4,1,0,90,0,8
218745,-83.3333333333333,4,1,0,90,0,9
218825,-85.9044434072037,4,1,0,90,0,9
218905,-88.5548807652176,4,1,0,90,0,9
218986,-91.2870929175277,4,1,0,90,0,9
219066,-94.1036028881028,4,1,0,90,0,9
219147,-97.00701154458,4,1,0,90,0,9
219228,-100,4,1,0,90,0,9
219390,-71.4285714285714,4,1,0,90,0,9
219470,-74.358026708821,4,1,0,90,0,9
219550,-77.4076259044162,4,1,0,90,0,9
219631,-80.582296402538,4,1,0,90,0,9
219711,-83.8871676742127,4,1,0,90,0,9
219792,-87.3275795622503,4,1,0,90,0,9
219873,-90.9090909090909,4,1,0,90,0,9
220035,-83.3333333333333,4,1,0,90,0,9
220116,-85.9044434072037,4,1,0,90,0,9
220195,-88.5548807652176,4,1,0,90,0,9
220276,-91.2870929175277,4,1,0,90,0,9
220356,-94.1036028881028,4,1,0,90,0,9
220437,-97.00701154458,4,1,0,90,0,9
220518,-100,4,1,0,90,0,9
220680,-71.4285714285714,4,1,0,90,0,9
220761,-74.358026708821,4,1,0,90,0,9
220840,-77.4076259044162,4,1,0,90,0,9
220921,-80.582296402538,4,1,0,90,0,9
221001,-83.8871676742127,4,1,0,90,0,9
221082,-87.3275795622503,4,1,0,90,0,9
221163,-90.9090909090909,4,1,0,90,0,9
221325,-83.3333333333333,4,1,0,90,0,9
221406,-85.9044434072037,4,1,0,90,0,9
221485,-88.5548807652176,4,1,0,90,0,9
221566,-91.2870929175277,4,1,0,90,0,9
221646,-94.1036028881028,4,1,0,90,0,9
221727,-97.00701154458,4,1,0,90,0,9
221808,-100,4,1,0,90,0,9
221970,-71.4285714285714,4,1,0,90,0,9
222051,-74.358026708821,4,1,0,90,0,9
222130,-77.4076259044162,4,1,0,90,0,9
222211,-80.582296402538,4,1,0,90,0,9
222291,-83.8871676742127,4,1,0,90,0,9
222372,-87.3275795622503,4,1,0,90,0,9
222453,-90.9090909090909,4,1,0,90,0,9
222616,-83.3333333333333,4,1,0,90,0,8
222857,-92.2234933083601,4,1,0,90,0,8
223099,-102.062072615966,4,1,0,90,0,8
223341,-112.950250451231,4,1,0,90,0,8
223583,-125,4,1,0,90,0,8
223906,-83.3333333333333,4,1,0,90,0,9
223980,-85.9044434072037,4,1,0,90,0,9
224060,-88.5548807652176,4,1,0,90,0,9
224141,-91.2870929175277,4,1,0,90,0,9
224221,-94.1036028881028,4,1,0,90,0,9
224302,-97.00701154458,4,1,0,90,0,9
224383,-100,4,1,0,90,0,9
224545,-71.4285714285714,4,1,0,90,0,9
224625,-74.358026708821,4,1,0,90,0,9
224705,-77.4076259044162,4,1,0,90,0,9
224786,-80.582296402538,4,1,0,90,0,9
224866,-83.8871676742127,4,1,0,90,0,9
224947,-87.3275795622503,4,1,0,90,0,9
225028,-90.9090909090909,4,1,0,90,0,9
225190,-83.3333333333333,4,1,0,90,0,9
225271,-85.9044434072037,4,1,0,90,0,9
225350,-88.5548807652176,4,1,0,90,0,9
225431,-91.2870929175277,4,1,0,90,0,9
225511,-94.1036028881028,4,1,0,90,0,9
225592,-97.00701154458,4,1,0,90,0,9
225673,-100,4,1,0,90,0,9
225835,-71.4285714285714,4,1,0,90,0,9
225916,-74.358026708821,4,1,0,90,0,9
225995,-77.4076259044162,4,1,0,90,0,9
226076,-80.582296402538,4,1,0,90,0,9
226156,-83.8871676742127,4,1,0,90,0,9
226237,-87.3275795622503,4,1,0,90,0,9
226318,-90.9090909090909,4,1,0,90,0,9
226480,-83.3333333333333,4,1,0,90,0,9
226561,-85.9044434072037,4,1,0,90,0,9
226640,-88.5548807652176,4,1,0,90,0,9
226721,-91.2870929175277,4,1,0,90,0,9
226801,-94.1036028881028,4,1,0,90,0,9
226882,-97.00701154458,4,1,0,90,0,9
226963,-100,4,1,0,90,0,9
227125,-71.4285714285714,4,1,0,90,0,9
227206,-74.358026708821,4,1,0,90,0,9
227285,-77.4076259044162,4,1,0,90,0,9
227366,-80.582296402538,4,1,0,90,0,9
227446,-83.8871676742127,4,1,0,90,0,9
227527,-87.3275795622503,4,1,0,90,0,9
227608,-90.9090909090909,4,1,0,90,0,9
227777,-83.3333333333333,4,1,0,90,0,8
228019,-92.2234933083601,4,1,0,90,0,8
228261,-102.062072615966,4,1,0,90,0,8
228503,-112.950250451231,4,1,0,90,0,8
228745,-125,4,1,0,90,0,8
229068,-100,4,1,0,70,0,0
232293,-90.9090909090909,4,1,0,90,0,0
233584,-90.9090909090909,4,1,0,80,0,1
234148,-90.9090909090909,4,1,0,80,0,0

[HitObjects]
229,171,2576,5,0,0:0:0:0:
229,171,2898,1,0,0:0:0:0:
229,171,3221,1,0,0:0:0:0:
229,171,3544,1,0,0:0:0:0:
229,171,3866,1,0,0:0:0:0:
229,171,4189,1,0,0:0:0:0:
229,171,4511,1,0,0:0:0:0:
229,171,4834,1,0,0:0:0:0:
229,171,5156,1,8,0:0:0:0:
229,171,5479,1,8,0:0:0:0:
224,173,5802,1,8,0:0:0:0:
223,174,6124,1,8,0:0:0:0:
218,174,6447,1,8,0:0:0:0:
218,174,6769,1,8,0:0:0:0:
223,174,7092,1,0,0:0:0:0:
218,174,7173,1,0,0:0:0:0:
218,174,7334,1,8,0:0:0:0:
218,174,7415,1,0,0:0:0:0:
218,174,7495,1,0,0:0:0:0:
218,174,7576,1,8,0:0:0:0:
213,177,7737,1,8,0:0:0:0:
213,177,7979,1,8,0:0:0:0:
213,177,8221,1,8,0:0:0:0:
213,177,8382,1,8,0:0:0:0:
213,177,8624,1,8,0:0:0:0:
213,177,8866,1,8,0:0:0:0:
213,177,9027,1,8,0:0:0:0:
213,177,9269,1,8,0:0:0:0:
213,177,9511,1,8,0:0:0:0:
213,177,9673,1,8,0:0:0:0:
222,176,9834,1,0,0:0:0:0:
213,177,9915,1,8,0:0:0:0:
159,206,9995,1,0,0:0:0:0:
213,177,10156,1,8,0:0:0:0:
213,177,10318,1,8,0:0:0:0:
222,175,10479,1,0,0:0:0:0:
213,177,10560,1,8,0:0:0:0:
289,257,10640,1,8,0:0:0:0:
289,257,10721,1,0,0:0:0:0:
213,177,10802,1,8,0:0:0:0:
213,177,10963,1,8,0:0:0:0:
176,193,11124,1,0,0:0:0:0:
213,177,11205,1,8,0:0:0:0:
222,175,11366,1,0,0:0:0:0:
213,177,11447,1,8,0:0:0:0:
213,177,11608,1,8,0:0:0:0:
213,177,11850,1,8,0:0:0:0:
213,177,12092,1,8,0:0:0:0:
213,177,12253,1,8,0:0:0:0:
156,212,12576,1,0,0:0:0:0:
203,184,12898,1,4,0:0:0:0:
201,185,13140,1,0,0:0:0:0:
203,184,13382,1,0,0:0:0:0:
203,190,13544,1,12,0:0:0:0:
148,172,13785,1,8,0:0:0:0:
148,172,14027,1,8,0:0:0:0:
203,184,14189,1,4,0:0:0:0:
201,185,14431,1,0,0:0:0:0:
203,184,14673,1,0,0:0:0:0:
203,190,14834,1,12,0:0:0:0:
148,172,15076,1,8,0:0:0:0:
148,172,15318,1,8,0:0:0:0:
203,184,15479,1,4,0:0:0:0:
201,185,15721,1,0,0:0:0:0:
203,184,15963,1,0,0:0:0:0:
203,190,16124,1,12,0:0:0:0:
148,172,16366,1,8,0:0:0:0:
148,172,16608,1,8,0:0:0:0:
194,171,16769,1,8,0:0:0:0:
194,170,17011,1,8,0:0:0:0:
194,171,17253,1,0,0:0:0:0:
194,171,17495,1,8,0:0:0:0:
189,168,17737,1,0,0:0:0:0:
203,184,18060,1,4,0:0:0:0:
201,185,18302,1,0,0:0:0:0:
203,184,18544,1,0,0:0:0:0:
203,190,18705,1,12,0:0:0:0:
148,172,18947,1,8,0:0:0:0:
148,172,19189,1,8,0:0:0:0:
203,184,19350,1,4,0:0:0:0:
201,185,19592,1,0,0:0:0:0:
203,184,19834,1,0,0:0:0:0:
203,190,19995,1,12,0:0:0:0:
148,172,20237,1,8,0:0:0:0:
148,172,20479,1,8,0:0:0:0:
203,184,20640,1,4,0:0:0:0:
201,185,20882,1,0,0:0:0:0:
203,184,21124,1,0,0:0:0:0:
203,190,21285,1,12,0:0:0:0:
148,172,21527,1,8,0:0:0:0:
148,172,21769,1,8,0:0:0:0:
166,172,21931,1,8,0:0:0:0:
166,172,22173,1,8,0:0:0:0:
166,172,22415,1,0,0:0:0:0:
166,172,22656,1,8,0:0:0:0:
166,172,22898,1,0,0:0:0:0:
203,184,23221,1,4,0:0:0:0:
201,185,23463,1,0,0:0:0:0:
203,184,23705,1,0,0:0:0:0:
203,190,23866,1,12,0:0:0:0:
148,172,24108,1,8,0:0:0:0:
148,172,24350,1,8,0:0:0:0:
203,184,24511,1,4,0:0:0:0:
201,185,24753,1,0,0:0:0:0:
203,184,24995,1,0,0:0:0:0:
203,190,25156,1,12,0:0:0:0:
148,172,25398,1,8,0:0:0:0:
148,172,25640,1,8,0:0:0:0:
203,184,25802,1,4,0:0:0:0:
201,185,26044,1,0,0:0:0:0:
203,184,26285,1,0,0:0:0:0:
203,190,26447,1,12,0:0:0:0:
148,172,26689,1,8,0:0:0:0:
148,172,26931,1,8,0:0:0:0:
166,172,27092,1,8,0:0:0:0:
166,172,27334,1,8,0:0:0:0:
166,172,27576,1,0,0:0:0:0:
166,172,27818,1,8,0:0:0:0:
166,172,28060,1,0,0:0:0:0:
203,184,28382,1,4,0:0:0:0:
201,185,28624,1,0,0:0:0:0:
203,184,28866,1,0,0:0:0:0:
203,190,29027,1,12,0:0:0:0:
148,172,29269,1,8,0:0:0:0:
148,172,29511,1,8,0:0:0:0:
203,184,29673,1,4,0:0:0:0:
201,185,29915,1,0,0:0:0:0:
203,184,30156,1,0,0:0:0:0:
203,190,30318,1,12,0:0:0:0:
148,172,30560,1,8,0:0:0:0:
148,172,30802,1,8,0:0:0:0:
203,184,30963,1,4,0:0:0:0:
201,185,31205,1,0,0:0:0:0:
203,184,31447,1,0,0:0:0:0:
203,190,31608,1,12,0:0:0:0:
162,156,31850,1,12,0:0:0:0:
162,156,32092,1,12,0:0:0:0:
162,156,32253,1,12,0:0:0:0:
162,156,32495,1,12,0:0:0:0:
162,156,32737,1,12,0:0:0:0:
162,156,32898,1,12,0:0:0:0:
161,144,33221,1,0,0:0:0:0:
156,144,33382,1,0,0:0:0:0:
141,200,33544,1,8,0:0:0:0:
146,238,33705,1,0,0:0:0:0:
146,238,33785,1,0,0:0:0:0:
146,238,33866,1,8,0:0:0:0:
146,238,34027,1,0,0:0:0:0:
146,238,34189,1,8,0:0:0:0:
146,238,34511,1,8,0:0:0:0:
146,238,34673,1,8,0:0:0:0:
146,238,34834,1,0,0:0:0:0:
157,246,34995,1,0,0:0:0:0:
158,244,35076,1,0,0:0:0:0:
158,244,35156,1,8,0:0:0:0:
157,246,35318,1,8,0:0:0:0:
181,239,35640,1,0,0:0:0:0:
151,188,35802,1,0,0:0:0:0:
151,188,35963,1,0,0:0:0:0:
158,192,36124,1,8,0:0:0:0:
163,202,36285,1,8,0:0:0:0:
163,202,36366,1,8,0:0:0:0:
163,202,36447,1,0,0:0:0:0:
162,202,36608,1,0,0:0:0:0:
162,203,36769,1,8,0:0:0:0:
164,205,37092,1,8,0:0:0:0:
163,202,37253,1,0,0:0:0:0:
163,202,37415,1,0,0:0:0:0:
162,202,37576,1,0,0:0:0:0:
162,203,37656,1,0,0:0:0:0:
162,203,37737,1,8,0:0:0:0:
164,205,37898,1,8,0:0:0:0:
163,202,38221,1,0,0:0:0:0:
163,202,38382,1,0,0:0:0:0:
162,208,38544,1,0,0:0:0:0:
163,215,38705,1,8,0:0:0:0:
163,214,38866,1,0,0:0:0:0:
163,214,38947,1,0,0:0:0:0:
163,214,39027,1,8,0:0:0:0:
163,214,39189,1,0,0:0:0:0:
163,213,39350,1,8,0:0:0:0:
163,215,39673,1,0,0:0:0:0:
163,214,39834,1,8,0:0:0:0:
163,214,39995,1,0,0:0:0:0:
163,214,40076,1,0,0:0:0:0:
163,214,40156,1,0,0:0:0:0:
163,213,40318,1,0,0:0:0:0:
163,215,40479,1,8,0:0:0:0:
163,214,40802,1,0,0:0:0:0:
163,214,40963,1,8,0:0:0:0:
163,214,41124,1,0,0:0:0:0:
163,217,41285,1,8,0:0:0:0:
157,228,41527,1,0,0:0:0:0:
157,228,41769,1,0,0:0:0:0:
158,228,41931,1,8,0:0:0:0:
159,229,42173,1,8,0:0:0:0:
157,228,42253,1,8,0:0:0:0:
161,230,42415,1,0,0:0:0:0:
196,188,42737,1,0,0:0:0:0:
196,188,42818,1,0,0:0:0:0:
196,188,42898,1,8,0:0:0:0:
196,188,43060,1,0,0:0:0:0:
196,188,43221,1,8,0:0:0:0:
196,188,43382,1,0,0:0:0:0:
196,188,43544,1,8,0:0:0:0:
196,188,43705,1,8,0:0:0:0:
186,202,43866,1,0,0:0:0:0:
186,202,43947,1,0,0:0:0:0:
186,202,44027,1,0,0:0:0:0:
186,202,44108,1,8,0:0:0:0:
185,202,44350,1,0,0:0:0:0:
185,202,44511,1,8,0:0:0:0:
131,201,44835,1,0,0:0:0:0:
131,201,45157,1,0,0:0:0:0:
131,201,45480,1,8,0:0:0:0:
131,201,45722,1,8,0:0:0:0:
131,201,45964,1,8,0:0:0:0:
131,201,46125,1,0,0:0:0:0:
131,201,46447,1,0,0:0:0:0:
131,201,46770,1,8,0:0:0:0:
131,201,47012,1,8,0:0:0:0:
131,201,47254,1,8,0:0:0:0:
131,201,47415,1,0,0:0:0:0:
131,201,47738,1,0,0:0:0:0:
131,201,48060,1,8,0:0:0:0:
236,204,48383,1,0,0:0:0:0:
236,204,48624,1,8,0:0:0:0:
236,204,48705,1,0,0:0:0:0:
209,199,48866,1,0,0:0:0:0:
209,199,49028,1,8,0:0:0:0:
209,199,49270,1,8,0:0:0:0:
209,199,49512,1,8,0:0:0:0:
236,204,49673,1,0,0:0:0:0:
236,204,49915,1,8,0:0:0:0:
236,204,49995,1,0,0:0:0:0:
209,199,50157,1,0,0:0:0:0:
209,199,50318,1,8,0:0:0:0:
209,199,50560,1,8,0:0:0:0:
209,199,50802,1,8,0:0:0:0:
236,204,50963,1,0,0:0:0:0:
236,204,51205,1,8,0:0:0:0:
236,204,51286,1,0,0:0:0:0:
209,199,51447,1,0,0:0:0:0:
209,199,51608,1,8,0:0:0:0:
209,199,51850,1,8,0:0:0:0:
209,199,52092,1,8,0:0:0:0:
166,208,52253,1,8,0:0:0:0:
166,208,52495,1,8,0:0:0:0:
166,208,52737,1,0,0:0:0:0:
166,208,52979,1,8,0:0:0:0:
166,208,53221,1,0,0:0:0:0:
157,231,54189,5,8,0:0:0:0:
157,231,54431,1,8,0:0:0:0:
157,231,54673,1,8,0:0:0:0:
157,231,54834,1,0,0:0:0:0:
157,237,54995,1,0,0:0:0:0:
150,233,55076,1,0,0:0:0:0:
150,233,55157,1,8,0:0:0:0:
157,231,55318,1,8,0:0:0:0:
189,255,55641,1,0,0:0:0:0:
216,153,55802,1,8,0:0:0:0:
216,153,55963,1,8,0:0:0:0:
150,241,56124,1,0,0:0:0:0:
221,204,56286,1,0,0:0:0:0:
221,204,56366,1,0,0:0:0:0:
221,204,56447,1,8,0:0:0:0:
217,207,56608,1,0,0:0:0:0:
217,207,56770,1,8,0:0:0:0:
146,206,57092,1,8,0:0:0:0:
146,206,57253,1,8,0:0:0:0:
157,198,57415,1,0,0:0:0:0:
156,196,57576,1,8,0:0:0:0:
149,195,57657,1,0,0:0:0:0:
149,195,57737,1,0,0:0:0:0:
146,197,57899,1,8,0:0:0:0:
142,197,58221,1,0,0:0:0:0:
142,198,58382,1,0,0:0:0:0:
142,198,58544,1,0,0:0:0:0:
140,199,58705,1,8,0:0:0:0:
139,200,58866,1,0,0:0:0:0:
142,197,58947,1,0,0:0:0:0:
138,201,59028,1,8,0:0:0:0:
136,201,59189,1,0,0:0:0:0:
135,202,59350,1,8,0:0:0:0:
131,205,59673,1,0,0:0:0:0:
129,204,59834,1,8,0:0:0:0:
147,171,59995,1,0,0:0:0:0:
147,171,60157,1,0,0:0:0:0:
146,222,60237,1,0,0:0:0:0:
137,231,60318,1,0,0:0:0:0:
131,233,60479,1,8,0:0:0:0:
171,254,60802,1,0,0:0:0:0:
171,254,60963,1,8,0:0:0:0:
171,254,61124,1,0,0:0:0:0:
163,217,61286,1,8,0:0:0:0:
157,228,61528,1,0,0:0:0:0:
157,228,61770,1,0,0:0:0:0:
158,228,61931,1,8,0:0:0:0:
159,229,62173,1,8,0:0:0:0:
157,228,62253,1,8,0:0:0:0:
161,230,62415,1,0,0:0:0:0:
196,188,62737,1,0,0:0:0:0:
196,188,62818,1,0,0:0:0:0:
196,188,62899,1,8,0:0:0:0:
196,188,63060,1,0,0:0:0:0:
196,188,63221,1,8,0:0:0:0:
196,188,63382,1,0,0:0:0:0:
196,188,63544,1,8,0:0:0:0:
196,188,63705,1,8,0:0:0:0:
186,202,63866,1,0,0:0:0:0:
186,202,63947,1,0,0:0:0:0:
186,202,64028,1,0,0:0:0:0:
186,202,64108,1,8,0:0:0:0:
185,202,64350,1,0,0:0:0:0:
185,202,64512,1,8,0:0:0:0:
186,202,64834,1,0,0:0:0:0:
171,209,65156,1,0,0:0:0:0:
171,209,65479,1,8,0:0:0:0:
171,209,65721,1,8,0:0:0:0:
171,209,65963,1,8,0:0:0:0:
171,209,66124,1,0,0:0:0:0:
171,209,66446,1,0,0:0:0:0:
171,209,66769,1,8,0:0:0:0:
171,209,67011,1,8,0:0:0:0:
171,209,67253,1,8,0:0:0:0:
171,209,67414,1,0,0:0:0:0:
171,209,67737,1,0,0:0:0:0:
171,209,68059,1,8,0:0:0:0:
186,202,68382,1,4,0:0:0:0:
178,166,68543,1,8,0:0:0:0:
178,166,68623,1,0,0:0:0:0:
171,209,68785,1,8,0:0:0:0:
221,183,68865,1,0,0:0:0:0:
171,209,69027,1,8,0:0:0:0:
171,209,69269,1,8,0:0:0:0:
171,209,69511,1,8,0:0:0:0:
171,209,69672,1,0,0:0:0:0:
221,183,69833,1,8,0:0:0:0:
205,172,69914,1,0,0:0:0:0:
205,172,70075,1,8,0:0:0:0:
204,172,70156,1,0,0:0:0:0:
171,209,70317,1,8,0:0:0:0:
171,209,70559,1,8,0:0:0:0:
202,315,70720,1,8,0:0:0:0:
171,209,70801,1,8,0:0:0:0:
232,311,70882,1,8,0:0:0:0:
171,209,70962,1,0,0:0:0:0:
213,305,71285,1,0,0:0:0:0:
213,305,71365,1,0,0:0:0:0:
213,305,71446,1,0,0:0:0:0:
213,305,71607,1,8,0:0:0:0:
213,305,71930,1,0,0:0:0:0:
213,305,72091,1,0,0:0:0:0:
213,305,72252,1,8,0:0:0:0:
213,305,72575,1,0,0:0:0:0:
213,305,72898,1,8,0:0:0:0:
213,305,73059,1,8,0:0:0:0:
232,161,73140,1,8,0:0:0:0:
213,305,73220,1,0,0:0:0:0:
213,305,73382,1,0,0:0:0:0:
171,209,73543,1,0,0:0:0:0:
213,305,73865,1,0,0:0:0:0:
213,305,73946,1,0,0:0:0:0:
213,305,74027,1,8,0:0:0:0:
213,305,74188,1,8,0:0:0:0:
213,305,74511,1,0,0:0:0:0:
213,305,74672,1,0,0:0:0:0:
213,305,74833,1,8,0:0:0:0:
213,305,75156,1,0,0:0:0:0:
213,305,75478,1,8,0:0:0:0:
232,161,75559,1,8,0:0:0:0:
213,305,75640,1,8,0:0:0:0:
213,305,75801,1,0,0:0:0:0:
213,305,75962,1,0,0:0:0:0:
171,209,76123,1,0,0:0:0:0:
213,305,76446,1,0,0:0:0:0:
213,305,76527,1,8,0:0:0:0:
213,305,76607,1,8,0:0:0:0:
213,305,76769,1,8,0:0:0:0:
213,305,77091,1,0,0:0:0:0:
213,305,77252,1,0,0:0:0:0:
213,305,77414,1,8,0:0:0:0:
213,305,77736,1,0,0:0:0:0:
213,305,78059,1,8,0:0:0:0:
231,161,78140,1,0,0:0:0:0:
213,305,78220,1,8,0:0:0:0:
213,305,78381,1,0,0:0:0:0:
213,305,78543,1,0,0:0:0:0:
171,209,78704,1,0,0:0:0:0:
213,305,79027,1,8,0:0:0:0:
213,305,79107,1,8,0:0:0:0:
213,305,79188,1,8,0:0:0:0:
213,305,79349,1,8,0:0:0:0:
213,305,79672,1,0,0:0:0:0:
213,305,79833,1,0,0:0:0:0:
213,305,79994,1,8,0:0:0:0:
213,305,80317,1,0,0:0:0:0:
213,305,80640,1,8,0:0:0:0:
206,154,80720,1,0,0:0:0:0:
213,305,80801,1,8,0:0:0:0:
213,305,80962,1,0,0:0:0:0:
206,154,81043,1,8,0:0:0:0:
213,305,81123,1,0,0:0:0:0:
217,154,81285,1,0,0:0:0:0:
336,242,81446,1,0,0:0:0:0:
213,159,81527,1,8,0:0:0:0:
212,160,81688,1,8,0:0:0:0:
182,161,81930,1,8,0:0:0:0:
188,160,82091,1,8,0:0:0:0:
188,160,82172,1,8,0:0:0:0:
188,160,82333,1,8,0:0:0:0:
188,160,82575,1,0,0:0:0:0:
188,160,82736,1,0,0:0:0:0:
428,213,82817,1,0,0:0:0:0:
428,213,82978,1,8,0:0:0:0:
428,213,83220,1,0,0:0:0:0:
412,215,83381,1,0,0:0:0:0:
412,215,83462,1,8,0:0:0:0:
404,214,83623,1,8,0:0:0:0:
401,218,83865,1,12,0:0:0:0:
396,218,84107,1,12,0:0:0:0:
400,219,84349,1,12,0:0:0:0:
401,219,84511,1,8,0:0:0:0:
401,218,84833,1,0,0:0:0:0:
203,184,85156,1,4,0:0:0:0:
201,185,85398,1,0,0:0:0:0:
203,184,85640,1,0,0:0:0:0:
203,190,85801,1,12,0:0:0:0:
148,172,86043,1,8,0:0:0:0:
148,172,86285,1,8,0:0:0:0:
203,184,86446,1,4,0:0:0:0:
201,185,86688,1,0,0:0:0:0:
203,184,86930,1,0,0:0:0:0:
203,190,87091,1,12,0:0:0:0:
148,172,87333,1,8,0:0:0:0:
148,172,87575,1,8,0:0:0:0:
203,184,87736,1,4,0:0:0:0:
201,185,87978,1,0,0:0:0:0:
203,184,88220,1,0,0:0:0:0:
203,190,88381,1,12,0:0:0:0:
148,172,88623,1,8,0:0:0:0:
148,172,88865,1,8,0:0:0:0:
194,171,89027,1,8,0:0:0:0:
194,170,89269,1,8,0:0:0:0:
194,171,89511,1,0,0:0:0:0:
194,171,89752,1,8,0:0:0:0:
189,168,89994,1,0,0:0:0:0:
203,184,90317,1,4,0:0:0:0:
201,185,90559,1,0,0:0:0:0:
203,184,90801,1,0,0:0:0:0:
203,190,90962,1,12,0:0:0:0:
148,172,91204,1,8,0:0:0:0:
148,172,91446,1,8,0:0:0:0:
203,184,91607,1,4,0:0:0:0:
201,185,91849,1,0,0:0:0:0:
203,184,92091,1,0,0:0:0:0:
203,190,92252,1,12,0:0:0:0:
148,172,92494,1,8,0:0:0:0:
148,172,92736,1,8,0:0:0:0:
203,184,92898,1,4,0:0:0:0:
201,185,93140,1,0,0:0:0:0:
203,184,93381,1,0,0:0:0:0:
203,190,93543,1,12,0:0:0:0:
148,172,93785,1,8,0:0:0:0:
148,172,94027,1,8,0:0:0:0:
166,172,94188,1,8,0:0:0:0:
166,172,94430,1,8,0:0:0:0:
166,172,94672,1,0,0:0:0:0:
166,172,94914,1,8,0:0:0:0:
166,172,95156,1,0,0:0:0:0:
235,204,95398,1,12,0:0:0:0:
184,197,96769,1,0,0:0:0:0:
184,197,97091,1,0,0:0:0:0:
184,197,97414,1,0,0:0:0:0:
184,197,97736,1,0,0:0:0:0:
191,193,98059,1,0,0:0:0:0:
191,192,98381,1,0,0:0:0:0:
191,192,98704,1,0,0:0:0:0:
191,192,99027,1,0,0:0:0:0:
191,192,99349,1,0,0:0:0:0:
191,192,99672,1,0,0:0:0:0:
191,192,99994,1,0,0:0:0:0:
138,145,100156,1,8,0:0:0:0:
138,145,100236,1,0,0:0:0:0:
138,145,100317,1,8,0:0:0:0:
138,145,100398,1,8,0:0:0:0:
138,145,100478,1,0,0:0:0:0:
138,145,100640,1,12,0:0:0:0:
116,132,100801,1,0,0:0:0:0:
116,132,100881,1,0,0:0:0:0:
116,132,100962,1,8,0:0:0:0:
116,132,101123,1,8,0:0:0:0:
116,132,101285,1,0,0:0:0:0:
161,147,101607,1,0,0:0:0:0:
136,151,101769,1,8,0:0:0:0:
155,147,101930,1,0,0:0:0:0:
155,147,102011,1,0,0:0:0:0:
155,147,102091,1,0,0:0:0:0:
151,144,102252,1,0,0:0:0:0:
149,145,102414,1,8,0:0:0:0:
163,214,102736,1,0,0:0:0:0:
163,214,102898,1,8,0:0:0:0:
163,214,103059,1,0,0:0:0:0:
163,217,103220,1,8,0:0:0:0:
157,228,103462,1,0,0:0:0:0:
157,228,103704,1,0,0:0:0:0:
158,228,103865,1,8,0:0:0:0:
159,229,104107,1,8,0:0:0:0:
157,228,104188,1,8,0:0:0:0:
161,230,104349,1,0,0:0:0:0:
196,188,104672,1,0,0:0:0:0:
196,188,104752,1,0,0:0:0:0:
196,188,104833,1,8,0:0:0:0:
196,188,104994,1,0,0:0:0:0:
196,188,105156,1,8,0:0:0:0:
196,188,105317,1,0,0:0:0:0:
196,188,105478,1,8,0:0:0:0:
196,188,105640,1,8,0:0:0:0:
186,202,105801,1,0,0:0:0:0:
186,202,105881,1,0,0:0:0:0:
186,202,105962,1,0,0:0:0:0:
186,202,106043,1,8,0:0:0:0:
185,202,106285,1,0,0:0:0:0:
185,202,106446,1,8,0:0:0:0:
131,201,106769,1,0,0:0:0:0:
131,201,107091,1,0,0:0:0:0:
131,201,107414,1,8,0:0:0:0:
131,201,107656,1,8,0:0:0:0:
131,201,107898,1,8,0:0:0:0:
131,201,108059,1,0,0:0:0:0:
131,201,108381,1,0,0:0:0:0:
131,201,108704,1,8,0:0:0:0:
131,201,108946,1,8,0:0:0:0:
131,201,109188,1,8,0:0:0:0:
131,201,109349,1,0,0:0:0:0:
131,201,109672,1,0,0:0:0:0:
131,201,109994,1,8,0:0:0:0:
236,204,110317,1,0,0:0:0:0:
150,174,110962,1,8,0:0:0:0:
150,174,111607,1,0,0:0:0:0:
150,174,112252,1,8,0:0:0:0:
155,175,112897,1,0,0:0:0:0:
155,175,113542,1,8,0:0:0:0:
155,175,114187,1,8,0:0:0:0:
155,175,114438,1,8,0:0:0:0:
155,175,114689,1,0,0:0:0:0:
155,175,114941,1,8,0:0:0:0:
155,175,115192,1,0,0:0:0:0:
181,186,115535,1,12,0:0:0:0:
192,217,115857,1,0,0:0:0:0:
181,186,116018,1,0,0:0:0:0:
181,186,116180,1,8,0:0:0:0:
181,186,116502,1,0,0:0:0:0:
192,217,116664,1,8,0:0:0:0:
181,186,116825,1,8,0:0:0:0:
200,209,117147,1,0,0:0:0:0:
252,202,117470,1,8,0:0:0:0:
252,202,117631,1,8,0:0:0:0:
252,202,117793,1,0,0:0:0:0:
252,202,117954,1,8,0:0:0:0:
252,202,118115,1,0,0:0:0:0:
200,211,118438,1,0,0:0:0:0:
252,202,118599,1,0,0:0:0:0:
203,138,118680,1,0,0:0:0:0:
252,202,118760,1,8,0:0:0:0:
252,202,119083,1,0,0:0:0:0:
252,202,119244,1,0,0:0:0:0:
252,202,119405,1,8,0:0:0:0:
200,211,119728,1,0,0:0:0:0:
252,202,120051,1,8,0:0:0:0:
252,202,120212,1,8,0:0:0:0:
252,202,120373,1,0,0:0:0:0:
252,202,120535,1,8,0:0:0:0:
252,202,120696,1,0,0:0:0:0:
252,202,120857,1,0,0:0:0:0:
252,202,120938,1,0,0:0:0:0:
252,202,121018,1,0,0:0:0:0:
252,202,121180,1,0,0:0:0:0:
252,202,121341,1,8,0:0:0:0:
252,202,121664,1,0,0:0:0:0:
252,202,121825,1,0,0:0:0:0:
252,202,121986,1,8,0:0:0:0:
277,230,122147,1,0,0:0:0:0:
278,147,122309,1,0,0:0:0:0:
178,177,122470,1,0,0:0:0:0:
278,147,122631,1,8,0:0:0:0:
278,147,122793,1,0,0:0:0:0:
278,147,122873,1,0,0:0:0:0:
278,147,122954,1,8,0:0:0:0:
278,147,123115,1,8,0:0:0:0:
278,147,123276,1,0,0:0:0:0:
278,147,123599,1,8,0:0:0:0:
278,147,123760,1,8,0:0:0:0:
278,147,123841,1,8,0:0:0:0:
278,147,123922,1,0,0:0:0:0:
278,147,124083,1,0,0:0:0:0:
278,147,124244,1,8,0:0:0:0:
278,147,124405,1,0,0:0:0:0:
133,122,124486,1,0,0:0:0:0:
184,147,124567,1,8,0:0:0:0:
188,221,124889,1,0,0:0:0:0:
200,225,125051,1,0,0:0:0:0:
278,147,125212,1,8,0:0:0:0:
278,147,125454,1,8,0:0:0:0:
268,126,125534,1,8,0:0:0:0:
278,147,125696,1,8,0:0:0:0:
203,184,125857,1,4,0:0:0:0:
232,210,126018,1,0,0:0:0:0:
201,185,126099,1,0,0:0:0:0:
95,230,126260,1,0,0:0:0:0:
203,184,126341,1,0,0:0:0:0:
203,190,126502,1,12,0:0:0:0:
232,210,126664,1,8,0:0:0:0:
148,172,126744,1,8,0:0:0:0:
231,227,126905,1,8,0:0:0:0:
148,172,126986,1,8,0:0:0:0:
203,184,127147,1,4,0:0:0:0:
232,210,127309,1,0,0:0:0:0:
201,185,127389,1,0,0:0:0:0:
160,171,127551,1,0,0:0:0:0:
203,184,127631,1,0,0:0:0:0:
203,190,127793,1,12,0:0:0:0:
233,231,127954,1,8,0:0:0:0:
148,172,128034,1,8,0:0:0:0:
233,231,128196,1,8,0:0:0:0:
148,172,128276,1,8,0:0:0:0:
203,184,128438,1,4,0:0:0:0:
233,231,128599,1,0,0:0:0:0:
201,185,128680,1,0,0:0:0:0:
160,171,128841,1,0,0:0:0:0:
203,184,128922,1,0,0:0:0:0:
203,190,129083,1,12,0:0:0:0:
150,145,129405,1,8,0:0:0:0:
165,149,129567,1,8,0:0:0:0:
150,145,129647,1,0,0:0:0:0:
165,149,129728,1,0,0:0:0:0:
150,145,130051,1,8,0:0:0:0:
162,132,130212,1,0,0:0:0:0:
150,145,130293,1,0,0:0:0:0:
165,149,130373,1,0,0:0:0:0:
171,142,130696,1,0,0:0:0:0:
168,142,130857,1,8,0:0:0:0:
203,184,131018,1,4,0:0:0:0:
171,169,131180,1,0,0:0:0:0:
201,185,131260,1,0,0:0:0:0:
160,171,131422,1,0,0:0:0:0:
203,184,131502,1,0,0:0:0:0:
203,190,131664,1,12,0:0:0:0:
167,167,131825,1,8,0:0:0:0:
148,172,131905,1,8,0:0:0:0:
166,168,132067,1,8,0:0:0:0:
148,172,132147,1,8,0:0:0:0:
203,184,132309,1,4,0:0:0:0:
167,167,132470,1,0,0:0:0:0:
201,185,132551,1,0,0:0:0:0:
159,171,132712,1,0,0:0:0:0:
203,184,132793,1,0,0:0:0:0:
203,190,132954,1,12,0:0:0:0:
164,170,133115,1,8,0:0:0:0:
148,172,133196,1,8,0:0:0:0:
155,167,133357,1,8,0:0:0:0:
167,167,133438,1,8,0:0:0:0:
203,184,133599,1,4,0:0:0:0:
143,174,133760,1,0,0:0:0:0:
152,166,133841,1,0,0:0:0:0:
150,178,134002,1,0,0:0:0:0:
143,174,134083,1,0,0:0:0:0:
203,190,134244,1,12,0:0:0:0:
149,166,134405,1,8,0:0:0:0:
148,172,134486,1,8,0:0:0:0:
152,166,134647,1,8,0:0:0:0:
148,172,134728,1,8,0:0:0:0:
166,172,134889,1,4,0:0:0:0:
166,172,135212,1,0,0:0:0:0:
256,173,135534,1,12,0:0:0:0:
180,171,135696,1,0,0:0:0:0:
180,171,135776,1,0,0:0:0:0:
179,171,135857,1,8,0:0:0:0:
179,171,135938,1,0,0:0:0:0:
177,171,136018,1,0,0:0:0:0:
203,184,136180,1,4,0:0:0:0:
201,185,136422,1,0,0:0:0:0:
203,184,136664,1,0,0:0:0:0:
203,190,136825,1,12,0:0:0:0:
148,172,137067,1,8,0:0:0:0:
148,172,137309,1,8,0:0:0:0:
203,184,137470,1,4,0:0:0:0:
201,185,137712,1,0,0:0:0:0:
203,184,137954,1,0,0:0:0:0:
203,190,138115,1,12,0:0:0:0:
148,172,138357,1,8,0:0:0:0:
148,172,138599,1,8,0:0:0:0:
203,184,138760,1,4,0:0:0:0:
201,185,139002,1,0,0:0:0:0:
203,184,139244,1,0,0:0:0:0:
203,190,139405,1,12,0:0:0:0:
148,172,139647,1,8,0:0:0:0:
148,172,139889,1,8,0:0:0:0:
166,172,140051,1,8,0:0:0:0:
166,172,140293,1,8,0:0:0:0:
166,172,140534,1,0,0:0:0:0:
166,172,140776,1,8,0:0:0:0:
166,172,141018,1,0,0:0:0:0:
203,184,141341,1,4,0:0:0:0:
218,170,141502,1,8,0:0:0:0:
201,185,141583,1,8,0:0:0:0:
142,170,141744,1,0,0:0:0:0:
203,184,141825,1,0,0:0:0:0:
203,190,141986,1,12,0:0:0:0:
216,173,142147,1,0,0:0:0:0:
148,172,142228,1,0,0:0:0:0:
218,170,142389,1,8,0:0:0:0:
148,172,142470,1,8,0:0:0:0:
203,184,142631,1,4,0:0:0:0:
213,173,142793,1,8,0:0:0:0:
201,185,142873,1,8,0:0:0:0:
142,170,143034,1,0,0:0:0:0:
203,184,143115,1,0,0:0:0:0:
203,190,143276,1,12,0:0:0:0:
213,173,143438,1,0,0:0:0:0:
148,172,143518,1,0,0:0:0:0:
213,173,143680,1,8,0:0:0:0:
148,172,143760,1,8,0:0:0:0:
203,184,143922,1,4,0:0:0:0:
209,173,144083,1,8,0:0:0:0:
201,185,144164,1,8,0:0:0:0:
142,170,144325,1,0,0:0:0:0:
203,184,144405,1,0,0:0:0:0:
203,190,144567,1,12,0:0:0:0:
213,173,144728,1,0,0:0:0:0:
162,156,144809,1,0,0:0:0:0:
209,173,144970,1,8,0:0:0:0:
162,156,145051,1,8,0:0:0:0:
171,163,145212,1,8,0:0:0:0:
171,163,145454,1,8,0:0:0:0:
171,163,145696,1,0,0:0:0:0:
171,163,145938,1,8,0:0:0:0:
171,163,146180,1,0,0:0:0:0:
212,162,146422,1,12,0:0:0:0:
286,131,156180,5,0,0:0:0:0:
168,137,156502,1,0,0:0:0:0:
168,137,156825,1,0,0:0:0:0:
168,137,157147,1,0,0:0:0:0:
168,137,157470,1,0,0:0:0:0:
168,137,157793,1,0,0:0:0:0:
168,137,158115,1,0,0:0:0:0:
168,137,158438,1,0,0:0:0:0:
168,137,158760,1,0,0:0:0:0:
168,137,159083,1,0,0:0:0:0:
168,137,159405,1,0,0:0:0:0:
168,137,159728,1,0,0:0:0:0:
168,137,160051,1,0,0:0:0:0:
168,137,160373,1,0,0:0:0:0:
168,137,160696,1,0,0:0:0:0:
168,137,161018,1,0,0:0:0:0:
168,137,161341,1,0,0:0:0:0:
168,137,161664,1,0,0:0:0:0:
166,193,161986,1,8,0:0:0:0:
173,194,162147,1,0,0:0:0:0:
173,194,162228,1,0,0:0:0:0:
173,194,162309,1,8,0:0:0:0:
173,194,162470,1,0,0:0:0:0:
173,194,162631,1,8,0:0:0:0:
163,178,162954,1,8,0:0:0:0:
163,178,163034,1,0,0:0:0:0:
163,178,163115,1,0,0:0:0:0:
166,193,163276,1,8,0:0:0:0:
173,194,163438,1,0,0:0:0:0:
173,194,163518,1,0,0:0:0:0:
173,194,163599,1,8,0:0:0:0:
173,194,163760,1,0,0:0:0:0:
173,194,163922,1,8,0:0:0:0:
163,178,164244,1,8,0:0:0:0:
163,178,164325,1,8,0:0:0:0:
163,178,164405,1,0,0:0:0:0:
166,193,164567,1,8,0:0:0:0:
173,194,164728,1,0,0:0:0:0:
173,194,164809,1,0,0:0:0:0:
173,194,164889,1,8,0:0:0:0:
173,194,165051,1,0,0:0:0:0:
173,194,165212,1,8,0:0:0:0:
163,178,165534,1,8,0:0:0:0:
163,178,165615,1,0,0:0:0:0:
163,178,165696,1,0,0:0:0:0:
166,193,165857,1,8,0:0:0:0:
173,194,166018,1,0,0:0:0:0:
173,194,166099,1,0,0:0:0:0:
173,194,166180,1,8,0:0:0:0:
173,194,166341,1,0,0:0:0:0:
173,194,166502,1,8,0:0:0:0:
163,178,166825,1,8,0:0:0:0:
163,178,166905,1,8,0:0:0:0:
163,178,166986,1,0,0:0:0:0:
166,193,167147,1,8,0:0:0:0:
173,194,167309,1,0,0:0:0:0:
173,194,167389,1,0,0:0:0:0:
173,194,167470,1,8,0:0:0:0:
173,194,167631,1,0,0:0:0:0:
173,194,167793,1,8,0:0:0:0:
188,194,168115,5,8,0:0:0:0:
188,194,168196,1,8,0:0:0:0:
188,194,168276,1,8,0:0:0:0:
188,194,168357,1,8,0:0:0:0:
188,194,168438,1,0,0:0:0:0:
182,190,168599,5,8,0:0:0:0:
175,192,168680,1,8,0:0:0:0:
181,187,168760,1,0,0:0:0:0:
181,187,168922,1,8,0:0:0:0:
181,187,169002,1,0,0:0:0:0:
150,278,169164,1,8,0:0:0:0:
150,278,169244,1,8,0:0:0:0:
150,278,169325,1,0,0:0:0:0:
150,278,169486,5,8,0:0:0:0:
150,278,169567,1,0,0:0:0:0:
186,283,169728,1,0,0:0:0:0:
173,279,169809,1,0,0:0:0:0:
173,280,169889,1,8,0:0:0:0:
173,280,169970,1,0,0:0:0:0:
256,146,170051,1,0,0:0:0:0:
256,146,170212,1,8,0:0:0:0:
256,146,170373,5,0,0:0:0:0:
256,146,170454,1,0,0:0:0:0:
256,146,170534,1,8,0:0:0:0:
256,146,170615,1,8,0:0:0:0:
253,150,170696,1,0,0:0:0:0:
170,172,170857,1,8,0:0:0:0:
170,172,170938,1,8,0:0:0:0:
170,172,171018,1,8,0:0:0:0:
147,139,171260,5,8,0:0:0:0:
147,139,171341,1,8,0:0:0:0:
147,139,171422,1,0,0:0:0:0:
147,139,171502,1,0,0:0:0:0:
139,139,171664,1,0,0:0:0:0:
138,139,171744,1,8,0:0:0:0:
138,139,171825,1,8,0:0:0:0:
136,142,171986,1,8,0:0:0:0:
136,142,172067,1,8,0:0:0:0:
136,142,172147,1,0,0:0:0:0:
136,171,172309,1,0,0:0:0:0:
136,171,172389,1,0,0:0:0:0:
131,170,172470,1,8,0:0:0:0:
130,170,172631,1,0,0:0:0:0:
116,162,172712,1,0,0:0:0:0:
116,162,172793,1,8,0:0:0:0:
117,162,172873,1,8,0:0:0:0:
118,161,172954,1,0,0:0:0:0:
118,161,173115,1,8,0:0:0:0:
118,161,173196,1,8,0:0:0:0:
119,160,173276,1,0,0:0:0:0:
119,162,173438,1,8,0:0:0:0:
119,163,173518,1,8,0:0:0:0:
116,174,173599,1,8,0:0:0:0:
149,138,173760,5,8,0:0:0:0:
149,138,173841,1,0,0:0:0:0:
148,122,174567,5,0,0:0:0:0:
148,122,174647,1,8,0:0:0:0:
147,122,174728,1,8,0:0:0:0:
148,122,174889,1,0,0:0:0:0:
148,122,174970,1,8,0:0:0:0:
148,122,175051,1,8,0:0:0:0:
148,122,175131,1,8,0:0:0:0:
186,138,175212,1,0,0:0:0:0:
186,138,175373,5,0,0:0:0:0:
186,138,175454,1,8,0:0:0:0:
186,138,175615,1,0,0:0:0:0:
186,138,175696,1,8,0:0:0:0:
186,138,175776,1,0,0:0:0:0:
186,138,175857,1,8,0:0:0:0:
186,138,176018,5,0,0:0:0:0:
186,138,176099,1,8,0:0:0:0:
186,138,176180,1,0,0:0:0:0:
217,155,176341,5,8,0:0:0:0:
217,155,176422,1,8,0:0:0:0:
217,155,176502,1,0,0:0:0:0:
217,155,176664,1,0,0:0:0:0:
217,155,176744,1,0,0:0:0:0:
217,155,176825,1,8,0:0:0:0:
217,155,176905,1,0,0:0:0:0:
160,169,177147,1,0,0:0:0:0:
156,172,177201,1,0,0:0:0:0:
155,173,177255,1,8,0:0:0:0:
182,259,178276,1,8,0:0:0:0:
131,149,178438,5,0,0:0:0:0:
131,149,178545,1,0,0:0:0:0:
215,147,178653,1,8,0:0:0:0:
215,147,178814,1,8,0:0:0:0:
173,260,178922,1,8,0:0:0:0:
176,261,179083,1,0,0:0:0:0:
171,260,179244,1,0,0:0:0:0:
173,260,179405,1,0,0:0:0:0:
173,260,179513,1,8,0:0:0:0:
173,260,179728,1,8,0:0:0:0:
173,260,179836,1,0,0:0:0:0:
168,260,180051,1,8,0:0:0:0:
171,260,180212,1,0,0:0:0:0:
173,260,180427,1,8,0:0:0:0:
259,196,180696,1,8,0:0:0:0:
259,196,180776,1,8,0:0:0:0:
259,196,180857,1,0,0:0:0:0:
311,205,180938,1,0,0:0:0:0:
374,274,181879,5,0,0:0:0:0:
114,254,181986,1,8,0:0:0:0:
114,254,182147,1,0,0:0:0:0:
114,254,182282,1,8,0:0:0:0:
78,187,182443,1,8,0:0:0:0:
78,187,182578,1,8,0:0:0:0:
317,192,182739,1,8,0:0:0:0:
317,192,182900,1,0,0:0:0:0:
303,185,183115,1,0,0:0:0:0:
303,185,183276,1,8,0:0:0:0:
302,185,183438,1,8,0:0:0:0:
302,185,183653,1,0,0:0:0:0:
297,185,183841,5,0,0:0:0:0:
236,120,184728,5,0,0:0:0:0:
236,120,185212,5,8,0:0:0:0:
218,134,186180,1,8,0:0:0:0:
223,163,186395,1,0,0:0:0:0:
233,126,186717,1,8,0:0:0:0:
233,126,186932,1,0,0:0:0:0:
53,150,187147,1,0,0:0:0:0:
277,191,187470,1,8,0:0:0:0:
277,191,187685,1,8,0:0:0:0:
115,112,187927,1,8,0:0:0:0:
256,183,188115,1,0,0:0:0:0:
256,183,188276,1,0,0:0:0:0:
253,183,188491,1,8,0:0:0:0:
327,158,188760,1,0,0:0:0:0:
203,99,188922,1,0,0:0:0:0:
136,154,189083,1,0,0:0:0:0:
136,154,189244,1,0,0:0:0:0:
136,154,189486,1,8,0:0:0:0:
167,142,190051,1,8,0:0:0:0:
167,142,190266,1,0,0:0:0:0:
158,129,190481,1,8,0:0:0:0:
390,219,190857,1,0,0:0:0:0:
174,156,191099,1,8,0:0:0:0:
359,214,191341,1,8,0:0:0:0:
351,212,191664,1,0,0:0:0:0:
347,210,191905,1,8,0:0:0:0:
327,171,192121,1,8,0:0:0:0:
191,183,192309,1,0,0:0:0:0:
191,183,192551,1,8,0:0:0:0:
191,183,192793,1,0,0:0:0:0:
285,230,192954,1,12,0:0:0:0:
320,161,193787,1,0,0:0:0:0:
320,161,193922,1,0,0:0:0:0:
320,161,194083,1,8,0:0:0:0:
162,201,194889,1,8,0:0:0:0:
162,201,195051,1,0,0:0:0:0:
162,201,195185,1,0,0:0:0:0:
162,201,195373,1,8,0:0:0:0:
250,166,195696,1,0,0:0:0:0:
233,155,195803,1,0,0:0:0:0:
231,155,196045,1,8,0:0:0:0:
247,153,196260,1,8,0:0:0:0:
247,153,196422,1,8,0:0:0:0:
238,190,196825,1,8,0:0:0:0:
238,190,197147,1,0,0:0:0:0:
231,187,197389,1,8,0:0:0:0:
231,186,197631,1,8,0:0:0:0:
224,187,197954,1,0,0:0:0:0:
162,111,198545,1,0,0:0:0:0:
162,111,198707,1,8,0:0:0:0:
162,111,198895,1,8,0:0:0:0:
213,228,199298,1,0,0:0:0:0:
213,228,199647,1,8,0:0:0:0:
213,228,199943,1,8,0:0:0:0:
213,228,200266,1,0,0:0:0:0:
213,228,200696,1,0,0:0:0:0:
269,194,201314,1,0,0:0:0:0:
269,194,201475,1,8,0:0:0:0:
269,194,201637,1,8,0:0:0:0:
269,194,201798,1,0,0:0:0:0:
162,190,202309,1,0,0:0:0:0:
162,190,202551,1,8,0:0:0:0:
162,190,202739,1,8,0:0:0:0:
162,190,202954,1,0,0:0:0:0:
158,185,203276,1,0,0:0:0:0:
102,158,203599,1,0,0:0:0:0:
157,183,203868,1,0,0:0:0:0:
138,187,204029,1,8,0:0:0:0:
131,187,204190,1,8,0:0:0:0:
224,159,204513,1,8,0:0:0:0:
181,159,204836,1,8,0:0:0:0:
181,159,205051,1,8,0:0:0:0:
181,159,205212,1,0,0:0:0:0:
225,207,205857,1,8,0:0:0:0:
225,207,206018,1,0,0:0:0:0:
225,207,206180,1,0,0:0:0:0:
227,193,206502,1,8,0:0:0:0:
227,199,206717,1,0,0:0:0:0:
169,183,206986,1,0,0:0:0:0:
169,183,207201,1,8,0:0:0:0:
153,176,207470,1,8,0:0:0:0:
153,176,207739,1,0,0:0:0:0:
153,176,207900,1,0,0:0:0:0:
195,196,208115,1,8,0:0:0:0:
193,190,208438,1,0,0:0:0:0:
195,187,208680,1,0,0:0:0:0:
195,187,208760,1,8,0:0:0:0:
191,193,209083,1,0,0:0:0:0:
195,196,209244,1,8,0:0:0:0:
193,190,209405,1,8,0:0:0:0:
256,214,209647,1,0,0:0:0:0:
256,214,210051,1,0,0:0:0:0:
256,214,210293,1,8,0:0:0:0:
255,205,210615,5,8,0:0:0:0:
257,203,210857,1,0,0:0:0:0:
256,192,211018,12,0,212147,0:0:0:0:
113,177,212294,5,0,0:0:0:0:
113,177,212374,1,0,0:0:0:0:
113,177,212455,1,8,0:0:0:0:
168,122,212535,1,0,0:0:0:0:
143,191,212616,1,0,0:0:0:0:
113,177,212777,1,0,0:0:0:0:
113,177,212939,1,8,0:0:0:0:
155,172,213019,1,8,0:0:0:0:
119,139,213100,1,0,0:0:0:0:
168,122,213181,1,8,0:0:0:0:
119,139,213261,1,8,0:0:0:0:
203,184,213584,1,4,0:0:0:0:
201,185,213826,1,0,0:0:0:0:
203,184,214068,1,0,0:0:0:0:
203,190,214229,1,12,0:0:0:0:
148,172,214471,1,8,0:0:0:0:
148,172,214713,1,8,0:0:0:0:
203,184,214874,1,4,0:0:0:0:
201,185,215116,1,0,0:0:0:0:
203,184,215358,1,0,0:0:0:0:
203,190,215519,1,12,0:0:0:0:
148,172,215761,1,8,0:0:0:0:
148,172,216003,1,8,0:0:0:0:
203,184,216164,1,4,0:0:0:0:
201,185,216406,1,0,0:0:0:0:
203,184,216648,1,0,0:0:0:0:
203,190,216810,1,12,0:0:0:0:
148,172,217052,1,8,0:0:0:0:
148,172,217294,1,8,0:0:0:0:
194,171,217455,1,8,0:0:0:0:
194,170,217697,1,8,0:0:0:0:
194,171,217939,1,0,0:0:0:0:
194,171,218181,1,8,0:0:0:0:
189,168,218423,1,0,0:0:0:0:
203,184,218745,1,4,0:0:0:0:
201,185,218987,1,0,0:0:0:0:
203,184,219229,1,0,0:0:0:0:
203,190,219390,1,12,0:0:0:0:
148,172,219632,1,8,0:0:0:0:
148,172,219874,1,8,0:0:0:0:
203,184,220035,1,4,0:0:0:0:
201,185,220277,1,0,0:0:0:0:
203,184,220519,1,0,0:0:0:0:
203,190,220681,1,12,0:0:0:0:
148,172,220923,1,8,0:0:0:0:
148,172,221164,1,8,0:0:0:0:
203,184,221326,1,4,0:0:0:0:
201,185,221568,1,0,0:0:0:0:
203,184,221810,1,0,0:0:0:0:
203,190,221971,1,12,0:0:0:0:
148,172,222213,1,8,0:0:0:0:
148,172,222455,1,8,0:0:0:0:
166,172,222616,1,8,0:0:0:0:
166,172,222858,1,8,0:0:0:0:
166,172,223100,1,0,0:0:0:0:
166,172,223342,1,8,0:0:0:0:
166,172,223584,1,0,0:0:0:0:
203,184,223906,1,4,0:0:0:0:
201,185,224148,1,0,0:0:0:0:
203,184,224390,1,0,0:0:0:0:
203,190,224552,1,12,0:0:0:0:
148,172,224794,1,8,0:0:0:0:
148,172,225035,1,8,0:0:0:0:
203,184,225197,1,4,0:0:0:0:
201,185,225439,1,0,0:0:0:0:
203,184,225681,1,0,0:0:0:0:
203,190,225842,1,12,0:0:0:0:
148,172,226084,1,8,0:0:0:0:
148,172,226326,1,8,0:0:0:0:
203,184,226487,1,4,0:0:0:0:
201,185,226729,1,0,0:0:0:0:
203,184,226971,1,0,0:0:0:0:
203,190,227132,1,12,0:0:0:0:
148,172,227374,1,8,0:0:0:0:
148,172,227616,1,8,0:0:0:0:
166,172,227777,1,8,0:0:0:0:
166,172,228019,1,8,0:0:0:0:
166,172,228261,1,0,0:0:0:0:
166,172,228503,1,8,0:0:0:0:
166,172,228745,1,0,0:0:0:0:
203,184,229068,1,0,0:0:0:0:
201,185,229310,1,0,0:0:0:0:
203,184,229552,1,0,0:0:0:0:
203,190,229713,1,8,0:0:0:0:
148,172,229955,1,8,0:0:0:0:
148,172,230197,1,8,0:0:0:0:
203,184,230358,1,0,0:0:0:0:
201,185,230600,1,0,0:0:0:0:
203,184,230842,1,0,0:0:0:0:
203,190,231003,1,8,0:0:0:0:
148,172,231245,1,8,0:0:0:0:
148,172,231487,1,8,0:0:0:0:
203,184,231648,1,0,0:0:0:0:
201,185,231890,1,0,0:0:0:0:
203,184,232132,1,0,0:0:0:0:
203,190,232293,1,12,0:0:0:0:
162,156,232535,1,12,0:0:0:0:
162,156,232777,1,12,0:0:0:0:
162,156,232939,1,12,0:0:0:0:
162,156,233181,1,12,0:0:0:0:
162,156,233423,1,12,0:0:0:0:
88,192,233584,6,0,L|363:192,1,269.500008224488
