osu file format v14

[General]
AudioFilename: audio.mp3
AudioLeadIn: 0
PreviewTime: 122674
Countdown: 0
SampleSet: Soft
StackLeniency: 0.6
Mode: 0
LetterboxInBreaks: 0
WidescreenStoryboard: 1

[Editor]
Bookmarks: 34152,57058,75975,85433,113807,151637
DistanceSpacing: 0.5
BeatDivisor: 4
GridSize: 32
TimelineZoom: 2.900005

[Metadata]
Title:Doku
TitleUnicode:毒
Artist:Hakushi Hasegawa
ArtistUnicode:長谷川白紙
Creator:zglock
Version:Insane
Source:
Tags:nu jazz avant art glitch pop 草木萌動 somoku hodo idm fusion japanese Fsjallink electronic j-core breakcore breakbeat musicmine 2018
BeatmapID:3484974
BeatmapSetID:1674871

[Difficulty]
HPDrainRate:4.5
CircleSize:6
OverallDifficulty:7
ApproachRate:8.5
SliderMultiplier:1.5
SliderTickRate:1

[Events]
//Background and Video events
0,0,"ESvL5vqU4AA9sV6.jpg",0,0
//Break Periods
2,86467,91776
2,114005,121922
//Storyboard Layer 0 (Background)
//Storyboard Layer 1 (Fail)
//Storyboard Layer 2 (Pass)
//Storyboard Layer 3 (Foreground)
//Storyboard Layer 4 (Overlay)
//Storyboard Sound Samples

[TimingPoints]
310,295.566502463054,4,2,1,65,1,0
9768,-100,4,2,1,65,0,0
13167,-90.9090909090909,4,2,1,65,0,0
14497,-100,4,2,1,65,0,0
17896,-90.9090909090909,4,2,1,65,0,0
19226,-100,4,2,1,65,0,0
22625,-90.9090909090909,4,2,1,65,0,0
23955,-100,4,2,1,65,0,0
27354,-90.9090909090909,4,2,1,65,0,0
28684,-100,4,2,1,65,0,0
32083,-90.9090909090909,4,2,1,65,0,0
33413,-100,4,2,1,65,0,0
36812,-90.9090909090909,4,2,1,65,0,0
38142,-100,4,2,1,65,0,0
46270,-90.9090909090909,4,2,1,65,0,0
47600,-100,4,2,1,65,0,0
56467,-90.9090909090909,4,2,1,65,0,0
56664,-90.9090909090909,4,2,1,68,0,0
56861,-90.9090909090909,4,2,1,71,0,0
57058,-83.3333333333333,4,2,1,75,0,1
75975,-100,4,2,1,65,0,0
79374,-90.9090909090909,4,2,1,65,0,0
80704,-100,4,2,1,65,0,0
84103,-90.9090909090909,4,2,1,65,0,0
92526,-125,4,2,1,50,0,0
93561,-90.9090909090909,4,2,1,65,0,0
94891,-100,4,2,1,65,0,0
98290,-90.9090909090909,4,2,1,65,0,0
99620,-100,4,2,1,65,0,0
101984,-90.9090909090909,4,2,1,65,0,0
104792,295.566502463054,4,2,1,71,1,0
104792,-90.9090909090909,4,2,1,71,0,0
109077,295.566502463054,3,2,1,71,1,0
112623,295.566502463054,4,2,1,75,1,0
112655,-58.8235294117647,4,2,1,10,0,0
112721,-58.8235294117647,4,2,1,13,0,0
112787,-58.8235294117647,4,2,1,16,0,0
112852,-58.8235294117647,4,2,1,19,0,0
112918,-58.8235294117647,4,2,1,22,0,0
112984,-58.8235294117647,4,2,1,25,0,0
113049,-58.8235294117647,4,2,1,28,0,0
113115,-58.8235294117647,4,2,1,31,0,0
113181,-58.8235294117647,4,2,1,34,0,0
113246,-58.8235294117647,4,2,1,37,0,0
113312,-58.8235294117647,4,2,1,40,0,0
113378,-58.8235294117647,4,2,1,43,0,0
113444,-58.8235294117647,4,2,1,46,0,0
113509,-58.8235294117647,4,2,1,49,0,0
113575,-58.8235294117647,4,2,1,52,0,0
113641,-58.8235294117647,4,2,1,55,0,0
113706,-58.8235294117647,4,2,1,58,0,0
113772,-58.8235294117647,4,2,1,61,0,0
122672,-125,4,2,1,70,0,0
123263,-90.9090909090909,4,2,1,75,0,1
132721,-90.9090909090909,4,2,1,75,0,0
142179,-90.9090909090909,4,2,1,75,0,1
151637,-100,4,2,1,65,0,0
155036,-90.9090909090909,4,2,1,65,0,0
156366,-100,4,2,1,65,0,0
159765,-90.9090909090909,4,2,1,65,0,0
161095,-100,4,2,1,65,0,0
164494,-90.9090909090909,4,2,1,65,0,0
165824,-100,4,2,1,65,0,0
169223,-90.9090909090909,4,2,1,65,0,0

[Colours]
Combo1 : 251,155,60
Combo2 : 48,250,240
Combo3 : 251,94,180
Combo4 : 74,255,70

[HitObjects]
431,161,9768,6,0,L|354:150,1,75,12|2,3:0|0:0,0:0:0:0:
300,200,10063,1,8,0:0:0:0:
368,248,10211,1,2,0:0:0:0:
368,248,10285,1,2,0:0:0:0:
368,248,10359,2,0,L|378:326,2,75,2|2|2,0:0|0:0|0:0,0:0:0:0:
296,294,10802,6,0,L|132:317,1,150,12|4,0:0|3:0,0:0:0:0:
90,265,11245,2,0,L|99:190,1,75,8|0,0:0|3:0,0:0:0:0:
94,180,11467,1,0,3:0:0:0:
89,169,11541,2,0,L|79:94,2,75,8|0|8,0:0|3:0|0:0,0:0:0:0:
32,310,12132,5,8,0:1:0:0:
32,310,12280,1,8,0:1:0:0:
80,367,12428,2,0,L|154:376,1,75,2|4,0:0|3:0,0:0:0:0:
165,371,12650,1,0,3:0:0:0:
176,366,12723,2,0,L|250:356,2,75,2|8|2,0:0|0:0|0:0,0:0:0:0:
203,275,13167,6,0,L|190:178,1,82.5000025177003,12|2,3:0|0:0,0:0:0:0:
207,179,13388,6,0,L|220:82,1,82.5000025177003,12|2,3:0|0:0,0:0:0:0:
209,78,13610,5,4,3:0:0:0:
308,151,13832,5,4,3:0:0:0:
430,133,14053,5,4,3:0:0:0:
308,151,14275,5,4,3:0:0:0:
341,258,14497,6,0,L|331:340,1,75,12|2,3:0|0:0,0:0:0:0:
394,374,14792,1,2,3:0:0:0:
460,335,14940,1,2,0:0:0:0:
460,335,15014,1,2,0:0:0:0:
460,335,15088,2,0,L|470:261,2,75,8|8|2,0:1|0:1|0:0,0:0:0:0:
407,215,15531,6,0,L|388:66,1,150,12|8,0:0|3:0,0:0:0:0:
326,22,15975,2,0,L|251:31,1,75,2|4,0:0|3:0,0:0:0:0:
244,39,16196,1,8,0:2:0:0:
236,47,16270,2,0,L|161:37,1,75,8|4,0:0|3:0,0:0:0:0:
98,80,16566,2,0,L|88:154,1,75,2|8,0:0|0:0,0:0:0:0:
164,263,16861,6,0,L|154:189,1,75,8|8,0:1|0:1,0:0:0:0:
209,137,17157,1,2,0:0:0:0:
271,179,17305,1,2,0:0:0:0:
237,245,17452,2,0,L|242:282,2,37.5,8|2|4,0:0|0:0|3:0,0:0:0:0:
312,311,17748,1,8,0:0:0:0:
215,353,17896,6,0,L|133:342,1,82.5000025177003,8|0,0:1|3:0,0:0:0:0:
117,328,18117,6,0,L|35:339,1,82.5000025177003,8|0,0:1|3:0,0:0:0:0:
21,354,18339,5,8,0:1:0:0:
84,247,18561,5,8,0:1:0:0:
67,124,18782,5,8,0:1:0:0:
84,247,19004,5,8,0:1:0:0:
169,174,19226,6,0,P|220:143|316:128,1,150,12|8,3:0|0:0,0:0:0:0:
371,167,19669,1,2,0:0:0:0:
421,111,19817,1,2,0:0:0:0:
421,111,19891,1,8,0:0:0:0:
421,111,19965,2,0,P|432:65|434:30,1,75,8|8,0:0|0:0,0:0:0:0:
502,150,20260,6,0,P|462:176|420:276,1,150,8|4,0:0|3:0,0:0:0:0:
453,334,20704,1,8,0:0:0:0:
383,361,20851,2,0,P|337:349|301:344,1,75,0|8,3:0|0:0,0:0:0:0:
268,281,21147,2,0,P|260:238|267:198,2,75,4|8|2,3:0|0:0|0:0,0:0:0:0:
334,170,21590,5,8,0:1:0:0:
334,170,21738,2,0,P|300:141|271:130,1,75,8|2,0:1|0:0,0:0:0:0:
214,81,22034,2,0,P|180:104|75:137,1,150,4|8,3:0|0:0,0:0:0:0:
14,94,22477,1,2,0:0:0:0:
7,190,22625,6,0,P|47:211|86:222,1,82.5000025177003,12|2,3:0|0:0,0:0:0:0:
100,232,22846,6,0,P|140:211|179:200,1,82.5000025177003,12|2,3:0|0:0,0:0:0:0:
193,190,23068,5,4,3:0:0:0:
291,265,23290,5,4,3:0:0:0:
249,381,23511,5,4,3:0:0:0:
291,265,23733,5,4,3:0:0:0:
182,327,23955,6,0,P|143:313|99:307,1,75,6|4,3:0|3:0,0:0:0:0:
49,352,24250,1,8,0:0:0:0:
15,288,24398,1,2,0:0:0:0:
15,288,24472,1,2,0:0:0:0:
15,288,24546,2,0,P|9:245|7:200,2,75,8|8|2,0:1|0:1|0:0,0:0:0:0:
89,232,24989,6,0,P|138:211|242:182,1,150,8|4,0:0|3:0,0:0:0:0:
270,120,25433,2,0,P|258:68|234:44,1,75,2|8,0:0|0:0,0:0:0:0:
233,49,25654,1,8,0:0:0:0:
222,46,25728,2,0,P|179:50|129:39,1,75,2|4,0:0|3:0,0:0:0:0:
97,102,26024,1,2,0:0:0:0:
97,102,26172,1,8,0:0:0:0:
2,78,26319,6,0,P|22:123|26:159,1,75,6|0,3:0|0:0,0:0:0:0:
2,219,26615,1,2,0:0:0:0:
2,219,26763,2,0,P|61:228|139:270,1,150,8|4,0:0|3:0,0:0:0:0:
169,339,27206,1,2,0:0:0:0:
212,245,27354,6,0,P|204:220|192:145,1,82.5000025177003,8|0,0:1|3:0,0:0:0:0:
211,153,27576,6,0,P|223:130|267:68,1,82.5000025177003,8|0,0:1|3:0,0:0:0:0:
275,87,27797,5,8,0:1:0:0:
330,197,28019,5,8,0:1:0:0:
283,311,28241,5,8,0:1:0:0:
330,197,28462,5,8,0:1:0:0:
424,135,28684,6,0,P|475:160|497:192,1,75,4|2,3:0|0:0,0:0:0:0:
511,243,28979,1,8,0:0:0:0:
442,274,29127,1,2,0:0:0:0:
442,274,29201,1,2,0:0:0:0:
442,274,29275,2,0,P|420:313|408:356,2,75,2|8|2,0:0|0:0|0:0,0:0:0:0:
337,320,29718,6,0,P|289:345|186:355,1,150,8|4,0:0|3:0,0:0:0:0:
130,317,30162,1,8,0:0:0:0:
164,251,30309,2,0,P|175:206|178:162,1,75,2|8,0:0|0:0,0:0:0:0:
122,126,30605,2,0,P|71:140|66:178,2,75,4|8|2,3:0|0:0|0:0,0:0:0:0:
92,233,31048,5,8,0:1:0:0:
92,233,31196,1,8,0:1:0:0:
30,276,31344,1,2,0:0:0:0:
58,345,31492,2,0,P|135:353|216:373,1,150,4|8,3:0|0:0,0:0:0:0:
264,323,31935,1,2,0:0:0:0:
351,271,32083,6,0,P|318:233|288:227,1,82.5000025177003,12|2,3:0|0:0,0:0:0:0:
269,214,32305,6,0,P|220:223|200:246,1,82.5000025177003,12|2,3:0|0:0,0:0:0:0:
182,258,32526,5,4,3:0:0:0:
208,136,32748,5,4,3:0:0:0:
158,31,32970,5,4,3:0:0:0:
208,135,33191,5,4,3:0:0:0:
299,70,33413,6,0,P|338:58|389:53,1,75,6|4,3:0|3:0,0:0:0:0:
419,111,33709,1,8,0:0:0:0:
491,83,33856,1,2,0:0:0:0:
491,83,33930,1,2,0:0:0:0:
491,83,34004,2,0,P|500:44|500:0,2,75,8|8|2,0:1|0:1|0:0,0:0:0:0:
450,179,34447,6,0,P|468:225|484:331,1,150,8|4,0:0|3:0,0:0:0:0:
422,368,34891,2,0,P|375:350|343:343,1,75,8|2,0:0|0:0,0:0:0:0:
341,349,35112,1,8,0:0:0:0:
331,354,35186,2,0,P|284:372|252:379,1,75,8|4,0:0|3:0,0:0:0:0:
206,330,35482,1,2,0:0:0:0:
206,330,35630,1,8,0:0:0:0:
233,202,35777,6,0,P|247:236|257:272,1,75,6|0,3:0|0:0,0:0:0:0:
320,210,36073,1,8,0:0:0:0:
320,210,36221,2,0,P|334:145|371:60,1,150,8|4,0:0|3:0,0:0:0:0:
318,10,36664,1,2,0:0:0:0:
215,55,36812,6,0,P|165:74|121:79,1,82.5000025177003,8|0,0:1|3:0,0:0:0:0:
124,61,37034,6,0,P|74:42|30:37,1,82.5000025177003,8|0,0:1|3:0,0:0:0:0:
33,55,37255,5,8,0:1:0:0:
103,156,37477,5,8,0:1:0:0:
79,277,37699,5,8,0:1:0:0:
103,156,37920,5,8,0:1:0:0:
211,188,38142,6,0,P|248:199|306:208,1,75,8|2,1:2|0:0,0:0:0:0:
349,170,38438,1,8,0:0:0:0:
310,105,38585,1,4,3:0:0:0:
310,105,38659,1,2,0:0:0:0:
310,105,38733,2,0,L|301:27,2,75,2|4|2,0:0|3:0|0:0,0:0:0:0:
416,133,39176,6,0,P|471:152|485:237,1,150,12|0,1:2|3:0,0:0:0:0:
420,272,39620,2,0,P|410:324|412:358,1,75,8|0,0:0|3:0,0:0:0:0:
479,375,39915,1,4,3:0:0:0:
479,375,39989,1,0,0:0:0:0:
479,375,40063,1,0,0:0:0:0:
507,305,40211,1,8,0:0:0:0:
396,203,40507,6,0,P|362:191|316:191,1,75,4|0,3:0|0:0,0:0:0:0:
269,242,40802,2,0,P|235:253|189:254,1,75,8|0,3:2|0:0,0:0:0:0:
143,204,41098,1,2,0:0:0:0:
143,204,41172,1,10,0:0:0:0:
143,204,41245,2,0,L|132:119,1,75,2|2,0:0|0:0,0:0:0:0:
109,43,41541,6,0,P|56:52|52:143,1,150,12|4,1:2|3:0,0:0:0:0:
8,201,41984,2,0,P|35:228|51:263,1,75,8|2,3:1|3:0,0:0:0:0:
91,334,42280,1,0,3:0:0:0:
91,334,42354,1,0,0:0:0:0:
91,334,42428,1,4,3:0:0:0:
147,284,42576,1,8,0:0:0:0:
269,369,42871,6,0,L|354:354,1,75,8|2,1:2|0:0,0:0:0:0:
384,292,43167,1,8,0:0:0:0:
329,241,43314,1,2,0:0:0:0:
329,241,43388,1,0,3:0:0:0:
329,241,43462,2,0,P|317:203|311:156,2,75,2|4|8,0:0|3:0|0:0,0:0:0:0:
377,127,43906,6,0,P|350:65|287:91,1,150,12|0,1:2|3:0,0:0:0:0:
239,149,44349,2,0,P|202:140|171:119,1,75,8|0,0:0|0:0,0:0:0:0:
167,109,44571,1,0,0:0:0:0:
166,97,44644,2,0,L|176:40,2,37.5,2|2|4,0:0|0:0|3:0,0:0:0:0:
95,124,44940,2,0,P|58:132|27:153,1,75,8|2,0:0|0:0,0:0:0:0:
136,195,45236,5,4,3:0:0:0:
136,195,45383,1,2,0:0:0:0:
74,240,45531,2,0,P|60:278|40:393,1,150,8|6,0:0|3:0,0:0:0:0:
115,374,45975,2,0,P|170:359|205:356,1,75,2|8,0:0|0:0,0:0:0:0:
246,255,46270,6,0,P|245:301|280:335,1,82.5000025177003,8|0,0:1|3:0,0:0:0:0:
265,347,46492,6,0,P|305:370|351:356,1,82.5000025177003,8|0,0:1|3:0,0:0:0:0:
355,377,46713,5,8,0:1:0:0:
432,280,46935,5,8,0:1:0:0:
424,156,47157,5,8,0:1:0:0:
432,280,47378,5,8,0:1:0:0:
340,213,47600,6,0,P|306:188|264:175,1,75,8|2,1:2|0:0,0:0:0:0:
200,188,47896,1,8,0:0:0:0:
152,130,48043,1,4,3:0:0:0:
152,130,48117,1,2,0:0:0:0:
152,130,48191,2,0,L|146:45,2,75,2|4|2,0:0|3:0|0:0,0:0:0:0:
232,100,48635,6,0,P|295:79|394:62,1,150,12|0,1:2|0:0,0:0:0:0:
427,7,49078,2,0,P|458:38|447:69,1,75,8|0,0:0|3:0,0:0:0:0:
421,137,49374,1,4,3:0:0:0:
421,137,49447,1,0,0:0:0:0:
421,137,49521,1,0,0:0:0:0:
485,175,49669,1,8,0:0:0:0:
359,257,49965,6,0,P|337:298|333:337,1,75,4|0,3:0|0:0,0:0:0:0:
402,353,50260,2,0,P|424:312|428:273,1,75,8|0,1:2|0:0,0:0:0:0:
423,215,50556,1,2,0:0:0:0:
423,215,50630,1,10,0:0:0:0:
423,215,50704,1,2,0:0:0:0:
347,182,50851,1,2,0:0:0:0:
264,230,50999,6,0,P|215:212|112:190,1,150,12|4,1:2|3:0,0:0:0:0:
61,238,51443,1,8,1:2:0:0:
61,238,51590,1,2,3:0:0:0:
88,307,51738,2,0,L|98:378,2,37.5,0|0|4,3:0|0:0|3:0,0:0:0:0:
155,273,52034,1,8,0:0:0:0:
55,161,52329,6,0,L|42:73,1,75,8|2,1:2|0:0,0:0:0:0:
84,22,52625,1,8,0:0:0:0:
159,57,52773,1,2,0:0:0:0:
159,57,52846,1,0,3:0:0:0:
159,57,52920,2,0,P|199:73|235:74,2,75,2|4|8,0:0|3:0|0:0,0:0:0:0:
269,9,53364,6,0,P|303:57|273:137,1,150,12|4,1:2|3:0,0:0:0:0:
314,199,53807,2,0,P|360:189|395:183,1,75,8|0,0:0|0:0,0:0:0:0:
444,134,54103,1,4,3:0:0:0:
444,134,54176,1,0,0:0:0:0:
444,134,54250,1,4,3:0:0:0:
380,80,54398,2,0,P|384:43|394:-2,1,75,8|2,0:0|0:0,0:0:0:0:
497,24,54694,6,0,P|504:60|509:98,1,75,4|2,3:0|3:0,0:0:0:0:
511,173,54989,2,0,P|503:209|499:246,1,75,8|4,0:0|3:0,0:0:0:0:
502,257,55211,1,0,3:0:0:0:
505,267,55285,2,0,L|418:274,1,75,2|8,0:0|0:0,0:0:0:0:
384,332,55580,1,4,0:0:0:0:
384,332,55728,1,12,1:2:0:0:
341,240,55876,6,0,B|330:201|330:201|356:132,2,100,10|4|10,3:0|3:0|3:0,0:0:0:0:
236,275,56467,6,0,B|247:314|247:314|221:383,2,110.000003356934,4|10|4,3:0|3:0|3:0,0:0:0:0:
161,181,57058,5,6,3:0:0:0:
419,259,57502,1,6,3:0:0:0:
154,313,57945,1,6,3:0:0:0:
358,137,58388,1,6,3:0:0:0:
115,17,58832,2,0,P|98:53|96:104,1,89.9999972534181,14|0,3:2|0:0,0:0:0:0:
104,113,59053,1,0,0:0:0:0:
112,123,59127,2,0,P|128:159|131:210,1,89.9999972534181,14|0,0:0|0:0,0:0:0:0:
87,286,59423,5,6,3:0:0:0:
185,33,59866,1,6,3:0:0:0:
436,133,60309,1,6,3:0:0:0:
338,384,60753,1,6,3:0:0:0:
190,157,61196,2,0,L|184:101,2,44.999998626709,14|0|0,3:2|0:0|0:0,0:0:0:0:
259,66,61492,2,0,L|265:10,2,44.999998626709,14|0|0,3:2|0:0|0:0,0:0:0:0:
331,119,61787,5,6,3:0:0:0:
71,208,62231,1,6,3:0:0:0:
333,288,62674,1,6,3:0:0:0:
167,69,63117,1,6,3:0:0:0:
174,346,63561,2,0,L|189:250,1,89.9999972534181,14|0,3:2|0:0,0:0:0:0:
179,247,63782,1,0,0:0:0:0:
170,237,63856,2,0,L|155:141,1,89.9999972534181,14|0,3:2|0:0,0:0:0:0:
242,120,64152,5,6,3:0:0:0:
78,334,64595,1,6,3:0:0:0:
346,370,65039,1,6,3:0:0:0:
382,102,65482,1,6,3:0:0:0:
132,205,65925,2,0,L|79:211,2,44.999998626709,14|0|0,3:2|0:0|0:0,0:0:0:0:
44,138,66221,2,0,L|-9:132,2,44.999998626709,14|0|0,3:2|0:0|0:0,0:0:0:0:
96,64,66516,5,6,3:0:0:0:
341,178,66960,1,6,3:0:0:0:
99,298,67403,1,6,3:0:0:0:
227,60,67846,1,6,3:0:0:0:
463,191,68290,2,0,P|477:236|482:289,1,89.9999972534181,14|0,3:2|0:0,0:0:0:0:
473,288,68511,1,0,0:0:0:0:
464,298,68585,2,0,P|419:302|376:317,1,89.9999972534181,14|0,3:2|0:0,0:0:0:0:
309,378,68881,5,6,3:0:0:0:
190,135,69324,1,6,3:0:0:0:
430,10,69768,1,6,3:0:0:0:
288,240,70211,1,6,3:0:0:0:
61,93,70654,2,0,L|56:43,2,44.999998626709,14|0|0,3:2|0:0|0:0,0:0:0:0:
7,166,70950,2,0,L|2:216,2,44.999998626709,14|0|0,3:2|0:0|0:0,0:0:0:0:
96,174,71245,5,6,3:0:0:0:
294,357,71689,1,6,3:0:0:0:
173,115,72132,1,6,3:0:0:0:
427,23,72576,1,6,3:0:0:0:
271,243,73019,2,0,P|277:183|295:157,1,89.9999972534181,14|0,3:2|0:0,0:0:0:0:
307,156,73241,1,0,0:0:0:0:
319,152,73314,2,0,P|378:158|404:176,1,89.9999972534181,14|0,3:2|0:0,0:0:0:0:
363,256,73610,5,6,3:0:0:0:
210,33,74053,1,6,3:0:0:0:
110,284,74497,1,6,3:0:0:0:
284,78,74940,1,6,3:0:0:0:
445,294,75383,2,0,L|440:355,2,44.999998626709,14|0|0,3:2|0:0|0:0,0:0:0:0:
500,221,75679,2,0,L|496:176,2,44.999998626709,14|0|8,3:2|0:0|0:0,0:0:0:0:
422,221,75975,6,0,P|384:232|338:225,1,75,12|2,3:0|0:0,0:0:0:0:
306,166,76270,1,8,0:0:0:0:
345,105,76418,1,2,0:0:0:0:
345,105,76492,1,2,0:0:0:0:
345,105,76566,2,0,L|355:29,2,75,2|2|2,0:0|0:0|0:0,0:0:0:0:
273,58,77009,6,0,P|232:33|126:17,1,150,12|4,0:0|3:0,0:0:0:0:
124,23,77378,1,0,0:0:0:0:
115,30,77452,1,8,0:0:0:0:
150,96,77600,2,0,L|155:147,2,37.5,0|0|8,3:0|3:0|0:0,0:0:0:0:
84,163,77896,2,0,L|79:214,2,37.5,0|0|2,3:0|0:0|0:0,0:0:0:0:
27,113,78191,1,0,3:0:0:0:
4,229,78339,5,8,1:2:0:0:
4,229,78487,1,8,1:2:0:0:
53,285,78635,2,0,P|140:269|157:268,1,75,2|4,0:0|3:0,0:0:0:0:
136,275,78856,1,0,3:0:0:0:
145,280,78930,2,0,P|232:296|249:297,2,75,2|8|2,0:0|0:0|0:0,0:0:0:0:
201,203,79374,6,0,P|213:156|212:117,1,82.5000025177003,12|2,3:0|0:0,0:0:0:0:
198,106,79595,6,0,P|186:59|187:20,1,82.5000025177003,12|2,3:0|0:0,0:0:0:0:
201,10,79817,5,4,3:0:0:0:
292,93,80039,5,4,3:0:0:0:
415,106,80260,5,4,3:0:0:0:
292,93,80482,5,4,3:0:0:0:
344,192,80704,6,0,P|368:230|377:262,1,75,12|2,3:0|0:0,0:0:0:0:
341,324,80999,1,8,0:0:0:0:
416,360,81147,1,2,0:0:0:0:
416,360,81221,1,2,0:0:0:0:
416,360,81295,2,0,L|500:343,2,75,8|8|2,1:2|1:2|0:0,0:0:0:0:
462,265,81738,6,0,L|472:99,1,150,12|8,0:0|3:0,0:0:0:0:
421,58,82181,1,2,0:0:0:0:
356,90,82329,1,4,0:0:0:0:
356,90,82403,1,2,3:0:0:0:
356,90,82477,2,0,P|305:88|268:78,1,75,2|4,0:0|3:0,0:0:0:0:
225,32,82773,2,0,P|174:34|137:44,1,75,2|8,0:0|0:0,0:0:0:0:
69,104,83068,6,0,P|129:113|202:170,1,150,8|2,1:2|0:0,0:0:0:0:
225,244,83511,1,8,0:0:0:0:
225,244,83585,1,2,0:0:0:0:
225,244,83659,2,0,P|217:287|214:323,2,75,2|4|8,0:0|3:0|0:0,0:0:0:0:
144,354,84103,6,0,L|52:343,1,82.5000025177003,8|0,0:1|3:0,0:0:0:0:
54,325,84324,6,0,L|63:243,1,82.5000025177003,8|0,0:1|3:0,0:0:0:0:
52,225,84546,5,8,0:1:0:0:
161,166,84768,5,8,0:1:0:0:
270,107,84989,5,8,0:1:0:0:
161,166,85211,5,8,0:1:0:0:
270,377,92526,6,0,L|335:385,1,60,2|8,3:2|0:0,0:0:0:0:
374,332,92822,2,0,L|425:325,3,30,2|0|0|0,3:2|0:0|0:0|0:0,0:0:0:0:
430,342,93117,1,8,0:0:0:0:
475,287,93265,1,2,0:0:0:0:
420,244,93413,1,8,0:0:0:0:
420,244,93487,1,8,0:0:0:0:
420,244,93561,6,0,P|379:236|321:234,1,82.5000025177003,8|0,0:1|0:0,0:0:0:0:
322,247,93782,6,0,P|281:255|223:257,1,82.5000025177003,8|0,0:1|0:0,0:0:0:0:
225,242,94004,5,8,0:1:0:0:
318,160,94226,5,8,0:1:0:0:
323,36,94447,5,8,0:1:0:0:
318,160,94669,5,8,0:1:0:0:
222,100,94891,6,0,P|177:83|62:63,1,150,14|8,3:0|0:0,0:0:0:0:
22,114,95334,1,0,0:0:0:0:
75,178,95482,1,2,0:0:0:0:
75,178,95556,1,8,0:0:0:0:
75,178,95630,2,0,P|86:218|88:255,1,75,4|2,3:0|0:0,0:0:0:0:
25,339,95925,6,0,L|188:313,1,150,8|4,0:0|3:0,0:0:0:0:
231,363,96369,1,8,0:0:0:0:
280,307,96516,2,0,P|291:267|286:227,1,75,4|8,3:0|0:0,0:0:0:0:
298,159,96812,2,0,P|331:175|356:202,2,75,4|8|2,3:0|0:0|0:0,0:0:0:0:
389,123,97255,5,8,0:1:0:0:
389,123,97403,2,0,P|395:82|404:44,1,75,8|2,0:1|0:0,0:0:0:0:
475,27,97699,2,0,P|489:115|498:183,1,150,4|8,3:0|0:0,0:0:0:0:
433,214,98142,1,2,0:0:0:0:
417,329,98290,6,0,P|443:297|478:275,1,82.5000025177003,12|2,3:0|0:0,0:0:0:0:
496,284,98511,6,0,P|509:322|512:363,1,82.5000025177003,12|2,3:0|0:0,0:0:0:0:
494,374,98733,5,4,3:0:0:0:
365,384,98955,5,4,3:0:0:0:
242,368,99176,5,4,3:0:0:0:
365,384,99398,5,4,3:0:0:0:
301,290,99620,6,0,L|294:204,1,75,6|4,3:0|3:0,0:0:0:0:
333,150,99915,1,2,0:0:0:0:
266,115,100063,1,2,0:0:0:0:
266,115,100137,1,8,0:0:0:0:
266,115,100211,2,0,P|207:105|178:107,2,75,8|8|2,0:1|0:1|0:0,0:0:0:0:
217,187,100654,6,0,P|173:209|75:241,1,150,8|4,3:0|3:0,0:0:0:0:
16,196,101098,2,0,L|5:118,1,75,8|4,0:0|3:0,0:0:0:0:
11,111,101319,1,8,0:0:0:0:
16,101,101393,2,0,L|27:23,1,75,2|0,0:0|3:0,0:0:0:0:
103,14,101689,1,2,0:0:0:0:
103,14,101837,1,8,0:0:0:0:
207,46,101984,6,0,P|220:84|218:137,1,82.5000025177003,14|0,3:0|3:0,0:0:0:0:
213,135,102206,1,2,0:0:0:0:
205,145,102280,2,0,P|191:183|194:236,1,82.5000025177003,10|0,3:0|3:0,0:0:0:0:
261,269,102576,1,10,3:0:0:0:
322,215,102723,2,0,L|331:169,2,41.2500012588501,0|2|8,3:0|0:0|0:0,0:0:0:0:
388,278,103019,5,2,0:0:0:0:
388,278,103093,1,2,0:0:0:0:
388,278,103167,2,0,L|395:318,3,41.2500012588501,8|8|8|12,0:0|0:0|3:2|3:0,0:0:0:0:
395,258,103462,1,8,0:0:0:0:
403,238,103536,1,8,0:0:0:0:
401,128,103684,1,8,0:0:0:0:
401,128,103758,2,0,P|470:126|483:180,2,110.000003356934,8|12|8,0:0|3:0|0:0,0:0:0:0:
322,215,104349,1,0,0:0:0:0:
232,14,104792,6,0,P|250:72|268:182,1,165.000005035401,14|2,3:0|0:0,0:0:0:0:
260,185,105161,1,8,0:0:0:0:
253,195,105235,2,0,P|198:178|165:175,1,82.5000025177003,8|2,0:0|0:0,0:0:0:0:
155,258,105530,1,6,3:0:0:0:
155,258,105678,2,0,P|210:275|243:278,1,82.5000025177003,6|2,3:0|0:0,0:0:0:0:
314,254,105974,1,2,0:0:0:0:
355,185,106122,5,8,0:0:0:0:
355,185,106195,1,8,0:0:0:0:
355,185,106269,2,0,L|363:131,1,41.2500012588501,8|8,0:0|0:0,0:0:0:0:
395,120,106417,2,0,B|420:112|420:112|489:144,1,82.5000025177003,8|8,0:1|0:1,0:0:0:0:
508,210,106713,1,8,3:1:0:0:
508,210,106787,1,4,3:0:0:0:
508,210,106860,2,0,L|500:255,3,41.2500012588501,4|4|4|4,3:0|3:0|3:0|3:0,0:0:0:0:
511,290,107156,6,0,P|422:279|374:341,1,165.000005035401,14|4,3:0|3:0,0:0:0:0:
294,334,107599,2,0,P|249:353|210:360,2,82.5000025177003,8|2|2,0:0|0:0|0:0,0:0:0:0:
324,258,108043,1,8,0:0:0:0:
324,258,108191,2,0,L|332:164,1,82.5000025177003,8|6,0:0|3:0,0:0:0:0:
294,101,108486,6,0,P|257:87|237:83,5,55.0000016784668,2|2|2|2|2|2,1:3|1:3|1:3|1:3|1:3|1:3,0:0:0:0:
210,104,109077,5,12,1:2:0:0:
409,1,109520,1,12,1:2:0:0:
257,167,109963,5,12,1:2:0:0:
476,119,110406,1,12,1:2:0:0:
284,238,110850,5,12,1:2:0:0:
508,249,111293,1,12,1:2:0:0:
292,314,111737,5,12,1:2:0:0:
506,382,112180,1,12,1:2:0:0:
390,188,112623,5,12,3:3:0:0:
256,192,112696,12,0,113805,2:2:0:0:
236,268,122672,6,0,P|252:320|255:356,2,80,2|2|2,3:1|3:1|3:1,0:0:0:0:
156,191,123263,5,6,3:0:0:0:
346,33,123706,1,6,3:0:0:0:
98,48,124150,1,6,3:0:0:0:
322,151,124593,1,6,3:0:0:0:
160,338,125036,2,0,L|65:326,1,82.5000025177003,14|0,3:2|3:0,0:0:0:0:
73,316,125258,1,0,3:0:0:0:
67,304,125332,2,0,L|79:209,1,82.5000025177003,14|0,3:2|3:0,0:0:0:0:
86,139,125627,5,6,3:0:0:0:
313,236,126071,1,6,3:0:0:0:
207,12,126514,1,6,3:0:0:0:
158,254,126957,1,6,3:0:0:0:
403,221,127401,2,0,L|453:207,2,41.2500012588501,14|0|0,3:2|0:0|3:0,0:0:0:0:
469,139,127696,2,0,L|457:99,2,41.2500012588501,14|0|0,3:2|0:0|3:0,0:0:0:0:
506,40,127992,5,6,3:0:0:0:
468,284,128435,1,6,3:0:0:0:
224,246,128879,1,6,3:0:0:0:
262,2,129322,1,6,3:0:0:0:
405,203,129765,2,0,P|382:251|373:280,1,82.5000025177003,14|0,3:2|3:0,0:0:0:0:
378,290,129987,1,0,3:0:0:0:
382,301,130061,2,0,P|405:349|414:378,1,82.5000025177003,14|0,3:2|3:0,0:0:0:0:
480,328,130356,5,6,3:0:0:0:
237,380,130800,1,6,3:0:0:0:
294,139,131243,1,6,3:0:0:0:
53,87,131687,1,6,3:0:0:0:
242,246,132130,2,0,L|250:191,3,41.2500012588501,14|0|0|0,3:2|3:0|3:0|3:0,0:0:0:0:
275,270,132425,2,0,L|283:325,3,41.2500012588501,14|0|0|0,3:2|3:0|3:0|3:0,0:0:0:0:
308,246,132721,6,0,P|346:235|393:231,1,82.5000025177003,2|2,0:0|0:0,0:0:0:0:
454,281,133017,1,8,0:0:0:0:
508,219,133164,1,6,3:0:0:0:
508,219,133238,1,2,0:0:0:0:
508,219,133312,2,0,L|514:128,2,82.5000025177003,0|4|2,0:0|3:0|0:0,0:0:0:0:
426,156,133756,6,0,P|371:116|282:64,1,165.000005035401,12|4,1:2|3:0,0:0:0:0:
223,15,134199,2,0,P|196:43|206:82,1,82.5000025177003,8|0,0:0|0:0,0:0:0:0:
263,153,134494,1,8,0:0:0:0:
263,153,134568,1,0,0:0:0:0:
263,153,134642,1,4,3:0:0:0:
210,216,134790,2,0,P|155:238|112:239,1,82.5000025177003,2|2,0:0|0:0,0:0:0:0:
67,188,135086,6,0,P|38:82|4:32,1,165.000005035401,12|8,3:0|0:0,0:0:0:0:
94,22,135529,1,6,3:0:0:0:
94,22,135603,1,2,0:0:0:0:
94,22,135677,2,0,P|134:12|175:10,2,82.5000025177003,2|4|2,0:0|3:0|0:0,0:0:0:0:
148,102,136120,6,0,P|199:117|343:114,1,165.000005035401,8|4,0:0|3:0,0:0:0:0:
374,68,136563,2,0,P|399:109|385:145,1,82.5000025177003,8|4,0:0|3:0,0:0:0:0:
334,201,136859,1,2,0:0:0:0:
406,256,137007,1,4,3:0:0:0:
406,256,137081,1,0,3:0:0:0:
406,256,137155,2,0,P|387:299|384:335,1,82.5000025177003,0|8,3:0|0:0,0:0:0:0:
464,316,137450,6,0,L|511:151,1,165.000005035401,6|8,3:0|0:0,0:0:0:0:
439,130,137893,1,2,0:0:0:0:
439,130,137967,1,0,0:0:0:0:
439,130,138041,2,0,P|421:88|394:61,2,82.5000025177003,2|4|2,0:0|3:0|0:0,0:0:0:0:
356,142,138485,6,0,P|297:133|192:127,1,165.000005035401,12|4,1:2|3:0,0:0:0:0:
117,162,138928,2,0,P|92:208|92:239,1,82.5000025177003,8|0,0:0|3:0,0:0:0:0:
99,246,139150,1,0,3:0:0:0:
106,255,139223,2,0,P|131:301|131:332,1,82.5000025177003,8|4,0:0|3:0,0:0:0:0:
206,365,139519,2,0,L|299:349,1,82.5000025177003,0|0,3:0|0:0,0:0:0:0:
348,294,139815,6,0,P|354:201|332:117,1,165.000005035401,12|8,0:0|0:0,0:0:0:0:
305,54,140258,2,0,P|345:50|384:63,1,82.5000025177003,2|0,0:0|0:0,0:0:0:0:
492,53,140554,1,2,0:0:0:0:
492,53,140627,1,8,0:0:0:0:
492,53,140701,6,0,P|463:89|433:207,1,165.000005035401,4|0,3:0|0:0,0:0:0:0:
499,251,141145,1,4,3:0:0:0:
442,310,141292,2,0,P|467:352|477:393,1,82.5000025177003,8|4,0:0|3:0,0:0:0:0:
380,358,141588,2,0,P|339:348|298:350,1,82.5000025177003,8|4,0:0|3:0,0:0:0:0:
289,358,141810,1,0,3:0:0:0:
279,366,141884,2,0,P|238:375|197:373,1,82.5000025177003,4|0,3:0|0:0,0:0:0:0:
127,330,142179,5,6,3:0:0:0:
127,330,142327,1,4,3:0:0:0:
233,204,142622,1,6,3:0:0:0:
233,204,142770,1,4,3:0:0:0:
177,47,143066,1,6,3:0:0:0:
177,47,143214,1,4,3:0:0:0:
71,173,143509,1,6,3:0:0:0:
71,173,143657,1,4,3:0:0:0:
196,280,143953,2,0,L|282:291,1,82.5000025177003,14|0,3:2|3:0,0:0:0:0:
287,283,144174,1,0,0:0:0:0:
297,275,144248,2,0,L|383:264,1,82.5000025177003,14|0,3:2|3:0,0:0:0:0:
442,210,144544,5,6,3:0:0:0:
442,210,144691,1,4,3:0:0:0:
453,44,144987,1,6,3:0:0:0:
453,44,145134,1,4,3:0:0:0:
290,29,145430,1,6,3:0:0:0:
290,29,145577,1,4,3:0:0:0:
280,195,145874,1,6,3:0:0:0:
280,195,146022,1,4,3:0:0:0:
122,241,146317,2,0,L|73:233,2,41.2500012588501,14|0|0,3:2|3:0|3:0,0:0:0:0:
186,298,146613,2,0,L|226:291,2,41.2500012588501,14|0|0,3:2|3:0|3:0,0:0:0:0:
119,346,146908,5,6,3:0:0:0:
119,346,147056,1,4,3:0:0:0:
202,204,147352,1,6,3:0:0:0:
202,204,147499,1,4,3:0:0:0:
52,144,147795,1,6,3:0:0:0:
52,144,147943,1,4,3:0:0:0:
135,2,148239,1,6,3:0:0:0:
135,2,148386,1,4,3:0:0:0:
265,102,148682,2,0,P|307:116|345:119,1,82.5000025177003,14|0,3:2|3:0,0:0:0:0:
355,112,148903,1,0,0:0:0:0:
365,105,148977,2,0,P|379:62|382:25,1,82.5000025177003,14|0,3:2|3:0,0:0:0:0:
302,26,149273,5,6,3:0:0:0:
302,26,149421,1,4,3:0:0:0:
160,107,149716,1,6,3:0:0:0:
160,107,149864,1,4,3:0:0:0:
19,29,150159,1,6,3:0:0:0:
19,29,150307,1,4,3:0:0:0:
100,177,150603,1,6,3:0:0:0:
100,177,150751,1,4,3:0:0:0:
5,312,151046,2,0,L|-3:362,2,41.2500012588501,14|0|0,3:2|3:0|3:0,0:0:0:0:
78,264,151342,2,0,L|128:272,2,41.2500012588501,14|0|0,3:2|3:0|3:0,0:0:0:0:
85,354,151637,6,0,P|154:368|174:375,1,75,12|2,3:0|0:0,0:0:0:0:
228,340,151933,1,8,0:0:0:0:
195,273,152081,1,2,0:0:0:0:
195,273,152155,1,2,0:0:0:0:
195,273,152228,2,0,L|191:195,2,75,2|2|2,0:0|0:0|0:0,0:0:0:0:
280,231,152672,6,0,P|322:194|418:153,1,150,12|4,0:0|3:0,0:0:0:0:
458,100,153115,2,0,L|470:24,1,75,8|4,0:0|3:0,0:0:0:0:
460,19,153337,1,0,0:0:0:0:
451,12,153411,2,0,L|375:24,2,75,8|4|8,0:0|3:0|0:0,0:0:0:0:
512,163,154002,5,8,0:1:0:0:
512,163,154150,1,8,0:1:0:0:
456,213,154297,2,0,P|446:253|444:294,1,75,2|4,0:0|3:0,0:0:0:0:
450,295,154519,1,0,3:0:0:0:
456,304,154593,2,0,P|466:344|468:385,2,75,2|8|2,0:0|0:0|0:0,0:0:0:0:
369,251,155036,6,0,L|256:233,1,82.5000025177003,12|2,3:0|0:0,0:0:0:0:
271,251,155258,6,0,L|158:269,1,82.5000025177003,12|2,3:0|0:0,0:0:0:0:
173,251,155480,5,4,3:0:0:0:
257,161,155701,5,4,3:0:0:0:
292,43,155923,5,4,3:0:0:0:
257,161,156145,5,4,3:0:0:0:
144,149,156366,6,0,P|106:159|70:172,1,75,12|2,3:0|0:0,0:0:0:0:
13,123,156662,1,2,3:0:0:0:
62,66,156810,1,2,0:0:0:0:
62,66,156884,1,2,0:0:0:0:
62,66,156957,2,0,P|75:21|75:-8,2,75,8|8|2,0:1|0:1|0:0,0:0:0:0:
164,57,157401,6,0,P|210:47|324:38,1,150,12|8,0:0|0:0,0:0:0:0:
372,82,157844,2,0,L|387:172,1,75,4|4,3:0|3:0,0:0:0:0:
378,165,158066,1,8,0:0:0:0:
372,174,158140,2,0,L|357:264,1,75,8|4,0:0|3:0,0:0:0:0:
411,302,158435,2,0,P|444:317|482:316,1,75,4|8,3:0|0:0,0:0:0:0:
344,337,158731,6,0,P|309:343|264:361,1,75,8|8,0:1|0:1,0:0:0:0:
201,332,159026,1,2,0:0:0:0:
225,261,159174,1,8,0:0:0:0:
170,209,159322,2,0,L|159:165,2,37.5,8|2|4,0:0|0:0|3:0,0:0:0:0:
144,280,159618,1,8,0:0:0:0:
75,213,159765,6,0,P|39:190|-2:176,1,82.5000025177003,8|0,0:1|3:0,0:0:0:0:
12,159,159987,6,0,P|50:145|85:122,1,82.5000025177003,8|0,0:1|3:0,0:0:0:0:
92,103,160209,5,8,0:1:0:0:
214,119,160430,5,8,0:1:0:0:
335,93,160651,5,8,0:1:0:0:
214,119,160874,5,8,0:1:0:0:
135,37,161095,6,0,P|69:27|42:44,1,75,12|2,3:0|0:0,0:0:0:0:
5,77,161391,1,8,0:0:0:0:
12,158,161539,1,4,3:0:0:0:
12,158,161613,1,2,0:0:0:0:
12,158,161687,2,0,L|21:241,2,75,2|2|2,0:0|0:0|0:0,0:0:0:0:
95,206,162130,6,0,P|148:239|236:259,1,150,12|4,0:0|3:0,0:0:0:0:
303,284,162573,2,0,P|294:322|290:365,1,75,8|4,0:0|3:0,0:0:0:0:
279,361,162795,1,0,0:0:0:0:
268,365,162869,2,0,P|230:360|194:352,2,75,8|4|8,0:0|3:0|0:0,0:0:0:0:
378,262,163460,5,8,0:1:0:0:
378,262,163608,1,8,0:1:0:0:
320,213,163756,2,0,L|311:126,1,75,2|4,0:0|3:0,0:0:0:0:
317,128,163977,1,0,3:0:0:0:
321,117,164051,2,0,L|330:30,2,75,2|8|2,0:0|0:0|0:0,0:0:0:0:
232,177,164494,6,0,L|142:186,1,82.5000025177003,12|2,3:0|0:0,0:0:0:0:
135,170,164716,6,0,L|126:87,1,82.5000025177003,12|2,3:0|0:0,0:0:0:0:
111,73,164938,5,4,3:0:0:0:
45,177,165159,5,4,3:0:0:0:
0,292,165380,5,4,3:0:0:0:
45,177,165603,5,4,3:0:0:0:
106,271,165824,6,0,P|142:321|164:342,1,75,12|2,3:0|0:0,0:0:0:0:
226,332,166120,1,8,0:0:0:0:
268,269,166268,1,4,3:0:0:0:
268,269,166342,1,0,3:0:0:0:
268,269,166416,2,0,L|257:185,2,75,8|8|2,0:1|0:1|0:0,0:0:0:0:
339,219,166859,6,0,P|363:190|470:147,1,150,12|4,0:0|3:0,0:0:0:0:
504,210,167302,2,0,L|513:292,1,75,8|4,0:0|3:0,0:0:0:0:
504,292,167524,1,8,0:0:0:0:
496,300,167598,2,0,L|421:308,1,75,8|4,0:0|3:0,0:0:0:0:
373,366,167893,2,0,L|298:357,1,75,4|8,3:0|0:0,0:0:0:0:
180,304,168189,6,0,P|215:293|253:296,1,75,8|8,0:1|0:1,0:0:0:0:
299,236,168485,1,2,0:0:0:0:
246,182,168632,1,8,0:0:0:0:
281,115,168780,2,0,L|292:57,2,37.5,8|2|4,0:0|0:0|3:0,0:0:0:0:
332,170,169076,1,8,0:0:0:0:
434,152,169223,6,0,P|445:109|447:69,1,82.5000025177003,8|0,0:1|3:0,0:0:0:0:
453,51,169445,6,0,P|421:19|387:-1,1,82.5000025177003,8|0,0:1|3:0,0:0:0:0:
368,3,169667,5,8,0:1:0:0:
245,22,169889,5,8,0:1:0:0:
122,41,170110,5,8,0:1:0:0:
245,22,170332,5,8,0:1:0:0:
