osu file format v14

[General]
AudioFilename: audio.mp3
AudioLeadIn: 0
PreviewTime: 122674
Countdown: 0
SampleSet: Soft
StackLeniency: 0.3
Mode: 0
LetterboxInBreaks: 0
WidescreenStoryboard: 1

[Editor]
Bookmarks: 57058,75975,85433,113807,151637
DistanceSpacing: 0.3
BeatDivisor: 4
GridSize: 32
TimelineZoom: 3.100005

[Metadata]
Title:Doku
TitleUnicode:毒
Artist:Hakushi Hasegawa
ArtistUnicode:長谷川白紙
Creator:zglock
Version:Fsjallink's Extra
Source:
Tags:nu jazz avant art glitch pop 草木萌動 somoku hodo idm fusion japanese Fsjallink electronic j-core breakcore breakbeat musicmine 2018
BeatmapID:3813741
BeatmapSetID:1674871

[Difficulty]
HPDrainRate:5
CircleSize:4
OverallDifficulty:8.1
ApproachRate:9
SliderMultiplier:2.2
SliderTickRate:1

[Events]
//Background and Video events
0,0,"ESvL5vqU4AA9sV6.jpg",0,0
//Break Periods
2,85633,91926
2,114005,122072
//Storyboard Layer 0 (Background)
//Storyboard Layer 1 (Fail)
//Storyboard Layer 2 (Pass)
//Storyboard Layer 3 (Foreground)
//Storyboard Layer 4 (Overlay)
//Storyboard Sound Samples

[TimingPoints]
310,295.566502463054,4,2,1,65,1,0
9768,-100,4,2,1,65,0,0
56664,-83.3333333333333,4,2,1,68,0,0
56861,-76.9230769230769,4,2,1,71,0,0
57058,-83.3333333333333,4,2,1,75,0,1
60309,-100,4,2,1,75,0,1
61787,-83.3333333333333,4,2,1,75,0,1
65039,-100,4,2,1,75,0,1
66516,-83.3333333333333,4,2,1,75,0,1
69768,-100,4,2,1,75,0,1
71245,-83.3333333333333,4,2,1,75,0,1
74497,-100,4,2,1,75,0,1
75975,-100,4,2,1,65,0,0
92526,-200,4,2,1,50,0,0
93561,-100,4,2,1,65,0,0
104349,-200,4,2,1,65,0,0
104792,295.566502463054,4,2,1,71,1,0
104792,-100,4,2,1,71,0,0
109077,295.566502463054,3,2,1,71,1,0
112623,295.566502463054,4,2,1,75,1,0
112623,-58.8235294117647,4,2,1,75,0,0
112655,-58.8235294117647,4,2,1,10,0,0
112721,-58.8235294117647,4,2,1,13,0,0
112787,-58.8235294117647,4,2,1,16,0,0
112852,-58.8235294117647,4,2,1,19,0,0
112918,-58.8235294117647,4,2,1,22,0,0
112984,-58.8235294117647,4,2,1,25,0,0
113049,-58.8235294117647,4,2,1,28,0,0
113115,-58.8235294117647,4,2,1,31,0,0
113181,-58.8235294117647,4,2,1,34,0,0
113246,-58.8235294117647,4,2,1,37,0,0
113312,-58.8235294117647,4,2,1,40,0,0
113378,-58.8235294117647,4,2,1,43,0,0
113444,-58.8235294117647,4,2,1,46,0,0
113509,-58.8235294117647,4,2,1,49,0,0
113575,-58.8235294117647,4,2,1,52,0,0
113641,-58.8235294117647,4,2,1,55,0,0
113706,-58.8235294117647,4,2,1,58,0,0
113772,-58.8235294117647,4,2,1,61,0,0
122672,-200,4,2,1,70,0,0
123263,-83.3333333333333,4,2,1,75,0,1
132721,-100,4,2,1,75,0,0
142179,-83.3333333333333,4,2,1,75,0,1
151637,-100,4,2,1,65,0,0

[Colours]
Combo1 : 251,155,60
Combo2 : 48,250,240
Combo3 : 251,94,180
Combo4 : 74,255,70

[HitObjects]
98,246,9768,6,0,P|160:256|216:261,1,110,12|2,3:0|0:0,0:0:0:0:
287,207,10063,2,0,P|286:127|309:53,1,110,8|2,0:0|0:0,0:0:0:0:
295,70,10285,1,2,0:0:0:0:
269,80,10359,1,2,0:0:0:0:
241,82,10433,1,10,0:0:0:0:
213,82,10507,2,0,P|122:64|80:59,1,110,2|2,0:0|0:0,0:0:0:0:
29,125,10802,1,12,0:0:0:0:
84,202,10950,6,0,L|68:325,1,110,0|4,0:0|3:0,0:0:0:0:
136,368,11245,1,8,0:0:0:0:
202,310,11393,1,0,3:0:0:0:
270,365,11541,1,8,0:0:0:0:
336,307,11689,1,0,3:0:0:0:
403,363,11837,2,0,P|460:346|522:338,1,110,8|0,0:0|0:0,0:0:0:0:
495,265,12132,6,0,P|500:238|505:211,1,55,8|0,0:1|0:0,0:0:0:0:
432,174,12280,2,0,P|427:146|422:119,1,55,8|0,0:1|0:0,0:0:0:0:
491,51,12428,2,0,P|438:26|350:59,1,110,2|4,0:0|3:0,0:0:0:0:
311,110,12723,1,2,0:0:0:0:
289,112,12797,1,0,0:0:0:0:
267,109,12871,1,8,0:0:0:0:
247,99,12945,1,0,0:0:0:0:
228,86,13019,1,2,0:0:0:0:
142,139,13167,6,0,P|87:139|33:151,1,110,12|2,3:0|0:0,0:0:0:0:
37,171,13388,2,0,P|108:157|185:164,1,110,12|2,3:0|0:0,0:0:0:0:
146,179,13610,2,0,P|91:178|38:191,1,110,4|2,3:0|0:0,0:0:0:0:
39,211,13832,2,0,P|110:197|187:204,1,110,4|2,3:0|0:0,0:0:0:0:
152,218,14053,2,0,P|97:217|44:230,1,110,4|2,3:0|0:0,0:0:0:0:
45,251,14275,2,0,P|116:237|193:244,1,110,4|2,3:0|0:0,0:0:0:0:
255,235,14497,6,0,P|250:180|256:125,1,110,12|2,3:0|0:0,0:0:0:0:
266,310,14792,1,2,3:0:0:0:
287,304,14866,1,0,0:0:0:0:
308,299,14940,1,2,0:0:0:0:
329,300,15014,1,2,0:0:0:0:
350,303,15088,2,0,P|422:317|486:318,1,110,8|8,0:1|0:1,0:0:0:0:
487,149,15383,5,2,0:0:0:0:
410,218,15531,2,0,P|338:204|274:203,1,110,14|2,0:0|0:0,0:0:0:0:
375,108,15827,1,8,3:0:0:0:
296,35,15975,1,2,0:0:0:0:
223,117,16122,1,4,3:0:0:0:
223,117,16196,1,8,0:2:0:0:
223,117,16270,2,0,P|229:186|213:253,1,110,8|4,0:0|3:0,0:0:0:0:
130,275,16566,1,2,0:0:0:0:
51,218,16713,2,0,P|-8:232|-18:234,1,55,8|0,0:0|0:0,0:0:0:0:
129,287,16861,6,0,P|214:273|321:281,1,165,8|0,0:1|0:0,0:0:0:0:
309,282,17157,2,0,P|309:208|327:152,1,110,2|2,0:0|0:0,0:0:0:0:
359,85,17452,1,8,0:0:0:0:
378,94,17526,1,2,0:0:0:0:
398,101,17600,1,4,3:0:0:0:
419,103,17674,1,0,0:0:0:0:
441,105,17748,1,8,0:0:0:0:
480,191,17896,6,0,P|482:245|470:299,1,110,8|0,0:1|3:0,0:0:0:0:
451,296,18117,2,0,P|463:242|461:188,1,110,8|0,0:1|3:0,0:0:0:0:
440,186,18339,2,0,P|443:241|432:295,1,110,8|0,0:1|3:0,0:0:0:0:
411,292,18561,2,0,P|423:238|421:184,1,110,8|0,0:1|3:0,0:0:0:0:
400,182,18783,2,0,P|403:237|392:291,1,110,8|0,0:1|3:0,0:0:0:0:
371,288,19004,2,0,P|383:234|381:180,1,110,8|0,0:1|3:0,0:0:0:0:
293,189,19226,6,0,P|238:228|195:286,1,110,12|0,3:0|0:0,0:0:0:0:
130,306,19521,1,8,0:0:0:0:
119,199,19669,2,0,P|60:225|-10:238,1,110,2|2,0:0|0:0,0:0:0:0:
59,71,19965,1,8,0:0:0:0:
79,78,20039,1,0,0:0:0:0:
98,87,20112,1,8,0:0:0:0:
116,98,20186,1,0,0:0:0:0:
133,110,20260,6,0,P|209:79|276:71,1,110,8|0,0:0|0:0,0:0:0:0:
359,77,20556,1,4,3:0:0:0:
308,174,20704,1,8,0:0:0:0:
405,223,20851,1,0,3:0:0:0:
453,128,20999,1,8,0:0:0:0:
453,128,21073,1,2,0:0:0:0:
453,128,21147,2,0,P|452:196|458:274,2,110,4|8|2,3:0|0:0|0:0,0:0:0:0:
496,22,21590,6,0,P|428:47|408:51,1,55,8|0,0:1|0:0,0:0:0:0:
359,77,21738,2,0,P|333:67|308:56,2,55,8|0|2,0:1|0:0|0:0,0:0:0:0:
242,0,22034,2,0,P|215:62|229:115,1,110,4|2,3:0|0:0,0:0:0:0:
339,178,22329,2,0,P|366:116|352:63,1,110,8|2,0:0|0:0,0:0:0:0:
247,190,22625,6,0,L|137:204,1,110,12|2,3:0|0:0,0:0:0:0:
138,225,22846,2,0,L|287:205,1,110,12|2,3:0|0:0,0:0:0:0:
253,230,23068,2,0,L|143:244,1,110,4|2,3:0|0:0,0:0:0:0:
142,265,23290,2,0,L|291:245,1,110,4|2,3:0|0:0,0:0:0:0:
257,270,23512,2,0,L|147:284,1,110,4|2,3:0|0:0,0:0:0:0:
152,304,23733,2,0,L|301:284,1,110,4|2,3:0|0:0,0:0:0:0:
359,346,23955,6,0,P|356:278|385:191,1,110,4|4,3:0|3:0,0:0:0:0:
487,101,24250,2,0,P|429:137|339:155,1,110,8|2,0:0|0:0,0:0:0:0:
365,238,24546,1,8,0:1:0:0:
346,226,24619,1,0,0:0:0:0:
328,212,24693,1,8,0:1:0:0:
308,201,24767,1,0,0:0:0:0:
287,192,24842,1,2,0:0:0:0:
233,250,24989,2,0,P|240:337|260:402,1,110,8|2,0:0|0:0,0:0:0:0:
105,253,25285,1,4,3:0:0:0:
166,192,25433,6,0,P|159:105|139:40,1,110,2|8,0:0|0:0,0:0:0:0:
50,32,25728,1,2,0:0:0:0:
44,53,25802,1,0,0:0:0:0:
45,75,25876,1,4,3:0:0:0:
45,97,25950,1,0,0:0:0:0:
48,118,26024,2,0,P|62:183|60:253,1,110,2|8,0:0|0:0,0:0:0:0:
36,346,26319,6,0,P|117:331|176:324,1,110,6|0,3:0|0:0,0:0:0:0:
162,208,26615,2,0,P|230:256|366:277,1,220,2|2,0:0|0:0,0:0:0:0:
386,275,26984,1,0,0:0:0:0:
386,275,27058,2,0,L|369:411,1,110,4|2,3:0|0:0,0:0:0:0:
256,359,27354,5,8,0:1:0:0:
424,231,27576,5,8,0:1:0:0:
269,94,27797,5,8,0:1:0:0:
94,218,28019,5,8,0:1:0:0:
239,231,28241,5,8,0:1:0:0:
120,69,28462,5,8,0:1:0:0:
269,94,28684,6,0,P|349:120|480:113,1,165,4|0,3:0|0:0,0:0:0:0:
450,120,28979,2,0,P|429:50|409:15,1,110,8|2,0:0|0:0,0:0:0:0:
279,17,29275,1,2,0:0:0:0:
257,18,29349,1,2,0:0:0:0:
235,24,29423,1,8,0:0:0:0:
216,36,29497,1,0,0:0:0:0:
203,54,29571,1,2,0:0:0:0:
216,157,29718,6,0,P|227:222|211:369,1,165,8|0,0:0|0:0,0:0:0:0:
207,344,30014,2,0,P|134:341|81:343,1,110,4|8,3:0|0:0,0:0:0:0:
2,253,30309,2,0,P|75:256|128:254,1,110,2|8,0:0|0:0,0:0:0:0:
122,170,30605,1,4,3:0:0:0:
247,261,30753,2,0,P|321:259|371:265,1,110,8|2,0:0|0:0,0:0:0:0:
496,294,31048,6,0,L|488:376,1,55,8|0,0:1|0:0,0:0:0:0:
436,223,31196,2,0,L|430:168,1,55,8|0,0:1|0:0,0:0:0:0:
508,161,31344,1,2,0:0:0:0:
348,223,31492,2,0,P|372:286|452:312,1,110,4|0,3:0|0:0,0:0:0:0:
354,69,31787,2,0,P|330:132|250:158,1,110,8|2,0:0|0:0,0:0:0:0:
161,122,32083,6,0,P|106:129|51:128,1,110,12|2,3:0|0:0,0:0:0:0:
53,108,32305,2,0,P|107:109|162:102,1,110,12|2,3:0|0:0,0:0:0:0:
163,82,32526,2,4,P|108:89|53:87,1,110,4|2,3:0|0:0,3:0:0:0:
52,67,32748,2,0,P|106:68|161:61,1,110,4|2,3:0|0:0,0:0:0:0:
162,41,32969,2,0,P|107:48|52:46,1,110,4|2,3:0|0:0,0:0:0:0:
52,26,33191,2,0,P|106:27|161:20,1,110,4|2,3:0|0:0,0:0:0:0:
248,54,33413,6,0,P|255:126|266:240,1,165,4|0,3:0|0:0,0:0:0:0:
266,237,33709,2,0,P|184:248|107:268,1,110,8|2,0:0|0:0,0:0:0:0:
81,333,34004,1,8,0:1:0:0:
109,350,34078,1,0,0:0:0:0:
141,356,34152,1,8,0:1:0:0:
174,356,34226,1,0,0:0:0:0:
205,346,34300,1,2,0:0:0:0:
157,253,34447,6,0,P|149:170|141:88,1,165,8|0,0:0|0:0,0:0:0:0:
138,73,34743,1,4,3:0:0:0:
283,131,34891,2,0,P|343:151|404:149,1,110,8|2,0:0|0:0,0:0:0:0:
402,149,35112,1,8,0:0:0:0:
402,149,35186,2,0,P|392:230|390:274,1,110,8|4,0:0|3:0,0:0:0:0:
482,177,35482,1,2,0:0:0:0:
409,67,35630,1,8,0:0:0:0:
509,8,35777,5,6,3:0:0:0:
409,67,35925,1,0,0:0:0:0:
322,43,36073,2,0,P|265:42|195:181,1,220,8|2,0:0|0:0,0:0:0:0:
198,189,36443,1,2,0:0:0:0:
198,189,36516,2,0,P|261:175|312:167,1,110,4|2,3:0|0:0,0:0:0:0:
502,222,36812,5,8,0:1:0:0:
339,245,37034,5,8,0:1:0:0:
178,271,37255,5,8,0:1:0:0:
17,297,37477,5,8,0:1:0:0:
178,271,37699,5,8,0:1:0:0:
339,245,37920,5,8,0:1:0:0:
502,222,38142,6,0,P|496:146|512:19,1,165,8|0,1:2|0:0,0:0:0:0:
508,37,38438,2,0,P|424:50|350:55,1,110,8|4,0:0|3:0,0:0:0:0:
283,88,38733,1,2,0:0:0:0:
296,118,38807,1,8,0:0:0:0:
298,150,38881,1,4,3:0:0:0:
294,182,38955,1,0,0:0:0:0:
281,212,39029,1,2,0:0:0:0:
355,266,39176,6,0,P|408:318|446:380,2,110,12|0|0,1:2|0:0|3:0,0:0:0:0:
266,301,39620,2,0,P|146:309|51:343,1,220,8|4,0:0|3:0,0:0:0:0:
36,354,39989,1,0,0:0:0:0:
36,354,40063,1,0,0:0:0:0:
36,354,40137,1,0,0:0:0:0:
36,354,40211,2,0,P|26:283|16:215,1,110,8|2,0:0|0:0,0:0:0:0:
85,23,40507,6,0,P|81:102|108:231,1,165,4|0,3:0|0:0,0:0:0:0:
102,205,40802,2,0,P|189:189|255:179,1,110,8|0,3:2|0:0,0:0:0:0:
260,95,41098,1,2,0:0:0:0:
260,95,41172,1,10,0:0:0:0:
260,95,41245,2,0,P|321:113|326:113,1,55,2|0,0:0|0:0,0:0:0:0:
415,116,41393,1,2,0:0:0:0:
362,195,41541,6,0,P|373:288|259:359,1,220,12|4,1:2|3:0,0:0:0:0:
167,347,41984,2,0,L|93:358,1,55,8|0,3:1|0:0,0:0:0:0:
229,268,42132,2,0,L|283:259,1,55,2|0,3:0|0:0,0:0:0:0:
123,257,42280,2,0,P|110:202|121:77,1,165,0|0,3:0|0:0,0:0:0:0:
121,67,42576,2,0,P|221:79|274:83,1,110,8|2,0:0|0:0,0:0:0:0:
4,18,42871,6,0,P|19:76|0:151,1,110,8|2,1:2|0:0,0:0:0:0:
25,207,43167,2,0,L|39:331,1,110,8|2,0:0|0:0,0:0:0:0:
136,355,43462,1,2,0:0:0:0:
162,335,43536,1,8,0:0:0:0:
194,327,43610,1,4,3:0:0:0:
227,327,43684,1,0,0:0:0:0:
259,335,43758,2,0,L|322:352,1,55,8|0,0:0|0:0,0:0:0:0:
409,368,43906,6,0,P|406:310|450:161,1,165,12|0,1:2|0:0,0:0:0:0:
441,184,44201,1,0,3:0:0:0:
333,213,44349,2,0,P|256:242|191:245,1,110,8|0,0:0|0:0,0:0:0:0:
205,246,44571,1,0,0:0:0:0:
205,246,44644,2,0,P|206:183|219:130,1,110,2|4,0:0|3:0,0:0:0:0:
253,49,44940,1,8,0:0:0:0:
337,113,45088,1,2,0:0:0:0:
416,45,45236,6,0,P|485:66|498:66,1,55,4|0,3:0|0:0,0:0:0:0:
384,193,45383,2,0,P|357:200|332:212,1,55,2|0,0:0|0:0,0:0:0:0:
337,113,45531,2,0,P|219:93|89:78,1,220,8|6,0:0|3:0,0:0:0:0:
3,162,45975,2,0,P|88:170|127:175,1,110,2|8,0:0|0:0,0:0:0:0:
145,250,46270,6,0,L|139:359,1,110,8|0,0:1|3:0,0:0:0:0:
160,361,46492,2,0,L|166:231,1,110,8|0,0:1|3:0,0:0:0:0:
185,255,46713,2,0,L|179:364,1,110,8|0,0:1|3:0,0:0:0:0:
200,368,46935,2,0,L|206:238,1,110,8|0,0:1|3:0,0:0:0:0:
225,262,47156,2,0,L|219:371,1,110,8|0,0:1|3:0,0:0:0:0:
240,373,47378,2,0,L|246:243,1,110,8|0,0:1|3:0,0:0:0:0:
251,178,47600,6,0,P|336:204|449:186,1,165,8|0,1:2|0:0,0:0:0:0:
425,191,47896,2,0,P|439:275|447:331,1,110,8|4,0:0|3:0,0:0:0:0:
499,155,48191,1,2,0:0:0:0:
490,123,48265,1,8,0:0:0:0:
490,89,48339,1,4,3:0:0:0:
497,56,48413,1,0,0:0:0:0:
508,25,48487,1,2,0:0:0:0:
419,36,48635,6,0,P|334:10|201:27,1,220,12|0,1:2|0:0,0:0:0:0:
256,119,49078,2,0,P|178:139|129:130,1,110,8|0,0:0|3:0,0:0:0:0:
285,211,49374,2,0,P|363:191|412:200,1,110,4|0,3:0|0:0,0:0:0:0:
495,269,49669,2,0,L|439:283,1,55,8|0,0:0|0:0,0:0:0:0:
368,357,49817,2,0,L|424:371,1,55,2|0,0:0|0:0,0:0:0:0:
289,301,49965,5,4,3:0:0:0:
256,309,50039,1,0,0:0:0:0:
224,317,50112,1,0,0:0:0:0:
126,358,50260,2,0,P|124:293|79:168,1,165,8|0,1:2|0:0,0:0:0:0:
83,183,50556,2,0,P|150:169|217:149,1,110,2|2,0:0|0:0,0:0:0:0:
299,128,50851,1,2,0:0:0:0:
215,238,50999,6,0,P|134:256|9:306,1,165,12|0,1:2|0:0,0:0:0:0:
25,287,51295,2,0,P|11:220|-9:153,1,110,4|8,3:0|1:2,0:0:0:0:
27,80,51590,1,2,3:0:0:0:
46,90,51664,1,0,0:0:0:0:
67,95,51738,1,0,3:0:0:0:
88,97,51812,1,0,0:0:0:0:
110,97,51886,2,0,P|181:81|240:69,1,110,4|8,3:0|0:0,0:0:0:0:
331,35,52181,1,2,0:0:0:0:
271,137,52329,6,0,P|254:199|269:360,1,220,8|8,1:2|0:0,0:0:0:0:
181,364,52773,1,2,0:0:0:0:
347,324,52920,1,2,0:0:0:0:
347,324,52994,1,8,0:0:0:0:
347,324,53068,2,0,P|424:336|472:343,1,110,4|8,3:0|0:0,0:0:0:0:
328,243,53364,6,0,P|345:172|483:126,1,220,12|4,1:2|3:0,0:0:0:0:
333,130,53807,2,0,P|256:136|190:136,1,110,8|0,0:0|0:0,0:0:0:0:
430,220,54103,1,4,3:0:0:0:
441,250,54176,1,0,0:0:0:0:
444,282,54250,1,4,3:0:0:0:
440,314,54324,1,0,0:0:0:0:
426,344,54398,2,0,P|371:345|316:350,1,110,8|2,0:0|0:0,0:0:0:0:
213,249,54694,5,4,3:0:0:0:
328,243,54842,1,2,3:0:0:0:
225,363,54989,2,0,P|123:360|38:373,1,165,8|0,0:0|3:0,0:0:0:0:
36,367,55285,2,0,P|28:303|14:243,1,110,2|8,0:0|0:0,0:0:0:0:
93,160,55580,2,0,P|85:227|86:238,1,55,4|0,0:0|0:0,0:0:0:0:
19,127,55728,2,0,P|16:99|10:72,1,55,12|0,1:2|0:0,0:0:0:0:
73,14,55876,6,0,P|160:48|244:54,1,146.666666666667,10|4,3:0|3:0,0:0:0:0:
504,122,56270,6,0,P|410:124|330:151,1,146.666666666667,10|4,3:0|3:0,0:0:0:0:
254,357,56664,5,10,3:0:0:0:
203,178,56861,5,4,3:0:0:0:
213,0,57058,6,0,P|278:88|305:206,1,197.99999395752,6|0,3:0|0:0,0:0:0:0:
302,172,57354,1,8,0:0:0:0:
446,274,57502,6,0,P|337:286|221:250,1,197.99999395752,6|0,3:0|0:0,0:0:0:0:
252,265,57798,1,8,0:0:0:0:
99,342,57945,6,0,P|142:241|231:159,1,197.99999395752,6|0,3:0|0:0,0:0:0:0:
202,178,58241,1,8,0:0:0:0:
300,190,58388,6,0,P|402:185|516:302,1,263.99999194336,6|8,3:0|0:0,0:0:0:0:
284,104,58832,2,0,P|224:150|210:222,1,131.99999597168,14|0,3:2|0:0,0:0:0:0:
132,156,59127,2,0,P|124:231|166:291,1,131.99999597168,14|0,0:0|0:0,0:0:0:0:
292,300,59423,6,0,P|139:320|9:357,1,263.99999194336,6|8,3:0|0:0,0:0:0:0:
225,48,59866,2,0,P|376:84|510:96,1,263.99999194336,6|8,3:0|0:0,0:0:0:0:
154,240,60309,2,0,P|148:86|117:11,1,220,6|8,3:0|0:0,0:0:0:0:
394,158,60753,2,0,P|371:310|387:389,1,220,6|8,3:0|0:0,0:0:0:0:
256,192,61196,5,14,3:2:0:0:
256,192,61492,5,14,3:2:0:0:
416,31,61787,5,6,3:0:0:0:
416,31,61861,1,0,0:0:0:0:
416,31,61935,2,0,P|391:94|346:141,1,131.99999597168,4|8,3:0|0:0,0:0:0:0:
461,175,62231,5,6,3:0:0:0:
461,175,62305,1,0,0:0:0:0:
461,175,62379,2,0,P|407:217|345:235,1,131.99999597168,4|8,3:0|0:0,0:0:0:0:
430,321,62674,5,6,3:0:0:0:
430,321,62748,1,0,0:0:0:0:
430,321,62822,2,0,P|362:330|299:315,1,131.99999597168,4|8,3:0|0:0,0:0:0:0:
258,103,63117,6,0,P|268:196|144:332,1,263.99999194336,6|8,3:0|0:0,0:0:0:0:
29,107,63561,2,0,P|94:74|191:67,1,131.99999597168,14|0,3:2|0:0,0:0:0:0:
56,289,63856,2,0,P|78:219|142:146,1,131.99999597168,14|0,3:2|0:0,0:0:0:0:
237,0,64152,6,0,P|315:43|499:85,1,263.99999194336,6|8,3:0|0:0,0:0:0:0:
279,372,64595,2,0,P|201:329|17:287,1,263.99999194336,6|8,3:0|0:0,0:0:0:0:
124,22,65039,2,0,P|158:154|141:245,1,220,6|8,3:0|0:0,0:0:0:0:
382,356,65482,2,0,P|348:224|365:133,1,220,6|8,3:0|0:0,0:0:0:0:
256,192,65925,5,14,3:2:0:0:
256,192,66221,5,14,3:2:0:0:
181,341,66516,6,0,P|131:236|12:158,1,197.99999395752,6|0,3:0|0:0,0:0:0:0:
59,180,66812,1,8,0:0:0:0:
143,51,66960,6,0,P|258:60|385:-3,1,197.99999395752,6|0,3:0|0:0,0:0:0:0:
343,29,67255,1,8,0:0:0:0:
424,145,67403,6,0,P|358:240|350:382,1,197.99999395752,6|0,3:0|0:0,0:0:0:0:
343,329,67698,1,8,0:0:0:0:
247,284,67846,6,0,P|181:257|33:394,1,263.99999194336,6|8,3:0|0:0,0:0:0:0:
256,378,68290,2,0,P|324:329|315:237,1,131.99999597168,14|0,3:2|0:0,0:0:0:0:
423,288,68585,2,0,P|397:208|307:188,1,131.99999597168,14|0,3:2|0:0,0:0:0:0:
238,45,68881,6,0,P|369:41|498:14,1,263.99999194336,6|8,3:0|0:0,0:0:0:0:
271,144,69324,2,0,P|139:147|10:174,1,263.99999194336,6|8,3:0|0:0,0:0:0:0:
231,238,69768,2,0,P|334:236|453:202,1,220,6|8,3:0|0:0,0:0:0:0:
280,334,70211,2,0,P|177:336|58:370,1,220,6|8,3:0|0:0,0:0:0:0:
256,192,70654,5,14,3:2:0:0:
256,192,70950,5,14,3:2:0:0:
128,64,71245,5,6,3:0:0:0:
128,64,71319,1,0,0:0:0:0:
128,64,71393,2,0,P|160:128|256:160,1,131.99999597168,4|8,3:0|0:0,0:0:0:0:
430,145,71689,5,6,3:0:0:0:
430,145,71763,1,0,0:0:0:0:
430,145,71837,2,0,P|359:140|283:208,1,131.99999597168,4|8,3:0|0:0,0:0:0:0:
209,366,72132,5,6,3:0:0:0:
209,366,72206,1,0,0:0:0:0:
209,366,72280,2,0,P|248:307|228:207,1,131.99999597168,4|8,3:0|0:0,0:0:0:0:
107,154,72576,6,0,P|40:238|95:374,1,263.99999194336,6|8,3:0|0:0,0:0:0:0:
331,216,73019,2,0,P|280:156|204:162,1,131.99999597168,14|0,3:2|0:0,0:0:0:0:
376,294,73314,2,0,P|414:225|383:156,1,131.99999597168,14|0,3:2|0:0,0:0:0:0:
492,13,73610,6,0,P|489:137|496:281,1,263.99999194336,6|8,3:0|0:0,0:0:0:0:
341,381,74053,2,0,P|344:257|337:113,1,263.99999194336,6|8,3:0|0:0,0:0:0:0:
180,14,74497,2,0,P|180:92|186:246,1,220,6|8,3:0|0:0,0:0:0:0:
46,371,74940,2,0,P|46:293|40:139,1,220,6|8,3:0|0:0,0:0:0:0:
256,192,75383,5,14,3:2:0:0:
256,192,75679,5,14,3:2:0:0:
47,50,75975,6,0,P|121:79|190:85,1,110,12|2,3:0|0:0,0:0:0:0:
272,56,76270,2,0,P|346:27|415:21,1,110,8|2,0:0|0:0,0:0:0:0:
401,17,76492,1,2,0:0:0:0:
412,48,76566,1,2,0:0:0:0:
411,81,76640,1,10,0:0:0:0:
401,112,76713,2,0,P|387:174|401:238,1,110,2|2,0:0|0:0,0:0:0:0:
481,266,77009,1,12,0:0:0:0:
357,300,77157,2,0,P|313:332|260:347,1,110,0|4,0:0|3:0,0:0:0:0:
157,323,77452,5,8,0:0:0:0:
249,263,77600,1,0,3:0:0:0:
161,211,77748,1,8,0:0:0:0:
253,151,77896,1,0,3:0:0:0:
158,95,78043,2,0,P|84:103|19:104,1,110,2|0,0:0|3:0,0:0:0:0:
3,183,78339,6,0,P|16:237|16:250,1,55,8|0,1:2|0:0,0:0:0:0:
72,342,78487,2,0,P|75:314|84:288,1,55,8|0,1:2|0:0,0:0:0:0:
161,211,78635,2,0,P|212:242|312:257,1,110,2|4,0:0|3:0,0:0:0:0:
336,349,78930,1,2,0:0:0:0:
314,347,79004,1,0,0:0:0:0:
291,345,79078,1,8,0:0:0:0:
269,343,79152,1,0,0:0:0:0:
246,342,79226,1,2,0:0:0:0:
149,325,79374,6,0,P|90:345|16:348,1,110,12|2,3:0|0:0,0:0:0:0:
38,332,79595,2,0,P|92:325|144:307,1,110,12|2,3:0|0:0,0:0:0:0:
139,289,79817,2,0,P|87:307|32:313,1,110,4|2,3:0|0:0,0:0:0:0:
26,296,80039,2,0,P|80:289|132:271,1,110,4|2,3:0|0:0,0:0:0:0:
127,253,80261,2,0,P|75:271|20:277,1,110,4|2,3:0|0:0,0:0:0:0:
17,259,80482,2,0,P|71:252|123:234,1,110,4|2,3:0|0:0,0:0:0:0:
146,114,80704,6,0,P|197:95|252:89,1,110,12|2,3:0|0:0,0:0:0:0:
138,29,80999,1,8,0:0:0:0:
116,27,81073,1,0,0:0:0:0:
94,29,81147,1,2,0:0:0:0:
74,38,81221,1,2,0:0:0:0:
58,53,81295,2,0,P|52:115|79:186,1,110,8|8,1:2|1:2,0:0:0:0:
177,326,81590,2,0,P|183:264|156:193,1,110,2|12,0:0|0:0,0:0:0:0:
260,173,81886,5,0,0:0:0:0:
265,283,82034,1,8,3:0:0:0:
374,278,82181,1,2,0:0:0:0:
371,167,82329,1,4,0:0:0:0:
371,167,82403,1,2,3:0:0:0:
371,167,82477,2,0,P|424:196|502:206,1,110,2|4,0:0|3:0,0:0:0:0:
509,114,82773,1,2,0:0:0:0:
443,27,82920,2,0,P|386:48|370:61,1,55,8|0,0:0|0:0,0:0:0:0:
295,57,83068,6,0,P|282:125|202:218,1,165,8|0,1:2|0:0,0:0:0:0:
210,207,83364,2,0,P|261:245|300:282,1,110,2|8,0:0|0:0,0:0:0:0:
332,364,83659,1,2,0:0:0:0:
349,350,83733,1,0,0:0:0:0:
368,340,83807,1,4,3:0:0:0:
388,333,83881,1,0,0:0:0:0:
409,329,83955,1,8,0:0:0:0:
453,253,84103,6,0,L|463:134,1,110,8|0,0:1|3:0,0:0:0:0:
444,141,84324,2,0,L|434:250,1,110,8|0,0:1|3:0,0:0:0:0:
416,249,84546,2,0,L|426:130,1,110,8|0,0:1|3:0,0:0:0:0:
407,137,84767,2,0,L|397:246,1,110,8|0,0:1|3:0,0:0:0:0:
379,246,84989,2,0,L|389:127,1,110,8|0,0:1|3:0,0:0:0:0:
370,134,85210,2,0,L|360:243,1,110,8|0,0:1|3:0,0:0:0:0:
342,241,85433,1,0,0:0:0:0:
256,192,92526,12,8,93561,0:1:0:0:
184,382,93782,6,0,L|163:283,1,55,8|0,0:1|0:0,0:0:0:0:
328,325,94004,2,0,L|349:226,1,55,8|0,0:1|0:0,0:0:0:0:
185,252,94226,2,0,L|164:153,1,55,8|0,0:1|0:0,0:0:0:0:
327,197,94447,2,0,L|348:98,1,55,8|0,0:1|0:0,0:0:0:0:
184,119,94669,2,0,L|163:20,1,55,8|0,0:1|0:0,0:0:0:0:
327,50,94891,6,0,P|388:66|427:156,1,165,12|0,3:0|0:0,0:0:0:0:
424,176,95186,1,8,0:0:0:0:
356,293,95334,2,0,P|290:274|224:274,1,110,0|2,0:0|0:0,0:0:0:0:
165,204,95630,1,4,3:0:0:0:
162,182,95704,1,8,0:0:0:0:
165,160,95777,1,2,0:0:0:0:
173,139,95851,1,0,0:0:0:0:
184,119,95925,6,0,P|108:136|30:138,1,110,8|0,0:0|0:0,0:0:0:0:
58,237,96221,1,4,3:0:0:0:
146,320,96369,1,8,0:0:0:0:
247,255,96516,2,0,P|300:241|354:235,1,110,4|8,3:0|0:0,0:0:0:0:
356,122,96812,1,4,3:0:0:0:
356,122,96886,1,0,0:0:0:0:
356,122,96960,2,0,P|408:136|459:158,1,110,8|2,0:0|0:0,0:0:0:0:
421,281,97255,6,0,L|408:227,1,55,8|0,0:1|0:0,0:0:0:0:
492,358,97403,2,0,L|504:304,1,55,8|0,0:1|0:0,0:0:0:0:
510,223,97551,1,2,0:0:0:0:
356,338,97699,2,0,P|290:343|176:368,1,165,4|0,3:0|0:0,0:0:0:0:
165,363,97994,2,0,P|157:289|140:236,1,110,8|2,0:0|0:0,0:0:0:0:
247,100,98290,6,0,P|241:154|226:207,1,110,12|2,3:0|0:0,0:0:0:0:
246,212,98512,2,0,P|264:132|266:78,1,110,12|2,3:0|0:0,0:0:0:0:
284,109,98733,2,0,P|278:163|263:216,1,110,4|2,3:0|0:0,0:0:0:0:
283,221,98955,2,0,P|301:141|303:87,1,110,4|2,3:0|0:0,0:0:0:0:
322,116,99176,2,0,P|316:170|301:223,1,110,4|2,3:0|0:0,0:0:0:0:
321,228,99398,2,0,P|339:148|341:94,1,110,4|2,3:0|0:0,0:0:0:0:
340,23,99620,6,0,P|396:47|500:63,1,165,4|0,3:0|0:0,0:0:0:0:
505,59,99915,2,0,P|487:139|485:193,1,110,2|2,0:0|0:0,0:0:0:0:
436,273,100211,1,8,0:1:0:0:
405,284,100285,1,0,0:0:0:0:
373,295,100359,1,8,0:1:0:0:
341,304,100433,1,0,0:0:0:0:
308,312,100507,1,2,0:0:0:0:
241,247,100654,6,0,P|145:231|58:230,1,165,8|0,3:0|0:0,0:0:0:0:
42,230,100950,1,4,3:0:0:0:
0,122,101098,2,0,P|72:131|149:130,1,110,8|4,0:0|3:0,0:0:0:0:
215,107,101393,1,2,0:0:0:0:
219,85,101467,1,2,0:0:0:0:
219,62,101541,1,0,3:0:0:0:
215,40,101615,1,0,0:0:0:0:
205,20,101689,2,0,P|129:21|77:27,1,110,2|8,0:0|0:0,0:0:0:0:
305,72,101984,6,0,P|359:76|414:76,1,110,14|0,3:0|3:0,0:0:0:0:
285,181,102280,2,0,P|309:259|218:367,1,220,10|10,3:0|3:0,0:0:0:0:
141,321,102723,2,0,P|61:338|7:358,1,110,0|8,3:0|0:0,0:0:0:0:
49,250,103019,1,2,0:0:0:0:
59,218,103093,1,2,0:0:0:0:
56,185,103167,6,0,P|46:123|44:112,1,55,8|8,0:0|0:0,0:0:0:0:
137,201,103314,2,0,P|127:139|125:128,1,55,8|12,3:2|3:0,0:0:0:0:
218,217,103462,2,0,P|208:155|206:144,2,55,8|8|0,0:0|0:0|0:0,0:0:0:0:
299,233,103684,1,8,0:0:0:0:
299,233,103758,2,0,P|286:150|265:36,2,146.666666666667,8|12|0,0:0|3:0|0:0,0:0:0:0:
380,249,104349,6,0,P|370:187|356:93,1,137.5
351,82,104792,6,0,P|431:79|481:54,1,110,14|2,3:0|0:0,0:0:0:0:
512,16,105087,1,2,0:0:0:0:
512,16,105161,1,8,0:0:0:0:
512,16,105235,1,8,0:0:0:0:
503,133,105383,1,2,0:0:0:0:
503,133,105457,1,8,0:0:0:0:
503,133,105530,2,0,P|494:200|491:263,1,110,6|6,3:0|3:0,0:0:0:0:
392,331,105826,2,0,P|401:264|404:201,1,110,2|2,0:0|0:0,0:0:0:0:
330,133,106122,1,8,0:0:0:0:
292,154,106195,1,8,0:0:0:0:
248,159,106269,1,8,0:0:0:0:
209,138,106343,1,8,0:0:0:0:
192,97,106417,6,0,L|184:49,2,27.5,8|8|8,0:1|0:1|0:1,0:0:0:0:
117,107,106565,2,0,L|69:115,2,27.5,8|8|8,0:1|0:1|0:1,0:0:0:0:
128,184,106713,1,8,3:1:0:0:
136,204,106787,1,4,3:0:0:0:
141,225,106860,1,4,3:0:0:0:
141,247,106934,1,4,3:0:0:0:
141,269,107008,1,4,3:0:0:0:
137,290,107082,1,4,3:0:0:0:
129,310,107156,6,0,P|203:308|264:322,1,110,14|0,3:0|0:0,0:0:0:0:
243,221,107452,1,4,3:0:0:0:
322,267,107599,2,0,P|387:302|432:344,1,110,8|2,0:0|0:0,0:0:0:0:
430,341,107821,1,8,0:0:0:0:
425,302,107895,1,2,0:0:0:0:
432,264,107969,1,2,0:0:0:0:
453,231,108043,1,8,0:0:0:0:
406,154,108191,2,0,P|387:102|382:35,1,110,8|6,0:0|3:0,0:0:0:0:
272,76,108486,6,0,P|221:88|198:89,2,73.3333333333333,2|2|2,1:3|1:3|1:3,0:0:0:0:
306,156,108782,5,2,1:3:0:0:
319,205,108880,5,2,1:3:0:0:
306,255,108979,5,2,1:3:0:0:
271,292,109077,6,0,P|188:278|119:277,1,110,12|0,1:2|0:0,0:0:0:0:
45,337,109372,1,8,0:0:0:0:
52,242,109520,2,0,P|51:156|13:56,1,165,12|0,1:2|0:0,0:0:0:0:
15,67,109815,1,8,0:0:0:0:
141,76,109963,6,0,P|277:58|351:57,1,165,12|0,1:2|0:0,0:0:0:0:
322,55,110259,1,8,0:0:0:0:
321,144,110407,2,0,P|238:149|157:163,1,165,12|0,1:2|0:0,0:0:0:0:
141,165,110702,1,8,0:0:0:0:
257,310,110850,6,0,P|367:347|450:394,1,165,12|0,1:2|0:0,0:0:0:0:
422,374,111145,1,8,0:0:0:0:
444,288,111293,2,0,P|369:252|290:228,1,165,12|0,1:2|0:0,0:0:0:0:
280,225,111589,1,8,0:0:0:0:
465,111,111737,6,0,P|333:120|267:155,1,165,12|0,1:2|0:0,0:0:0:0:
297,142,112032,1,8,0:0:0:0:
47,114,112180,2,0,P|179:123|245:158,1,165,12|0,1:2|0:0,0:0:0:0:
215,145,112475,1,8,0:0:0:0:
256,46,112623,6,0,L|256:0,32,46.7500008916855,12|0|0|0|0|0|0|0|0|0|0|0|0|0|0|0|0|0|0|0|0|0|0|0|0|0|0|0|0|0|0|0|0,3:3|2:2|2:2|2:2|2:2|2:2|2:2|2:2|2:2|2:2|2:2|2:2|2:2|2:2|2:2|2:2|2:2|2:2|2:2|2:2|2:2|2:2|2:2|2:2|2:2|2:2|2:2|2:2|2:2|2:2|2:2|2:2|2:2,2:2:0:0:
256,73,122672,6,0,L|256:0,2,73.3333333333333,2|2|2,3:1|3:1|3:1,0:0:0:0:
128,11,123263,6,0,P|186:115|191:215,1,197.99999395752,6|0,3:0|0:0,0:0:0:0:
192,211,123558,1,8,0:0:0:0:
307,86,123706,6,0,P|305:205|259:294,1,197.99999395752,6|0,3:0|0:0,0:0:0:0:
262,291,124001,1,8,0:0:0:0:
449,225,124150,6,0,P|387:327|303:381,1,197.99999395752,6|0,3:0|0:0,0:0:0:0:
307,380,124445,1,8,0:0:0:0:
197,371,124593,6,0,P|148:308|-15:214,1,263.99999194336,6|8,3:0|0:0,0:0:0:0:
97,24,125036,2,0,P|73:98|104:190,1,131.99999597168,14|0,3:2|3:0,0:0:0:0:
205,231,125332,2,0,P|221:161|208:88,1,131.99999597168,14|0,3:2|3:0,0:0:0:0:
359,26,125627,6,0,P|366:139|428:287,1,263.99999194336,6|8,3:0|0:0,0:0:0:0:
507,143,126071,2,0,P|389:178|254:315,1,263.99999194336,6|8,3:0|0:0,0:0:0:0:
6,328,126514,2,0,P|124:293|259:156,1,263.99999194336,6|8,3:0|0:0,0:0:0:0:
66,180,126957,2,0,P|137:288|268:378,1,263.99999194336,6|8,3:0|0:0,0:0:0:0:
256,192,127401,5,14,3:2:0:0:
256,192,127696,5,14,3:2:0:0:
164,168,127992,5,6,3:0:0:0:
164,168,128066,1,0,0:0:0:0:
164,168,128140,2,0,P|87:165|27:189,1,131.99999597168,4|8,3:0|0:0,0:0:0:0:
281,283,128435,5,6,3:0:0:0:
281,283,128509,1,0,0:0:0:0:
281,283,128583,2,0,P|317:351|368:390,1,131.99999597168,4|8,3:0|0:0,0:0:0:0:
322,124,128879,5,6,3:0:0:0:
322,124,128953,1,0,0:0:0:0:
322,124,129027,2,0,P|363:59|371:-4,1,131.99999597168,4|8,3:0|0:0,0:0:0:0:
476,72,129322,6,0,P|428:152|424:340,1,263.99999194336,6|8,3:0|0:0,0:0:0:0:
308,296,129765,2,0,P|240:320|144:324,1,131.99999597168,14|0,3:2|3:0,0:0:0:0:
322,124,130061,2,0,P|284:185|212:248,1,131.99999597168,14|0,3:2|3:0,0:0:0:0:
160,52,130356,6,0,P|288:44|464:8,1,263.99999194336,6|8,3:0|0:0,3:0:0:0:
168,136,130800,2,0,P|296:128|472:92,1,263.99999194336,6|8,3:0|0:0,0:0:0:0:
340,240,131243,2,0,P|212:232|36:196,1,263.99999194336,6|8,3:0|0:0,0:0:0:0:
332,324,131687,2,0,P|204:316|28:280,1,263.99999194336,6|8,3:0|0:0,0:0:0:0:
256,192,132130,5,14,3:2:0:0:
256,192,132425,5,14,3:2:0:0:
80,40,132721,6,0,P|152:72|192:120,1,110,2|2,0:0|0:0,0:0:0:0:
96,144,133017,2,0,P|56:176|12:256,1,110,8|6,0:0|3:0,0:0:0:0:
104,260,133312,1,0,0:0:0:0:
126,284,133386,1,10,0:0:0:0:
145,310,133460,1,4,3:0:0:0:
154,341,133534,1,10,0:0:0:0:
165,371,133608,6,0,P|233:359|313:355,1,110,2|12,0:0|1:2,0:0:0:0:
412,336,133903,1,0,0:0:0:0:
328,272,134051,2,0,P|316:212|340:88,1,165,4|0,3:0|0:0,0:0:0:0:
336,100,134347,1,0,0:0:0:0:
500,212,134494,2,0,P|508:304|492:364,1,110,8|4,0:0|3:0,0:0:0:0:
424,144,134790,2,0,L|432:24,1,110,2|2,0:0|0:0,0:0:0:0:
336,100,135086,6,0,P|268:136|152:144,1,165,12|0,3:0|0:0,0:0:0:0:
164,148,135381,1,8,0:0:0:0:
92,80,135529,1,6,3:0:0:0:
21,151,135677,1,2,0:0:0:0:
39,178,135751,1,10,0:0:0:0:
51,208,135824,1,4,3:0:0:0:
57,240,135898,1,10,0:0:0:0:
57,273,135972,1,2,0:0:0:0:
160,288,136120,6,0,P|248:272|368:296,1,165,8|0,0:0|0:0,0:0:0:0:
340,288,136416,2,0,P|356:200|376:140,1,110,4|8,3:0|0:0,0:0:0:0:
380,96,136711,1,4,3:0:0:0:
280,144,136859,1,2,0:0:0:0:
240,40,137007,1,4,3:0:0:0:
344,8,137155,2,0,P|328:96|308:156,1,110,0|8,3:0|0:0,0:0:0:0:
188,248,137450,6,0,P|174:194|166:140,1,110,6|4,3:0|3:0,0:0:0:0:
140,40,137746,2,0,P|76:84|-4:108,1,110,8|2,0:0|0:0,0:0:0:0:
168,140,138041,1,2,0:0:0:0:
200,144,138115,1,8,0:0:0:0:
232,148,138189,1,4,3:0:0:0:
264,152,138263,1,10,0:0:0:0:
296,156,138337,6,0,L|426:173,1,110,2|12,0:0|1:2,0:0:0:0:
462,99,138632,1,0,0:0:0:0:
477,230,138780,2,0,P|443:309|317:337,1,220,4|0,3:0|3:0,0:0:0:0:
200,262,139223,2,0,P|232:341|218:390,1,110,8|4,0:0|3:0,0:0:0:0:
305,252,139519,2,0,P|273:173|287:124,1,110,0|0,3:0|0:0,0:0:0:0:
186,178,139815,6,0,P|110:191|68:339,1,220,12|8,0:0|0:0,0:0:0:0:
52,195,140258,2,0,P|41:124|20:75,1,110,2|0,0:0|0:0,0:0:0:0:
169,294,140554,2,0,P|220:275|275:269,1,110,2|4,0:0|3:0,0:0:0:0:
295,269,140775,1,0,0:0:0:0:
295,269,140849,1,6,3:0:0:0:
381,330,140997,1,0,0:0:0:0:
389,226,141145,6,0,P|399:153|408:83,2,110,4|8|4,3:0|0:0|3:0,0:0:0:0:
295,269,141588,1,8,0:0:0:0:
302,159,141736,1,4,3:0:0:0:
192,146,141884,1,4,3:0:0:0:
182,254,142031,1,0,0:0:0:0:
307,269,142179,6,0,P|381:264|452:248,1,131.99999597168,6|4,3:0|3:0,0:0:0:0:
452,247,142401,1,0,0:0:0:0:
452,247,142475,1,8,0:0:0:0:
432,141,142622,6,0,P|367:154|302:158,1,131.99999597168,6|4,3:0|3:0,0:0:0:0:
288,158,142844,1,0,0:0:0:0:
288,158,142918,1,8,0:0:0:0:
191,146,143066,6,0,P|195:65|211:-2,1,131.99999597168,6|4,3:0|3:0,0:0:0:0:
211,5,143288,1,0,0:0:0:0:
211,5,143361,1,8,0:0:0:0:
109,3,143509,6,0,P|96:67|94:133,1,131.99999597168,6|4,3:0|3:0,0:0:0:0:
96,146,143731,1,0,0:0:0:0:
96,146,143805,1,8,0:0:0:0:
79,234,143953,6,0,P|144:247|209:251,1,131.99999597168,14|0,3:2|3:0,0:0:0:0:
204,361,144248,2,0,P|130:356|59:340,1,131.99999597168,14|0,3:2|3:0,0:0:0:0:
297,365,144544,6,0,P|308:197|315:94,1,263.99999194336,6|8,3:0|0:0,0:0:0:0:
394,275,144987,2,0,P|405:107|412:4,1,263.99999194336,6|8,3:0|0:0,0:0:0:0:
227,36,145430,2,0,P|218:167|209:299,1,263.99999194336,6|8,3:0|0:0,0:0:0:0:
121,101,145874,2,0,P|112:232|103:364,1,263.99999194336,6|8,3:0|0:0,0:0:0:0:
256,192,146317,5,14,3:2:0:0:
256,192,146613,5,14,3:2:0:0:
336,352,146908,6,0,P|412:328|488:320,1,131.99999597168,6|4,3:0|3:0,0:0:0:0:
480,320,147130,1,0,0:0:0:0:
480,320,147204,1,8,0:0:0:0:
492,236,147352,6,0,P|468:160|460:84,1,131.99999597168,6|4,3:0|3:0,0:0:0:0:
464,88,147573,1,0,0:0:0:0:
464,88,147647,1,8,0:0:0:0:
380,60,147795,6,0,P|304:84|228:92,1,131.99999597168,6|4,3:0|3:0,0:0:0:0:
232,88,148017,1,0,0:0:0:0:
232,88,148090,1,8,0:0:0:0:
200,168,148238,6,0,P|224:244|232:320,1,131.99999597168,6|4,3:0|3:0,0:0:0:0:
232,320,148460,1,0,0:0:0:0:
232,320,148534,1,8,0:0:0:0:
128,352,148682,6,0,P|48:340|-16:304,1,131.99999597168,14|0,3:2|3:0,0:0:0:0:
24,228,148977,2,0,P|104:240|168:276,1,131.99999597168,14|0,3:2|3:0,0:0:0:0:
112,136,149273,6,0,P|192:168|392:180,1,263.99999194336,6|8,3:0|0:0,0:0:0:0:
392,84,149716,2,0,P|312:52|112:40,1,263.99999194336,6|8,3:0|0:0,0:0:0:0:
28,88,150159,2,0,P|32:184|80:344,1,263.99999194336,6|8,3:0|0:0,0:0:0:0:
188,320,150603,2,0,P|184:224|136:64,1,263.99999194336,6|10,3:0|0:0,0:0:0:0:
256,192,151046,5,14,3:2:0:0:
256,192,151342,5,14,3:2:0:0:
324,80,151637,6,0,P|400:108|468:108,1,110,12|2,3:0|0:0,0:0:0:0:
504,220,151933,2,0,P|428:192|360:192,1,110,8|2,0:0|0:0,0:0:0:0:
367,197,152155,1,2,0:0:0:0:
377,228,152228,1,2,0:0:0:0:
379,260,152302,1,10,0:0:0:0:
371,292,152376,2,0,P|298:304|249:316,1,110,2|2,0:0|0:0,0:0:0:0:
185,361,152672,5,12,0:0:0:0:
186,268,152820,2,0,P|132:256|77:247,1,110,0|4,0:0|3:0,0:0:0:0:
20,181,153115,1,8,0:0:0:0:
57,101,153263,1,4,3:0:0:0:
117,164,153411,1,8,0:0:0:0:
150,82,153558,1,4,3:0:0:0:
206,149,153706,2,0,P|269:142|343:128,1,110,8|0,0:0|0:0,0:0:0:0:
387,177,154002,6,0,P|403:235|405:252,1,55,8|0,0:1|0:0,0:0:0:0:
453,126,154150,2,0,P|437:68|435:51,1,55,8|0,0:1|0:0,0:0:0:0:
499,17,154297,2,0,P|439:-6|363:24,1,110,2|4,0:0|3:0,0:0:0:0:
321,47,154593,1,2,0:0:0:0:
300,54,154667,1,0,0:0:0:0:
277,53,154741,1,8,0:0:0:0:
255,49,154815,1,0,0:0:0:0:
233,44,154889,1,2,0:0:0:0:
185,116,155036,6,0,L|61:130,1,110,12|2,3:0|0:0,0:0:0:0:
78,147,155258,2,0,L|187:134,1,110,12|2,3:0|0:0,0:0:0:0:
190,154,155480,2,0,L|66:168,1,110,4|2,3:0|0:0,0:0:0:0:
83,185,155702,2,0,L|192:172,1,110,4|2,3:0|0:0,0:0:0:0:
197,191,155923,2,0,L|73:205,1,110,4|2,3:0|0:0,0:0:0:0:
90,222,156145,2,0,L|199:209,1,110,4|2,3:0|0:0,0:0:0:0:
273,264,156366,6,0,P|286:326|279:388,1,110,12|2,3:0|0:0,0:0:0:0:
421,343,156662,1,2,3:0:0:0:
408,312,156736,1,0,0:0:0:0:
406,278,156810,1,2,0:0:0:0:
416,246,156884,1,2,0:0:0:0:
429,216,156957,2,0,P|374:210|320:199,1,110,8|8,0:1|0:1,0:0:0:0:
237,254,157253,2,0,P|237:198|215:100,1,110,2|12,0:0|0:0,0:0:0:0:
214,57,157549,5,0,0:0:0:0:
142,139,157696,1,8,0:0:0:0:
44,87,157844,1,4,3:0:0:0:
119,6,157992,1,4,3:0:0:0:
119,6,158066,1,8,0:0:0:0:
119,6,158140,2,0,P|212:25|267:27,1,110,8|4,0:0|3:0,0:0:0:0:
307,77,158435,1,4,3:0:0:0:
381,20,158583,2,0,P|437:27|448:28,1,55,8|0,0:0|0:0,0:0:0:0:
300,88,158731,6,0,P|309:162|275:273,1,165,8|0,0:1|0:0,0:0:0:0:
272,258,159026,2,0,P|189:250|135:251,1,110,2|8,0:0|0:0,0:0:0:0:
65,286,159322,1,8,0:0:0:0:
59,264,159396,1,2,0:0:0:0:
59,241,159470,1,4,3:0:0:0:
63,219,159544,1,0,0:0:0:0:
70,198,159618,1,8,0:0:0:0:
137,127,159765,6,0,P|136:72|119:20,1,110,8|0,0:1|3:0,0:0:0:0:
140,16,159987,2,0,P|157:68|158:122,1,110,8|0,0:1|3:0,0:0:0:0:
179,123,160209,2,0,P|177:68|160:16,1,110,8|0,0:1|3:0,0:0:0:0:
180,16,160430,2,0,P|197:68|198:122,1,110,8|0,0:1|3:0,0:0:0:0:
219,123,160652,2,0,P|217:68|200:16,1,110,8|0,0:1|3:0,0:0:0:0:
221,16,160874,2,0,P|238:68|239:122,1,110,8|0,0:1|3:0,0:0:0:0:
224,203,161095,6,0,P|322:202|413:225,1,165,12|0,3:0|0:0,0:0:0:0:
398,221,161391,2,0,P|390:131|395:102,1,110,8|4,0:0|3:0,0:0:0:0:
488,222,161687,1,2,0:0:0:0:
496,253,161760,1,10,0:0:0:0:
496,286,161834,1,2,0:0:0:0:
490,318,161908,1,10,0:0:0:0:
480,349,161982,2,0,P|414:343|343:346,1,110,2|12,0:0|0:0,0:0:0:0:
310,263,162278,6,0,P|282:310|250:355,1,110,0|4,0:0|3:0,0:0:0:0:
141,367,162573,1,8,0:0:0:0:
92,293,162721,1,4,3:0:0:0:
163,241,162869,1,8,0:0:0:0:
213,313,163017,1,4,3:0:0:0:
155,233,163164,2,0,P|135:172|163:89,1,110,8|0,0:0|0:0,0:0:0:0:
177,3,163460,6,0,P|185:68|177:94,1,55,8|0,0:1|0:0,0:0:0:0:
254,149,163608,2,0,P|255:121|263:95,1,55,8|0,0:1|0:0,0:0:0:0:
321,23,163756,2,0,P|378:42|452:59,1,110,2|4,0:0|3:0,0:0:0:0:
494,142,164051,1,2,0:0:0:0:
472,144,164125,1,0,0:0:0:0:
450,148,164199,1,8,0:0:0:0:
428,154,164273,1,0,0:0:0:0:
407,161,164347,1,2,0:0:0:0:
347,226,164494,6,0,P|351:293|350:364,1,110,12|2,3:0|0:0,0:0:0:0:
332,339,164716,2,0,P|331:284|327:229,1,110,12|2,3:0|0:0,0:0:0:0:
309,228,164938,2,0,P|313:295|312:366,1,110,4|2,3:0|0:0,0:0:0:0:
294,341,165160,2,0,P|293:286|289:231,1,110,4|2,3:0|0:0,0:0:0:0:
271,229,165381,2,0,P|275:296|274:367,1,110,4|2,3:0|0:0,0:0:0:0:
256,342,165603,2,0,P|255:287|251:232,1,110,4|2,3:0|0:0,0:0:0:0:
199,132,165824,6,0,P|147:186|41:237,1,165,12|0,3:0|0:0,0:0:0:0:
43,241,166120,2,0,P|43:295|47:350,1,110,8|4,0:0|3:0,0:0:0:0:
177,374,166416,2,0,P|232:348|257:341,1,55,8|0,0:1|0:0,0:0:0:0:
191,273,166563,2,0,P|136:299|111:306,1,55,8|0,0:1|0:0,0:0:0:0:
289,283,166711,2,0,P|351:298|434:307,1,110,2|12,0:0|0:0,0:0:0:0:
467,375,167007,5,0,0:0:0:0:
507,215,167155,2,0,P|445:200|362:191,1,110,4|8,3:0|0:0,0:0:0:0:
252,193,167450,1,4,3:0:0:0:
252,193,167524,1,8,0:0:0:0:
252,193,167598,2,0,P|263:135|262:32,1,110,8|4,0:0|3:0,0:0:0:0:
376,0,167893,1,4,3:0:0:0:
378,122,168041,1,8,0:0:0:0:
267,61,168189,6,0,P|211:70|93:72,1,165,8|0,0:1|0:0,0:0:0:0:
73,67,168485,2,0,P|62:125|63:228,1,110,2|8,0:0|0:0,0:0:0:0:
144,293,168780,1,8,0:0:0:0:
153,273,168854,1,2,0:0:0:0:
158,251,168928,1,4,3:0:0:0:
162,229,169002,1,0,0:0:0:0:
162,206,169076,1,8,0:0:0:0:
253,149,169223,6,0,P|342:165|401:172,1,110,8|0,0:1|3:0,0:0:0:0:
361,189,169445,2,0,P|306:180|252:170,1,110,8|0,0:1|3:0,0:0:0:0:
245,190,169667,2,0,P|334:206|393:213,1,110,8|0,0:1|3:0,0:0:0:0:
353,230,169889,2,0,P|298:221|244:211,1,110,8|0,0:1|3:0,0:0:0:0:
238,231,170110,2,0,P|327:247|386:254,1,110,8|0,0:1|3:0,0:0:0:0:
346,271,170332,2,0,P|291:262|237:252,1,110,8|0,0:1|3:0,0:0:0:0:
