osu file format v14

[General]
AudioFilename: audio.ogg
AudioLeadIn: 0
PreviewTime: 122672
Countdown: 0
SampleSet: Soft
StackLeniency: 0.7
Mode: 3
LetterboxInBreaks: 0
SpecialStyle: 0
WidescreenStoryboard: 1

[Editor]
Bookmarks: 9768,13167,17748,103093,161613
DistanceSpacing: 0.8
BeatDivisor: 4
GridSize: 32
TimelineZoom: 1.9

[Metadata]
Title:Doku
TitleUnicode:毒
Artist:Hakushi Hasegawa
ArtistUnicode:長谷川白紙
Creator:NzArs
Version:Hard
Source:
Tags:Breakcore Nu Jazz Jazzstep Math Rock Breaks Art Pop Glitch Pop Electronic Japanese Broken Handstream Broken HS Technical 草木萌動 Soumoku Houdou Somoku Hodo Music Mine Musicmine 株式会社ミュージックマイン 2018
BeatmapID:4221376
BeatmapSetID:1910705

[Difficulty]
HPDrainRate:7.5
CircleSize:4
OverallDifficulty:7.5
ApproachRate:5
SliderMultiplier:1.4
SliderTickRate:1

[Events]
//Background and Video events
0,0,"Fa8G6wsWYAAh5JH.jpeg",0,0
//Break Periods
//Storyboard Layer 0 (Background)
//Storyboard Layer 1 (Fail)
//Storyboard Layer 2 (Pass)
//Storyboard Layer 3 (Foreground)
//Storyboard Layer 4 (Overlay)
//Storyboard Sound Samples

[TimingPoints]
310,295.566502463054,4,2,1,50,1,0
57058,-100,4,2,1,50,0,1
75975,-100,4,2,1,50,0,0
104792,295.566502463054,4,2,1,50,1,0
109077,295.566502463054,3,2,1,50,1,0
112623,295.566502463054,4,2,1,50,1,0
123263,-100,4,2,1,50,0,1
151637,-100,4,2,1,50,0,0

[HitObjects]
448,192,310,5,0,0:0:0:0:
64,192,1344,1,0,0:0:0:0:
448,192,2674,1,0,0:0:0:0:
192,192,3709,5,0,0:0:0:0:
192,192,3930,1,0,0:0:0:0:
320,192,4152,1,0,0:0:0:0:
320,192,4374,1,0,0:0:0:0:
448,192,4595,1,0,0:0:0:0:
448,192,4817,1,0,0:0:0:0:
64,192,5039,1,0,0:0:0:0:
448,192,6073,1,0,0:0:0:0:
64,192,7403,1,0,0:0:0:0:
192,192,8438,1,0,0:0:0:0:
192,192,8659,1,0,0:0:0:0:
320,192,8881,1,0,0:0:0:0:
320,192,9103,1,0,0:0:0:0:
448,192,9324,1,0,0:0:0:0:
448,192,9546,1,0,0:0:0:0:
192,192,9768,1,0,0:0:0:0:
64,192,9768,1,0,0:0:0:0:
320,192,9768,1,0,0:0:0:0:
320,192,9915,1,0,0:0:0:0:
64,192,10063,1,0,0:0:0:0:
448,192,10063,1,0,0:0:0:0:
320,192,10211,1,0,0:0:0:0:
192,192,10285,1,0,0:0:0:0:
448,192,10359,1,0,0:0:0:0:
64,192,10433,1,0,0:0:0:0:
192,192,10507,1,0,0:0:0:0:
320,192,10507,1,0,0:0:0:0:
64,192,10580,1,0,0:0:0:0:
320,192,10654,1,0,0:0:0:0:
192,192,10802,1,0,0:0:0:0:
448,192,10802,1,0,0:0:0:0:
320,192,10950,1,0,0:0:0:0:
64,192,11098,1,0,0:0:0:0:
448,192,11245,1,0,0:0:0:0:
320,192,11245,1,0,0:0:0:0:
192,192,11393,1,0,0:0:0:0:
320,192,11541,1,0,0:0:0:0:
448,192,11541,1,0,0:0:0:0:
64,192,11689,1,0,0:0:0:0:
192,192,11763,1,0,0:0:0:0:
448,192,11837,1,0,0:0:0:0:
320,192,11837,1,0,0:0:0:0:
192,192,11984,1,0,0:0:0:0:
64,192,12132,1,0,0:0:0:0:
448,192,12132,1,0,0:0:0:0:
320,192,12132,1,0,0:0:0:0:
64,192,12280,1,0,0:0:0:0:
448,192,12280,1,0,0:0:0:0:
192,192,12428,1,0,0:0:0:0:
320,192,12428,1,0,0:0:0:0:
192,192,12576,1,0,0:0:0:0:
448,192,12576,1,0,0:0:0:0:
64,192,12649,1,0,0:0:0:0:
320,192,12723,1,0,0:0:0:0:
64,192,12871,1,0,0:0:0:0:
448,192,12871,1,0,0:0:0:0:
192,192,13019,1,0,0:0:0:0:
448,192,13167,1,0,0:0:0:0:
320,192,13167,1,0,0:0:0:0:
192,192,13314,1,0,0:0:0:0:
320,192,13314,1,0,0:0:0:0:
64,192,13388,1,0,0:0:0:0:
192,192,13536,1,0,0:0:0:0:
448,192,13536,1,0,0:0:0:0:
320,192,13610,1,0,0:0:0:0:
64,192,13758,1,0,0:0:0:0:
192,192,13758,1,0,0:0:0:0:
448,192,13832,1,0,0:0:0:0:
192,192,13979,1,0,0:0:0:0:
320,192,13979,1,0,0:0:0:0:
64,192,14053,1,0,0:0:0:0:
448,192,14201,1,0,0:0:0:0:
192,192,14201,1,0,0:0:0:0:
320,192,14275,1,0,0:0:0:0:
64,192,14423,1,0,0:0:0:0:
192,192,14497,1,0,0:0:0:0:
448,192,14497,1,0,0:0:0:0:
320,192,14497,1,0,0:0:0:0:
192,192,14644,1,0,0:0:0:0:
320,192,14792,1,0,0:0:0:0:
448,192,14792,1,0,0:0:0:0:
320,192,14940,1,0,0:0:0:0:
192,192,15014,1,0,0:0:0:0:
64,192,15088,1,0,0:0:0:0:
448,192,15088,1,0,0:0:0:0:
64,192,15236,1,0,0:0:0:0:
448,192,15236,1,0,0:0:0:0:
192,192,15383,1,0,0:0:0:0:
320,192,15457,1,0,0:0:0:0:
448,192,15531,1,0,0:0:0:0:
192,192,15531,1,0,0:0:0:0:
320,192,15679,1,0,0:0:0:0:
448,192,15827,1,0,0:0:0:0:
64,192,15827,1,0,0:0:0:0:
320,192,15975,1,0,0:0:0:0:
192,192,16122,1,0,0:0:0:0:
64,192,16122,1,0,0:0:0:0:
320,192,16196,1,0,0:0:0:0:
448,192,16196,1,0,0:0:0:0:
64,192,16270,1,0,0:0:0:0:
192,192,16344,1,0,0:0:0:0:
448,192,16418,1,0,0:0:0:0:
192,192,16566,1,0,0:0:0:0:
320,192,16566,1,0,0:0:0:0:
64,192,16713,1,0,0:0:0:0:
448,192,16713,1,0,0:0:0:0:
320,192,16861,1,0,0:0:0:0:
192,192,16861,1,0,0:0:0:0:
64,192,16861,1,0,0:0:0:0:
192,192,17009,1,0,0:0:0:0:
448,192,17083,1,0,0:0:0:0:
64,192,17157,1,0,0:0:0:0:
320,192,17157,1,0,0:0:0:0:
192,192,17305,1,0,0:0:0:0:
448,192,17305,1,0,0:0:0:0:
320,192,17452,1,0,0:0:0:0:
192,192,17526,1,0,0:0:0:0:
320,192,17600,1,0,0:0:0:0:
192,192,17748,1,0,0:0:0:0:
64,192,17748,1,0,0:0:0:0:
448,192,17748,1,0,0:0:0:0:
448,192,17896,1,0,0:0:0:0:
64,192,17896,1,0,0:0:0:0:
320,192,18117,1,0,0:0:0:0:
192,192,18117,1,0,0:0:0:0:
192,192,18339,1,0,0:0:0:0:
448,192,18339,1,0,0:0:0:0:
64,192,18561,1,0,0:0:0:0:
192,192,18561,1,0,0:0:0:0:
320,192,18782,1,0,0:0:0:0:
448,192,18782,1,0,0:0:0:0:
320,192,19004,1,0,0:0:0:0:
192,192,19004,1,0,0:0:0:0:
64,192,19226,1,0,0:0:0:0:
320,192,19226,1,0,0:0:0:0:
448,192,19226,1,0,0:0:0:0:
192,192,19374,1,0,0:0:0:0:
64,192,19521,1,0,0:0:0:0:
448,192,19521,1,0,0:0:0:0:
192,192,19669,1,0,0:0:0:0:
320,192,19743,1,0,0:0:0:0:
64,192,19817,1,0,0:0:0:0:
448,192,19891,1,0,0:0:0:0:
192,192,19965,1,0,0:0:0:0:
320,192,19965,1,0,0:0:0:0:
448,192,20039,1,0,0:0:0:0:
64,192,20112,1,0,0:0:0:0:
320,192,20186,1,0,0:0:0:0:
192,192,20260,1,0,0:0:0:0:
448,192,20260,1,0,0:0:0:0:
64,192,20408,1,0,0:0:0:0:
192,192,20556,1,0,0:0:0:0:
320,192,20704,1,0,0:0:0:0:
448,192,20704,1,0,0:0:0:0:
192,192,20851,1,0,0:0:0:0:
320,192,20999,1,0,0:0:0:0:
448,192,20999,1,0,0:0:0:0:
64,192,21147,1,0,0:0:0:0:
192,192,21221,1,0,0:0:0:0:
448,192,21295,1,0,0:0:0:0:
320,192,21295,1,0,0:0:0:0:
192,192,21443,1,0,0:0:0:0:
64,192,21590,1,0,0:0:0:0:
448,192,21590,1,0,0:0:0:0:
64,192,21738,1,0,0:0:0:0:
448,192,21738,1,0,0:0:0:0:
320,192,21886,1,0,0:0:0:0:
192,192,21886,1,0,0:0:0:0:
448,192,21960,1,0,0:0:0:0:
64,192,22034,1,0,0:0:0:0:
320,192,22108,1,0,0:0:0:0:
192,192,22181,1,0,0:0:0:0:
320,192,22255,1,0,0:0:0:0:
448,192,22329,1,0,0:0:0:0:
64,192,22329,1,0,0:0:0:0:
192,192,22477,1,0,0:0:0:0:
64,192,22477,1,0,0:0:0:0:
320,192,22625,1,0,0:0:0:0:
448,192,22625,1,0,0:0:0:0:
320,192,22773,1,0,0:0:0:0:
192,192,22773,1,0,0:0:0:0:
64,192,22846,1,0,0:0:0:0:
448,192,22994,1,0,0:0:0:0:
192,192,22994,1,0,0:0:0:0:
320,192,23068,1,0,0:0:0:0:
192,192,23216,1,0,0:0:0:0:
64,192,23216,1,0,0:0:0:0:
448,192,23290,1,0,0:0:0:0:
320,192,23438,1,0,0:0:0:0:
192,192,23438,1,0,0:0:0:0:
64,192,23511,1,0,0:0:0:0:
192,192,23659,1,0,0:0:0:0:
448,192,23659,1,0,0:0:0:0:
320,192,23733,1,0,0:0:0:0:
64,192,23881,1,0,0:0:0:0:
320,192,23955,1,0,0:0:0:0:
448,192,23955,1,0,0:0:0:0:
192,192,23955,1,0,0:0:0:0:
64,192,24103,1,0,0:0:0:0:
320,192,24250,1,0,0:0:0:0:
192,192,24250,1,0,0:0:0:0:
448,192,24324,1,0,0:0:0:0:
320,192,24398,1,0,0:0:0:0:
192,192,24472,1,0,0:0:0:0:
64,192,24546,1,0,0:0:0:0:
448,192,24546,1,0,0:0:0:0:
64,192,24694,1,0,0:0:0:0:
448,192,24694,1,0,0:0:0:0:
192,192,24768,1,0,0:0:0:0:
320,192,24842,1,0,0:0:0:0:
64,192,24915,1,0,0:0:0:0:
448,192,24989,1,0,0:0:0:0:
192,192,24989,1,0,0:0:0:0:
448,192,25137,1,0,0:0:0:0:
192,192,25285,1,0,0:0:0:0:
320,192,25285,1,0,0:0:0:0:
320,192,25433,1,0,0:0:0:0:
192,192,25580,1,0,0:0:0:0:
64,192,25580,1,0,0:0:0:0:
320,192,25654,1,0,0:0:0:0:
448,192,25654,1,0,0:0:0:0:
64,192,25728,1,0,0:0:0:0:
192,192,25802,1,0,0:0:0:0:
448,192,25876,1,0,0:0:0:0:
192,192,26024,1,0,0:0:0:0:
320,192,26024,1,0,0:0:0:0:
64,192,26172,1,0,0:0:0:0:
448,192,26172,1,0,0:0:0:0:
320,192,26319,1,0,0:0:0:0:
192,192,26319,1,0,0:0:0:0:
64,192,26319,1,0,0:0:0:0:
192,192,26467,1,0,0:0:0:0:
448,192,26541,1,0,0:0:0:0:
64,192,26615,1,0,0:0:0:0:
320,192,26615,1,0,0:0:0:0:
192,192,26763,1,0,0:0:0:0:
448,192,26763,1,0,0:0:0:0:
320,192,26837,1,0,0:0:0:0:
192,192,26910,1,0,0:0:0:0:
320,192,27058,1,0,0:0:0:0:
64,192,27058,1,0,0:0:0:0:
192,192,27206,1,0,0:0:0:0:
448,192,27206,1,0,0:0:0:0:
320,192,27354,1,0,0:0:0:0:
192,192,27354,1,0,0:0:0:0:
320,192,27576,1,0,0:0:0:0:
64,192,27576,1,0,0:0:0:0:
64,192,27797,1,0,0:0:0:0:
192,192,27797,1,0,0:0:0:0:
192,192,28019,1,0,0:0:0:0:
320,192,28019,1,0,0:0:0:0:
64,192,28241,1,0,0:0:0:0:
448,192,28241,1,0,0:0:0:0:
320,192,28462,1,0,0:0:0:0:
448,192,28462,1,0,0:0:0:0:
192,192,28684,1,0,0:0:0:0:
64,192,28684,1,0,0:0:0:0:
448,192,28684,1,0,0:0:0:0:
192,192,28832,1,0,0:0:0:0:
448,192,28979,1,0,0:0:0:0:
64,192,28979,1,0,0:0:0:0:
320,192,29127,1,0,0:0:0:0:
192,192,29201,1,0,0:0:0:0:
448,192,29275,1,0,0:0:0:0:
64,192,29349,1,0,0:0:0:0:
320,192,29423,1,0,0:0:0:0:
192,192,29423,1,0,0:0:0:0:
64,192,29497,1,0,0:0:0:0:
448,192,29571,1,0,0:0:0:0:
192,192,29644,1,0,0:0:0:0:
320,192,29718,1,0,0:0:0:0:
64,192,29718,1,0,0:0:0:0:
192,192,29866,1,0,0:0:0:0:
320,192,30014,1,0,0:0:0:0:
192,192,30162,1,0,0:0:0:0:
64,192,30162,1,0,0:0:0:0:
320,192,30309,1,0,0:0:0:0:
192,192,30457,1,0,0:0:0:0:
64,192,30457,1,0,0:0:0:0:
448,192,30605,1,0,0:0:0:0:
320,192,30679,1,0,0:0:0:0:
64,192,30753,1,0,0:0:0:0:
192,192,30753,1,0,0:0:0:0:
192,192,30901,1,0,0:0:0:0:
64,192,31048,1,0,0:0:0:0:
448,192,31048,1,0,0:0:0:0:
64,192,31196,1,0,0:0:0:0:
448,192,31196,1,0,0:0:0:0:
320,192,31344,1,0,0:0:0:0:
192,192,31344,1,0,0:0:0:0:
320,192,31492,1,0,0:0:0:0:
192,192,31566,1,0,0:0:0:0:
320,192,31640,1,0,0:0:0:0:
64,192,31787,1,0,0:0:0:0:
448,192,31787,1,0,0:0:0:0:
192,192,31861,1,0,0:0:0:0:
320,192,31935,1,0,0:0:0:0:
192,192,32083,1,0,0:0:0:0:
448,192,32083,1,0,0:0:0:0:
320,192,32231,1,0,0:0:0:0:
448,192,32231,1,0,0:0:0:0:
64,192,32305,1,0,0:0:0:0:
320,192,32452,1,0,0:0:0:0:
192,192,32452,1,0,0:0:0:0:
64,192,32526,1,0,0:0:0:0:
448,192,32674,1,0,0:0:0:0:
192,192,32674,1,0,0:0:0:0:
320,192,32748,1,0,0:0:0:0:
192,192,32896,1,0,0:0:0:0:
64,192,32896,1,0,0:0:0:0:
448,192,32970,1,0,0:0:0:0:
320,192,33117,1,0,0:0:0:0:
192,192,33117,1,0,0:0:0:0:
64,192,33191,1,0,0:0:0:0:
448,192,33339,1,0,0:0:0:0:
320,192,33413,1,0,0:0:0:0:
192,192,33413,1,0,0:0:0:0:
64,192,33413,1,0,0:0:0:0:
192,192,33561,1,0,0:0:0:0:
448,192,33709,1,0,0:0:0:0:
64,192,33709,1,0,0:0:0:0:
192,192,33782,1,0,0:0:0:0:
320,192,33856,1,0,0:0:0:0:
192,192,33930,1,0,0:0:0:0:
64,192,34004,1,0,0:0:0:0:
448,192,34004,1,0,0:0:0:0:
64,192,34152,1,0,0:0:0:0:
448,192,34152,1,0,0:0:0:0:
320,192,34300,1,0,0:0:0:0:
448,192,34447,1,0,0:0:0:0:
192,192,34447,1,0,0:0:0:0:
320,192,34595,1,0,0:0:0:0:
64,192,34743,1,0,0:0:0:0:
448,192,34743,1,0,0:0:0:0:
320,192,34891,1,0,0:0:0:0:
64,192,35039,1,0,0:0:0:0:
192,192,35039,1,0,0:0:0:0:
448,192,35112,1,0,0:0:0:0:
320,192,35112,1,0,0:0:0:0:
64,192,35186,1,0,0:0:0:0:
192,192,35260,1,0,0:0:0:0:
448,192,35334,1,0,0:0:0:0:
320,192,35482,1,0,0:0:0:0:
192,192,35482,1,0,0:0:0:0:
448,192,35630,1,0,0:0:0:0:
64,192,35630,1,0,0:0:0:0:
64,192,35777,1,0,0:0:0:0:
192,192,35777,1,0,0:0:0:0:
320,192,35777,1,0,0:0:0:0:
320,192,35925,1,0,0:0:0:0:
192,192,35999,1,0,0:0:0:0:
448,192,36073,1,0,0:0:0:0:
64,192,36073,1,0,0:0:0:0:
320,192,36221,1,0,0:0:0:0:
192,192,36221,1,0,0:0:0:0:
320,192,36369,1,0,0:0:0:0:
192,192,36516,1,0,0:0:0:0:
320,192,36664,1,0,0:0:0:0:
448,192,36664,1,0,0:0:0:0:
448,192,36812,1,0,0:0:0:0:
64,192,36812,1,0,0:0:0:0:
192,192,37034,1,0,0:0:0:0:
320,192,37034,1,0,0:0:0:0:
448,192,37255,1,0,0:0:0:0:
192,192,37255,1,0,0:0:0:0:
192,192,37477,1,0,0:0:0:0:
64,192,37477,1,0,0:0:0:0:
448,192,37699,1,0,0:0:0:0:
320,192,37699,1,0,0:0:0:0:
192,192,37920,1,0,0:0:0:0:
320,192,37920,1,0,0:0:0:0:
64,192,38142,1,0,0:0:0:0:
320,192,38142,1,0,0:0:0:0:
448,192,38142,1,0,0:0:0:0:
192,192,38290,1,0,0:0:0:0:
64,192,38438,1,0,0:0:0:0:
448,192,38438,1,0,0:0:0:0:
320,192,38585,1,0,0:0:0:0:
64,192,38659,1,0,0:0:0:0:
320,192,38733,1,0,0:0:0:0:
64,192,38807,1,0,0:0:0:0:
448,192,38881,1,0,0:0:0:0:
320,192,39029,1,0,0:0:0:0:
192,192,39103,1,0,0:0:0:0:
320,192,39176,1,0,0:0:0:0:
64,192,39176,1,0,0:0:0:0:
448,192,39176,1,0,0:0:0:0:
192,192,39472,1,0,0:0:0:0:
64,192,39620,1,0,0:0:0:0:
448,192,39620,1,0,0:0:0:0:
320,192,39768,1,0,0:0:0:0:
192,192,39915,1,0,0:0:0:0:
320,192,39989,1,0,0:0:0:0:
448,192,40063,1,0,0:0:0:0:
192,192,40137,1,0,0:0:0:0:
448,192,40211,1,0,0:0:0:0:
64,192,40211,1,0,0:0:0:0:
320,192,40359,1,0,0:0:0:0:
192,192,40507,1,0,0:0:0:0:
64,192,40507,1,0,0:0:0:0:
320,192,40654,1,0,0:0:0:0:
192,192,40728,1,0,0:0:0:0:
320,192,40802,1,0,0:0:0:0:
448,192,40802,1,0,0:0:0:0:
64,192,40876,1,0,0:0:0:0:
448,192,40950,1,0,0:0:0:0:
320,192,41024,1,0,0:0:0:0:
192,192,41098,1,0,0:0:0:0:
448,192,41172,1,0,0:0:0:0:
192,192,41245,1,0,0:0:0:0:
320,192,41393,1,0,0:0:0:0:
192,192,41541,1,0,0:0:0:0:
64,192,41541,1,0,0:0:0:0:
448,192,41541,1,0,0:0:0:0:
320,192,41837,1,0,0:0:0:0:
64,192,41984,1,0,0:0:0:0:
448,192,41984,1,0,0:0:0:0:
64,192,42132,1,0,0:0:0:0:
320,192,42206,1,0,0:0:0:0:
192,192,42280,1,0,0:0:0:0:
448,192,42354,1,0,0:0:0:0:
320,192,42428,1,0,0:0:0:0:
192,192,42576,1,0,0:0:0:0:
320,192,42723,1,0,0:0:0:0:
192,192,42871,1,0,0:0:0:0:
64,192,42871,1,0,0:0:0:0:
448,192,42871,1,0,0:0:0:0:
192,192,43019,1,0,0:0:0:0:
64,192,43167,1,0,0:0:0:0:
448,192,43167,1,0,0:0:0:0:
192,192,43314,1,0,0:0:0:0:
448,192,43388,1,0,0:0:0:0:
192,192,43462,1,0,0:0:0:0:
448,192,43536,1,0,0:0:0:0:
64,192,43610,1,0,0:0:0:0:
320,192,43758,1,0,0:0:0:0:
192,192,43832,1,0,0:0:0:0:
64,192,43906,1,0,0:0:0:0:
320,192,43906,1,0,0:0:0:0:
448,192,43906,1,0,0:0:0:0:
192,192,44201,1,0,0:0:0:0:
64,192,44349,1,0,0:0:0:0:
448,192,44349,1,0,0:0:0:0:
192,192,44497,1,0,0:0:0:0:
320,192,44571,1,0,0:0:0:0:
192,192,44644,1,0,0:0:0:0:
448,192,44718,1,0,0:0:0:0:
320,192,44792,1,0,0:0:0:0:
192,192,44940,1,0,0:0:0:0:
64,192,44940,1,0,0:0:0:0:
192,192,45088,1,0,0:0:0:0:
320,192,45236,1,0,0:0:0:0:
448,192,45236,1,0,0:0:0:0:
320,192,45383,1,0,0:0:0:0:
64,192,45531,1,0,0:0:0:0:
448,192,45531,1,0,0:0:0:0:
192,192,45679,1,0,0:0:0:0:
64,192,45679,1,0,0:0:0:0:
320,192,45679,1,0,0:0:0:0:
448,192,45827,1,0,0:0:0:0:
320,192,45975,1,0,0:0:0:0:
448,192,46122,1,0,0:0:0:0:
320,192,46270,1,0,0:0:0:0:
448,192,46270,1,0,0:0:0:0:
320,192,46418,1,0,0:0:0:0:
192,192,46418,1,0,0:0:0:0:
64,192,46492,1,0,0:0:0:0:
448,192,46640,1,0,0:0:0:0:
192,192,46640,1,0,0:0:0:0:
320,192,46713,1,0,0:0:0:0:
192,192,46861,1,0,0:0:0:0:
64,192,46861,1,0,0:0:0:0:
448,192,46935,1,0,0:0:0:0:
320,192,47083,1,0,0:0:0:0:
192,192,47083,1,0,0:0:0:0:
64,192,47157,1,0,0:0:0:0:
192,192,47305,1,0,0:0:0:0:
448,192,47305,1,0,0:0:0:0:
320,192,47378,1,0,0:0:0:0:
64,192,47526,1,0,0:0:0:0:
320,192,47600,1,0,0:0:0:0:
448,192,47600,1,0,0:0:0:0:
192,192,47600,1,0,0:0:0:0:
320,192,47748,1,0,0:0:0:0:
64,192,47896,1,0,0:0:0:0:
448,192,47896,1,0,0:0:0:0:
192,192,48043,1,0,0:0:0:0:
448,192,48117,1,0,0:0:0:0:
192,192,48191,1,0,0:0:0:0:
448,192,48265,1,0,0:0:0:0:
64,192,48339,1,0,0:0:0:0:
192,192,48487,1,0,0:0:0:0:
320,192,48561,1,0,0:0:0:0:
192,192,48635,1,0,0:0:0:0:
64,192,48635,1,0,0:0:0:0:
448,192,48635,1,0,0:0:0:0:
320,192,48930,1,0,0:0:0:0:
64,192,49078,1,0,0:0:0:0:
448,192,49078,1,0,0:0:0:0:
192,192,49226,1,0,0:0:0:0:
320,192,49374,1,0,0:0:0:0:
192,192,49447,1,0,0:0:0:0:
320,192,49521,1,0,0:0:0:0:
64,192,49595,1,0,0:0:0:0:
192,192,49669,1,0,0:0:0:0:
448,192,49669,1,0,0:0:0:0:
320,192,49817,1,0,0:0:0:0:
64,192,49965,1,0,0:0:0:0:
448,192,49965,1,0,0:0:0:0:
320,192,50039,1,0,0:0:0:0:
64,192,50112,1,0,0:0:0:0:
192,192,50186,1,0,0:0:0:0:
64,192,50260,1,0,0:0:0:0:
320,192,50334,1,0,0:0:0:0:
192,192,50408,1,0,0:0:0:0:
448,192,50482,1,0,0:0:0:0:
64,192,50556,1,0,0:0:0:0:
320,192,50630,1,0,0:0:0:0:
64,192,50704,1,0,0:0:0:0:
320,192,50777,1,0,0:0:0:0:
192,192,50851,1,0,0:0:0:0:
448,192,50925,1,0,0:0:0:0:
320,192,50999,1,0,0:0:0:0:
192,192,50999,1,0,0:0:0:0:
64,192,50999,1,0,0:0:0:0:
192,192,51295,1,0,0:0:0:0:
64,192,51443,1,0,0:0:0:0:
448,192,51443,1,0,0:0:0:0:
320,192,51516,1,0,0:0:0:0:
192,192,51590,1,0,0:0:0:0:
320,192,51664,1,0,0:0:0:0:
64,192,51738,1,0,0:0:0:0:
192,192,51812,1,0,0:0:0:0:
448,192,51886,1,0,0:0:0:0:
320,192,52034,1,0,0:0:0:0:
64,192,52034,1,0,0:0:0:0:
192,192,52181,1,0,0:0:0:0:
64,192,52329,1,0,0:0:0:0:
320,192,52329,1,0,0:0:0:0:
448,192,52329,1,0,0:0:0:0:
320,192,52477,1,0,0:0:0:0:
64,192,52625,1,0,0:0:0:0:
448,192,52625,1,0,0:0:0:0:
320,192,52773,1,0,0:0:0:0:
64,192,52846,1,0,0:0:0:0:
320,192,52920,1,0,0:0:0:0:
64,192,52994,1,0,0:0:0:0:
448,192,53068,1,0,0:0:0:0:
320,192,53216,1,0,0:0:0:0:
192,192,53290,1,0,0:0:0:0:
448,192,53364,1,0,0:0:0:0:
320,192,53364,1,0,0:0:0:0:
64,192,53364,1,0,0:0:0:0:
320,192,53659,1,0,0:0:0:0:
64,192,53807,1,0,0:0:0:0:
448,192,53807,1,0,0:0:0:0:
192,192,53955,1,0,0:0:0:0:
320,192,54029,1,0,0:0:0:0:
64,192,54103,1,0,0:0:0:0:
448,192,54176,1,0,0:0:0:0:
64,192,54250,1,0,0:0:0:0:
192,192,54324,1,0,0:0:0:0:
320,192,54398,1,0,0:0:0:0:
448,192,54398,1,0,0:0:0:0:
192,192,54546,1,0,0:0:0:0:
320,192,54694,1,0,0:0:0:0:
320,192,54842,1,0,0:0:0:0:
64,192,54989,1,0,0:0:0:0:
448,192,54989,1,0,0:0:0:0:
192,192,55137,1,0,0:0:0:0:
320,192,55285,1,0,0:0:0:0:
192,192,55359,1,0,0:0:0:0:
320,192,55433,1,0,0:0:0:0:
192,192,55580,1,0,0:0:0:0:
64,192,55580,1,0,0:0:0:0:
448,192,55580,1,0,0:0:0:0:
64,192,55728,1,0,0:0:0:0:
320,192,55876,1,0,0:0:0:0:
448,192,55876,1,0,0:0:0:0:
320,192,56073,1,0,0:0:0:0:
64,192,56270,1,0,0:0:0:0:
192,192,56270,1,0,0:0:0:0:
192,192,56467,1,0,0:0:0:0:
448,192,56664,1,0,0:0:0:0:
320,192,56664,1,0,0:0:0:0:
320,192,56861,1,0,0:0:0:0:
192,192,57058,1,0,0:0:0:0:
64,192,57058,1,0,0:0:0:0:
448,192,57058,1,0,0:0:0:0:
320,192,57132,1,0,0:0:0:0:
192,192,57206,1,0,0:0:0:0:
192,192,57354,1,0,0:0:0:0:
64,192,57502,1,0,0:0:0:0:
320,192,57502,1,0,0:0:0:0:
448,192,57502,1,0,0:0:0:0:
192,192,57576,1,0,0:0:0:0:
320,192,57649,1,0,0:0:0:0:
320,192,57797,1,0,0:0:0:0:
448,192,57945,1,0,0:0:0:0:
192,192,57945,1,0,0:0:0:0:
64,192,57945,1,0,0:0:0:0:
320,192,58019,1,0,0:0:0:0:
192,192,58093,1,0,0:0:0:0:
192,192,58241,1,0,0:0:0:0:
64,192,58388,1,0,0:0:0:0:
320,192,58388,1,0,0:0:0:0:
448,192,58388,1,0,0:0:0:0:
192,192,58462,1,0,0:0:0:0:
320,192,58536,1,0,0:0:0:0:
320,192,58684,1,0,0:0:0:0:
192,192,58832,1,0,0:0:0:0:
64,192,58832,1,0,0:0:0:0:
448,192,58832,1,0,0:0:0:0:
64,192,58979,1,0,0:0:0:0:
192,192,59127,1,0,0:0:0:0:
320,192,59127,1,0,0:0:0:0:
448,192,59127,1,0,0:0:0:0:
448,192,59275,1,0,0:0:0:0:
320,192,59423,1,0,0:0:0:0:
192,192,59423,1,0,0:0:0:0:
64,192,59423,1,0,0:0:0:0:
448,192,59497,1,0,0:0:0:0:
192,192,59571,1,0,0:0:0:0:
64,192,59718,1,0,0:0:0:0:
320,192,59718,1,0,0:0:0:0:
448,192,59866,1,0,0:0:0:0:
192,192,59866,1,0,0:0:0:0:
64,192,59866,1,0,0:0:0:0:
320,192,59940,1,0,0:0:0:0:
192,192,60014,1,0,0:0:0:0:
448,192,60162,1,0,0:0:0:0:
320,192,60309,1,0,0:0:0:0:
192,192,60309,1,0,0:0:0:0:
64,192,60309,1,0,0:0:0:0:
448,192,60383,1,0,0:0:0:0:
64,192,60457,1,0,0:0:0:0:
192,192,60605,1,0,0:0:0:0:
448,192,60605,1,0,0:0:0:0:
320,192,60753,1,0,0:0:0:0:
64,192,60753,1,0,0:0:0:0:
192,192,60753,1,0,0:0:0:0:
64,192,60901,1,0,0:0:0:0:
192,192,61048,1,0,0:0:0:0:
320,192,61196,1,0,0:0:0:0:
192,192,61196,1,0,0:0:0:0:
320,192,61492,1,0,0:0:0:0:
192,192,61492,1,0,0:0:0:0:
64,192,61787,1,0,0:0:0:0:
320,192,61787,1,0,0:0:0:0:
448,192,61787,1,0,0:0:0:0:
192,192,61861,1,0,0:0:0:0:
320,192,61935,1,0,0:0:0:0:
64,192,62083,1,0,0:0:0:0:
192,192,62231,1,0,0:0:0:0:
320,192,62231,1,0,0:0:0:0:
448,192,62231,1,0,0:0:0:0:
64,192,62305,1,0,0:0:0:0:
448,192,62378,1,0,0:0:0:0:
320,192,62526,1,0,0:0:0:0:
192,192,62674,1,0,0:0:0:0:
64,192,62674,1,0,0:0:0:0:
448,192,62674,1,0,0:0:0:0:
320,192,62748,1,0,0:0:0:0:
192,192,62822,1,0,0:0:0:0:
448,192,62970,1,0,0:0:0:0:
64,192,63117,1,0,0:0:0:0:
320,192,63117,1,0,0:0:0:0:
448,192,63117,1,0,0:0:0:0:
192,192,63191,1,0,0:0:0:0:
64,192,63265,1,0,0:0:0:0:
320,192,63413,1,0,0:0:0:0:
64,192,63561,1,0,0:0:0:0:
448,192,63561,1,0,0:0:0:0:
192,192,63561,1,0,0:0:0:0:
64,192,63709,1,0,0:0:0:0:
320,192,63856,1,0,0:0:0:0:
192,192,63856,1,0,0:0:0:0:
448,192,63856,1,0,0:0:0:0:
448,192,64004,1,0,0:0:0:0:
192,192,64152,1,0,0:0:0:0:
64,192,64152,1,0,0:0:0:0:
320,192,64152,1,0,0:0:0:0:
448,192,64226,1,0,0:0:0:0:
192,192,64300,1,0,0:0:0:0:
64,192,64447,1,0,0:0:0:0:
192,192,64595,1,0,0:0:0:0:
448,192,64595,1,0,0:0:0:0:
320,192,64595,1,0,0:0:0:0:
64,192,64669,1,0,0:0:0:0:
320,192,64743,1,0,0:0:0:0:
448,192,64891,1,0,0:0:0:0:
192,192,65039,1,0,0:0:0:0:
448,192,65039,1,0,0:0:0:0:
64,192,65039,1,0,0:0:0:0:
320,192,65112,1,0,0:0:0:0:
64,192,65186,1,0,0:0:0:0:
448,192,65334,1,0,0:0:0:0:
192,192,65334,1,0,0:0:0:0:
320,192,65482,1,0,0:0:0:0:
64,192,65482,1,0,0:0:0:0:
192,192,65482,1,0,0:0:0:0:
448,192,65556,1,0,0:0:0:0:
64,192,65630,1,0,0:0:0:0:
192,192,65777,1,0,0:0:0:0:
320,192,65925,1,0,0:0:0:0:
192,192,65925,1,0,0:0:0:0:
192,192,66221,1,0,0:0:0:0:
320,192,66221,1,0,0:0:0:0:
64,192,66516,1,0,0:0:0:0:
448,192,66516,1,0,0:0:0:0:
320,192,66516,1,0,0:0:0:0:
192,192,66590,1,0,0:0:0:0:
320,192,66664,1,0,0:0:0:0:
64,192,66812,1,0,0:0:0:0:
320,192,66960,1,0,0:0:0:0:
192,192,66960,1,0,0:0:0:0:
64,192,66960,1,0,0:0:0:0:
448,192,67034,1,0,0:0:0:0:
192,192,67108,1,0,0:0:0:0:
320,192,67255,1,0,0:0:0:0:
192,192,67403,1,0,0:0:0:0:
64,192,67403,1,0,0:0:0:0:
448,192,67403,1,0,0:0:0:0:
320,192,67477,1,0,0:0:0:0:
192,192,67551,1,0,0:0:0:0:
192,192,67699,1,0,0:0:0:0:
64,192,67846,1,0,0:0:0:0:
320,192,67846,1,0,0:0:0:0:
448,192,67846,1,0,0:0:0:0:
192,192,67920,1,0,0:0:0:0:
320,192,67994,1,0,0:0:0:0:
320,192,68142,1,0,0:0:0:0:
192,192,68290,1,0,0:0:0:0:
64,192,68290,1,0,0:0:0:0:
448,192,68290,1,0,0:0:0:0:
448,192,68438,1,0,0:0:0:0:
320,192,68585,1,0,0:0:0:0:
192,192,68585,1,0,0:0:0:0:
64,192,68585,1,0,0:0:0:0:
64,192,68733,1,0,0:0:0:0:
192,192,68881,1,0,0:0:0:0:
320,192,68881,1,0,0:0:0:0:
448,192,68881,1,0,0:0:0:0:
64,192,68955,1,0,0:0:0:0:
448,192,69029,1,0,0:0:0:0:
320,192,69176,1,0,0:0:0:0:
64,192,69324,1,0,0:0:0:0:
192,192,69324,1,0,0:0:0:0:
448,192,69324,1,0,0:0:0:0:
320,192,69398,1,0,0:0:0:0:
192,192,69472,1,0,0:0:0:0:
64,192,69620,1,0,0:0:0:0:
320,192,69768,1,0,0:0:0:0:
448,192,69768,1,0,0:0:0:0:
192,192,69768,1,0,0:0:0:0:
64,192,69842,1,0,0:0:0:0:
320,192,69915,1,0,0:0:0:0:
64,192,70063,1,0,0:0:0:0:
448,192,70063,1,0,0:0:0:0:
64,192,70211,1,0,0:0:0:0:
192,192,70211,1,0,0:0:0:0:
320,192,70211,1,0,0:0:0:0:
448,192,70285,1,0,0:0:0:0:
192,192,70359,1,0,0:0:0:0:
320,192,70507,1,0,0:0:0:0:
192,192,70654,1,0,0:0:0:0:
320,192,70654,1,0,0:0:0:0:
320,192,70950,1,0,0:0:0:0:
192,192,70950,1,0,0:0:0:0:
64,192,71245,1,0,0:0:0:0:
320,192,71245,1,0,0:0:0:0:
448,192,71245,1,0,0:0:0:0:
192,192,71319,1,0,0:0:0:0:
320,192,71393,1,0,0:0:0:0:
448,192,71541,1,0,0:0:0:0:
320,192,71689,1,0,0:0:0:0:
192,192,71689,1,0,0:0:0:0:
64,192,71689,1,0,0:0:0:0:
448,192,71763,1,0,0:0:0:0:
320,192,71837,1,0,0:0:0:0:
192,192,71984,1,0,0:0:0:0:
64,192,72132,1,0,0:0:0:0:
320,192,72132,1,0,0:0:0:0:
448,192,72132,1,0,0:0:0:0:
192,192,72206,1,0,0:0:0:0:
320,192,72280,1,0,0:0:0:0:
192,192,72428,1,0,0:0:0:0:
64,192,72576,1,0,0:0:0:0:
448,192,72576,1,0,0:0:0:0:
320,192,72576,1,0,0:0:0:0:
192,192,72649,1,0,0:0:0:0:
448,192,72723,1,0,0:0:0:0:
192,192,72871,1,0,0:0:0:0:
320,192,73019,1,0,0:0:0:0:
448,192,73019,1,0,0:0:0:0:
64,192,73019,1,0,0:0:0:0:
64,192,73167,1,0,0:0:0:0:
320,192,73314,1,0,0:0:0:0:
192,192,73314,1,0,0:0:0:0:
448,192,73314,1,0,0:0:0:0:
448,192,73462,1,0,0:0:0:0:
320,192,73610,1,0,0:0:0:0:
192,192,73610,1,0,0:0:0:0:
64,192,73610,1,0,0:0:0:0:
448,192,73684,1,0,0:0:0:0:
64,192,73758,1,0,0:0:0:0:
192,192,73906,1,0,0:0:0:0:
192,192,74053,1,0,0:0:0:0:
320,192,74053,1,0,0:0:0:0:
448,192,74053,1,0,0:0:0:0:
64,192,74127,1,0,0:0:0:0:
448,192,74201,1,0,0:0:0:0:
64,192,74349,1,0,0:0:0:0:
192,192,74497,1,0,0:0:0:0:
448,192,74497,1,0,0:0:0:0:
320,192,74497,1,0,0:0:0:0:
64,192,74571,1,0,0:0:0:0:
448,192,74644,1,0,0:0:0:0:
320,192,74792,1,0,0:0:0:0:
64,192,74940,1,0,0:0:0:0:
192,192,74940,1,0,0:0:0:0:
448,192,74940,1,0,0:0:0:0:
320,192,75014,1,0,0:0:0:0:
192,192,75088,1,0,0:0:0:0:
320,192,75236,1,0,0:0:0:0:
448,192,75383,1,0,0:0:0:0:
64,192,75383,1,0,0:0:0:0:
192,192,75383,1,0,0:0:0:0:
320,192,75679,1,0,0:0:0:0:
448,192,75679,1,0,0:0:0:0:
64,192,75679,1,0,0:0:0:0:
192,192,75753,1,0,0:0:0:0:
320,192,75827,1,0,0:0:0:0:
192,192,75901,1,0,0:0:0:0:
64,192,75975,1,0,0:0:0:0:
448,192,75975,1,0,0:0:0:0:
320,192,76122,1,0,0:0:0:0:
192,192,76122,1,0,0:0:0:0:
64,192,76270,1,0,0:0:0:0:
448,192,76270,1,0,0:0:0:0:
192,192,76418,1,0,0:0:0:0:
320,192,76492,1,0,0:0:0:0:
64,192,76566,1,0,0:0:0:0:
448,192,76640,1,0,0:0:0:0:
320,192,76713,1,0,0:0:0:0:
192,192,76713,1,0,0:0:0:0:
448,192,76787,1,0,0:0:0:0:
64,192,76861,1,0,0:0:0:0:
448,192,77009,1,0,0:0:0:0:
192,192,77009,1,0,0:0:0:0:
64,192,77157,1,0,0:0:0:0:
192,192,77305,1,0,0:0:0:0:
448,192,77452,1,0,0:0:0:0:
320,192,77452,1,0,0:0:0:0:
192,192,77600,1,0,0:0:0:0:
320,192,77748,1,0,0:0:0:0:
448,192,77748,1,0,0:0:0:0:
64,192,77896,1,0,0:0:0:0:
192,192,77970,1,0,0:0:0:0:
320,192,78043,1,0,0:0:0:0:
448,192,78043,1,0,0:0:0:0:
320,192,78191,5,0,0:0:0:0:
64,192,78339,1,0,0:0:0:0:
448,192,78339,1,0,0:0:0:0:
64,192,78487,1,0,0:0:0:0:
448,192,78487,1,0,0:0:0:0:
192,192,78635,1,0,0:0:0:0:
320,192,78635,1,0,0:0:0:0:
192,192,78782,1,0,0:0:0:0:
448,192,78782,1,0,0:0:0:0:
64,192,78856,1,0,0:0:0:0:
320,192,78930,1,0,0:0:0:0:
448,192,79078,1,0,0:0:0:0:
64,192,79078,1,0,0:0:0:0:
192,192,79226,1,0,0:0:0:0:
320,192,79300,1,0,0:0:0:0:
192,192,79374,5,0,0:0:0:0:
448,192,79374,1,0,0:0:0:0:
320,192,79521,1,0,0:0:0:0:
448,192,79521,1,0,0:0:0:0:
64,192,79595,1,0,0:0:0:0:
320,192,79743,1,0,0:0:0:0:
192,192,79743,1,0,0:0:0:0:
64,192,79817,1,0,0:0:0:0:
448,192,79965,1,0,0:0:0:0:
192,192,79965,1,0,0:0:0:0:
320,192,80039,1,0,0:0:0:0:
192,192,80186,1,0,0:0:0:0:
64,192,80186,1,0,0:0:0:0:
448,192,80260,1,0,0:0:0:0:
320,192,80408,1,0,0:0:0:0:
192,192,80408,1,0,0:0:0:0:
64,192,80482,1,0,0:0:0:0:
448,192,80630,1,0,0:0:0:0:
320,192,80704,1,0,0:0:0:0:
192,192,80704,1,0,0:0:0:0:
64,192,80704,1,0,0:0:0:0:
192,192,80851,1,0,0:0:0:0:
64,192,80999,1,0,0:0:0:0:
448,192,80999,1,0,0:0:0:0:
320,192,81073,1,0,0:0:0:0:
192,192,81147,1,0,0:0:0:0:
64,192,81295,1,0,0:0:0:0:
448,192,81295,1,0,0:0:0:0:
64,192,81443,1,0,0:0:0:0:
448,192,81443,1,0,0:0:0:0:
192,192,81590,1,0,0:0:0:0:
320,192,81664,1,0,0:0:0:0:
192,192,81738,1,0,0:0:0:0:
448,192,81738,1,0,0:0:0:0:
320,192,81886,1,0,0:0:0:0:
448,192,82034,1,0,0:0:0:0:
64,192,82034,1,0,0:0:0:0:
320,192,82181,1,0,0:0:0:0:
192,192,82329,1,0,0:0:0:0:
64,192,82329,1,0,0:0:0:0:
320,192,82403,1,0,0:0:0:0:
448,192,82403,1,0,0:0:0:0:
64,192,82477,1,0,0:0:0:0:
192,192,82551,1,0,0:0:0:0:
448,192,82625,1,0,0:0:0:0:
192,192,82773,1,0,0:0:0:0:
320,192,82773,1,0,0:0:0:0:
64,192,82920,1,0,0:0:0:0:
448,192,82920,1,0,0:0:0:0:
320,192,83068,1,0,0:0:0:0:
192,192,83068,1,0,0:0:0:0:
64,192,83068,1,0,0:0:0:0:
192,192,83216,1,0,0:0:0:0:
448,192,83290,1,0,0:0:0:0:
320,192,83364,1,0,0:0:0:0:
64,192,83364,1,0,0:0:0:0:
192,192,83511,1,0,0:0:0:0:
448,192,83511,1,0,0:0:0:0:
64,192,83585,1,0,0:0:0:0:
320,192,83659,1,0,0:0:0:0:
192,192,83733,1,0,0:0:0:0:
320,192,83807,1,0,0:0:0:0:
448,192,83955,1,0,0:0:0:0:
192,192,83955,1,0,0:0:0:0:
192,192,84103,1,0,0:0:0:0:
320,192,84103,1,0,0:0:0:0:
64,192,84324,1,0,0:0:0:0:
320,192,84324,1,0,0:0:0:0:
192,192,84546,1,0,0:0:0:0:
64,192,84546,1,0,0:0:0:0:
320,192,84768,1,0,0:0:0:0:
192,192,84768,1,0,0:0:0:0:
448,192,84989,1,0,0:0:0:0:
64,192,84989,1,0,0:0:0:0:
448,192,85211,1,0,0:0:0:0:
320,192,85211,1,0,0:0:0:0:
448,192,88388,1,0,0:0:0:0:
448,192,88684,1,0,0:0:0:0:
448,192,88979,1,0,0:0:0:0:
448,192,89275,1,0,0:0:0:0:
448,192,89571,1,0,0:0:0:0:
448,192,89866,1,0,0:0:0:0:
448,192,90162,1,0,0:0:0:0:
448,192,90457,1,0,0:0:0:0:
448,192,90753,1,0,0:0:0:0:
448,192,91048,1,0,0:0:0:0:
448,192,91344,1,0,0:0:0:0:
448,192,91640,1,0,0:0:0:0:
448,192,91935,1,0,0:0:0:0:
448,192,92231,1,0,0:0:0:0:
448,192,92526,1,0,0:0:0:0:
192,192,92674,1,0,0:0:0:0:
64,192,92674,1,0,0:0:0:0:
320,192,92748,1,0,0:0:0:0:
448,192,92822,1,0,0:0:0:0:
192,192,92970,1,0,0:0:0:0:
64,192,93043,1,0,0:0:0:0:
448,192,93117,1,0,0:0:0:0:
320,192,93117,1,0,0:0:0:0:
64,192,93191,1,0,0:0:0:0:
192,192,93191,1,0,0:0:0:0:
320,192,93265,1,0,0:0:0:0:
192,192,93339,1,0,0:0:0:0:
448,192,93413,1,0,0:0:0:0:
320,192,93487,1,0,0:0:0:0:
192,192,93487,1,0,0:0:0:0:
64,192,93561,1,0,0:0:0:0:
448,192,93561,1,0,0:0:0:0:
64,192,93782,1,0,0:0:0:0:
448,192,93782,1,0,0:0:0:0:
64,192,94004,1,0,0:0:0:0:
448,192,94004,1,0,0:0:0:0:
64,192,94226,1,0,0:0:0:0:
448,192,94226,1,0,0:0:0:0:
64,192,94447,1,0,0:0:0:0:
448,192,94447,1,0,0:0:0:0:
64,192,94669,1,0,0:0:0:0:
448,192,94669,1,0,0:0:0:0:
64,192,94891,1,0,0:0:0:0:
448,192,94891,1,0,0:0:0:0:
320,192,94891,1,0,0:0:0:0:
192,192,95039,1,0,0:0:0:0:
64,192,95186,1,0,0:0:0:0:
448,192,95186,1,0,0:0:0:0:
192,192,95334,1,0,0:0:0:0:
320,192,95408,1,0,0:0:0:0:
64,192,95482,1,0,0:0:0:0:
448,192,95556,1,0,0:0:0:0:
320,192,95630,1,0,0:0:0:0:
192,192,95630,1,0,0:0:0:0:
448,192,95704,1,0,0:0:0:0:
64,192,95777,1,0,0:0:0:0:
320,192,95851,1,0,0:0:0:0:
448,192,95925,1,0,0:0:0:0:
192,192,95925,1,0,0:0:0:0:
64,192,96073,1,0,0:0:0:0:
192,192,96221,1,0,0:0:0:0:
320,192,96369,1,0,0:0:0:0:
448,192,96369,1,0,0:0:0:0:
192,192,96516,1,0,0:0:0:0:
320,192,96664,1,0,0:0:0:0:
448,192,96664,1,0,0:0:0:0:
64,192,96812,1,0,0:0:0:0:
192,192,96886,1,0,0:0:0:0:
320,192,96960,1,0,0:0:0:0:
448,192,96960,1,0,0:0:0:0:
192,192,97108,1,0,0:0:0:0:
448,192,97255,1,0,0:0:0:0:
64,192,97255,1,0,0:0:0:0:
64,192,97403,1,0,0:0:0:0:
448,192,97403,1,0,0:0:0:0:
320,192,97551,1,0,0:0:0:0:
192,192,97551,1,0,0:0:0:0:
448,192,97699,1,0,0:0:0:0:
64,192,97773,1,0,0:0:0:0:
192,192,97846,1,0,0:0:0:0:
320,192,97920,1,0,0:0:0:0:
64,192,97994,1,0,0:0:0:0:
448,192,97994,1,0,0:0:0:0:
320,192,98142,1,0,0:0:0:0:
192,192,98142,1,0,0:0:0:0:
320,192,98290,1,0,0:0:0:0:
64,192,98290,1,0,0:0:0:0:
448,192,98438,1,0,0:0:0:0:
320,192,98438,1,0,0:0:0:0:
64,192,98511,1,0,0:0:0:0:
192,192,98659,1,0,0:0:0:0:
320,192,98659,1,0,0:0:0:0:
64,192,98733,1,0,0:0:0:0:
192,192,98881,1,0,0:0:0:0:
448,192,98881,1,0,0:0:0:0:
320,192,98955,1,0,0:0:0:0:
64,192,99103,1,0,0:0:0:0:
192,192,99103,1,0,0:0:0:0:
448,192,99176,1,0,0:0:0:0:
192,192,99324,1,0,0:0:0:0:
320,192,99324,1,0,0:0:0:0:
64,192,99398,1,0,0:0:0:0:
448,192,99546,1,0,0:0:0:0:
64,192,99620,1,0,0:0:0:0:
192,192,99620,1,0,0:0:0:0:
320,192,99620,1,0,0:0:0:0:
192,192,99768,1,0,0:0:0:0:
64,192,99915,1,0,0:0:0:0:
448,192,99915,1,0,0:0:0:0:
320,192,100063,1,0,0:0:0:0:
64,192,100211,1,0,0:0:0:0:
448,192,100211,1,0,0:0:0:0:
64,192,100359,1,0,0:0:0:0:
448,192,100359,1,0,0:0:0:0:
320,192,100507,1,0,0:0:0:0:
192,192,100580,1,0,0:0:0:0:
64,192,100654,1,0,0:0:0:0:
320,192,100654,1,0,0:0:0:0:
192,192,100802,1,0,0:0:0:0:
64,192,100950,1,0,0:0:0:0:
448,192,100950,1,0,0:0:0:0:
320,192,101098,1,0,0:0:0:0:
64,192,101245,1,0,0:0:0:0:
192,192,101245,1,0,0:0:0:0:
448,192,101319,1,0,0:0:0:0:
320,192,101319,1,0,0:0:0:0:
64,192,101393,1,0,0:0:0:0:
320,192,101467,1,0,0:0:0:0:
448,192,101541,1,0,0:0:0:0:
320,192,101689,1,0,0:0:0:0:
192,192,101689,1,0,0:0:0:0:
448,192,101837,1,0,0:0:0:0:
64,192,101837,1,0,0:0:0:0:
64,192,101984,1,0,0:0:0:0:
192,192,101984,1,0,0:0:0:0:
320,192,101984,1,0,0:0:0:0:
448,192,102132,1,0,0:0:0:0:
192,192,102206,1,0,0:0:0:0:
64,192,102280,1,0,0:0:0:0:
320,192,102280,1,0,0:0:0:0:
320,192,102428,1,0,0:0:0:0:
192,192,102576,1,0,0:0:0:0:
448,192,102576,1,0,0:0:0:0:
320,192,102723,1,0,0:0:0:0:
192,192,102871,1,0,0:0:0:0:
64,192,102871,1,0,0:0:0:0:
320,192,103019,1,0,0:0:0:0:
448,192,103093,1,0,0:0:0:0:
64,192,103167,1,0,0:0:0:0:
192,192,103167,1,0,0:0:0:0:
320,192,103241,1,0,0:0:0:0:
448,192,103314,1,0,0:0:0:0:
192,192,103388,1,0,0:0:0:0:
448,192,103462,1,0,0:0:0:0:
320,192,103536,1,0,0:0:0:0:
192,192,103536,1,0,0:0:0:0:
64,192,103610,1,0,0:0:0:0:
320,192,103684,1,0,0:0:0:0:
448,192,103758,1,0,0:0:0:0:
64,192,103758,1,0,0:0:0:0:
192,192,103955,1,0,0:0:0:0:
320,192,104152,1,0,0:0:0:0:
64,192,104349,128,0,104792:0:0:0:0:
192,192,104792,1,0,0:0:0:0:
320,192,104792,1,0,0:0:0:0:
320,192,104939,1,0,0:0:0:0:
192,192,105087,1,0,0:0:0:0:
448,192,105161,1,0,0:0:0:0:
320,192,105161,1,0,0:0:0:0:
192,192,105235,1,0,0:0:0:0:
64,192,105235,1,0,0:0:0:0:
320,192,105383,1,0,0:0:0:0:
192,192,105457,1,0,0:0:0:0:
448,192,105530,1,0,0:0:0:0:
320,192,105530,1,0,0:0:0:0:
64,192,105678,1,0,0:0:0:0:
320,192,105826,1,0,0:0:0:0:
192,192,105900,1,0,0:0:0:0:
320,192,105974,1,0,0:0:0:0:
448,192,106048,1,0,0:0:0:0:
192,192,106122,1,0,0:0:0:0:
320,192,106195,1,0,0:0:0:0:
64,192,106269,1,0,0:0:0:0:
192,192,106343,1,0,0:0:0:0:
448,192,106417,1,0,0:0:0:0:
320,192,106466,1,0,0:0:0:0:
64,192,106516,1,0,0:0:0:0:
192,192,106565,1,0,0:0:0:0:
448,192,106614,1,0,0:0:0:0:
320,192,106663,1,0,0:0:0:0:
64,192,106713,1,0,0:0:0:0:
192,192,106787,1,0,0:0:0:0:
320,192,106860,1,0,0:0:0:0:
64,192,106934,1,0,0:0:0:0:
448,192,107008,1,0,0:0:0:0:
192,192,107082,1,0,0:0:0:0:
320,192,107156,1,0,0:0:0:0:
64,192,107156,1,0,0:0:0:0:
448,192,107156,1,0,0:0:0:0:
192,192,107304,1,0,0:0:0:0:
448,192,107452,1,0,0:0:0:0:
64,192,107599,1,0,0:0:0:0:
192,192,107599,1,0,0:0:0:0:
320,192,107747,1,0,0:0:0:0:
192,192,107895,1,0,0:0:0:0:
320,192,107969,1,0,0:0:0:0:
64,192,108043,1,0,0:0:0:0:
448,192,108043,1,0,0:0:0:0:
64,192,108191,1,0,0:0:0:0:
448,192,108191,1,0,0:0:0:0:
192,192,108338,1,0,0:0:0:0:
448,192,108486,1,0,0:0:0:0:
320,192,108585,1,0,0:0:0:0:
448,192,108683,1,0,0:0:0:0:
64,192,108782,1,0,0:0:0:0:
192,192,108880,1,0,0:0:0:0:
64,192,108979,1,0,0:0:0:0:
320,192,109077,1,0,0:0:0:0:
192,192,109077,1,0,0:0:0:0:
448,192,109077,1,0,0:0:0:0:
448,192,109372,1,0,0:0:0:0:
320,192,109520,1,0,0:0:0:0:
192,192,109520,1,0,0:0:0:0:
64,192,109520,1,0,0:0:0:0:
64,192,109815,1,0,0:0:0:0:
192,192,109963,1,0,0:0:0:0:
320,192,109963,1,0,0:0:0:0:
448,192,109963,1,0,0:0:0:0:
448,192,110259,1,0,0:0:0:0:
320,192,110407,1,0,0:0:0:0:
192,192,110407,1,0,0:0:0:0:
64,192,110407,1,0,0:0:0:0:
64,192,110702,1,0,0:0:0:0:
192,192,110850,1,0,0:0:0:0:
320,192,110850,1,0,0:0:0:0:
448,192,110850,1,0,0:0:0:0:
448,192,111145,1,0,0:0:0:0:
320,192,111293,1,0,0:0:0:0:
192,192,111293,1,0,0:0:0:0:
64,192,111293,1,0,0:0:0:0:
64,192,111589,1,0,0:0:0:0:
192,192,111737,1,0,0:0:0:0:
320,192,111737,1,0,0:0:0:0:
448,192,111737,1,0,0:0:0:0:
448,192,112032,1,0,0:0:0:0:
320,192,112180,1,0,0:0:0:0:
192,192,112180,1,0,0:0:0:0:
64,192,112180,1,0,0:0:0:0:
64,192,112476,1,0,0:0:0:0:
192,192,112623,1,0,0:0:0:0:
320,192,112623,1,0,0:0:0:0:
448,192,112623,128,0,113805:0:0:0:0:
64,192,113805,1,0,0:0:0:0:
192,192,114248,1,0,0:0:0:0:
448,192,114691,1,0,0:0:0:0:
320,192,115135,1,0,0:0:0:0:
192,192,115578,1,0,0:0:0:0:
192,192,115874,1,0,0:0:0:0:
448,192,116169,1,0,0:0:0:0:
320,192,116613,1,0,0:0:0:0:
448,192,117056,1,0,0:0:0:0:
192,192,117499,1,0,0:0:0:0:
320,192,118534,1,0,0:0:0:0:
192,192,118977,1,0,0:0:0:0:
448,192,119421,1,0,0:0:0:0:
320,192,119864,1,0,0:0:0:0:
448,192,120012,1,0,0:0:0:0:
64,192,120159,1,0,0:0:0:0:
64,192,120603,1,0,0:0:0:0:
192,192,120898,1,0,0:0:0:0:
320,192,121342,1,0,0:0:0:0:
192,192,121785,1,0,0:0:0:0:
448,192,122228,1,0,0:0:0:0:
192,192,122672,1,0,0:0:0:0:
192,192,122869,1,0,0:0:0:0:
192,192,123066,1,0,0:0:0:0:
320,192,123263,1,0,0:0:0:0:
448,192,123263,1,0,0:0:0:0:
64,192,123263,1,0,0:0:0:0:
192,192,123337,1,0,0:0:0:0:
320,192,123411,1,0,0:0:0:0:
64,192,123558,1,0,0:0:0:0:
448,192,123706,1,0,0:0:0:0:
192,192,123706,1,0,0:0:0:0:
64,192,123706,1,0,0:0:0:0:
320,192,123780,1,0,0:0:0:0:
192,192,123854,1,0,0:0:0:0:
448,192,124002,1,0,0:0:0:0:
64,192,124150,1,0,0:0:0:0:
320,192,124150,1,0,0:0:0:0:
448,192,124150,1,0,0:0:0:0:
192,192,124223,1,0,0:0:0:0:
320,192,124297,1,0,0:0:0:0:
320,192,124445,1,0,0:0:0:0:
448,192,124593,1,0,0:0:0:0:
192,192,124593,1,0,0:0:0:0:
64,192,124593,1,0,0:0:0:0:
320,192,124667,1,0,0:0:0:0:
192,192,124741,1,0,0:0:0:0:
192,192,124889,1,0,0:0:0:0:
320,192,125036,1,0,0:0:0:0:
448,192,125036,1,0,0:0:0:0:
64,192,125036,1,0,0:0:0:0:
448,192,125184,1,0,0:0:0:0:
320,192,125332,1,0,0:0:0:0:
192,192,125332,1,0,0:0:0:0:
64,192,125332,1,0,0:0:0:0:
64,192,125480,1,0,0:0:0:0:
192,192,125627,1,0,0:0:0:0:
320,192,125627,1,0,0:0:0:0:
448,192,125627,1,0,0:0:0:0:
64,192,125701,1,0,0:0:0:0:
320,192,125775,1,0,0:0:0:0:
192,192,125923,1,0,0:0:0:0:
64,192,126071,1,0,0:0:0:0:
320,192,126071,1,0,0:0:0:0:
448,192,126071,1,0,0:0:0:0:
192,192,126145,1,0,0:0:0:0:
320,192,126219,1,0,0:0:0:0:
64,192,126366,1,0,0:0:0:0:
192,192,126514,1,0,0:0:0:0:
320,192,126514,1,0,0:0:0:0:
448,192,126514,1,0,0:0:0:0:
64,192,126588,1,0,0:0:0:0:
448,192,126662,1,0,0:0:0:0:
320,192,126810,1,0,0:0:0:0:
64,192,126810,1,0,0:0:0:0:
192,192,126957,1,0,0:0:0:0:
448,192,126957,1,0,0:0:0:0:
320,192,126957,1,0,0:0:0:0:
64,192,127031,1,0,0:0:0:0:
448,192,127105,1,0,0:0:0:0:
320,192,127253,1,0,0:0:0:0:
192,192,127401,1,0,0:0:0:0:
320,192,127401,1,0,0:0:0:0:
320,192,127696,1,0,0:0:0:0:
192,192,127696,1,0,0:0:0:0:
448,192,127992,1,0,0:0:0:0:
192,192,127992,1,0,0:0:0:0:
64,192,127992,1,0,0:0:0:0:
320,192,128066,1,0,0:0:0:0:
192,192,128140,1,0,0:0:0:0:
448,192,128288,1,0,0:0:0:0:
320,192,128435,1,0,0:0:0:0:
192,192,128435,1,0,0:0:0:0:
64,192,128435,1,0,0:0:0:0:
448,192,128509,1,0,0:0:0:0:
64,192,128583,1,0,0:0:0:0:
192,192,128731,1,0,0:0:0:0:
320,192,128879,1,0,0:0:0:0:
448,192,128879,1,0,0:0:0:0:
64,192,128879,1,0,0:0:0:0:
192,192,128953,1,0,0:0:0:0:
320,192,129026,1,0,0:0:0:0:
64,192,129174,1,0,0:0:0:0:
448,192,129322,1,0,0:0:0:0:
192,192,129322,1,0,0:0:0:0:
64,192,129322,1,0,0:0:0:0:
320,192,129396,1,0,0:0:0:0:
448,192,129470,1,0,0:0:0:0:
192,192,129618,1,0,0:0:0:0:
448,192,129765,1,0,0:0:0:0:
64,192,129765,1,0,0:0:0:0:
320,192,129765,1,0,0:0:0:0:
448,192,129913,1,0,0:0:0:0:
192,192,130061,1,0,0:0:0:0:
320,192,130061,1,0,0:0:0:0:
64,192,130061,1,0,0:0:0:0:
64,192,130209,1,0,0:0:0:0:
320,192,130356,1,0,0:0:0:0:
448,192,130356,1,0,0:0:0:0:
192,192,130356,1,0,0:0:0:0:
64,192,130430,1,0,0:0:0:0:
320,192,130504,1,0,0:0:0:0:
448,192,130652,1,0,0:0:0:0:
320,192,130800,1,0,0:0:0:0:
64,192,130800,1,0,0:0:0:0:
192,192,130800,1,0,0:0:0:0:
448,192,130874,1,0,0:0:0:0:
192,192,130948,1,0,0:0:0:0:
320,192,131095,1,0,0:0:0:0:
192,192,131243,1,0,0:0:0:0:
448,192,131243,1,0,0:0:0:0:
64,192,131243,1,0,0:0:0:0:
320,192,131317,1,0,0:0:0:0:
64,192,131391,1,0,0:0:0:0:
448,192,131539,1,0,0:0:0:0:
192,192,131539,1,0,0:0:0:0:
320,192,131687,1,0,0:0:0:0:
64,192,131687,1,0,0:0:0:0:
192,192,131687,1,0,0:0:0:0:
448,192,131760,1,0,0:0:0:0:
64,192,131834,1,0,0:0:0:0:
320,192,131982,1,0,0:0:0:0:
192,192,132130,1,0,0:0:0:0:
64,192,132130,1,0,0:0:0:0:
448,192,132130,1,0,0:0:0:0:
320,192,132204,1,0,0:0:0:0:
192,192,132278,1,0,0:0:0:0:
448,192,132352,1,0,0:0:0:0:
320,192,132425,1,0,0:0:0:0:
64,192,132425,1,0,0:0:0:0:
448,192,132499,1,0,0:0:0:0:
192,192,132573,1,0,0:0:0:0:
320,192,132647,1,0,0:0:0:0:
192,192,132721,1,0,0:0:0:0:
64,192,132721,1,0,0:0:0:0:
448,192,132721,1,0,0:0:0:0:
320,192,132869,1,0,0:0:0:0:
448,192,133017,1,0,0:0:0:0:
64,192,133017,1,0,0:0:0:0:
448,192,133164,1,0,0:0:0:0:
320,192,133312,1,0,0:0:0:0:
64,192,133386,1,0,0:0:0:0:
192,192,133460,1,0,0:0:0:0:
64,192,133534,1,0,0:0:0:0:
320,192,133608,1,0,0:0:0:0:
192,192,133756,1,0,0:0:0:0:
448,192,133756,1,0,0:0:0:0:
320,192,133903,1,0,0:0:0:0:
192,192,134051,1,0,0:0:0:0:
320,192,134199,1,0,0:0:0:0:
448,192,134199,1,0,0:0:0:0:
192,192,134347,1,0,0:0:0:0:
320,192,134494,1,0,0:0:0:0:
448,192,134494,1,0,0:0:0:0:
64,192,134642,1,0,0:0:0:0:
192,192,134716,1,0,0:0:0:0:
320,192,134790,1,0,0:0:0:0:
448,192,134790,1,0,0:0:0:0:
192,192,134938,1,0,0:0:0:0:
320,192,135086,1,0,0:0:0:0:
64,192,135086,1,0,0:0:0:0:
448,192,135086,1,0,0:0:0:0:
320,192,135233,1,0,0:0:0:0:
64,192,135381,1,0,0:0:0:0:
448,192,135381,1,0,0:0:0:0:
192,192,135529,1,0,0:0:0:0:
320,192,135677,1,0,0:0:0:0:
64,192,135751,1,0,0:0:0:0:
192,192,135824,1,0,0:0:0:0:
64,192,135898,1,0,0:0:0:0:
320,192,135972,1,0,0:0:0:0:
448,192,136120,1,0,0:0:0:0:
192,192,136120,1,0,0:0:0:0:
320,192,136268,1,0,0:0:0:0:
64,192,136416,1,0,0:0:0:0:
448,192,136563,1,0,0:0:0:0:
320,192,136563,1,0,0:0:0:0:
64,192,136711,1,0,0:0:0:0:
320,192,136859,1,0,0:0:0:0:
448,192,136859,1,0,0:0:0:0:
64,192,137007,1,0,0:0:0:0:
192,192,137081,1,0,0:0:0:0:
320,192,137155,1,0,0:0:0:0:
448,192,137155,1,0,0:0:0:0:
192,192,137302,1,0,0:0:0:0:
64,192,137450,1,0,0:0:0:0:
320,192,137450,1,0,0:0:0:0:
448,192,137450,1,0,0:0:0:0:
192,192,137598,1,0,0:0:0:0:
64,192,137746,1,0,0:0:0:0:
448,192,137746,1,0,0:0:0:0:
320,192,137893,1,0,0:0:0:0:
448,192,138041,1,0,0:0:0:0:
64,192,138115,1,0,0:0:0:0:
192,192,138189,1,0,0:0:0:0:
64,192,138263,1,0,0:0:0:0:
320,192,138337,1,0,0:0:0:0:
64,192,138485,1,0,0:0:0:0:
320,192,138485,1,0,0:0:0:0:
448,192,138632,1,0,0:0:0:0:
320,192,138780,1,0,0:0:0:0:
192,192,138928,1,0,0:0:0:0:
64,192,138928,1,0,0:0:0:0:
320,192,139076,1,0,0:0:0:0:
192,192,139223,1,0,0:0:0:0:
64,192,139223,1,0,0:0:0:0:
448,192,139371,1,0,0:0:0:0:
320,192,139445,1,0,0:0:0:0:
192,192,139519,1,0,0:0:0:0:
64,192,139519,1,0,0:0:0:0:
448,192,139667,1,0,0:0:0:0:
320,192,139815,1,0,0:0:0:0:
64,192,139815,1,0,0:0:0:0:
320,192,139962,1,0,0:0:0:0:
64,192,140110,1,0,0:0:0:0:
448,192,140110,1,0,0:0:0:0:
448,192,140258,1,0,0:0:0:0:
192,192,140258,1,0,0:0:0:0:
64,192,140406,1,0,0:0:0:0:
192,192,140480,1,0,0:0:0:0:
64,192,140554,1,0,0:0:0:0:
448,192,140627,1,0,0:0:0:0:
320,192,140701,1,0,0:0:0:0:
192,192,140701,1,0,0:0:0:0:
64,192,140849,1,0,0:0:0:0:
320,192,140997,1,0,0:0:0:0:
320,192,141145,1,0,0:0:0:0:
192,192,141145,1,0,0:0:0:0:
448,192,141292,1,0,0:0:0:0:
64,192,141292,1,0,0:0:0:0:
320,192,141440,1,0,0:0:0:0:
64,192,141588,1,0,0:0:0:0:
448,192,141588,1,0,0:0:0:0:
192,192,141736,1,0,0:0:0:0:
320,192,141810,1,0,0:0:0:0:
64,192,141884,1,0,0:0:0:0:
448,192,141884,1,0,0:0:0:0:
448,192,142179,1,0,0:0:0:0:
64,192,142179,1,0,0:0:0:0:
192,192,142179,1,0,0:0:0:0:
320,192,142253,1,0,0:0:0:0:
192,192,142327,1,0,0:0:0:0:
448,192,142475,1,0,0:0:0:0:
448,192,142622,1,0,0:0:0:0:
320,192,142622,1,0,0:0:0:0:
64,192,142622,1,0,0:0:0:0:
192,192,142696,1,0,0:0:0:0:
320,192,142770,1,0,0:0:0:0:
64,192,142918,1,0,0:0:0:0:
64,192,143066,1,0,0:0:0:0:
192,192,143066,1,0,0:0:0:0:
448,192,143066,1,0,0:0:0:0:
320,192,143140,1,0,0:0:0:0:
192,192,143214,1,0,0:0:0:0:
192,192,143361,1,0,0:0:0:0:
448,192,143509,1,0,0:0:0:0:
320,192,143509,1,0,0:0:0:0:
64,192,143509,1,0,0:0:0:0:
192,192,143583,1,0,0:0:0:0:
320,192,143657,1,0,0:0:0:0:
320,192,143805,1,0,0:0:0:0:
448,192,143953,1,0,0:0:0:0:
64,192,143953,1,0,0:0:0:0:
192,192,143953,1,0,0:0:0:0:
64,192,144100,1,0,0:0:0:0:
448,192,144248,1,0,0:0:0:0:
320,192,144248,1,0,0:0:0:0:
192,192,144248,1,0,0:0:0:0:
448,192,144396,1,0,0:0:0:0:
64,192,144544,1,0,0:0:0:0:
192,192,144544,1,0,0:0:0:0:
320,192,144544,1,0,0:0:0:0:
448,192,144618,1,0,0:0:0:0:
192,192,144691,1,0,0:0:0:0:
320,192,144839,1,0,0:0:0:0:
64,192,144987,1,0,0:0:0:0:
192,192,144987,1,0,0:0:0:0:
448,192,144987,1,0,0:0:0:0:
320,192,145061,1,0,0:0:0:0:
192,192,145135,1,0,0:0:0:0:
448,192,145283,1,0,0:0:0:0:
192,192,145430,1,0,0:0:0:0:
64,192,145430,1,0,0:0:0:0:
320,192,145430,1,0,0:0:0:0:
448,192,145504,1,0,0:0:0:0:
64,192,145578,1,0,0:0:0:0:
192,192,145726,1,0,0:0:0:0:
448,192,145726,1,0,0:0:0:0:
320,192,145874,1,0,0:0:0:0:
448,192,145874,1,0,0:0:0:0:
192,192,145874,1,0,0:0:0:0:
64,192,145948,1,0,0:0:0:0:
320,192,146022,1,0,0:0:0:0:
192,192,146169,1,0,0:0:0:0:
192,192,146317,1,0,0:0:0:0:
320,192,146317,1,0,0:0:0:0:
192,192,146613,1,0,0:0:0:0:
320,192,146613,1,0,0:0:0:0:
64,192,146908,1,0,0:0:0:0:
448,192,146908,1,0,0:0:0:0:
320,192,146908,1,0,0:0:0:0:
192,192,146982,1,0,0:0:0:0:
320,192,147056,1,0,0:0:0:0:
64,192,147204,1,0,0:0:0:0:
448,192,147352,1,0,0:0:0:0:
192,192,147352,1,0,0:0:0:0:
64,192,147352,1,0,0:0:0:0:
320,192,147425,1,0,0:0:0:0:
192,192,147499,1,0,0:0:0:0:
448,192,147647,1,0,0:0:0:0:
192,192,147795,1,0,0:0:0:0:
64,192,147795,1,0,0:0:0:0:
320,192,147795,1,0,0:0:0:0:
448,192,147869,1,0,0:0:0:0:
64,192,147943,1,0,0:0:0:0:
192,192,148090,1,0,0:0:0:0:
64,192,148238,1,0,0:0:0:0:
320,192,148238,1,0,0:0:0:0:
448,192,148238,1,0,0:0:0:0:
192,192,148312,1,0,0:0:0:0:
320,192,148386,1,0,0:0:0:0:
64,192,148534,1,0,0:0:0:0:
320,192,148682,1,0,0:0:0:0:
448,192,148682,1,0,0:0:0:0:
192,192,148682,1,0,0:0:0:0:
448,192,148829,1,0,0:0:0:0:
64,192,148977,1,0,0:0:0:0:
192,192,148977,1,0,0:0:0:0:
320,192,148977,1,0,0:0:0:0:
64,192,149125,1,0,0:0:0:0:
192,192,149273,1,0,0:0:0:0:
320,192,149273,1,0,0:0:0:0:
448,192,149273,1,0,0:0:0:0:
64,192,149347,1,0,0:0:0:0:
448,192,149421,1,0,0:0:0:0:
320,192,149568,1,0,0:0:0:0:
192,192,149716,1,0,0:0:0:0:
64,192,149716,1,0,0:0:0:0:
448,192,149716,1,0,0:0:0:0:
320,192,149790,1,0,0:0:0:0:
192,192,149864,1,0,0:0:0:0:
448,192,150012,1,0,0:0:0:0:
320,192,150159,1,0,0:0:0:0:
448,192,150159,1,0,0:0:0:0:
64,192,150159,1,0,0:0:0:0:
192,192,150233,1,0,0:0:0:0:
320,192,150307,1,0,0:0:0:0:
64,192,150455,1,0,0:0:0:0:
448,192,150455,1,0,0:0:0:0:
192,192,150603,1,0,0:0:0:0:
64,192,150603,1,0,0:0:0:0:
448,192,150603,1,0,0:0:0:0:
320,192,150677,1,0,0:0:0:0:
192,192,150751,1,0,0:0:0:0:
320,192,150898,1,0,0:0:0:0:
320,192,151046,1,0,0:0:0:0:
192,192,151046,1,0,0:0:0:0:
192,192,151342,1,0,0:0:0:0:
320,192,151342,1,0,0:0:0:0:
320,192,151637,1,0,0:0:0:0:
64,192,151637,1,0,0:0:0:0:
192,192,151637,1,0,0:0:0:0:
320,192,151785,1,0,0:0:0:0:
448,192,151785,1,0,0:0:0:0:
448,192,151933,1,0,0:0:0:0:
64,192,151933,1,0,0:0:0:0:
320,192,152081,1,0,0:0:0:0:
192,192,152155,1,0,0:0:0:0:
448,192,152228,1,0,0:0:0:0:
64,192,152302,1,0,0:0:0:0:
192,192,152376,1,0,0:0:0:0:
320,192,152376,1,0,0:0:0:0:
64,192,152450,1,0,0:0:0:0:
448,192,152524,1,0,0:0:0:0:
64,192,152672,1,0,0:0:0:0:
320,192,152672,1,0,0:0:0:0:
448,192,152820,1,0,0:0:0:0:
320,192,152967,1,0,0:0:0:0:
64,192,153115,1,0,0:0:0:0:
192,192,153115,1,0,0:0:0:0:
320,192,153263,1,0,0:0:0:0:
64,192,153411,1,0,0:0:0:0:
192,192,153411,1,0,0:0:0:0:
448,192,153558,1,0,0:0:0:0:
320,192,153632,1,0,0:0:0:0:
64,192,153706,1,0,0:0:0:0:
192,192,153706,1,0,0:0:0:0:
320,192,153854,1,0,0:0:0:0:
64,192,154002,1,0,0:0:0:0:
448,192,154002,1,0,0:0:0:0:
320,192,154002,1,0,0:0:0:0:
448,192,154150,1,0,0:0:0:0:
64,192,154150,1,0,0:0:0:0:
320,192,154297,1,0,0:0:0:0:
192,192,154297,1,0,0:0:0:0:
448,192,154445,1,0,0:0:0:0:
192,192,154445,1,0,0:0:0:0:
64,192,154519,1,0,0:0:0:0:
320,192,154593,1,0,0:0:0:0:
448,192,154741,1,0,0:0:0:0:
64,192,154741,1,0,0:0:0:0:
192,192,154889,1,0,0:0:0:0:
320,192,155036,1,0,0:0:0:0:
448,192,155036,1,0,0:0:0:0:
320,192,155184,1,0,0:0:0:0:
192,192,155184,1,0,0:0:0:0:
64,192,155258,1,0,0:0:0:0:
448,192,155406,1,0,0:0:0:0:
192,192,155406,1,0,0:0:0:0:
320,192,155480,1,0,0:0:0:0:
192,192,155627,1,0,0:0:0:0:
64,192,155627,1,0,0:0:0:0:
448,192,155701,1,0,0:0:0:0:
320,192,155849,1,0,0:0:0:0:
192,192,155849,1,0,0:0:0:0:
64,192,155923,1,0,0:0:0:0:
192,192,156071,1,0,0:0:0:0:
448,192,156071,1,0,0:0:0:0:
320,192,156145,1,0,0:0:0:0:
64,192,156292,1,0,0:0:0:0:
320,192,156366,1,0,0:0:0:0:
448,192,156366,1,0,0:0:0:0:
192,192,156366,1,0,0:0:0:0:
192,192,156514,1,0,0:0:0:0:
64,192,156662,1,0,0:0:0:0:
448,192,156662,1,0,0:0:0:0:
320,192,156810,1,0,0:0:0:0:
192,192,156884,1,0,0:0:0:0:
64,192,156957,1,0,0:0:0:0:
448,192,156957,1,0,0:0:0:0:
64,192,157105,1,0,0:0:0:0:
448,192,157105,1,0,0:0:0:0:
192,192,157253,1,0,0:0:0:0:
320,192,157253,1,0,0:0:0:0:
448,192,157401,1,0,0:0:0:0:
192,192,157401,1,0,0:0:0:0:
64,192,157549,1,0,0:0:0:0:
320,192,157696,1,0,0:0:0:0:
448,192,157696,1,0,0:0:0:0:
320,192,157844,1,0,0:0:0:0:
192,192,157992,1,0,0:0:0:0:
64,192,157992,1,0,0:0:0:0:
320,192,158066,1,0,0:0:0:0:
448,192,158066,1,0,0:0:0:0:
64,192,158140,1,0,0:0:0:0:
192,192,158214,1,0,0:0:0:0:
448,192,158288,1,0,0:0:0:0:
192,192,158435,1,0,0:0:0:0:
320,192,158435,1,0,0:0:0:0:
64,192,158583,1,0,0:0:0:0:
448,192,158583,1,0,0:0:0:0:
320,192,158731,1,0,0:0:0:0:
192,192,158731,1,0,0:0:0:0:
64,192,158731,1,0,0:0:0:0:
192,192,158879,1,0,0:0:0:0:
448,192,158953,1,0,0:0:0:0:
64,192,159026,1,0,0:0:0:0:
320,192,159026,1,0,0:0:0:0:
64,192,159174,1,0,0:0:0:0:
448,192,159174,1,0,0:0:0:0:
320,192,159322,1,0,0:0:0:0:
192,192,159396,1,0,0:0:0:0:
448,192,159470,1,0,0:0:0:0:
192,192,159618,1,0,0:0:0:0:
320,192,159618,1,0,0:0:0:0:
64,192,159618,1,0,0:0:0:0:
64,192,159765,1,0,0:0:0:0:
448,192,159765,1,0,0:0:0:0:
320,192,159987,1,0,0:0:0:0:
192,192,159987,1,0,0:0:0:0:
192,192,160209,1,0,0:0:0:0:
448,192,160209,1,0,0:0:0:0:
64,192,160430,1,0,0:0:0:0:
192,192,160430,1,0,0:0:0:0:
320,192,160652,1,0,0:0:0:0:
448,192,160652,1,0,0:0:0:0:
320,192,160874,1,0,0:0:0:0:
192,192,160874,1,0,0:0:0:0:
64,192,161095,1,0,0:0:0:0:
320,192,161095,1,0,0:0:0:0:
448,192,161095,1,0,0:0:0:0:
192,192,161243,1,0,0:0:0:0:
64,192,161391,1,0,0:0:0:0:
448,192,161391,1,0,0:0:0:0:
192,192,161539,1,0,0:0:0:0:
320,192,161613,1,0,0:0:0:0:
64,192,161687,1,0,0:0:0:0:
448,192,161760,1,0,0:0:0:0:
192,192,161834,1,0,0:0:0:0:
320,192,161834,1,0,0:0:0:0:
448,192,161908,1,0,0:0:0:0:
64,192,161982,1,0,0:0:0:0:
448,192,162130,1,0,0:0:0:0:
192,192,162130,1,0,0:0:0:0:
64,192,162278,1,0,0:0:0:0:
192,192,162425,1,0,0:0:0:0:
448,192,162573,1,0,0:0:0:0:
320,192,162573,1,0,0:0:0:0:
192,192,162721,1,0,0:0:0:0:
448,192,162869,1,0,0:0:0:0:
320,192,162869,1,0,0:0:0:0:
64,192,163017,1,0,0:0:0:0:
192,192,163090,1,0,0:0:0:0:
448,192,163164,1,0,0:0:0:0:
320,192,163164,1,0,0:0:0:0:
192,192,163312,1,0,0:0:0:0:
64,192,163460,1,0,0:0:0:0:
448,192,163460,1,0,0:0:0:0:
192,192,163460,1,0,0:0:0:0:
64,192,163608,1,0,0:0:0:0:
448,192,163608,1,0,0:0:0:0:
192,192,163756,1,0,0:0:0:0:
320,192,163756,1,0,0:0:0:0:
192,192,163903,1,0,0:0:0:0:
448,192,163903,1,0,0:0:0:0:
64,192,163977,1,0,0:0:0:0:
320,192,164051,1,0,0:0:0:0:
64,192,164199,1,0,0:0:0:0:
448,192,164199,1,0,0:0:0:0:
192,192,164273,1,0,0:0:0:0:
64,192,164347,1,0,0:0:0:0:
320,192,164494,1,0,0:0:0:0:
448,192,164494,1,0,0:0:0:0:
320,192,164642,1,0,0:0:0:0:
192,192,164642,1,0,0:0:0:0:
64,192,164716,1,0,0:0:0:0:
448,192,164864,1,0,0:0:0:0:
192,192,164864,1,0,0:0:0:0:
320,192,164938,1,0,0:0:0:0:
192,192,165086,1,0,0:0:0:0:
64,192,165086,1,0,0:0:0:0:
448,192,165159,1,0,0:0:0:0:
320,192,165307,1,0,0:0:0:0:
192,192,165307,1,0,0:0:0:0:
64,192,165381,1,0,0:0:0:0:
192,192,165529,1,0,0:0:0:0:
448,192,165529,1,0,0:0:0:0:
320,192,165603,1,0,0:0:0:0:
64,192,165751,1,0,0:0:0:0:
320,192,165824,1,0,0:0:0:0:
448,192,165824,1,0,0:0:0:0:
192,192,165824,1,0,0:0:0:0:
192,192,165972,1,0,0:0:0:0:
64,192,166120,1,0,0:0:0:0:
320,192,166120,1,0,0:0:0:0:
192,192,166268,1,0,0:0:0:0:
320,192,166342,1,0,0:0:0:0:
64,192,166416,1,0,0:0:0:0:
448,192,166416,1,0,0:0:0:0:
64,192,166563,1,0,0:0:0:0:
448,192,166563,1,0,0:0:0:0:
320,192,166711,1,0,0:0:0:0:
192,192,166711,1,0,0:0:0:0:
448,192,166859,1,0,0:0:0:0:
192,192,166859,1,0,0:0:0:0:
64,192,167007,1,0,0:0:0:0:
448,192,167155,1,0,0:0:0:0:
320,192,167155,1,0,0:0:0:0:
320,192,167302,1,0,0:0:0:0:
64,192,167450,1,0,0:0:0:0:
192,192,167450,1,0,0:0:0:0:
448,192,167524,1,0,0:0:0:0:
320,192,167524,1,0,0:0:0:0:
64,192,167598,1,0,0:0:0:0:
192,192,167672,1,0,0:0:0:0:
448,192,167746,1,0,0:0:0:0:
64,192,167893,1,0,0:0:0:0:
192,192,167893,1,0,0:0:0:0:
448,192,168041,1,0,0:0:0:0:
64,192,168041,1,0,0:0:0:0:
64,192,168189,1,0,0:0:0:0:
192,192,168189,1,0,0:0:0:0:
320,192,168189,1,0,0:0:0:0:
192,192,168337,1,0,0:0:0:0:
64,192,168411,1,0,0:0:0:0:
320,192,168485,1,0,0:0:0:0:
448,192,168485,1,0,0:0:0:0:
192,192,168632,1,0,0:0:0:0:
448,192,168706,1,0,0:0:0:0:
320,192,168780,1,0,0:0:0:0:
192,192,168928,1,0,0:0:0:0:
320,192,169002,1,0,0:0:0:0:
64,192,169076,1,0,0:0:0:0:
192,192,169076,1,0,0:0:0:0:
448,192,169076,1,0,0:0:0:0:
64,192,169223,5,0,0:0:0:0:
448,192,169223,1,0,0:0:0:0:
192,192,169445,1,0,0:0:0:0:
320,192,169445,1,0,0:0:0:0:
448,192,169667,1,0,0:0:0:0:
192,192,169667,1,0,0:0:0:0:
192,192,169889,1,0,0:0:0:0:
64,192,169889,1,0,0:0:0:0:
448,192,170110,1,0,0:0:0:0:
320,192,170110,1,0,0:0:0:0:
192,192,170332,1,0,0:0:0:0:
320,192,170332,1,0,0:0:0:0:
