osu file format v14

[General]
AudioFilename: audio.mp3
AudioLeadIn: 0
PreviewTime: 211715
Countdown: 0
SampleSet: Soft
StackLeniency: 0
Mode: 0
LetterboxInBreaks: 0
WidescreenStoryboard: 0

[Editor]
Bookmarks: 10790,11112,31112,31757,42725,43047,46596,51757,52402,62724,63047,66273,66595,69176,78853,82724,83369,93692,98853,113749,124071,133748,134394,144636,147297,154394,160200,166329,209232,210523,211813,227297,230523,231813
DistanceSpacing: 2
BeatDivisor: 4
GridSize: 32
TimelineZoom: 2.999999

[Metadata]
Title:Desert
TitleUnicode:砂漠で
Artist:HAKUSHI HASEGAWA
ArtistUnicode:長谷川白紙
Creator:Halgoh
Version:Mirage
Source:
Tags:sabaku de air ni ni electronic instrumental japanese
BeatmapID:2921554
BeatmapSetID:1417973

[Difficulty]
HPDrainRate:4.6
CircleSize:4
OverallDifficulty:8.6
ApproachRate:9.6
SliderMultiplier:1.7
SliderTickRate:1

[Events]
//Background and Video events
0,0,"wallhaven-3kqvp9.jpg",0,0
//Break Periods
//Storyboard Layer 0 (Background)
//Storyboard Layer 1 (Fail)
//Storyboard Layer 2 (Pass)
//Storyboard Layer 3 (Foreground)
//Storyboard Layer 4 (Overlay)
//Storyboard Sound Samples

[TimingPoints]
145,322.577176589499,4,2,1,75,1,0
145,-100,4,3,82,60,0,0
306,-100,4,3,82,5,0,0
467,-100,4,3,82,60,0,0
628,-100,4,3,82,5,0,0
790,-100,4,2,1,30,0,0
1435,-100,4,2,1,40,0,0
2080,-100,4,2,1,50,0,0
2725,-100,4,2,1,60,0,0
3532,-133.333333333333,4,2,1,50,0,0
4822,-100,4,2,1,50,0,0
5467,-100,4,3,30,65,0,0
5870,-100,4,3,30,5,0,0
5951,-133.333333333333,4,2,30,65,0,0
6032,-133.333333333333,4,2,30,5,0,0
6193,-133.333333333333,4,2,30,65,0,0
6273,-133.333333333333,4,2,1,65,0,0
6435,-100,4,2,30,65,0,0
6515,-100,4,2,1,5,0,0
6596,-100,4,2,30,65,0,0
6838,-100,4,2,30,65,0,0
6919,-100,4,2,1,65,0,0
6999,-100,4,2,30,65,0,0
7241,-100,4,2,30,65,0,0
7322,-100,4,2,30,5,0,0
7483,-100,4,2,30,65,0,0
7564,-100,4,2,1,65,0,0
7725,-100,4,2,30,65,0,0
7806,-100,4,2,30,5,0,0
7886,-100,4,2,1,65,0,0
7967,-100,4,2,1,5,0,0
8048,-66.6666666666667,4,2,1,65,0,0
8370,-111.111111111111,4,2,30,65,0,0
8451,-111.111111111111,4,2,1,5,0,0
8532,-111.111111111111,4,2,1,65,0,0
8612,-111.111111111111,4,2,1,5,0,0
8693,-111.111111111111,4,2,30,65,0,0
8854,-111.111111111111,4,2,1,65,0,0
8935,-111.111111111111,4,2,30,65,0,0
9338,-100,4,2,30,65,0,0
9419,-100,4,2,30,65,0,0
9499,-111.111111111111,4,2,1,65,0,0
9580,-111.111111111111,4,2,30,65,0,0
9661,-111.111111111111,4,2,30,65,0,0
9983,-111.111111111111,4,2,1,65,0,0
10064,-111.111111111111,4,2,30,65,0,0
10144,-111.111111111111,4,2,1,65,0,0
10306,-111.111111111111,4,2,30,65,0,0
10467,-111.111111111111,4,2,15,65,0,0
10790,322.58064516129,4,2,1,65,1,0
10790,-66.6666666666667,4,3,16,65,0,0
11031,-66.6666666666667,4,2,1,5,0,0
11112,-30.7692307692308,4,2,2,75,0,1
11273,-30.7692307692308,4,2,30,75,0,1
11354,-30.7692307692308,4,2,2,75,0,1
11435,-66.6666666666667,4,2,1,75,0,1
11515,-66.6666666666667,4,2,30,75,0,1
11596,-80,4,2,3,75,0,1
11677,-80,4,2,30,75,0,1
11757,-26.6666666666667,4,2,1,75,0,1
11919,-26.6666666666667,4,2,30,75,0,1
11999,-26.6666666666667,4,2,30,75,0,1
12241,-200,4,2,3,75,0,1
12322,-200,4,2,2,5,0,1
12402,-30.7692307692308,4,2,2,75,0,1
12564,-30.7692307692308,4,2,3,75,0,1
12725,-50,4,2,30,75,0,1
12806,-50,4,2,30,75,0,1
12886,-40,4,2,1,75,0,1
12967,-40,4,2,30,75,0,1
13048,-30.7692307692308,4,2,1,75,0,1
13209,-30.7692307692308,4,2,30,75,0,1
13290,-79.9999999999999,4,2,2,75,0,1
13370,-79.9999999999999,4,2,30,75,0,1
13531,-57.1428571428571,4,2,1,75,0,1
13612,-57.1428571428571,4,2,1,5,0,1
13693,-33.3333333333333,4,2,1,75,0,1
13854,-33.3333333333333,4,2,30,75,0,1
13935,-44.4444444444445,4,2,1,75,0,1
14015,-44.4444444444445,4,2,30,75,0,1
14177,-285.714285714284,4,2,2,75,0,1
14257,-285.714285714284,4,2,1,5,0,1
14338,-25,4,2,1,75,0,1
14499,-25,4,2,30,75,0,1
14580,-25,4,2,30,75,0,1
14660,-28.5714285714286,4,2,30,75,0,1
14741,-28.5714285714286,4,2,30,75,0,1
14822,-57.1428571428571,4,2,1,75,0,1
14902,-57.1428571428571,4,2,1,5,0,1
14983,-57.1428571428571,4,2,1,75,0,1
15064,-100,4,2,1,75,0,1
15306,-66.6666666666667,4,2,1,75,0,1
15548,-57.1428571428571,4,2,1,75,0,1
15789,-57.1428571428571,4,2,30,75,0,1
15951,-57.1428571428571,4,2,1,75,0,1
16031,-133.333333333333,4,2,1,75,0,0
16193,-133.333333333333,4,2,1,5,0,0
16273,-28.5714285714286,4,2,2,75,0,1
16435,-28.5714285714286,4,2,30,75,0,1
16515,-57.1428571428571,4,2,1,75,0,1
16677,-57.1428571428571,4,2,30,75,0,1
16757,-54.054054054054,4,2,1,75,0,1
16919,-25,4,2,1,75,0,1
17241,-50,4,2,1,75,0,1
17564,-33.3333333333333,4,2,1,75,0,1
17886,-100,4,2,1,75,0,1
18048,-66.6666666666667,4,2,1,75,0,1
18209,-30.7692307692308,4,2,1,75,0,1
18531,-57.1428571428571,4,2,1,75,0,1
18854,-30.7692307692308,4,2,2,75,0,1
19015,-33.3333333333333,4,2,2,75,0,1
19096,-33.3333333333333,4,2,1,75,0,1
19499,-36.3636363636364,4,2,1,75,0,1
20225,-200,4,2,1,75,0,1
21193,-285.714285714286,4,2,1,75,0,0
21354,-285.714285714286,4,2,1,5,0,0
21435,-28.5714285714286,4,2,2,75,0,1
21757,-44.4444444444445,4,2,1,75,0,1
22160,-44.4444444444445,4,2,30,75,0,1
22241,-44.4444444444445,4,2,30,70,0,1
22322,-44.4444444444445,4,2,30,65,0,1
22402,-83.3333333333333,4,2,2,75,0,1
22483,-83.3333333333333,4,2,2,5,0,1
22564,-125,4,2,2,75,0,1
22644,-125,4,2,1,5,0,1
22725,-41.6666666666667,4,2,1,75,0,1
22806,-41.6666666666667,4,2,1,5,0,1
22886,-41.6666666666667,4,2,1,75,0,1
22967,-41.6666666666667,4,2,1,5,0,1
23047,-71.4285714285714,4,2,1,75,0,1
23370,-31.25,4,2,1,75,0,1
23612,-50,4,2,1,75,0,1
23854,-100,4,2,1,75,0,1
24015,-33.3333333333333,4,2,1,75,0,1
24176,-133.333333333333,4,2,1,75,0,1
24660,-28.5714285714286,4,2,1,75,0,1
24902,-50,4,2,1,75,0,1
25144,-100,4,2,1,75,0,1
25386,-50,4,2,1,75,0,1
25628,-36.3636363636364,4,2,1,75,0,1
26031,-133.333333333333,4,2,1,75,0,1
26072,-133.333333333333,4,2,1,5,0,1
26112,-36.3636363636364,4,2,1,75,0,1
26233,-36.3636363636364,4,2,1,5,0,1
26273,-250,4,2,1,75,0,0
26515,-250,4,2,1,5,0,0
26596,-25,4,2,2,75,0,1
26918,-50,4,2,1,75,0,1
27160,-50,4,2,1,5,0,1
27241,-33.3333333333333,4,2,1,75,0,1
27322,-33.3333333333333,4,2,1,5,0,1
27402,-33.3333333333333,4,2,1,75,0,1
27564,-133.333333333333,4,2,2,75,0,1
27644,-133.333333333333,4,2,1,5,0,1
27725,-100,4,2,2,75,0,1
27805,-133.333333333333,4,2,1,5,0,1
27886,-25,4,2,1,75,0,1
28370,-66.6666666666667,4,2,1,75,0,1
28451,-66.6666666666667,4,2,1,5,0,1
28531,-36.3636363636364,4,2,1,75,0,1
28773,-44.4444444444445,4,2,1,75,0,1
29176,-66.6666666666667,4,2,1,75,0,1
29338,-66.6666666666667,4,2,1,5,0,0
29418,-100,4,2,2,75,0,1
29580,-100,4,2,1,5,0,0
29660,-57.1428571428571,4,2,2,75,0,1
29741,-57.1428571428571,4,2,1,5,0,0
29822,-33.3333333333333,4,2,1,75,0,1
29983,-33.3333333333333,4,2,1,5,0,0
30064,-66.6666666666667,4,2,2,75,0,1
30225,-66.6666666666667,4,2,1,5,0,0
30305,-57.1428571428571,4,2,2,75,0,1
30386,-57.1428571428571,4,2,1,5,0,0
30467,-44.4444444444445,4,2,2,75,0,1
30628,-44.4444444444445,4,2,1,75,0,0
30709,-142.857142857143,4,2,2,75,0,1
30870,-142.857142857143,4,2,1,5,0,0
30951,-30.7692307692308,4,2,1,75,0,1
31031,-30.7692307692308,4,2,1,5,0,0
31112,-36.3636363636364,4,2,1,75,0,1
31354,-36.3636363636364,4,2,1,80,0,0
31434,-399.999999999997,4,2,1,60,0,0
31596,-200,4,2,1,60,0,0
31757,-100,4,2,1,60,0,0
33531,-50,4,2,1,60,0,0
34338,-66.6666666666667,4,2,1,60,0,0
34660,-100,4,2,1,60,0,0
34822,-66.6666666666667,4,2,1,60,0,0
34983,-80,4,2,1,60,0,0
35951,-62.5,4,2,1,60,0,0
36434,-52.6315789473684,4,2,1,60,0,0
36918,-105.263157894737,4,2,1,60,0,0
37241,-86.9565217391306,4,2,1,60,0,0
38047,-100,4,2,1,60,0,0
38209,-76.9230769230769,4,2,1,60,0,0
38773,-76.9230769230769,4,2,1,5,0,0
38854,-76.9230769230769,4,2,1,60,0,0
39499,-51.2820512820513,4,2,1,60,0,0
39741,-62.5,4,2,1,60,0,0
39902,-62.5,4,2,1,5,0,0
39983,-250,4,2,1,60,0,0
40064,-250,4,2,1,5,0,0
40144,-125,4,2,1,60,0,0
40386,-55.5555555555556,4,2,1,60,0,0
40628,-66.6666666666667,4,2,1,60,0,0
40951,-111.111111111111,4,2,1,60,0,0
41354,-111.111111111111,4,2,1,5,0,0
41435,-111.111111111111,4,2,1,60,0,0
41515,-111.111111111111,4,2,1,5,0,0
41596,-111.111111111111,4,2,1,60,0,0
41757,-74.0740740740741,4,2,1,60,0,0
41918,-62.5,4,2,1,60,0,0
42402,-111.111111111111,4,2,1,60,0,0
42483,-111.111111111111,4,2,1,5,0,0
42564,-111.111111111111,4,2,1,60,0,0
42644,-111.111111111111,4,2,1,5,0,0
42725,-62.5,4,2,1,60,0,0
43047,-125,4,2,1,60,0,0
44580,-100,4,2,1,60,0,0
45628,-66.6666666666667,4,2,1,60,0,0
45950,-57.1428571428571,4,2,1,60,0,0
46273,-62.5,4,2,1,60,0,0
46596,-41.6666666666667,4,2,1,60,0,1
47241,-35.7142857142857,4,2,1,60,0,1
47725,-71.4285714285714,4,2,1,60,0,1
47886,-31.25,4,2,1,60,0,1
48531,-35.7142857142857,4,2,1,60,0,1
49015,-71.4285714285714,4,2,1,60,0,1
49176,-41.6666666666667,4,2,1,60,0,1
50547,-125,4,2,1,60,0,1
51031,-62.5,4,2,1,60,0,1
51273,-45.4545454545455,4,2,1,60,0,1
51515,-33.3333333333333,4,2,1,60,0,0
51757,-200,4,2,1,60,0,0
51999,-200,4,2,1,5,0,0
52079,-133.333333333333,4,2,1,60,0,0
52725,-66.6666666666667,4,2,1,60,0,0
54660,-133.333333333333,4,2,1,60,0,0
55467,-80,4,2,1,60,0,0
55628,-57.1428571428571,4,2,1,60,0,0
55951,-50,4,2,1,60,0,0
56112,-100,4,2,1,60,0,0
56919,-66.6666666666667,4,2,1,60,0,0
58048,-50,4,2,1,60,0,0
58209,-100,4,2,1,60,0,0
58451,-200,4,2,1,60,0,0
58693,-100,4,2,1,60,0,0
59499,-40,4,2,1,60,0,0
59822,-100,4,2,1,60,0,0
60064,-100,4,2,1,5,0,0
60144,-50,4,2,1,60,0,0
60386,-66.6666666666667,4,2,1,60,0,0
60548,-66.6666666666667,4,2,1,5,0,0
60628,-200,4,2,1,60,0,0
60951,-66.6666666666667,4,2,1,60,0,0
61273,-100,4,2,1,60,0,0
61435,-66.6666666666667,4,2,1,60,0,0
62402,-133.333333333333,4,2,1,60,0,0
62483,-133.333333333333,4,2,1,5,0,0
62564,-133.333333333333,4,2,1,60,0,0
62725,-57.1428571428571,4,2,1,60,0,0
64822,-133.333333333333,4,2,1,60,0,0
64983,-44.4444444444445,4,2,1,60,0,0
66273,-1000,4,2,1,60,0,0
66596,-33.3333333333333,4,2,1,60,0,0
66677,-33.3333333333333,4,2,1,5,0,0
66757,-100,4,2,1,60,0,0
67241,-50,4,2,1,60,0,0
67564,-66.6666666666667,4,2,1,60,0,0
67806,-66.6666666666667,4,2,1,5,0,0
67886,-44.4444444444445,4,2,1,60,0,0
69015,-44.4444444444445,4,2,41,60,0,0
69177,-399.999999999997,4,2,1,60,0,0
69660,-44.4444444444445,4,2,1,60,0,0
69822,-57.1428571428571,4,2,1,60,0,0
70064,-57.1428571428571,4,2,1,5,0,0
70144,-133.333333333333,4,2,1,60,0,0
70306,-100,4,2,1,60,0,0
70386,-100,4,2,1,5,0,0
70467,-200,4,2,1,60,0,0
70789,-200,4,2,1,40,0,0
70870,-200,4,2,1,55,0,0
71112,-133.333333333333,4,2,1,60,0,0
71193,-133.333333333333,4,2,1,5,0,0
71273,-111.111111111111,4,2,1,60,0,0
71435,-90.9090909090909,4,2,1,60,0,0
71596,-76.9230769230769,4,2,1,60,0,0
72402,-153.846153846153,4,2,1,60,0,0
73048,-52.6315789473684,4,2,1,60,0,0
73693,-76.9230769230769,4,2,1,60,0,0
74338,-285.714285714282,4,2,1,60,0,0
74983,-50,4,2,1,60,0,0
76273,-100,4,2,1,60,0,0
76354,-100,4,2,1,5,0,0
76435,-100,4,2,1,60,0,0
76919,-51.2820512820513,4,2,1,60,0,0
77886,-66.6666666666667,4,2,1,60,0,0
79499,-57.1428571428571,4,2,1,60,0,0
79580,-57.1428571428571,4,2,1,5,0,0
79660,-57.1428571428571,4,2,1,60,0,0
79741,-80,4,2,1,60,0,0
79983,-80,4,2,11,75,0,0
80144,-80,4,2,1,60,0,0
80628,-80,4,2,11,75,0,0
80789,-80,4,2,1,60,0,0
80951,-80,4,3,12,60,0,0
81031,-80,4,2,1,60,0,0
81273,-80,4,3,11,70,0,0
81354,-80,4,2,12,75,0,0
81435,-80,4,2,1,60,0,0
82080,-57.1428571428571,4,2,1,60,0,0
82241,-57.1428571428571,4,2,1,5,0,0
82322,-57.1428571428571,4,2,1,60,0,0
82483,-57.1428571428571,4,2,1,5,0,0
82564,-57.1428571428571,4,2,1,60,0,0
82644,-57.1428571428571,4,2,1,5,0,0
82725,-80,4,2,1,60,0,0
83048,-111.111111111111,4,2,1,60,0,0
83370,-27.7777777777778,4,2,2,75,0,1
83612,-55.5555555555556,4,2,2,75,0,1
83854,-41.6666666666667,4,2,2,75,0,1
84015,-35.7142857142857,4,2,2,75,0,1
84338,-71.4285714285714,4,2,2,75,0,1
84499,-142.857142857143,4,2,2,75,0,1
84580,-142.857142857143,4,2,2,5,0,1
84660,-41.6666666666667,4,2,2,75,0,1
85144,-62.5,4,2,2,75,0,1
85306,-25,4,2,2,75,0,1
85628,-250,4,2,2,75,0,1
85789,-166.666666666667,4,2,2,75,0,1
85951,-52.6315789473684,4,2,2,75,0,1
86112,-45.4545454545455,4,2,2,75,0,1
87080,-90.9090909090909,4,2,2,75,0,1
87241,-90.9090909090909,4,2,2,90,0,1
87322,-45.4545454545455,4,2,2,60,0,1
87483,-45.4545454545455,4,2,2,90,0,1
87564,-45.4545454545455,4,2,2,60,0,1
87725,-45.4545454545455,4,2,2,90,0,1
87806,-45.4545454545455,4,2,2,75,0,1
88289,-454.545454545455,4,2,2,75,0,1
88451,-454.545454545455,4,2,2,5,0,1
88531,-25,4,2,2,60,0,1
88773,-100,4,2,2,60,0,1
89015,-50,4,2,2,60,0,1
89499,-31.25,4,2,2,60,0,1
89660,-312.5,4,2,2,60,0,1
89822,-27.7777777777778,4,2,2,60,0,1
90064,-83.3333333333333,4,2,2,60,0,1
90306,-41.6666666666667,4,2,2,60,0,1
90789,-35.7142857142857,4,2,2,60,0,1
90951,-166.666666666667,4,2,2,60,0,1
91112,-41.6666666666667,4,2,2,60,0,1
91273,-50,4,2,2,60,0,1
91596,-41.6666666666667,4,2,2,60,0,1
92080,-50,4,2,2,60,0,1
92241,-62.5,4,2,2,60,0,1
92402,-90.9090909090909,4,2,2,90,0,1
92483,-41.6666666666667,4,2,2,60,0,1
92644,-45.4545454545455,4,2,2,90,0,1
92725,-41.6666666666667,4,2,2,90,0,1
92886,-45.4545454545455,4,2,2,90,0,1
92967,-41.6666666666667,4,2,2,90,0,1
93451,-416.666666666667,4,2,2,60,0,1
93612,-416.666666666667,4,2,1,60,0,0
93935,-833.333333333333,4,2,1,60,0,0
94257,-133.333333333333,4,2,1,60,0,0
94983,-133.333333333333,4,2,1,45,0,0
96273,-100,4,2,1,60,0,0
96596,-133.333333333333,4,2,1,60,0,0
96757,-111.111111111111,4,2,1,60,0,0
96919,-80,4,2,1,60,0,0
97241,-66.6666666666667,4,2,1,60,0,0
97886,-57.1428571428571,4,2,1,60,0,0
98048,-133.333333333333,4,2,1,60,0,0
98370,-133.333333333333,4,2,1,45,0,0
98451,-133.333333333333,4,2,1,50,0,0
98531,-133.333333333333,4,2,1,55,0,0
98612,-133.333333333333,4,2,1,60,0,0
98693,-133.333333333333,4,2,1,65,0,0
98773,-133.333333333333,4,2,1,70,0,0
98854,-66.6666666666667,4,2,1,75,0,0
99177,-80,4,2,1,60,0,0
100144,-74.0740740740741,4,2,1,60,0,0
100467,-66.6666666666667,4,2,1,60,0,0
100628,-100,4,2,1,60,0,0
100789,-1000,4,2,1,60,0,0
101435,-66.6666666666667,4,2,1,60,0,0
101757,-57.1428571428571,4,2,1,60,0,0
103209,-80,4,2,1,60,0,0
104338,-100,4,2,1,60,0,0
104499,-80,4,2,1,60,0,0
104660,-57.1428571428571,4,2,1,60,0,0
104983,-90.9090909090909,4,2,1,60,0,0
107483,-90.9090909090909,4,2,1,5,0,0
107564,-100,4,2,1,60,0,0
107886,-125,4,2,1,60,0,0
108209,-66.6666666666667,4,2,1,60,0,0
108531,322.58064516129,4,2,1,75,1,0
108531,-399.999999999997,4,2,1,45,0,0
108692,-399.999999999997,4,3,91,60,0,0
108853,-399.999999999997,4,2,1,45,0,0
109014,-399.999999999997,4,3,91,60,0,0
109176,-399.999999999997,4,2,1,45,0,0
109337,-399.999999999997,4,3,91,60,0,0
109498,-399.999999999997,4,2,1,45,0,0
109659,-399.999999999997,4,3,91,60,0,0
109821,-399.999999999997,4,2,1,45,0,0
109982,-399.999999999997,4,3,91,60,0,0
110143,-399.999999999997,4,2,1,45,0,0
110304,-399.999999999997,4,3,91,60,0,0
110466,-399.999999999997,4,2,1,45,0,0
110627,-399.999999999997,4,3,91,60,0,0
110789,-399.999999999997,4,2,1,45,0,0
110950,-399.999999999997,4,3,91,60,0,0
111111,-399.999999999997,4,1,1,60,0,0
111353,-399.999999999997,4,2,1,60,0,0
111756,-200,4,2,1,75,0,0
112240,-100,4,2,1,75,0,0
112401,336.605890603086,4,2,1,75,1,0
112401,-200,4,2,1,75,0,0
112569,-200,4,3,11,75,0,0
112653,-200,4,2,1,75,0,0
112905,-400,4,2,1,75,0,0
113242,-133.333333333333,4,2,11,75,0,0
113326,-133.333333333333,4,2,1,5,0,0
113410,-399.999999999997,4,2,1,75,0,0
113749,322.58064516129,4,2,1,75,1,0
113749,-200,4,2,1,45,0,0
113749,-200,4,2,1,35,0,0
114394,-200,4,1,42,75,0,0
114636,-200,4,1,42,5,0,0
114716,-200,4,1,42,75,0,0
114797,-200,4,1,1,5,0,0
114878,-200,4,2,1,45,0,0
114958,-200,4,2,1,5,0,0
115039,-200,4,2,42,55,0,0
115200,-200,4,2,1,55,0,0
115361,-200,4,2,42,55,0,0
115522,-200,4,2,1,55,0,0
115684,-200,4,2,42,55,0,0
115765,-200,4,2,42,5,0,0
115845,-200,4,2,1,55,0,0
115926,-200,4,2,1,5,0,0
116007,-200,4,2,42,55,0,0
116087,-200,4,2,42,5,0,0
116168,-200,4,2,1,55,0,0
116249,-200,4,2,1,5,0,0
116329,-133.333333333333,4,2,42,55,0,0
116732,-133.333333333333,4,2,1,65,0,0
116813,-133.333333333333,4,2,1,65,0,0
116974,-399.999999999997,4,2,42,75,0,0
117297,-133.333333333333,4,2,42,75,0,0
117378,-133.333333333333,4,2,1,75,0,0
117619,-80,4,2,42,75,0,0
117861,-80,4,2,1,75,0,0
117942,-80,4,2,42,75,0,0
118023,-80,4,2,1,75,0,0
118265,-133.333333333333,4,2,42,75,0,0
118345,-133.333333333333,4,2,42,5,0,0
118426,-133.333333333333,4,2,1,75,0,0
118507,-133.333333333333,4,2,1,5,0,0
118587,-133.333333333333,4,2,42,75,0,0
118668,-133.333333333333,4,2,1,75,0,0
118748,-133.333333333333,4,2,1,75,0,0
118829,-133.333333333333,4,2,1,5,0,0
118910,-30.7692307692308,4,2,42,75,0,0
118990,-30.7692307692308,4,2,1,75,0,0
119071,-100,4,2,1,75,0,0
119555,-100,4,2,42,75,0,0
119878,-100,4,2,42,75,0,0
120200,-66.6666666666667,4,2,1,75,0,0
120523,-66.6666666666667,4,2,42,75,0,0
120603,-66.6666666666667,4,2,1,75,0,0
120845,-100,4,2,42,75,0,0
120926,-100,4,2,1,5,0,0
121007,-100,4,2,1,75,0,0
121168,-100,4,2,42,75,0,0
121249,-100,4,2,42,5,0,0
121329,-66.6666666666667,4,2,1,75,0,0
121490,-66.6666666666667,4,2,1,75,0,0
122458,-100,4,2,1,75,0,0
122619,-66.6666666666667,4,2,1,75,0,0
123426,-50,4,2,1,75,0,0
124071,-25,4,2,20,90,0,1
124555,-40,4,2,1,75,0,1
124716,-25,4,2,21,90,0,1
124878,-25,4,2,1,75,0,1
124958,-50,4,2,1,75,0,1
125361,-33.3333333333333,4,2,20,85,0,1
125442,-33.3333333333333,4,2,1,5,0,1
125523,-33.3333333333333,4,2,1,75,0,1
126007,-33.3333333333333,4,2,21,85,0,1
126087,-33.3333333333333,4,2,1,5,0,1
126168,-33.3333333333333,4,2,1,85,0,1
126248,-100,4,2,1,75,0,1
126652,-25,4,2,20,85,0,1
126813,-25,4,2,1,75,0,1
126894,-36.3636363636364,4,2,1,75,0,1
127297,-50,4,2,21,85,0,1
127378,-50,4,2,1,5,0,1
127458,-50,4,2,1,75,0,1
127619,-33.3333333333333,4,2,1,75,0,1
127781,-50,4,2,1,75,0,1
127942,-22.7272727272727,4,2,20,85,0,1
128103,-22.7272727272727,4,2,1,75,0,1
128265,-50,4,2,1,75,0,1
128587,-25,4,2,21,85,0,1
128748,-25,4,2,1,75,0,1
128910,-250,4,2,1,75,0,1
129071,-125,4,2,1,75,0,1
129232,-25,4,2,20,85,0,1
129394,-25,4,2,1,75,0,1
129555,-100,4,2,1,75,0,1
129716,-50,4,2,1,75,0,1
129878,-25,4,2,21,85,0,1
130039,-25,4,2,1,75,0,1
130200,-133.333333333333,4,2,1,75,0,1
130361,-66.6666666666667,4,2,1,75,0,1
130523,-66.6666666666667,4,2,20,85,0,1
130603,-66.6666666666667,4,2,1,75,0,1
131168,-28.5714285714286,4,2,21,85,0,1
131329,-28.5714285714286,4,2,1,75,0,1
131652,-40,4,2,1,75,0,1
131732,-40,4,2,1,5,0,1
131813,-25,4,2,20,85,0,1
131974,-25,4,2,1,5,0,1
132055,-250,4,2,1,75,0,1
132458,-31.25,4,2,21,85,0,1
132619,-31.25,4,2,1,75,0,1
132700,-50,4,2,1,75,0,1
132942,-33.3333333333333,4,2,1,75,0,1
133103,-25,4,2,20,85,0,1
133265,-25,4,2,1,75,0,1
133426,-50,4,2,1,75,0,1
133748,-50,4,2,1,100,0,1
134394,-40,4,2,1,85,0,1
134474,-40,4,2,1,5,0,1
134555,-30.7692307692308,4,2,62,80,0,1
134575,-30.7692307692308,4,2,21,80,0,1
134878,-50,4,2,1,75,0,1
135039,-26.6666666666667,4,2,21,85,0,1
135200,-26.6666666666667,4,2,1,75,0,1
135361,-80,4,2,1,75,0,1
135523,-40,4,2,1,75,0,1
135684,-26.6666666666667,4,2,20,85,0,1
135845,-26.6666666666667,4,2,1,75,0,1
136329,-26.6666666666667,4,2,21,85,0,1
136490,-26.6666666666667,4,2,1,75,0,1
136974,-26.6666666666667,4,2,20,85,0,1
137136,-26.6666666666667,4,2,1,75,0,1
137619,-28.5714285714286,4,2,21,85,0,1
137781,-28.5714285714286,4,2,1,75,0,1
137861,-40,4,2,1,75,0,1
138103,-80,4,2,1,75,0,1
138184,-80,4,2,1,5,0,1
138265,-80,4,2,1,75,0,1
138345,-57.1428571428571,4,2,17,75,0,1
138426,-57.1428571428571,4,2,1,75,0,1
138587,-133.333333333333,4,2,17,85,0,1
138748,-133.333333333333,4,2,1,75,0,1
138910,-66.6666666666667,4,2,1,75,0,1
138990,-66.6666666666667,4,2,17,80,0,1
139071,-66.6666666666667,4,2,1,80,0,1
139313,-66.6666666666667,4,2,17,70,0,1
139474,-66.6666666666667,4,2,1,5,0,1
139555,-22.2222222222222,4,2,63,90,0,1
139716,-22.2222222222222,4,2,1,75,0,1
140200,-28.5714285714286,4,2,21,85,0,1
140361,-28.5714285714286,4,2,1,75,0,1
140523,-100,4,2,1,75,0,1
140684,-50,4,2,1,75,0,1
140765,-50,4,2,1,5,0,1
140845,-33.3333333333333,4,2,20,85,0,1
140926,-33.3333333333333,4,2,1,75,0,1
141490,-33.3333333333333,4,2,21,85,0,1
141571,-33.3333333333333,4,2,21,5,0,1
141652,-25,4,2,1,75,0,1
142136,-25,4,2,20,85,0,1
142216,-25,4,2,1,5,0,1
142297,-25,4,2,1,75,0,1
142378,-33.3333333333333,4,2,1,75,0,1
142619,-66.6666666666667,4,2,1,75,0,1
142781,-66.6666666666667,4,2,21,85,0,1
142861,-66.6666666666667,4,2,1,85,0,1
143265,-57.1428571428571,4,2,1,75,0,1
143507,-66.6666666666667,4,2,17,70,0,1
143668,-66.6666666666667,4,2,1,75,0,1
143748,-66.6666666666667,4,2,17,75,0,1
143910,-50,4,3,11,85,0,1
143990,-50,4,3,17,80,0,1
144071,-50,4,3,1,80,0,1
144152,-33.3333333333333,4,3,11,90,0,1
144232,-33.3333333333333,4,3,17,85,0,1
144313,-33.3333333333333,4,3,1,80,0,1
144394,-25,4,2,20,75,0,1
144555,-25,4,2,1,5,0,1
144636,-250,4,2,99,100,0,0
147216,-250,4,2,99,5,0,0
147297,-250,4,2,4,30,0,0
147297,-250,4,2,4,30,0,0
147566,-250,4,2,4,35,0,0
147808,-250,4,2,4,40,0,0
148034,-250,4,2,4,45,0,0
148219,-250,4,2,4,50,0,0
148403,-250,4,2,4,60,0,0
148587,-250,4,2,6,40,0,0
148818,-1000,4,2,4,40,0,0
151329,-1000,4,2,4,40,0,0
153587,-1000,4,2,5,40,0,0
154394,-1000,4,2,1,65,0,0
154716,-125,4,2,33,20,0,0
154797,-125,4,2,33,5,0,0
154878,-125,4,2,33,20,0,0
154959,-125,4,2,33,5,0,0
155039,-125,4,2,33,20,0,0
155120,-125,4,2,33,5,0,0
155200,-125,4,2,33,20,0,0
155281,-125,4,2,33,5,0,0
155361,-125,4,2,33,30,0,0
155603,-125,4,2,33,5,0,0
155684,-125,4,2,33,35,0,0
155926,-125,4,2,33,5,0,0
156007,-125,4,2,33,35,0,0
156248,-125,4,2,33,5,0,0
156329,-125,4,2,33,30,0,0
156490,-250,4,2,33,30,0,0
156652,-250,4,2,1,40,0,0
156974,-125,4,2,33,30,0,0
157055,-125,4,2,33,5,0,0
157136,-125,4,2,33,30,0,0
157216,-125,4,2,33,5,0,0
157297,-125,4,2,33,30,0,0
157619,-125,4,2,1,30,0,0
157700,-125,4,2,1,30,0,0
157861,-125,4,2,1,40,0,0
158265,-125,4,2,1,40,0,0
158507,-250,4,2,1,35,0,0
159232,-250,4,2,33,25,0,0
159313,-250,4,2,33,5,0,0
159394,-250,4,2,33,25,0,0
159475,-250,4,2,33,5,0,0
159555,-1000,4,2,33,35,0,0
159878,-1000,4,2,33,35,0,0
160200,-100,4,2,1,75,0,0
160281,-100,4,2,1,5,0,0
160361,-100,4,2,1,75,0,0
161571,-100,4,2,1,5,0,0
161651,-100,4,2,1,75,0,0
162861,-100,4,2,1,5,0,0
162941,-100,4,2,1,75,0,0
164152,-100,4,2,1,5,0,0
164232,-100,4,2,1,75,0,0
165442,-100,4,2,1,5,0,0
165522,-100,4,2,1,75,0,0
166329,-100,4,2,1,65,0,0
171813,-200,4,2,1,65,0,0
175361,-133.333333333333,4,2,1,65,0,0
176490,-133.333333333333,4,2,1,55,0,0
179152,-66.6666666666667,4,2,1,65,0,0
179192,-66.6666666666667,4,2,1,5,0,0
179232,-200,4,2,1,65,0,0
180146,-200,4,2,1,5,0,0
180200,-100,4,2,1,50,0,0
180281,-100,4,2,1,45,0,0
180361,-66.6666666666667,4,2,1,55,0,0
180442,-66.6666666666667,4,2,1,5,0,0
180523,-66.6666666666667,4,2,1,60,0,0
180684,-66.6666666666667,4,2,1,65,0,0
180845,-66.6666666666667,4,2,1,70,0,0
181490,-200,4,2,1,65,0,0
181571,-200,4,2,1,5,0,0
181652,-200,4,2,1,75,0,0
181732,-200,4,2,1,5,0,0
181813,-66.6666666666667,4,2,1,65,0,0
182136,-133.333333333333,4,2,1,65,0,0
183345,-166.666666666667,4,2,1,65,0,0
184152,-166.666666666667,4,2,1,5,0,0
184394,-166.666666666667,4,2,1,65,0,0
186248,-166.666666666667,4,2,1,5,0,0
186329,-166.666666666667,4,2,1,65,0,0
187700,-250.000000000001,4,2,1,65,0,0
189474,-250.000000000001,4,2,1,5,0,0
189555,-250.000000000001,4,2,1,65,0,0
189797,-250.000000000001,4,2,1,5,0,0
189878,-250.000000000001,4,2,1,65,0,0
190039,-250.000000000001,4,3,10,65,0,0
190146,-250.000000000001,4,3,1,65,0,0
190704,-250.000000000001,4,3,12,75,0,0
190845,-250.000000000001,4,3,10,70,0,0
191007,-125,4,2,1,70,0,0
191087,-125,4,2,1,5,0,0
191168,-111.111111111111,4,2,1,75,0,0
192055,-133.333333333333,4,2,1,75,0,0
192216,-100,4,2,1,75,0,0
192378,-200,4,2,1,75,0,0
193184,-200,4,2,1,5,0,0
193265,-200,4,2,1,75,0,0
193587,-399.999999999997,4,2,1,75,0,0
194071,-100,4,2,1,75,0,0
194394,-100,4,2,1,75,0,0
194475,-100,4,2,1,5,0,0
194555,-100,4,2,1,75,0,0
194636,-100,4,2,1,5,0,0
194716,-100,4,2,1,75,0,0
195039,-80,4,2,1,75,0,0
195603,-100,4,2,1,75,0,0
195845,-200,4,2,1,75,0,0
196222,-200,4,2,1,95,0,0
196329,-100,4,2,1,75,0,0
197113,-399.999999999997,4,2,1,75,0,0
197619,-100,4,2,1,75,0,0
197861,-100,4,2,1,5,0,0
197888,-100,4,2,1,100,0,0
198157,-100,4,2,1,90,0,0
198480,-100,4,2,1,75,0,0
198910,-133.333333333333,4,2,1,75,0,0
199555,-142.857142857143,4,2,1,75,0,0
199636,-142.857142857143,4,2,1,5,0,0
199716,-142.857142857143,4,2,1,75,0,0
199797,-142.857142857143,4,2,1,5,0,0
199878,-285.714285714284,4,2,1,90,0,0
200039,-285.714285714284,4,2,1,75,0,0
200200,-95.2380952380952,4,2,1,75,0,0
200442,-95.2380952380952,4,2,1,5,0,0
200523,-100,4,2,1,75,0,0
200926,-100,4,2,1,75,0,0
201168,-200,4,2,1,75,0,0
201490,-66.6666666666667,4,2,1,75,0,0
202781,-100,4,2,1,75,0,0
203910,-133.333333333333,4,2,1,75,0,0
208829,-142.857142857143,4,2,1,75,0,0
208910,-111.111111111111,4,2,1,75,0,0
209152,-111.111111111111,4,2,1,5,0,0
209232,-47.6190476190476,4,2,100,100,0,0
210442,-47.6190476190476,4,2,100,5,0,0
210523,-47.6190476190476,4,2,41,75,0,0
211168,-47.6190476190476,4,2,41,85,0,0
211813,-23.8095238095238,4,2,2,95,0,1
212055,-47.6190476190476,4,2,2,95,0,1
212297,-47.6190476190476,4,2,1,95,0,1
212458,-23.8095238095238,4,2,1,95,0,1
212781,-238.095238095238,4,2,1,95,0,1
212942,-47.6190476190476,4,2,1,95,0,1
213345,-40,4,2,1,95,0,1
213587,-33.3333333333333,4,2,1,95,0,1
213748,-33.3333333333333,4,2,1,95,0,1
214071,-66.6666666666667,4,2,1,95,0,1
214232,-44.4444444444445,4,2,1,95,0,1
214716,-80,4,2,1,95,0,1
214878,-66.6666666666667,4,2,1,95,0,1
215039,-22.2222222222222,4,2,1,95,0,1
215361,-28.5714285714286,4,2,1,95,0,1
215523,-57.1428571428571,4,2,1,95,0,1
215765,-44.4444444444445,4,2,1,95,0,1
216168,-36.3636363636364,4,2,1,95,0,1
216410,-30.7692307692308,4,2,1,95,0,1
216652,-399.999999999997,4,2,1,95,0,0
216974,-22.2222222222222,4,2,1,95,0,1
217297,-66.6666666666667,4,2,1,95,0,1
217458,-40,4,2,1,95,0,1
217619,-40,4,2,2,95,0,1
217861,-40,4,2,1,95,0,1
218103,-33.3333333333333,4,2,2,95,0,1
218184,-33.3333333333333,4,2,1,5,0,1
218265,-28.5714285714286,4,2,1,95,0,1
218426,-36.3636363636364,4,2,1,95,0,1
218748,-200,4,2,1,95,0,1
218910,-30.7692307692308,4,2,1,95,0,1
219152,-30.7692307692308,4,2,1,95,0,1
219394,-133.333333333333,4,2,1,95,0,1
219555,-44.4444444444445,4,2,1,95,0,1
219716,-57.1428571428571,4,2,1,95,0,1
220039,-80,4,2,1,95,0,1
220200,-26.6666666666667,4,2,1,95,0,1
220361,-26.6666666666667,4,2,1,95,0,1
220684,-133.333333333333,4,2,1,95,0,1
220926,-44.4444444444445,4,2,1,95,0,1
221410,-66.6666666666667,4,2,1,95,0,1
221571,-30.7692307692308,4,2,1,95,0,1
222136,-28.5714285714286,4,2,2,95,0,1
222458,-40,4,2,1,95,0,1
222619,-36.3636363636364,4,2,1,95,0,1
222781,-30.7692307692308,4,2,2,95,0,1
222942,-30.7692307692308,4,2,1,95,0,1
223426,-44.4444444444444,4,2,1,95,0,1
223587,-33.3333333333333,4,2,1,95,0,1
223748,-50,4,2,1,95,0,1
223910,-133.333333333333,4,2,1,95,0,1
224071,-25,4,2,1,95,0,1
224394,-71.4285714285714,4,2,1,95,0,1
224555,-47.6190476190476,4,2,1,95,0,1
224716,-27.7777777777778,4,2,1,95,0,1
225361,-27.7777777777778,4,2,1,95,0,1
225603,-27.7777777777778,4,2,1,95,0,1
225684,-55.5555555555556,4,2,1,95,0,1
225845,-55.5555555555556,4,2,2,95,0,1
226087,-62.5,4,2,1,95,0,1
226490,-41.6666666666667,4,2,1,95,0,1
226974,-55.5555555555556,4,2,1,95,0,1
227297,-111.111111111111,4,2,1,60,0,0
229232,-74.0740740740741,4,2,1,60,0,0
230361,-76.9230769230769,4,3,2,60,0,0
231168,-76.9230769230769,4,3,2,60,0,0
231248,-76.9230769230769,4,3,12,65,0,0
231329,-76.9230769230769,4,3,12,70,0,0
231410,-76.9230769230769,4,3,11,75,0,0
231490,-76.9230769230769,4,3,10,85,0,0
231652,-76.9230769230769,4,3,2,80,0,0
231732,-76.9230769230769,4,3,10,5,0,0
231813,-71.4285714285714,4,2,1,85,0,0
232297,-71.4285714285714,4,2,2,40,0,0

[Colours]
Combo1 : 255,207,108
Combo2 : 153,128,255

[HitObjects]
435,358,145,6,0,B|454:357|470:342|470:342|487:323|512:326,1,85,4|0,2:3|2:0,0:0:0:0:
435,358,467,2,0,B|419:346|414:324|414:324|412:299|390:286,1,85,4|0,2:3|2:0,0:0:0:0:
256,192,790,5,0,1:0:0:0:
254,197,951,1,0,0:0:0:0:
251,188,1112,5,0,0:0:0:0:
259,202,1273,1,0,0:0:0:0:
331,158,1435,5,0,0:0:0:0:
325,147,1596,1,0,0:0:0:0:
332,139,1757,5,0,0:0:0:0:
324,162,1918,1,0,0:0:0:0:
416,157,2080,5,0,0:0:0:0:
422,130,2241,1,0,0:0:0:0:
415,120,2403,5,0,0:0:0:0:
406,160,2564,1,0,0:0:0:0:
479,196,2725,5,0,0:0:0:0:
512,167,2886,1,0,0:0:0:0:
498,154,3048,5,0,0:0:0:0:
512,205,3209,1,0,0:0:0:0:
435,358,3370,5,2,0:0:0:0:
368,328,3532,2,0,L|363:296,2,31.8750012159348,0|0|2,0:0|0:0|1:2,0:0:0:0:
315,220,3854,5,0,0:0:0:0:
316,234,3935,1,0,0:0:0:0:
312,242,4015,5,2,1:2:0:0:
263,298,4177,5,0,0:0:0:0:
188,309,4338,5,2,1:2:0:0:
119,273,4499,5,0,0:0:0:0:
18,303,4661,5,2,1:2:0:0:
141,166,4822,2,0,P|156:148|161:127,2,42.5,0|0|2,0:0|0:0|1:2,0:0:0:0:
141,166,5144,2,0,P|120:158|105:142,2,42.5,0|0|2,0:0|0:0|1:2,0:0:0:0:
18,303,5467,5,0,0:0:0:0:
68,253,5548,1,0,0:0:0:0:
119,273,5628,1,0,0:0:0:0:
163,241,5709,1,0,0:0:0:0:
231,278,5790,2,0,L|170:292,1,42.5
111,349,5951,6,0,L|75:358,1,31.8750012159348,2|0,2:3|0:0,0:0:0:0:
85,341,6193,6,0,L|111:375,1,31.8750012159348,2|2,2:3|2:2,0:0:0:0:
302,374,6435,6,0,L|317:324,1,42.5,2|0,2:3|0:0,0:0:0:0:
358,169,6596,2,0,L|249:200,1,85,2|0,2:3|0:0,0:0:0:0:
277,193,6838,5,0,3:0:0:0:
206,166,6919,1,2,1:2:0:0:
195,136,6999,1,0,3:0:0:0:
180,93,7080,1,2,3:2:0:0:
173,0,7241,6,0,L|140:26,1,42.5,2|0,2:3|0:0,0:0:0:0:
60,26,7483,6,0,L|75:68,1,42.5,2|2,2:3|1:2,0:0:0:0:
173,0,7725,6,0,L|140:26,1,42.5,2|0,3:0|0:0,0:0:0:0:
60,26,7886,2,0,L|75:68,1,42.5,2|0,1:3|0:0,0:0:0:0:
44,141,8048,2,0,B|27:164|27:164|32:129,2,63.7500024318696,2|2|0,1:2|2:3|1:2,0:0:0:0:
0,253,8370,6,0,L|42:246,1,38.2499988327027,2|0,2:3|0:0,0:0:0:0:
113,232,8532,2,0,L|155:225,1,38.2499988327027,2|0,1:3|0:0,0:0:0:0:
231,214,8693,5,2,2:3:0:0:
227,239,8774,1,0,0:0:0:0:
223,264,8854,1,2,2:2:0:0:
247,275,8935,1,0,0:0:0:0:
271,286,9015,5,0,3:0:0:0:
64,329,9177,1,2,3:0:0:0:
55,324,9338,6,0,L|-7:336,1,42.5,2|0,2:3|3:0,0:0:0:0:
0,253,9499,2,2,L|42:246,1,38.2499988327027,2|2,1:2|2:3,1:2:0:0:
61,175,9661,5,2,3:0:0:0:
157,370,9822,1,2,3:0:0:0:
165,364,9983,6,0,L|174:320,1,38.2499988327027,0|0,0:0|3:0,0:0:0:0:
210,254,10144,5,2,1:2:0:0:
181,156,10306,5,2,3:0:0:0:
413,361,10467,5,6,3:0:0:0:
419,115,10790,6,0,B|417:71|362:94|406:-13|511:25|475:135|447:82|419:115,1,191.250007295609,4|4,3:0|3:0,0:0:0:0:
373,266,11112,6,0,B|402:279|402:279|406:295|419:307|419:307|284:242|284:242|277:206|247:190,1,276.250007903576,12|2,0:0|3:2,0:0:0:0:
231,77,11354,5,2,1:2:0:0:
256,6,11435,2,0,B|273:18|267:42|267:42|258:72,1,63.7500024318696,0|0,0:0|3:0,0:0:0:0:
210,254,11596,2,0,L|195:305,1,53.125,2|0,1:2|3:0,0:0:0:0:
36,247,11757,6,0,B|14:217|-29:216|-29:216|60:127|155:197|155:197|140:210|136:229,1,318.750007599592,10|2,0:0|3:0,0:0:0:0:
237,374,11999,5,0,3:0:0:0:
272,307,12080,5,0,3:0:0:0:
341,276,12160,5,0,3:0:0:0:
392,214,12241,6,0,L|386:185,1,21.25,2|0,1:2|0:0,0:0:0:0:
413,361,12402,6,0,B|374:342|372:294|372:294|318:246|318:246|296:276|262:269|262:269|240:249|209:254,1,276.250007903576,10|2,0:0|0:0,0:0:0:0:
137,229,12644,5,0,1:0:0:0:
134,220,12725,2,0,L|164:128,1,85,0|0,3:0|3:0,0:0:0:0:
184,61,12886,6,0,B|175:30|229:-26|216:52|184:61,1,106.25,0|0,1:0|3:0,1:0:0:0:
32,230,13048,6,0,B|39:194|81:183|81:183|79:175|79:175|191:145|191:145|193:153|193:153|236:142|257:173,1,276.250007903576,8|2,0:0|3:2,0:0:0:0:
421,206,13290,6,0,B|419:217|419:217|394:227|384:251,1,53.125,2|0,1:2|3:0,0:0:0:0:
302,78,13451,1,0,3:0:0:0:
308,72,13531,2,0,B|309:85|309:85|339:101|348:132,1,74.3750007092953,0|0,1:0|0:0,0:0:0:0:
444,291,13693,6,0,B|448:317|470:332|470:332|433:315|426:274|426:274|355:243|355:243|341:269|315:273,1,255.000009727478,2|2,1:2|3:2,0:0:0:0:
219,248,13935,5,0,1:0:0:0:
209,253,14015,2,0,B|227:267|227:267|222:309|256:336,1,95.6250036478044,0|0,3:0|3:0,0:0:0:0:
357,357,14177,6,0,L|364:341,1,14.874999546051,2|0,1:2|0:0,1:0:0:0:
466,138,14338,6,0,B|490:135|490:135|509:148|534:147|534:147|310:175|310:175|294:159|270:159,1,340,8|0,0:0|3:0,0:0:0:0:
270,159,14580,5,0,3:0:0:0:
221,101,14660,2,0,B|206:41|266:21|266:21|271:46|294:60,1,148.750001418591,0|0,3:0|3:0,0:0:0:0:
336,0,14822,2,0,B|326:39|326:39|311:46|302:61,1,74.3750007092953,0|0,1:0|0:0,1:0:0:0:
105,143,14983,5,0,1:0:0:0:
33,124,15064,2,0,L|21:76,1,42.5
183,239,15225,5,0,1:0:0:0:
255,220,15306,2,0,L|274:142,1,63.7500024318696
96,374,15467,5,0,1:0:0:0:
23,355,15548,2,0,L|4:282,1,74.3750007092953
308,350,15709,5,0,1:0:0:0:
374,319,15789,1,0,3:0:0:0:
326,264,15870,1,0,3:0:0:0:
258,293,15951,1,0,1:0:0:0:
214,352,16031,6,0,B|192:342|195:321|162:310,1,63.7500024318696
4,283,16273,6,0,B|-9:331|28:354|28:354|157:292|157:292|156:247|195:225,1,297.500002837181,4|0,0:0|3:0,0:0:0:0:
320,255,16515,6,0,B|274:223|286:165|286:165|272:189|244:198,1,148.750001418591,0|0,1:0|3:0,0:0:0:0:
214,352,16757,6,0,P|206:378|220:353,1,78.6249997000694,0|0,1:0|3:0,0:0:0:0:
416,362,16919,6,0,B|434:339|458:338|458:338|393:233|258:252|258:252|267:219|250:190,1,340,8|0,0:0|3:0,0:0:0:0:
310,1,17160,5,0,3:0:0:0:
376,37,17241,2,0,B|400:60|380:118|380:118|324:109|310:71,1,170,0|0,0:0|1:0,0:0:0:0:
187,229,17564,6,0,B|225:220|230:179|230:179|280:153|280:153|280:149|280:149|354:113|343:173|399:160,1,255.000009727478,0|0,1:0|3:0,0:0:0:0:
388,267,17806,5,0,1:0:0:0:
351,342,17886,2,0,L|364:298,1,42.5,0|0,0:0|3:0,0:0:0:0:
460,106,18048,6,0,B|484:100|489:108|489:108|453:117,1,63.7500024318696,0|0,1:0|3:0,0:0:0:0:
253,195,18209,6,0,B|240:174|219:165|219:165|210:65|322:38|322:38|304:61|309:87,1,276.250007903576,8|0,0:0|3:0,0:0:0:0:
187,241,18451,5,0,1:0:0:0:
181,248,18531,2,0,B|201:179|133:167|145:106,1,148.750001418591,0|0,0:0|1:0,0:0:0:0:
400,171,18854,6,0,B|418:154|441:150|441:150|378:162|378:162|375:176|366:187,1,138.125003951788,2|0,1:2|0:0,0:0:0:0:
230,303,19015,2,0,L|368:348,1,127.500004863739,2|0,0:0|1:0,0:0:0:0:
431,331,19177,5,0,3:0:0:0:
388,267,19257,1,0,3:0:0:0:
312,245,19338,1,0,1:0:0:0:
276,234,19418,1,0,3:0:0:0:
232,170,19499,6,0,B|225:162|210:159|210:159|214:102|249:146|249:146|239:158|239:167,1,116.875001114607,8|0,0:0|0:0,0:0:0:0:
155,291,19660,5,0,3:0:0:0:
81,306,19741,5,0,1:0:0:0:
23,261,19822,5,0,3:0:0:0:
15,225,19902,5,0,3:0:0:0:
23,206,19983,5,0,1:0:0:0:
63,90,20144,5,0,1:0:0:0:
44,19,20225,2,0,L|53:52,1,21.25
128,135,20386,5,0,1:0:0:0:
147,64,20467,2,0,L|138:97,1,21.25
81,306,20628,5,0,1:0:0:0:
155,291,20709,2,0,L|181:286,1,21.25
260,305,20870,5,0,1:0:0:0:
275,353,20951,1,2,3:0:0:0:
237,375,21031,5,0,3:0:0:0:
253,305,21112,5,0,1:0:0:0:
307,248,21193,6,0,B|297:239|305:224|295:214,1,29.7499990921021,2|0,0:0|0:0,0:0:0:0:
399,198,21435,6,0,B|412:182|433:177|433:177|380:62|259:86|259:86|267:108|259:131,1,297.500002837181,12|0,0:0|3:0,0:0:0:0:
89,301,21677,5,0,1:0:0:0:
81,306,21757,2,0,B|68:322|68:339|68:339|89:313|127:305,1,95.6250036478044,0|0,0:0|3:0,0:0:0:0:
164,105,21918,2,0,B|173:157|173:157|200:167|208:187,1,95.6250036478044,0|0,1:0|0:0,0:0:0:0:
273,375,22080,5,8,0:0:0:0:
297,303,22160,1,0,3:0:0:0:
250,247,22241,1,0,3:0:0:0:
177,254,22322,1,0,3:0:0:0:
130,225,22402,6,0,B|120:214|120:214|131:176,1,50.9999984436036,2|0,2:0|3:0,3:0:0:0:
72,84,22564,2,0,L|82:116,1,34,2|2,0:0|0:0,0:0:0:0:
209,342,22725,6,0,B|192:340|211:382|239:346|220:306|264:294,1,101.999996887207,2|0,1:2|0:0,0:0:0:0:
423,178,22886,2,0,B|437:181|453:174|453:174|422:202|416:239,1,101.999996887207,2|0,3:0|0:0,0:0:0:0:
407,319,23047,6,0,B|446:315|428:265|508:267,1,118.999996368408,0|0,0:0|1:0,0:0:0:0:
319,365,23289,5,0,3:0:0:0:
310,353,23370,2,0,B|303:320|323:295|323:295|282:244|282:244|273:192|273:192|277:184|277:184|269:138|269:138|262:132|262:132|255:99,1,272,8|0,0:0|3:0,0:0:0:0:
355,21,23612,2,0,B|367:39|367:39|357:83|357:83|337:93,1,85,0|0,0:0|3:0,0:0:0:0:
190,181,23773,1,0,3:0:0:0:
181,175,23854,2,0,L|173:134,1,42.5,2|0,1:2|0:0,0:0:0:0:
133,71,24015,6,0,L|281:112,1,127.500004863739,0|0,1:0|0:0,0:0:0:0:
466,161,24176,2,0,L|502:171,1,31.8750012159348,0|0,0:0|1:0,0:0:0:0:
463,27,24338,1,0,3:0:0:0:
477,27,24418,1,0,3:0:0:0:
477,41,24499,1,0,1:0:0:0:
256,219,24660,6,0,B|118:210|116:67|116:67|43:47,1,297.500002837181,8|0,0:0|0:0,0:0:0:0:
13,205,24902,6,0,B|17:213|16:225|16:225|23:214|30:211,4,42.5,0|0|2|0|2,0:0|0:0|0:0|0:0|0:0,0:0:0:0:
77,271,25144,2,0,L|69:313,1,42.5,2|0,1:2|0:0,0:0:0:0:
99,382,25306,5,0,1:0:0:0:
25,381,25386,2,0,B|60:373|73:334|34:317|128:256|170:340|170:340,1,170,0|0,0:0|1:0,0:0:0:0:
267,252,25628,2,0,B|282:172|216:140|216:140|246:169|241:211|241:211|265:224,1,233.750002229214,0|0,0:0|1:0,0:0:0:0:
284,327,25870,5,0,3:0:0:0:
301,351,25950,1,0,3:0:0:0:
327,342,26031,6,0,L|355:338,1,15.9375006079674,0|0,1:0|0:0,0:0:0:0:
355,329,26112,2,0,B|225:353|225:353|214:377|192:387,1,175.31250167191
156,324,26273,6,0,L|166:272,1,51,0|0,3:0|0:0,0:0:0:0:
77,271,26596,6,0,B|64:273|64:273|45:256|14:252|14:252|229:217|229:217|243:247|267:252,1,340,12|0,0:0|3:0,0:0:0:0:
430,226,26838,5,0,3:0:0:0:
466,161,26918,2,0,B|474:144|463:118|463:118|456:141|439:153,1,85,0|0,0:0|3:0,0:0:0:0:
355,329,27080,2,0,B|343:286|343:286|355:264|349:233,1,85,0|0,1:0|0:0,0:0:0:0:
367,74,27241,6,0,B|385:55|414:57|414:57|376:80|369:123,1,127.500004863739,8|0,0:0|0:0,0:0:0:0:
464,326,27402,2,0,B|432:325|409:294|420:289|400:259|355:258,1,127.500004863739,2|2,0:0|2:0,0:0:0:0:
294,123,27564,6,0,P|286:137|269:156,1,31.8750012159348,2|0,0:0|0:0,0:0:0:0:
272,129,27725,2,0,P|288:148|309:162,1,42.5,2|0,0:0|0:0,0:0:0:0:
430,226,27886,6,0,B|448:221|449:206|461:192|480:185|480:185|264:226|264:226|241:208|211:214,1,340,8|0,0:0|0:0,0:0:0:0:
138,226,28128,5,0,1:0:0:0:
76,180,28209,5,0,3:0:0:0:
61,109,28289,5,0,3:0:0:0:
84,58,28370,6,0,B|84:41|98:31|98:31|98:48|84:58,1,63.7500024318696,0|0,1:0|0:0,0:0:0:0:
25,269,28531,6,0,B|39:220|39:220|157:165|157:165|145:105,1,233.750002229214,8|0,0:0|0:0,0:0:0:0:
140,304,28773,2,0,B|78:276|78:276|64:230|64:230|-8:202,1,191.250007295609,0|0,1:0|3:0,0:0:0:0:
217,65,29015,1,0,1:0:0:0:
290,359,29176,6,0,P|309:310|366:255,1,127.500004863739,0|2,0:0|3:2,0:0:0:0:
216,326,29418,6,0,P|215:278|182:233,1,85,2|0,2:0|0:0,0:0:0:0:
216,169,29660,6,0,P|234:151|218:172,1,74.3750007092953,2|0,1:2|0:0,0:0:0:0:
397,375,29822,6,0,B|270:373|342:225|170:249,1,255.000009727478,4|0,0:0|0:0,0:0:0:0:
355,120,30064,6,0,B|397:88|396:-4|344:82|377:124,1,127.500004863739,2|0,1:2|0:0,0:0:0:0:
388,185,30305,6,2,B|380:151|356:153|355:120,1,74.3750007092953,2|2,1:2|1:2,1:2:0:0:
167,0,30467,6,0,P|144:74|125:204,1,191.250007295609,2|0,1:2|0:0,0:0:0:0:
41,299,30709,6,0,P|58:272|91:252,1,59.4999981842042,2|0,1:2|0:0,0:0:0:0:
220,173,30951,6,0,B|254:182|263:217|263:217|249:185|208:174,1,138.125003951788,2|0,1:2|0:0,0:0:0:0:
130,350,31112,6,0,P|72:104|12:0,1,350.625003343821,4|0,0:0|3:0,0:0:0:0:
25,19,31434,6,0,L|44:16,1,10.625
35,17,31596,2,0,L|57:11,1,21.25
129,19,31757,6,0,B|124:67|96:59|92:95,1,85,2|0,1:2|0:0,0:0:0:0:
17,174,31999,5,0,0:0:0:0:
0,158,32080,2,0,P|46:117|115:111,1,127.5,2|0,1:2|0:0,0:0:0:0:
176,146,32402,5,10,0:0:0:0:
237,66,32564,5,0,3:0:0:0:
232,77,32644,1,0,3:0:0:0:
310,122,32805,5,0,3:0:0:0:
320,102,32886,1,0,3:0:0:0:
410,245,33047,6,0,P|379:218|305:209,1,85,2|0,1:2|0:0,0:0:0:0:
330,221,33289,1,0,1:0:0:0:
321,237,33370,2,0,L|329:292,1,42.5
340,350,33531,2,0,B|379:346|376:315|422:318,1,85,2|0,1:2|0:0,0:0:0:0:
512,321,33693,5,8,0:0:0:0:
475,183,33854,5,0,3:0:0:0:
478,193,33934,1,0,3:0:0:0:
414,229,34096,5,0,3:0:0:0:
410,245,34176,1,0,3:0:0:0:
416,317,34257,1,0,3:0:0:0:
340,350,34338,6,0,B|296:364|254:333|268:300|222:261|170:289,1,191.250007295609,2|0,1:2|0:0,0:0:0:0:
107,335,34660,6,0,P|94:313|89:286,1,42.5,2|0,0:0|0:0,0:0:0:0:
15,334,34822,2,0,P|6:310|10:266,1,63.7500024318696,2|0,0:0|0:0,0:0:0:0:
51,200,34983,6,0,B|60:206|67:217|67:217|162:200,1,106.25,10|0,0:0|0:0,0:0:0:0:
223,199,35225,5,0,1:0:0:0:
223,191,35305,2,0,B|214:161|237:164|237:132,1,53.125,0|0,3:0|0:0,0:0:0:0:
164,121,35467,2,0,B|164:90|143:98|135:67,1,53.125,2|0,1:2|0:0,0:0:0:0:
139,77,35628,6,0,B|147:48|110:20|184:-64|194:48|147:48|139:77,1,159.375,2|0,1:2|0:0,0:0:0:0:
164,121,35951,2,0,L|98:134,1,68
41,84,36112,5,0,0:0:0:0:
31,77,36193,1,0,0:0:0:0:
43,71,36273,1,8,0:0:0:0:
313,28,36434,6,0,B|328:23|288:-64|297:32|313:28,2,80.7499978437424,2|0|2,0:0|3:0|0:0,0:0:0:0:
373,70,36676,5,0,3:0:0:0:
378,89,36757,1,0,3:0:0:0:
375,99,36838,1,0,3:0:0:0:
401,173,36918,6,0,P|412:110|454:65,1,121.124996765614,2|0,1:2|0:0,0:0:0:0:
487,161,37241,2,0,P|447:101|377:89,1,146.62500279665,2|0,0:0|0:0,0:0:0:0:
512,23,37563,5,8,0:0:0:0:
260,116,37725,5,0,3:0:0:0:
232,104,37805,1,0,3:0:0:0:
274,23,37967,5,0,3:0:0:0:
302,13,38047,2,0,L|310:65,1,42.5,2|0,3:0|0:0,0:0:0:0:
295,245,38209,6,0,P|238:226|225:172,1,110.499994941712,2|0,1:2|0:0,0:0:0:0:
214,179,38451,1,0,0:0:0:0:
205,176,38531,2,0,B|168:175|133:196|165:224|120:251|68:255|96:203|133:216,1,165.749992412568
312,319,38854,5,8,0:0:0:0:
496,204,39015,1,0,3:0:0:0:
477,190,39096,1,0,3:0:0:0:
454,154,39176,1,0,3:0:0:0:
414,155,39257,1,0,3:0:0:0:
361,159,39338,2,0,L|371:219,1,55.2499974708558,0|0,3:0|0:0,0:0:0:0:
460,291,39499,6,0,B|478:303|500:304|500:304|429:302|383:342,1,165.750000632286,2|2,1:2|0:0,0:0:0:0:
241,360,39741,2,0,B|234:313|297:287|297:287|300:306|313:319,1,136,2|0,0:0|0:0,0:0:0:0:
385,340,39983,2,0,L|379:367,1,17,2|0,1:2|0:0,0:0:0:0:
381,356,40144,6,0,B|379:337|366:323|366:323|386:249,1,102,10|0,0:0|0:0,0:0:0:0:
414,155,40467,6,0,B|403:139|403:139|408:125|434:133|431:147|431:147|414:155,1,76.4999976654053,2|0,3:0|0:0,0:0:0:0:
312,319,40628,6,0,B|318:304|334:294|334:294|308:194,1,127.500004863739,8|0,0:0|0:0,0:0:0:0:
225,268,40870,5,0,0:0:0:0:
218,272,40951,2,0,L|224:235,1,38.2499988327027,0|0,3:0|3:0,3:0:0:0:
414,155,41112,2,0,L|378:145,1,38.2499988327027,0|0,3:0|3:0,3:0:0:0:
226,235,41273,2,0,L|232:198,1,38.2499988327027,0|0,1:0|0:0,0:0:0:0:
349,27,41435,6,0,L|358:70,1,38.2499988327027,8|0,0:0|0:0,0:0:0:0:
427,12,41596,2,0,L|436:55,1,38.2499988327027,0|8,0:0|0:0,0:0:0:0:
377,144,41757,6,0,P|359:150|369:141,1,57.3750002188683,2|0,3:0|0:0,0:0:0:0:
254,17,41918,6,0,L|237:97,1,68,8|0,0:0|0:0,0:0:0:0:
124,191,42080,5,0,3:0:0:0:
120,176,42160,1,0,3:0:0:0:
114,153,42241,1,0,3:0:0:0:
107,125,42322,1,0,1:0:0:0:
137,57,42402,6,0,L|177:47,1,38.2499988327027,2|0,3:0|0:0,0:0:0:0:
18,21,42564,2,0,L|27:62,1,38.2499988327027,0|0,1:0|0:0,0:0:0:0:
21,290,42725,6,0,B|49:272|56:227|56:227|74:263|118:267,1,136,4|0,0:0|3:0,3:0:0:0:
256,384,43047,6,0,L|256:288,1,68,0|0,3:0|0:0,0:0:0:0:
256,168,43370,1,8,2:0:0:0:
256,316,43531,1,0,0:0:0:0:
256,240,43692,1,0,1:0:0:0:
352,320,43854,5,0,3:0:0:0:
360,328,43934,1,0,1:0:0:0:
368,336,44015,1,8,0:0:0:0:
256,96,44176,5,0,1:0:0:0:
256,316,44338,2,0,L|256:272,1,34,0|0,1:0|0:0,0:0:0:0:
143,269,44499,5,0,0:0:0:0:
60,311,44580,2,0,L|111:303,1,42.5,0|0,1:0|0:0,0:0:0:0:
256,24,44822,5,0,3:0:0:0:
256,282,44983,1,8,0:0:0:0:
329,58,45144,5,2,3:2:0:0:
355,49,45225,1,10,0:2:0:0:
370,54,45305,1,2,3:2:0:0:
400,29,45386,1,2,3:2:0:0:
451,47,45467,1,10,0:2:0:0:
432,118,45547,1,2,3:2:0:0:
460,187,45628,2,0,P|416:147|347:135,1,127.500004863739,0|0,1:0|0:0,0:0:0:0:
335,146,45870,1,0,1:0:0:0:
320,159,45951,2,0,B|343:178|343:178|337:250|391:279,1,148.750001418591,0|0,0:0|1:0,0:0:0:0:
504,374,46192,5,0,0:0:0:0:
500,384,46273,2,0,B|458:360|464:304|464:304|454:330|431:342,1,136,4|0,0:0|0:0,0:0:0:0:
256,384,46596,6,0,B|212:368|224:332|184:316,1,101.999996887207
39,255,46757,5,0,3:0:0:0:
45,269,46838,1,0,3:0:0:0:
106,309,46918,1,0,3:0:0:0:
116,259,46999,1,0,3:0:0:0:
183,229,47079,1,0,1:0:0:0:
247,265,47160,1,0,3:0:0:0:
301,213,47241,6,0,B|360:160|310:70|214:86|202:156,1,237.999992736817,4|0,0:0|0:0,0:0:0:0:
36,352,47483,5,0,3:0:0:0:
29,355,47563,2,0,B|13:381|63:371|28:338|65:303|107:309,1,118.999996368408,0|0,3:0|0:0,0:0:0:0:
100,131,47725,2,0,L|132:205,1,59.4999981842042,0|0,1:0|0:0,0:0:0:0:
256,384,47886,6,0,B|308:368|268:320|364:304,1,136,2|0,1:2|0:0,0:0:0:0:
468,149,48047,5,0,3:0:0:0:
459,159,48128,1,0,3:0:0:0:
390,182,48208,1,0,3:0:0:0:
400,205,48289,1,0,3:0:0:0:
458,249,48370,1,0,1:0:0:0:
445,295,48451,1,0,3:0:0:0:
485,360,48531,6,0,B|299:258|299:258|292:227,1,237.999992736817,4|0,0:0|0:0,0:0:0:0:
218,232,48773,2,0,B|212:258|212:258|27:360,1,237.999992736817,4|0,0:0|0:0,0:0:0:0:
256,384,49015,6,0,L|256:320,1,59.4999981842042,0|0,1:0|0:0,0:0:0:0:
228,156,49176,6,0,B|224:147|224:147|256:120|256:120|288:149|288:149|283:156,1,101.999996887207,4|0,1:2|0:0,0:0:0:0:
272,318,49338,5,0,3:0:0:0:
256,324,49418,1,0,3:0:0:0:
185,350,49499,1,0,3:0:0:0:
148,336,49579,1,0,3:0:0:0:
120,269,49660,1,0,1:0:0:0:
50,288,49740,1,0,3:0:0:0:
17,356,49821,6,0,B|47:338|42:298|42:298|34:238|34:238|26:237|26:237|23:222|23:222|27:219|27:219|19:171,1,203.999993774414,4|0,0:0|0:0,0:0:0:0:
57,106,50063,2,0,B|67:88|59:64|59:64|111:20|159:58|159:58|138:67|138:67|124:59|102:59,1,203.999993774414,4|0,0:0|0:0,0:0:0:0:
0,18,50305,1,0,1:0:0:0:
228,156,50467,5,0,1:0:0:0:
298,136,50547,2,0,L|336:127,1,34
216,261,50709,5,0,1:0:0:0:
146,241,50789,2,0,L|108:232,1,34
310,352,50950,5,0,1:0:0:0:
380,369,51031,2,0,L|397:299,1,68
411,168,51192,5,0,1:0:0:0:
443,103,51273,2,0,B|440:92|440:92|475:75|475:75|469:115|469:115|460:115,1,93.5000028533936
449,253,51434,5,0,1:0:0:0:
395,302,51515,2,0,B|382:290|377:276|377:276|285:252,1,127.500004863739,4|0,0:0|0:0,0:0:0:0:
284,251,51757,6,0,P|249:265|233:295,1,63.75
163,314,52079,2,0,P|164:345|183:370,1,63.75
72,281,52402,1,8,0:0:0:0:
135,143,52564,1,0,0:0:0:0:
126,145,52644,1,0,0:0:0:0:
116,136,52725,2,0,P|126:181|116:201,1,63.7500024318696
72,281,52886,1,0,0:0:0:0:
64,284,52967,1,0,0:0:0:0:
59,281,53048,2,0,P|122:217|219:191,1,191.250007295609,2|0,1:2|0:0,0:0:0:0:
234,115,53370,6,0,P|202:103|176:72,1,63.7500024318696
220,16,53531,2,0,P|252:28|278:59,1,63.7500024318696
314,163,53693,1,8,0:0:0:0:
397,19,53854,1,0,0:0:0:0:
401,27,53935,1,0,0:0:0:0:
416,33,54015,2,0,L|422:108,1,63.7500024318696
426,240,54177,1,0,0:0:0:0:
410,230,54257,1,0,0:0:0:0:
383,214,54338,2,0,B|359:198|359:198|327:114|231:114,1,191.250007295609,2|0,1:2|0:0,0:0:0:0:
290,48,54660,6,0,L|326:44,1,31.8750012159348
217,191,54822,2,0,L|202:224,1,31.8750012159348
129,56,54983,1,8,0:0:0:0:
30,165,55144,1,0,0:0:0:0:
34,180,55225,1,0,0:0:0:0:
60,217,55306,2,0,P|68:204|68:188,1,31.8750012159348
141,173,55467,2,0,P|133:151|104:123,1,53.125
0,309,55628,6,0,B|62:309|83:256|83:256|151:274|151:274|153:301|171:315,1,223.125002127886,2|0,1:2|0:0,0:0:0:0:
248,309,55951,6,0,B|276:296|269:268|269:268|250:271|243:291,1,85
93,362,56112,2,0,L|79:313,1,42.5
26,150,56273,1,8,0:0:0:0:
171,315,56435,5,0,0:0:0:0:
248,309,56515,2,0,L|252:258,1,42.5
330,196,56677,5,0,0:0:0:0:
405,177,56757,2,0,P|416:201|409:228,1,42.5
415,362,56919,6,0,B|391:260|323:272|331:196,1,191.250007295609,2|0,1:2|1:0,0:0:0:0:
321,343,57241,2,0,B|345:241|413:253|405:177,1,191.250007295609,0|0,3:0|0:0,0:0:0:0:
360,29,57564,1,8,0:0:0:0:
256,123,57725,1,0,0:0:0:0:
244,119,57806,1,0,0:0:0:0:
208,107,57886,2,0,P|204:71|190:29,1,63.7500024318696
70,0,58048,2,0,B|73:16|73:16|112:25|121:59,1,85
97,182,58209,2,0,B|114:194|105:225|86:220|67:215|75:184|97:182,1,85,2|0,1:2|0:0,0:0:0:0:
121,59,58451,6,0,L|112:103,1,42.5,0|0,1:2|0:0,0:0:0:0:
8,107,58693,2,0,L|18:159,1,42.5,2|0,1:3|0:0,0:0:0:0:
109,379,58854,1,8,0:0:0:0:
38,365,59015,5,0,0:0:0:0:
54,294,59096,1,0,0:0:0:0:
95,258,59177,1,0,0:0:0:0:
128,250,59257,1,0,0:0:0:0:
154,256,59338,1,0,0:0:0:0:
166,268,59419,1,0,0:0:0:0:
213,328,59499,6,0,B|219:307|238:293|238:293|189:282|150:319|164:333|158:374|108:380,1,212.5,2|0,1:2|0:0,0:0:0:0:
38,365,59741,5,0,0:0:0:0:
24,362,59822,2,0,L|11:322,1,42.5,0|0,3:0|0:0,0:0:0:0:
105,140,59983,2,0,L|96:184,1,42.5,2|0,0:3|0:0,0:0:0:0:
95,258,60144,6,0,B|93:239|71:222|71:222|227:256,1,170,8|0,0:0|0:0,0:0:0:0:
281,300,60386,6,0,B|252:308|236:324|263:394|173:360|190:309|222:332,1,127.500004863739,8|0,0:0|0:0,0:0:0:0:
218,46,60628,6,0,L|229:88,1,42.5,8|2,0:0|1:2,0:0:0:0:
267,163,60870,5,0,0:0:0:0:
338,149,60951,2,0,P|332:129|297:98,1,63.7500024318696,0|2,0:0|1:2,0:0:0:0:
148,24,61112,1,0,0:0:0:0:
141,31,61193,1,0,0:0:0:0:
134,38,61273,2,0,L|142:81,1,42.5,2|0,1:2|0:0,0:0:0:0:
86,155,61435,6,0,B|114:139|117:108|117:108|178:151|178:151|174:183|198:203,1,191.250007295609,10|8,0:0|0:0,0:0:0:0:
197,202,61757,1,0,0:0:0:0:
209,278,61919,1,8,0:0:0:0:
35,384,62080,5,2,1:2:0:0:
71,320,62160,1,0,3:0:0:0:
113,297,62241,1,2,3:0:0:0:
137,292,62322,1,0,1:0:0:0:
209,278,62402,2,0,L|217:247,1,31.8750012159348,0|0,3:0|0:0,0:0:0:0:
249,142,62564,2,0,L|258:112,1,31.8750012159348,0|0,1:0|0:0,0:0:0:0:
422,384,62725,6,0,B|373:372|353:313|353:313|351:336|332:354,1,148.750001418591,4|0,0:0|0:0,0:0:0:0:
256,384,63048,5,0,1:0:0:0:
209,278,63209,1,0,0:0:0:0:
313,196,63370,1,0,1:0:0:0:
280,300,63531,1,0,0:0:0:0:
150,142,63693,2,0,B|193:160|193:160|209:149|224:149,1,74.3750007092953,0|0,1:0|0:0,0:0:0:0:
311,69,63854,1,0,0:0:0:0:
284,52,63935,1,0,0:0:0:0:
267,78,64015,1,0,1:0:0:0:
218,149,64177,1,0,0:0:0:0:
168,0,64338,2,0,B|182:25|182:25|167:87,1,74.3750007092953,0|0,1:0|0:0,0:0:0:0:
59,209,64499,1,0,0:0:0:0:
47,212,64580,1,0,0:0:0:0:
20,237,64660,2,0,L|111:216,1,74.3750007092953,0|0,1:0|0:0,0:0:0:0:
171,69,64822,2,0,L|161:104,1,31.8750012159348
213,302,64983,2,0,B|211:282|219:265|219:265|135:234,1,95.6250036478044,0|0,1:0|0:0,0:0:0:0:
35,137,65144,1,0,0:0:0:0:
68,336,65306,1,0,1:0:0:0:
141,319,65386,1,0,0:0:0:0:
213,302,65467,1,0,0:0:0:0:
471,119,65628,2,0,B|394:109|433:36|262:34,1,191.250007295609,0|0,1:0|0:0,0:0:0:0:
303,36,65870,2,0,B|295:75|326:96|326:96|314:137,2,95.6250036478044,0|0|0,0:0|3:0|0:0,0:0:0:0:
424,275,66112,1,0,0:0:0:0:
433,273,66193,1,0,3:0:0:0:
430,261,66273,2,0,L|420:264,1,8.5,2|0,1:2|0:0,0:0:0:0:
422,264,66596,6,0,B|385:270|366:304|402:332|334:366|341:314|357:316,1,127.500004863739,4|0,0:0|0:0,0:0:0:0:
460,197,66757,1,0,0:0:0:0:
471,194,66838,2,0,L|525:207,1,42.5,0|0,1:0|3:0,0:0:0:0:
213,302,67080,2,0,L|226:248,1,42.5,0|0,1:0|3:0,0:0:0:0:
271,75,67241,2,0,B|276:50|276:50|245:-9|245:-9|265:36|257:74,1,170,0|2,0:0|3:0,0:0:0:0:
187,133,67483,5,8,0:0:0:0:
247,177,67564,2,0,P|276:165|324:173,1,63.7500024318696,0|0,3:0|3:0,0:0:0:0:
184,126,67725,2,0,P|179:93|148:56,1,63.7500024318696,0|0,1:0|0:0,0:0:0:0:
23,225,67886,6,0,B|11:249|-15:258|-15:258|141:235,1,191.250007295609,0|0,0:0|3:0,0:0:0:0:
129,230,68128,1,0,1:0:0:0:
138,244,68209,1,0,3:0:0:0:
130,317,68289,1,0,3:0:0:0:
68,357,68370,1,0,1:0:0:0:
18,330,68451,1,0,3:0:0:0:
23,225,68531,6,0,B|94:190|196:209|121:276|198:281,1,191.250007295609,8|2,0:0|3:0,0:0:0:0:
253,299,68773,5,0,1:0:0:0:
306,284,68854,1,0,3:0:0:0:
323,233,68935,5,8,0:0:0:0:
298,164,69015,5,8,0:0:0:0:
305,90,69096,5,8,0:0:0:0:
370,44,69177,6,0,B|384:34|388:42|402:31,1,31.8750012159348,4|0,0:0|0:0,0:0:0:0:
469,83,69499,5,0,1:0:0:0:
461,81,69580,1,0,3:0:0:0:
455,79,69660,2,0,B|394:64|394:64|387:51|369:43,1,95.6250036478044
305,90,69822,6,0,B|285:66|217:106|259:185|337:150|341:130|313:94|349:62|385:62,1,223.125002127886,0|0,1:0|0:0,0:0:0:0:
455,79,70144,6,0,L|445:123,1,31.8750012159348,0|0,1:0|3:0,0:0:0:0:
396,167,70306,2,0,L|412:219,1,42.5,2|0,2:0|0:0,0:0:0:0:
456,349,70467,6,0,P|424:315|376:310,1,85,0|0,1:0|1:0,0:0:0:0:
312,319,70870,5,8,0:0:0:0:
312,319,71112,6,0,P|300:300|281:285,1,31.8750012159348,0|0,1:0|0:0,0:0:0:0:
220,281,71273,2,0,P|200:293|184:318,1,38.2499988327027,0|2,0:0|3:0,0:0:0:0:
115,309,71435,2,0,P|108:285|113:260,1,46.7500014266968,0|2,0:0|3:0,0:0:0:0:
42,234,71596,2,0,P|20:262|-7:275,1,55.2499974708558,0|2,0:0|3:0,0:0:0:0:
3,271,71757,2,0,P|191:246|241:123,1,331.499984825135,2|2,1:2|0:0,0:0:0:0:
241,131,72322,5,2,0:0:0:0:
239,51,72402,2,0,B|232:26|277:-13|263:44|239:51,1,82.8749962062838,0|0,1:0|0:0,0:0:0:0:
148,100,72725,6,0,B|109:85|109:85|97:93,1,55.2499974708558,2|2,0:0|0:0,0:0:0:0:
110,196,73048,6,0,B|134:184|137:154|137:154|262:94|262:94|244:78|238:47,1,242.249993531227,0|2,1:0|2:0,0:0:0:0:
313,25,73370,1,0,1:0:0:0:
319,29,73451,1,0,3:0:0:0:
315,35,73531,2,0,L|401:57,1,80.7499978437424,0|0,0:0|3:0,0:0:0:0:
495,149,73693,6,0,P|495:178|519:206,1,55.2499974708558,2|0,1:2|0:0,0:0:0:0:
422,195,73854,2,0,P|392:204|373:236,1,55.2499974708558,2|2,3:2|3:0,0:0:0:0:
355,143,74015,2,0,P|337:117|300:109,1,55.2499974708558,2|2,1:2|3:0,0:0:0:0:
393,55,74177,2,0,P|411:30|407:-6,1,55.2499974708558,2|2,0:2|3:0,0:0:0:0:
431,299,74338,6,0,L|438:270,2,29.7499990921021,0|2|0,1:0|3:0|0:0,0:0:0:0:
373,354,74741,5,0,0:0:0:0:
317,297,74822,1,0,0:0:0:0:
313,309,74902,1,0,3:0:0:0:
299,347,74983,2,0,B|258:295|180:318|180:318|159:271,1,170,0|0,1:0|3:0,0:0:0:0:
94,220,75225,5,0,0:0:0:0:
89,210,75306,2,0,B|96:182|24:157|116:167|125:74|85:159|178:200|96:182|89:210,1,170,0|0,1:0|0:0,0:0:0:0:
116,347,75628,1,2,1:2:0:0:
9,311,75789,5,0,3:0:0:0:
55,291,75870,1,2,0:0:0:0:
92,304,75951,1,0,3:0:0:0:
116,347,76031,2,0,P|133:304|179:278,1,85
259,189,76193,5,0,3:0:0:0:
193,164,76273,2,0,L|202:122,1,42.5,0|0,1:0|0:0,0:0:0:0:
210,80,76435,2,0,L|201:122,1,42.5,0|2,0:0|2:0,0:0:0:0:
89,210,76596,2,0,B|113:211|118:191|157:195,1,42.5,0|2,1:0|3:0,0:0:0:0:
118,218,76757,2,0,B|95:207|102:187|66:171,1,42.5,2|0,2:0|0:0,0:0:0:0:
20,63,76919,6,0,B|142:46|142:46|149:26|175:13,1,165.750000632286,0|0,1:0|0:0,0:0:0:0:
245,6,77160,5,2,3:0:0:0:
250,14,77241,1,0,1:0:0:0:
258,18,77322,1,2,3:0:0:0:
328,41,77402,5,2,0:0:0:0:
282,59,77483,1,2,0:0:0:0:
210,80,77564,2,0,L|468:160,1,248.625000948429,2|0,1:2|0:0,0:0:0:0:
511,114,77886,6,0,B|524:74|501:80|505:48,1,63.7500024318696,0|0,1:0|3:0,0:0:0:0:
504,52,78048,2,0,B|481:68|475:46|448:77,1,63.7500024318696,2|0,0:0|0:0,0:0:0:0:
324,215,78209,6,0,L|300:347,1,127.500004863739,0|2,1:0|3:0,0:0:0:0:
364,381,78531,2,0,B|406:371|406:371|419:356,2,63.7500024318696,0|0|2,1:0|3:0|0:0,0:0:0:0:
154,161,78854,5,8,0:0:0:0:
172,236,78935,1,8,0:0:0:0:
142,308,79015,1,8,0:0:0:0:
186,252,79096,1,8,0:0:0:0:
259,249,79177,1,8,0:0:0:0:
324,215,79257,1,8,0:0:0:0:
329,195,79338,5,0,1:0:0:0:
166,378,79499,6,0,L|141:306,1,74.3750007092953,4|0,0:0|0:0,0:0:0:0:
190,47,79660,5,0,1:0:0:0:
197,43,79741,2,0,B|201:68|201:68|173:82,1,53.125,8|0,0:0|0:0,0:0:0:0:
23,152,79902,5,8,0:0:0:0:
8,159,79983,1,8,3:0:0:0:
38,183,80064,1,8,3:0:0:0:
97,225,80144,6,0,L|-27:248,1,106.25,2|0,1:3|3:0,0:0:0:0:
66,58,80386,5,10,0:0:0:0:
80,35,80467,1,0,0:0:0:0:
79,7,80548,1,10,0:0:0:0:
5,17,80628,1,8,3:0:0:0:
26,40,80709,1,8,3:0:0:0:
72,99,80789,6,0,L|196:76,1,106.25,2|8,1:3|3:0,0:0:0:0:
283,55,81031,5,10,0:0:0:0:
290,34,81112,1,0,0:0:0:0:
268,0,81193,1,10,0:0:0:0:
251,71,81274,1,8,3:0:0:0:
234,142,81354,1,8,3:0:0:0:
273,210,81435,5,10,0:0:0:0:
349,194,81515,1,0,0:0:0:0:
425,178,81596,1,2,3:0:0:0:
501,162,81677,2,0,B|506:181|506:181|474:243,1,53.125,0|0,0:0|3:0,0:0:0:0:
432,364,81838,5,2,0:0:0:0:
413,310,81919,1,0,3:0:0:0:
396,291,82000,1,8,0:0:0:0:
320,284,82080,6,0,B|332:307|332:307|408:311|432:363,1,148.750001418591,2|0,1:3|0:0,0:0:0:0:
396,291,82322,2,0,B|383:314|383:314|307:318|283:370,1,148.750001418591,2|0,1:3|0:0,0:0:0:0:
208,357,82564,2,0,P|201:315|184:278,1,74.3750007092953,2|0,1:3|0:0,0:0:0:0:
109,101,82725,6,0,B|124:80|120:50|120:50|133:79|160:88,1,106.25,2|0,1:2|0:0,0:0:0:0:
225,54,83048,6,0,B|242:49|255:32|255:32|247:53|256:71,1,76.4999976654053,2|0,0:0|0:0,0:0:0:0:
396,291,83370,6,0,B|424:300|436:327|436:327|448:288|432:240|368:208|312:227|312:227|298:255|268:259,1,305.999990661621,4|0,0:0|3:0,0:0:0:0:
188,285,83612,6,0,B|158:287|134:311|134:311|136:275|166:261|166:261|177:276|191:280,1,152.999995330811,2|0,1:2|3:0,0:0:0:0:
261,87,83854,6,0,L|241:202,1,101.999996887207,2|0,1:2|0:0,0:0:0:0:
328,317,84015,6,0,B|340:324|331:352|299:334|291:304|308:301|297:274|269:259,1,118.999996368408,8|0,0:0|0:0,0:0:0:0:
54,82,84177,5,2,0:0:0:0:
40,155,84257,1,2,1:2:0:0:
26,228,84338,2,0,B|38:248|38:248|86:242,1,59.4999981842042,2|0,3:0|3:0,0:0:0:0:
263,74,84499,6,0,L|269:40,1,29.7499990921021,2|0,1:2|0:0,0:0:0:0:
188,285,84660,6,0,L|152:168,1,101.999996887207,2|0,1:2|0:0,0:0:0:0:
133,70,84822,5,0,3:0:0:0:
146,42,84902,1,2,1:2:0:0:
179,27,84983,2,0,B|210:52|208:93|208:93|197:101|191:114,1,101.999996887207,0|0,3:0|3:0,0:0:0:0:
40,155,85144,2,0,L|15:77,1,68,2|0,1:2|0:0,0:0:0:0:
59,316,85306,6,0,B|35:320|20:344|20:344|35:280|104:229|196:225|196:225|176:253|187:284,1,340,10|0,0:0|3:0,0:0:0:0:
300,331,85548,5,2,1:2:0:0:
368,300,85628,2,0,L|372:284,1,17,0|0,3:0|0:0,0:0:0:0:
416,134,85789,1,2,1:2:0:0:
416,134,85951,6,0,B|423:115|402:100|375:108|365:131|381:143,1,80.7499978437424,2|0,1:2|0:0,0:0:0:0:
279,205,86112,2,0,B|254:203|233:218|233:218|230:193|208:174,1,93.5000028533936,2|2,0:0|1:2,0:0:0:0:
51,72,86273,5,0,3:0:0:0:
58,27,86354,1,0,3:0:0:0:
84,7,86435,1,2,1:2:0:0:
133,70,86515,1,0,3:0:0:0:
108,143,86596,2,0,L|-2:169,1,93.5000028533936,8|0,0:0|0:0,0:0:0:0:
269,51,86757,5,2,3:2:0:0:
342,33,86838,1,2,1:2:0:0:
387,49,86919,1,0,3:0:0:0:
402,56,86999,1,0,3:0:0:0:
423,87,87080,6,0,L|416:134,1,46.7500014266968,2|0,1:2|0:0,0:0:0:0:
388,282,87241,5,0,1:0:0:0:
431,356,87322,2,0,B|428:312|428:312|384:280,1,93.5000028533936,2|0,0:0|0:0,0:0:0:0:
221,252,87483,5,0,1:0:0:0:
160,312,87564,2,0,B|174:270|174:270|225:250,1,93.5000028533936,2|0,0:0|0:0,0:0:0:0:
328,126,87725,5,0,1:0:0:0:
342,33,87806,2,0,L|326:133,1,93.5000028533936,2|0,0:0|0:0,0:0:0:0:
281,335,87967,5,2,1:2:0:0:
297,339,88048,1,0,3:0:0:0:
315,316,88128,1,0,3:0:0:0:
278,308,88209,1,2,1:2:0:0:
221,252,88289,6,0,B|216:244|224:240|217:232,1,18.7000005706787,2|0,3:0|0:0,0:0:0:0:
227,129,88531,6,0,B|193:122|168:153|168:153|184:168|184:168|227:129|292:141|335:192|329:240|329:240|320:219|295:210,1,340,4|0,0:0|0:0,0:0:0:0:
83,173,88773,6,0,L|0:159,1,85,2|0,1:2|0:0,0:0:0:0:
179,19,89015,6,0,B|189:14|200:2|200:2|174:77,1,85,2|0,1:2|0:0,0:0:0:0:
116,247,89177,6,0,B|103:188|103:188|99:184|99:184|92:150|92:150|95:144|95:144|79:80,1,170,8|0,0:0|3:0,0:0:0:0:
5,277,89419,5,2,1:2:0:0:
0,291,89499,2,0,B|20:310|20:338|20:338|104:322,1,136,0|0,3:0|3:0,0:0:0:0:
187,356,89660,6,0,L|193:336,1,13.6,2|0,1:2|0:0,0:0:0:0:
264,113,89822,6,0,B|271:97|291:85|291:85|203:69|143:97|127:169|127:169|159:173|178:202,1,305.999990661621,2|0,1:2|0:0,0:0:0:0:
271,384,90064,6,0,L|295:280,1,101.999996887207,2|0,1:2|0:0,0:0:0:0:
361,147,90306,6,0,B|366:120|389:106|389:106|384:132|360:147,1,101.999996887207,2|0,1:2|0:0,0:0:0:0:
433,330,90467,2,0,B|421:294|384:283|384:283|378:248,1,101.999996887207,10|0,0:0|0:0,0:0:0:0:
192,99,90628,5,0,3:0:0:0:
204,57,90709,1,0,3:0:0:0:
222,4,90789,2,0,B|219:68|259:64|263:112,1,118.999996368408,2|0,3:0|0:0,0:0:0:0:
297,275,90951,6,0,L|303:248,1,25.4999992218018,2|0,1:2|0:0,0:0:0:0:
346,45,91112,6,0,B|325:39|330:18|335:3|355:9|376:14|372:29|366:50|346:45,1,101.999996887207,2|0,1:2|0:0,0:0:0:0:
265,124,91273,6,0,B|282:119|287:136|290:149|273:154|255:159|252:146|247:128|265:124,1,85,0|2,3:0|1:2,0:0:0:0:
117,7,91435,1,0,3:0:0:0:
110,4,91515,1,0,3:0:0:0:
104,0,91596,2,0,B|89:62|89:62|110:71|117:95,1,101.999996887207,2|0,1:2|0:0,0:0:0:0:
15,262,91757,6,0,L|120:246,1,101.999996887207,8|0,0:0|0:0,0:0:0:0:
194,110,91919,1,0,3:0:0:0:
188,96,91999,1,2,1:2:0:0:
190,105,92080,2,0,B|189:129|174:146|167:137|158:164|159:184,1,85
41,167,92241,2,0,P|31:133|-3:99,1,68,2|0,1:2|0:0,0:0:0:0:
115,246,92402,5,0,1:0:0:0:
216,231,92483,2,0,L|115:246,1,101.999996887207,2|0,0:0|0:0,0:0:0:0:
75,326,92644,5,0,1:0:0:0:
0,337,92725,2,0,L|100:352,1,101.999996887207,2|0,0:0|0:0,0:0:0:0:
191,343,92886,5,0,1:0:0:0:
273,301,92967,2,0,B|208:311|208:311|204:330|190:342,1,101.999996887207,2|0,0:0|0:0,0:0:0:0:
41,167,93128,5,2,1:2:0:0:
47,147,93209,1,0,3:0:0:0:
102,98,93289,5,0,3:0:0:0:
90,59,93370,1,2,1:2:0:0:
161,6,93451,6,0,L|154:34,1,20.4000004980469,2|4,3:0|0:0,0:0:0:0:
231,27,93935,6,0,L|228:43,1,10.2000002490234,2|0,0:0|0:0,0:0:0:0:
418,110,94257,6,0,B|444:156|401:204|367:186|357:243,1,159.375006079674,2|0,0:0|0:0,0:0:0:0:
412,355,94741,2,0,B|386:349|392:323|360:319,1,63.7500024318696,2|0,0:0|0:0,0:0:0:0:
277,301,94983,5,0,3:0:0:0:
256,224,95306,1,0,3:0:0:0:
284,150,95628,1,0,3:0:0:0:
263,73,95951,1,0,3:0:0:0:
35,188,96273,6,0,B|-7:219|16:280|16:280|27:274|40:271,1,127.5,2|0,0:0|0:0,0:0:0:0:
112,272,96596,6,0,B|126:269|129:282|145:283,1,31.8750012159348,2|0,0:0|0:0,0:0:0:0:
151,205,96757,2,0,B|165:204|166:218|187:225,1,38.2499988327027,2|0,0:0|0:0,0:0:0:0:
194,351,96919,6,0,B|185:340|172:333|172:333|150:203,1,159.375,2|0,0:0|0:0,0:0:0:0:
151,91,97241,6,0,P|156:120|124:120,1,63.7500024318696,2|0,2:3|0:0,0:0:0:0:
142,84,97402,2,0,P|113:88|119:117,1,63.7500024318696,2|0,2:3|0:0,0:0:0:0:
35,188,97564,6,0,L|247:155,1,191.250007295609,2|0,0:0|0:0,0:0:0:0:
304,147,97886,6,0,B|314:167|314:167|291:226,1,74.3750007092953,2|0,0:0|0:0,0:0:0:0:
412,355,98048,6,0,B|386:349|392:323|360:319,1,63.7500024318696,2|0,0:0|0:0,0:0:0:0:
361,319,98370,5,0,3:0:0:0:
369,295,98451,1,0,3:0:0:0:
383,248,98531,1,8,0:0:0:0:
398,201,98612,1,0,3:0:0:0:
413,145,98693,1,8,0:0:0:0:
436,74,98774,1,8,0:0:0:0:
510,82,98854,6,0,B|527:60|542:138|484:114|391:74|474:46|447:7|406:-2,1,191.250007295609,4|0,3:2|0:0,0:0:0:0:
410,0,99177,2,0,P|344:48|268:39,1,159.375,2|0,1:2|0:0,0:0:0:0:
185,10,99499,5,2,1:2:0:0:
36,112,99660,2,0,L|89:97,1,53.125,0|0,3:0|3:0,3:0:0:0:
179,101,99822,5,0,3:0:0:0:
192,110,99902,1,0,3:0:0:0:
220,126,99983,6,0,L|210:189,1,53.125,2|0,0:3|0:0,0:0:0:0:
260,237,100144,6,0,B|188:208|152:252|160:288|112:296,1,172.125000656605,2|0,0:0|3:0,0:0:0:0:
113,295,100467,2,0,P|109:263|129:227,1,63.7500024318696,0|0,1:0|0:0,0:0:0:0:
39,239,100628,2,0,P|48:210|64:180,1,42.5,2|0,0:3|0:0,0:0:0:0:
185,10,100789,6,0,L|197:14,1,12.75,2|0,1:3|0:0,0:0:0:0:
197,14,101112,5,0,1:0:0:0:
168,24,101193,1,0,3:0:0:0:
149,44,101273,1,2,3:0:0:0:
145,80,101354,1,0,3:0:0:0:
163,115,101435,2,0,P|225:89|289:94,1,127.500004863739,2|2,1:2|0:3,0:0:0:0:
284,92,101677,5,2,0:3:0:0:
361,85,101757,2,0,B|400:56|384:8|384:8|344:36|361:85,1,148.750001418591,2|2,1:2|3:0,0:0:0:0:
358,212,102080,2,0,B|294:176|350:128|278:88,1,148.750001418591,2|0,1:2|0:0,0:0:0:0:
482,205,102402,5,0,1:0:0:0:
452,99,102564,2,0,B|415:126|441:144|410:170,1,74.3750007092953,2|0,0:3|0:0,0:0:0:0:
358,212,102725,1,0,1:0:0:0:
366,220,102806,1,0,3:0:0:0:
368,231,102886,1,0,3:0:0:0:
491,306,103048,6,0,L|406:287,1,74.3750007092953,0|0,1:0|0:0,0:0:0:0:
242,264,103209,2,0,L|301:252,1,53.125,2|0,0:3|0:0,0:0:0:0:
368,231,103370,1,0,1:0:0:0:
285,337,103531,1,2,0:3:0:0:
256,180,103693,1,0,1:0:0:0:
260,168,103854,1,2,3:0:0:0:
175,300,104015,5,0,1:0:0:0:
132,275,104096,1,0,3:0:0:0:
112,265,104177,1,2,3:0:0:0:
92,255,104257,1,0,3:0:0:0:
29,219,104338,6,0,L|33:177,1,42.5,0|0,1:0|0:0,0:0:0:0:
37,147,104499,2,0,L|43:94,1,53.125,2|0,0:3|0:0,0:0:0:0:
9,291,104660,6,0,B|61:271|68:215|68:215|73:243|93:255,1,148.750001418591,2|0,1:2|0:0,0:0:0:0:
468,245,104983,6,2,B|473:273|500:289|500:289|476:401|342:383|307:323|283:281|314:223|314:223|367:126|367:126|426:131|464:94|464:94|398:219|398:219|347:315|347:315|303:327|267:299|251:226|251:226|239:183|222:161|191:150|191:150|245:49|245:49|261:16|304:10|324:47|312:75|312:75|246:198,1,1449.2500442276,2|0,0:0|0:0,0:0:0:0:
169,223,107564,6,0,P|127:217|108:183,1,85,2|0,1:2|0:0,0:0:0:0:
107,182,107886,6,0,L|99:136,1,34,0|0,1:0|0:0,0:0:0:0:
43,69,108048,2,0,L|37:107,1,34
0,316,108209,6,0,B|41:307|56:262|56:262|58:285|82:301,1,127.500004863739,2|0,1:2|0:0,0:0:0:0:
256,384,108531,6,0,L|234:380,1,21.25,0|2,1:0|2:3,0:0:0:0:
256,384,108853,6,0,L|278:380,1,21.25,0|2,1:0|2:3,0:0:0:0:
207,311,109176,6,0,L|199:292,1,21.25,0|2,1:0|2:3,0:0:0:0:
305,311,109498,6,0,L|313:292,1,21.25,0|2,1:0|2:3,0:0:0:0:
169,223,109821,6,0,L|143:227,1,21.25,0|2,1:0|2:3,0:0:0:0:
343,223,110143,6,0,L|369:227,1,21.25,0|2,1:0|2:3,0:0:0:0:
120,151,110466,6,0,L|101:143,1,21.25,0|2,1:0|2:3,0:0:0:0:
392,151,110789,6,0,L|411:143,1,21.25,0|2,1:0|2:3,0:0:0:0:
256,0,111111,5,2,1:2:0:0:
280,47,111353,6,0,L|277:67,1,10.625,2|0,0:0|1:0,0:0:0:0:
353,63,111595,2,0,L|350:83,1,10.625,2|0,0:0|0:0,0:0:0:0:
460,197,111756,6,0,P|474:183|482:155,1,42.5,2|0,0:0|0:0,0:0:0:0:
483,128,111998,2,0,P|464:122|435:129,1,42.5,2|0,0:0|0:0,0:0:0:0:
411,142,112240,2,0,P|415:161|436:182,1,42.5,2|0,0:0|0:0,0:0:0:0:
496,351,112401,6,0,L|505:310,1,42.5,2|8,0:0|0:0,0:0:0:0:
431,311,112653,2,0,L|440:270,1,42.5,2|0,0:0|0:0,0:0:0:0:
310,311,112905,6,0,L|317:348,1,31.875,2|0,0:0|0:0,0:0:0:0:
249,381,113242,6,0,L|218:367,1,31.8750012159348,10|0,3:0|0:0,0:0:0:0:
62,295,113410,6,0,L|56:333,1,31.875,2|0,0:0|0:0,0:0:0:0:
0,384,113749,6,0,L|131:366,1,127.5,4|0,0:0|0:0,0:0:0:0:
126,366,114313,1,0,0:0:0:0:
158,347,114394,2,0,L|219:367,1,63.75,0|0,1:0|0:0,0:0:0:0:
294,354,114716,2,0,L|324:349,1,21.25,0|0,0:0|2:0,0:0:0:0:
389,335,114878,2,0,L|419:330,1,21.25
484,348,115039,5,0,1:0:0:0:
443,252,115200,1,0,0:0:0:0:
508,357,115362,1,0,1:0:0:0:
485,262,115523,1,0,0:0:0:0:
339,277,115684,6,0,L|350:239,1,21.25,0|0,1:0|0:0,0:0:0:0:
269,256,115845,2,0,L|280:218,1,21.25
204,214,116007,2,0,L|199:235,1,21.25,0|0,1:0|0:0,0:0:0:0:
134,193,116168,2,0,L|128:213,1,21.25
41,259,116329,6,0,L|205:234,1,159.375006079674,0|0,1:0|0:0,0:0:0:0:
224,145,116813,1,0,0:0:0:0:
230,125,116894,1,0,0:0:0:0:
222,108,116974,2,0,L|186:115,1,31.875,0|0,1:0|0:0,0:0:0:0:
127,74,117297,6,0,L|119:40,1,31.8750012159348,0|0,1:0|0:0,0:0:0:0:
44,44,117458,2,0,L|50:75,1,31.8750012159348
39,165,117619,6,0,L|196:112,1,159.375,0|0,1:0|0:0,0:0:0:0:
242,36,117942,1,0,1:0:0:0:
245,28,118023,1,0,3:0:0:0:
318,15,118103,1,8,0:0:0:0:
340,34,118184,1,0,3:0:0:0:
368,61,118265,6,0,L|373:113,1,31.8750012159348,0|0,1:0|0:0,0:0:0:0:
327,173,118426,2,0,L|379:168,1,31.8750012159348,0|0,3:0|0:0,0:0:0:0:
439,214,118587,2,0,L|434:162,1,31.8750012159348,0|0,1:0|3:0,0:0:0:0:
480,102,118749,2,0,L|428:107,1,31.8750012159348,0|0,0:0|3:0,0:0:0:0:
264,212,118910,6,0,B|256:228|256:228|279:274|279:274|328:262|328:262|339:240,1,138.125003951788,0|8,1:0|0:0,0:0:0:0:
367,326,119071,6,0,L|189:280,1,170,2|0,0:0|0:0,0:0:0:0:
129,258,119474,1,0,3:0:0:0:
136,244,119555,2,0,L|95:95,1,127.5,0|0,1:0|0:0,0:0:0:0:
148,14,119878,2,0,L|126:68,1,42.5,0|0,1:0|3:0,0:0:0:0:
30,141,120039,2,0,L|46:195,1,42.5
42,181,120200,2,0,L|212:70,1,191.250007295609,0|0,1:0|0:0,0:0:0:0:
58,38,120523,1,0,1:0:0:0:
24,55,120603,1,0,3:0:0:0:
272,100,120765,5,0,3:0:0:0:
268,109,120845,2,0,L|274:177,1,42.5,0|0,1:0|0:0,0:0:0:0:
180,222,121007,2,0,L|235:182,1,42.5,0|0,3:0|0:0,0:0:0:0:
322,242,121168,2,0,L|260:213,1,42.5,0|0,1:0|0:0,0:0:0:0:
338,68,121329,2,0,L|344:136,1,63.7500024318696,2|0,0:3|3:0,0:0:0:0:
372,355,121490,5,0,1:2:0:0:
404,287,121571,1,8,0:0:0:0:
442,267,121652,1,0,3:0:0:0:
473,267,121732,1,2,3:0:0:0:
488,277,121813,2,0,L|469:350,1,63.7500024318696,2|0,1:2|3:0,0:0:0:0:
467,115,121974,5,2,0:3:0:0:
508,106,122055,1,0,0:0:0:0:
512,99,122136,2,0,L|409:183,1,127.500004863739,2|0,1:2|3:0,0:0:0:0:
268,141,122378,1,2,0:3:0:0:
258,131,122458,2,0,L|241:57,1,42.5,2|0,1:2|3:0,0:0:0:0:
358,7,122619,2,0,L|337:67,1,63.7500024318696,2|0,0:3|0:0,0:0:0:0:
283,224,122781,1,2,1:2:0:0:
126,92,122942,5,0,3:0:0:0:
127,82,123023,1,2,0:0:0:0:
128,73,123103,5,2,1:2:0:0:
178,85,123184,1,0,3:0:0:0:
172,125,123265,1,2,0:3:0:0:
166,165,123345,1,0,3:0:0:0:
92,168,123426,6,2,L|122:0,1,170,2|2,3:2|3:2,0:0:0:0:
114,241,123668,5,8,0:0:0:0:
37,266,123748,1,8,0:0:0:0:
35,275,123910,5,8,0:0:0:0:
0,57,124071,6,0,B|32:65|44:93|44:93|184:73|184:73|184:69|184:69|240:61|276:109|232:129|288:157,1,340,4|0,0:0|0:0,0:0:0:0:
445,189,124313,2,0,B|479:192|499:128|459:92|459:92|459:87|459:87|387:24|387:24|415:92|367:132,1,340,2|0,1:2|3:0,0:0:0:0:
288,303,124555,2,0,B|317:292|320:268|320:268|326:265|326:265|328:238|355:227,1,106.25,2|0,1:2|0:0,0:0:0:0:
355,228,124716,6,0,B|403:239|385:255|407:276|432:287|432:287|362:256|302:272|302:272|298:268|298:268|242:284|218:328,1,340,12|2,0:0|0:3,0:0:0:0:
98,262,124958,6,0,B|46:277|25:228|25:228|21:226|21:226|0:179|71:139|115:243,1,255,0|8,0:0|0:0,0:0:0:0:
149,356,125281,5,0,0:0:0:0:
218,326,125361,2,0,B|228:288|204:268|204:268|208:264|208:264|184:244|192:208,1,127.500004863739,4|0,0:0|0:0,0:0:0:0:
235,20,125523,5,2,0:0:0:0:
306,16,125603,1,2,1:2:0:0:
365,59,125684,1,2,3:2:0:0:
369,130,125764,1,2,3:2:0:0:
322,161,125845,1,2,1:2:0:0:
355,228,125926,1,2,3:2:0:0:
422,264,126007,6,0,B|412:280|412:280|415:283|415:283|395:320|346:311|346:311|323:345,1,127.500004863739,12|0,0:0|0:0,0:0:0:0:
462,360,126168,1,0,0:0:0:0:
473,363,126248,2,0,B|492:368|492:368|496:372|496:372|517:378,1,42.5,2|0,1:2|0:0,0:0:0:0:
459,137,126410,1,0,3:0:0:0:
466,154,126490,2,0,B|461:173|461:173|457:177|457:177|451:198,1,42.5,2|0,1:2|0:0,0:0:0:0:
333,330,126652,6,0,B|356:344|361:368|361:368|397:304|366:252|366:252|306:220|306:220|298:220|298:220|253:196|253:196|257:175|245:156,1,340,4|0,0:0|3:0,0:0:0:0:
208,91,126894,2,0,B|200:59|232:35|232:35|232:31|232:31|264:7|312:19|312:19|316:59|280:91,1,233.750002229214,2|0,1:2|3:0,0:0:0:0:
178,186,127136,5,2,1:2:0:0:
114,228,127216,1,0,3:0:0:0:
40,214,127297,2,0,B|39:202|39:202|35:202|35:202|55:166|55:166|48:134,1,85,12|0,0:0|0:0,0:0:0:0:
235,327,127458,1,0,3:0:0:0:
224,335,127539,1,2,1:2:0:0:
220,344,127619,2,0,B|198:367|174:355|174:355|170:351|170:351|142:335|142:335|138:311|118:303,1,127.500004863739,2|0,0:3|0:0,0:0:0:0:
49,138,127781,2,0,B|50:130|50:130|47:125|47:125|53:102|80:108|80:108|72:143,1,85,2|0,1:3|0:0,0:0:0:0:
48,292,127942,6,0,B|36:332|-12:358|-12:358|141:281|141:281|153:283|153:283|242:237,1,374.000011413575,4|0,0:0|3:0,0:0:0:0:
327,119,128184,1,2,1:2:0:0:
331,127,128265,2,0,B|328:134|328:134|331:139|331:139|320:182|320:182|315:184|315:184|308:212,1,85,0|0,3:0|3:0,3:0:0:0:
370,284,128426,2,0,B|372:276|372:276|369:271|369:271|380:228|380:228|385:226|385:226|392:198,1,85,2|0,1:2|3:0,0:0:0:0:
361,31,128587,6,0,B|381:15|389:-8|389:-8|457:35|425:103|425:103|421:103|421:103|396:155|360:187|332:155|308:207,1,340,12|0,0:0|0:0,0:0:0:0:
237,133,128829,5,2,1:2:0:0:
234,116,128910,2,0,B|230:90,1,17,0|0,3:0|3:0,3:0:0:0:
269,18,129071,2,0,B|266:25|266:25|283:29|283:29|281:38,1,34,2|0,1:2|3:0,0:0:0:0:
391,206,129232,6,0,B|304:194|304:194|303:197|303:197|168:178|168:178|153:116|89:107,1,340,4|0,0:0|3:0,0:0:0:0:
25,24,129474,1,2,1:2:0:0:
42,17,129555,2,0,B|40:28|40:28|36:32|36:32|31:63,1,42.5,0|0,0:0|3:0,0:0:0:0:
11,225,129716,2,0,B|15:218|15:218|20:220|20:220|44:188|84:192,1,85,2|0,1:2|3:0,0:0:0:0:
260,145,129878,6,0,B|295:162|298:186|298:186|294:190|294:190|296:208|293:226|293:226|260:145|165:101|165:101|166:132|148:154,1,340,12|0,0:0|3:0,0:0:0:0:
46,330,130119,5,2,1:2:0:0:
111,293,130200,2,0,L|119:249,1,31.8750012159348,2|0,0:3|3:0,0:0:0:0:
187,295,130361,2,0,L|201:217,1,63.7500024318696,2|0,1:2|0:0,0:0:0:0:
231,32,130523,5,4,1:2:0:0:
296,65,130603,1,2,0:2:0:0:
333,130,130684,1,2,0:2:0:0:
332,206,130765,1,2,1:2:0:0:
310,276,130845,1,2,0:2:0:0:
333,348,130926,1,2,3:2:0:0:
400,378,131007,2,0,L|479:363,1,63.7500024318696,2|0,1:2|3:0,0:0:0:0:
473,286,131168,6,0,B|477:267|492:251|492:251|397:270|397:270|394:276|394:276|292:298|292:298|283:322|255:331,1,297.500002837181,12|0,0:0|0:0,0:0:0:0:
107,317,131410,1,2,1:2:0:0:
96,312,131490,2,2,B|82:300|80:280|80:280|48:271|48:271|44:267|44:267|5:256|5:256|12:241|11:225,1,148.750001418591,2|2,3:0|3:0,3:0:0:0:
24,147,131652,2,0,B|1:124|58:65|70:142|43:152,1,106.25,2|0,1:2|0:0,0:0:0:0:
34,363,131813,6,0,B|90:143|90:143|87:138|87:138|114:31,1,340,4|0,0:0|3:0,0:0:0:0:
24,1,132055,6,0,L|36:35,1,34,2|0,1:2|3:0,0:0:0:0:
258,161,132297,5,2,1:2:0:0:
329,133,132378,1,0,3:0:0:0:
400,105,132458,2,0,B|406:86|406:86|365:36|387:-23|387:-23|365:36|301:47|301:47|294:66,1,272,12|0,0:0|0:0,0:0:0:0:
219,91,132700,2,0,B|222:106|222:106|226:109|226:109|230:129|230:129|254:141|258:161,1,85,2|0,1:2|0:0,0:0:0:0:
268,338,132861,1,0,3:0:0:0:
257,330,132942,2,0,B|288:305|324:325|324:325|325:321|325:321|369:296,1,127.500004863739,2|0,1:2|0:0,0:0:0:0:
496,211,133103,6,0,B|489:218|489:218|491:224|491:224|439:288|439:288|337:263|337:263|331:264|331:264|330:261|330:261|207:228,1,340,4|0,0:0|0:0,0:0:0:0:
79,143,133345,1,2,1:2:0:0:
88,132,133426,2,0,B|100:182|121:170|136:199,1,85,0|0,0:0|3:0,0:0:0:0:
393,22,133587,2,0,B|416:68|394:75|399:104,1,85,2|0,1:3|0:0,0:0:0:0:
447,369,133748,5,8,0:0:0:0:
379,330,133829,1,8,0:0:0:0:
354,255,133910,1,8,0:0:0:0:
361,178,133990,1,8,0:0:0:0:
317,112,134071,1,8,0:0:0:0:
245,76,134152,1,8,0:0:0:0:
172,108,134232,1,8,0:0:0:0:
97,92,134313,1,8,0:0:0:0:
75,20,134394,6,0,B|37:10|93:8|75:20|107:-111|75:20|63:1|110:28|75:20,1,106.25,4|0,0:0|0:0,0:0:0:0:
15,263,134555,6,2,B|4:293|67:315|96:258|96:258|102:255|102:255|119:218|42:226|107:82|340:34|197:239|208:151|152:162|132:206,1,414.375011855364,4|0,0:0|3:0,0:0:0:0:
176,320,134878,2,0,B|125:299|125:299|117:302|117:302|83:288,1,85,2|0,1:2|3:0,0:0:0:0:
29,190,135039,6,0,B|25:169|9:149|9:149|72:148|122:193|122:193|126:193|126:193|172:234|172:274|172:274|161:300|176:320,1,318.750007599592,12|0,0:0|3:0,0:0:0:0:
266,350,135281,1,2,1:2:0:0:
277,347,135361,2,0,B|286:328|286:328|286:316|286:316|298:292,1,53.125,0|0,0:0|3:0,0:0:0:0:
404,100,135523,2,0,B|451:122|451:122|440:145|440:145|439:153|439:153|428:172,1,106.25,2|0,1:2|0:0,0:0:0:0:
492,300,135684,6,0,B|448:278|454:222|454:222|362:202|362:202|354:208|354:208|230:182,1,318.750007599592,4|2,0:0|3:3,0:0:0:0:
199,120,135926,5,2,1:2:0:0:
254,74,136007,1,2,3:2:0:0:
238,5,136087,1,2,3:2:0:0:
165,25,136168,5,2,1:2:0:0:
171,54,136248,1,2,3:2:0:0:
115,199,136329,6,0,B|185:214|241:162|177:138|309:118|309:118|313:114|313:114|413:98,1,318.750007599592,12|0,0:0|0:0,0:0:0:0:
492,300,136571,5,2,1:2:0:0:
503,353,136652,1,2,3:2:0:0:
429,347,136732,5,2,3:2:0:0:
422,322,136813,1,2,1:2:0:0:
407,25,136974,6,0,B|416:10|416:10|508:-16|508:-16|473:59|473:59|473:66|473:66|429:171,1,318.750007599592,4|0,0:0|0:0,0:0:0:0:
393,238,137216,1,2,1:2:0:0:
365,245,137297,1,2,3:2:0:0:
302,207,137378,1,2,3:2:0:0:
239,245,137458,1,2,1:2:0:0:
229,319,137539,1,2,3:2:0:0:
180,377,137619,6,0,B|206:344|206:344|190:249|190:249|194:241|194:241|183:197|183:197|177:194|177:194|156:92,1,297.500002837181,12|0,0:0|0:0,0:0:0:0:
113,35,137861,6,0,B|127:66|127:66|196:56|196:56|200:48|200:48|264:37|264:37|260:73,1,212.5,2|0,1:2|3:0,0:0:0:0:
260,71,138103,6,0,L|250:124,1,53.125,2|0,1:2|0:0,0:0:0:0:
115,278,138265,5,0,1:0:0:0:
37,289,138345,2,0,B|42:283|42:283|48:288|48:288|53:280|53:280|64:282|64:282|104:274|64:285|106:277,1,74.3750007092953,2|0,0:0|0:0,0:0:0:0:
302,207,138507,5,0,1:0:0:0:
374,219,138587,2,0,B|368:213|368:213|362:218|362:218|357:210|357:210|346:212|346:212|306:204|346:215|304:207,1,63.7500024318696,2|0,0:0|0:0,0:0:0:0:
96,173,138829,5,0,1:0:0:0:
98,162,138910,1,8,0:0:0:0:
157,97,138990,2,0,B|161:126|161:126|165:129|165:129|170:157,1,63.7500024318696,2|2,0:0|0:0,0:0:0:0:
221,350,139152,5,0,3:0:0:0:
216,357,139232,1,0,1:0:0:0:
211,364,139313,2,0,B|215:356|215:356|211:348|211:348|221:297|221:297|229:292|229:292|239:240,1,127.500004863739,2|0,0:0|0:0,0:0:0:0:
467,277,139555,6,0,B|483:309|519:313|519:313|535:330|523:349|523:349|493:309|417:286|417:286|415:281|415:281|339:257|339:257|335:225|299:205,1,382.500014591218,4|0,0:0|0:0,0:0:0:0:
283,133,139797,1,2,1:2:0:0:
293,99,139878,1,2,3:2:0:0:
331,83,139958,1,2,3:2:0:0:
369,50,140039,1,2,1:2:0:0:
362,7,140119,1,2,3:2:0:0:
290,20,140200,6,0,B|295:71|358:80|358:80|364:77|364:77|440:89|442:167|442:167|428:129|380:121,1,297.500002837181,12|0,0:0|0:0,0:0:0:0:
170,74,140442,5,0,3:0:0:0:
99,53,140523,2,0,L|88:-1,1,42.5,0|0,3:0|3:0,0:0:0:0:
90,11,140684,2,0,L|73:94,1,85,0|0,3:0|0:0,0:0:0:0:
24,326,140845,6,0,B|21:340|5:352|5:352|110:335,1,127.500004863739,12|0,0:0|0:0,0:0:0:0:
160,288,141007,1,2,3:2:0:0:
218,245,141087,1,2,1:2:0:0:
209,193,141168,1,2,3:2:0:0:
143,158,141248,1,2,3:2:0:0:
139,237,141329,1,2,1:2:0:0:
196,294,141410,1,2,3:2:0:0:
221,365,141490,6,0,B|225:354|225:354|221:343|221:343|265:299|265:299|317:308,1,127.500004863739,12|0,0:0|0:0,0:0:0:0:
382,320,141652,6,0,B|394:322|408:317|408:317|455:351|455:351|398:354|398:354|388:344|375:341,1,170,2|2,3:3|1:2,0:0:0:0:
208,193,141813,5,2,3:2:0:0:
226,121,141894,1,2,3:2:0:0:
285,77,141974,1,2,1:2:0:0:
334,68,142055,1,2,3:2:0:0:
383,12,142136,6,0,B|328:26|311:130|382:80|403:105|406:143,1,170,4|0,0:0|0:0,0:0:0:0:
474,164,142297,5,2,3:3:0:0:
478,151,142378,2,0,B|391:162|413:206|369:213,1,127.500004863739
226,121,142539,5,2,3:2:0:0:
202,49,142619,2,0,B|195:50|189:52|188:46|186:40|184:34|191:32|197:30|203:29|209:27|210:33|212:39|214:45|208:47|202:49,1,63.7500024318696,2|0,1:2|3:0,0:0:0:0:
132,251,142781,5,12,0:0:0:0:
56,271,142862,1,2,3:2:0:0:
200,290,142943,5,2,3:2:0:0:
221,365,143023,1,2,1:2:0:0:
118,330,143103,6,0,L|130:262,1,63.7500024318696,2|0,3:2|0:0,0:0:0:0:
102,88,143265,2,0,B|107:111|107:111|160:141,1,74.3750007092953,2|0,1:2|0:0,0:0:0:0:
289,224,143426,5,0,1:0:0:0:
301,299,143507,2,0,B|300:295|300:295|295:291|295:291|302:286|302:286|297:279|297:279|290:239,1,63.7500024318696,2|0,0:0|0:0,0:0:0:0:
383,138,143668,5,0,1:0:0:0:
371,213,143749,2,0,B|371:209|371:209|376:205|376:205|369:200|369:200|374:193|374:193|381:153,1,63.7500024318696,2|0,0:0|0:0,0:0:0:0:
396,63,143910,6,0,B|399:41|399:41|441:22|441:22|446:-5,2,85,8|2|0,3:0|2:0|3:0,0:0:0:0:
326,91,144152,2,0,B|307:69|307:69|261:51|261:51|249:-5,2,127.500004863739,8|2|0,0:0|2:0|3:0,0:0:0:0:
487,96,144394,6,0,L|146:141,1,340,4|0,0:0|0:0,0:0:0:0:
149,140,144636,6,2,B|120:136|110:109|114:105|103:78|55:71|55:71|107:64|182:98|180:177|127:204|99:122|43:200|51:384|294:392|257:232|185:236|169:265,1,544,4|0,0:0|0:0,0:0:0:0:
172,260,147297,5,0,0:0:0:0:
167,278,147566,1,2,0:0:0:0:
110,323,147804,1,2,0:0:0:0:
240,288,148034,5,2,0:0:0:0:
263,361,148219,1,2,0:0:0:0:
323,317,148403,1,2,0:0:0:0:
309,215,148587,1,2,0:0:0:0:
455,368,148818,6,0,B|448:351|429:339|425:347|405:335|397:313,1,82.5714285714286,4|0,0:0|0:0,0:0:0:0:
396,312,150630,5,2,0:0:0:0:
425,227,150792,1,2,0:0:0:0:
435,224,151007,5,2,0:0:0:0:
483,284,151168,1,2,0:0:0:0:
309,215,151329,6,0,B|303:196|292:198|288:178,1,42.5,4|0,0:0|0:0,0:0:0:0:
288,178,152602,5,2,0:0:0:0:
316,111,152781,1,2,0:0:0:0:
218,19,152924,5,2,0:0:0:0:
246,86,153067,1,2,0:0:0:0:
243,97,153283,5,2,0:0:0:0:
421,15,153587,6,0,B|435:11|436:4|454:-1,1,34,4|0,0:0|0:0,0:0:0:0:
512,192,154394,5,2,3:2:0:0:
512,192,154716,6,0,L|479:187,1,34,2|0,3:2|0:0,0:0:0:0:
500,265,154878,2,0,L|467:260,1,34,2|0,0:0|0:0,0:0:0:0:
347,315,155039,2,0,L|380:320,1,34,2|0,3:2|0:0,0:0:0:0:
359,242,155201,2,0,L|392:247,1,34,2|0,0:0|0:0,0:0:0:0:
482,378,155361,6,0,B|438:374|423:328|423:328|384:321,1,102,2|0,3:2|0:0,0:0:0:0:
272,308,155684,6,0,B|200:320|215:347|184:356,1,102,2|0,3:2|0:0,0:0:0:0:
112,336,156007,6,0,L|97:297,3,34,0|2|2|0,3:0|0:0|0:0|0:0,0:0:0:0:
115,228,156329,6,0,L|156:221,1,34,2|2,3:2|0:0,0:0:0:0:
124,213,156490,2,0,L|145:240,1,34,2|2,0:0|3:2,0:0:0:0:
262,235,156974,6,0,L|255:192,1,34,2|0,3:2|0:0,0:0:0:0:
322,165,157136,2,0,L|315:122,1,34,2|0,0:0|0:0,0:0:0:0:
376,307,157297,5,2,3:2:0:0:
380,320,157378,2,0,L|347:315,1,34,2|2,0:0|0:0,0:0:0:0:
236,107,157619,5,2,3:2:0:0:
249,60,157700,2,0,L|241:92,1,34
166,137,157861,2,0,L|139:117,2,34,2|2|0,0:0|3:2|0:0,0:0:0:0:
256,201,158103,1,2,0:0:0:0:
138,292,158265,6,0,L|214:283,1,68,2|0,3:2|0:0,0:0:0:0:
271,325,158507,6,0,L|262:361,2,34,2|2|0,0:0|0:0|0:0,0:0:0:0:
325,274,158910,1,2,0:0:0:0:
416,98,159232,6,0,L|422:126,1,17,2|0,3:2|0:0,0:0:0:0:
351,143,159394,2,0,L|346:174,1,17,2|0,0:0|0:0,0:0:0:0:
458,266,159555,2,0,L|462:284,1,17,2|0,3:2|3:0,0:0:0:0:
416,98,160200,6,0,L|432:37,1,42.5,0|0,3:0|0:0,0:0:0:0:
473,0,160361,2,0,B|493:3|493:3|496:25,5,42.5,0|0|0|0|2|0,3:0|0:0|3:0|3:0|0:0|3:0,0:0:0:0:
512,163,160845,2,0,L|473:137,1,42.5,2|0,3:2|0:0,0:0:0:0:
426,56,161007,2,0,L|383:76,1,42.5,2|0,3:2|0:0,0:0:0:0:
319,43,161168,1,0,3:0:0:0:
312,39,161248,1,0,3:0:0:0:
306,35,161329,1,2,3:2:0:0:
416,98,161490,6,0,L|432:37,1,42.5,0|0,3:0|0:0,0:0:0:0:
473,0,161651,2,0,B|493:3|493:3|496:25,5,42.5,0|0|0|0|2|0,3:0|0:0|3:0|3:0|0:0|3:0,0:0:0:0:
512,163,162135,2,0,L|473:137,1,42.5,2|0,3:2|0:0,0:0:0:0:
426,56,162297,2,0,L|383:76,1,42.5,2|0,3:2|0:0,0:0:0:0:
319,43,162458,1,0,3:0:0:0:
312,39,162538,1,0,3:0:0:0:
306,35,162619,1,2,3:2:0:0:
416,98,162781,6,0,L|432:37,1,42.5,0|0,3:0|0:0,0:0:0:0:
473,0,162942,2,0,B|493:3|493:3|496:25,5,42.5,0|0|0|0|2|0,3:0|0:0|3:0|3:0|0:0|3:0,0:0:0:0:
512,163,163426,2,0,L|473:137,1,42.5,2|0,3:2|0:0,0:0:0:0:
426,56,163588,2,0,L|383:76,1,42.5,2|0,3:2|0:0,0:0:0:0:
319,43,163749,1,0,3:0:0:0:
312,39,163829,1,0,3:0:0:0:
306,35,163910,1,2,3:2:0:0:
416,98,164071,6,0,L|432:37,1,42.5,0|0,3:0|0:0,0:0:0:0:
473,0,164232,2,0,B|493:3|493:3|496:25,5,42.5,0|0|0|0|2|0,3:0|0:0|3:0|3:0|0:0|3:0,0:0:0:0:
512,163,164716,2,0,L|473:137,1,42.5,2|0,3:2|0:0,0:0:0:0:
426,56,164878,2,0,L|383:76,1,42.5,2|0,3:2|0:0,0:0:0:0:
319,43,165039,1,0,3:0:0:0:
312,39,165119,1,0,3:0:0:0:
306,35,165200,1,2,3:2:0:0:
512,163,165361,6,0,L|473:137,1,42.5,2|0,3:2|0:0,0:0:0:0:
473,0,165523,2,0,B|493:3|493:3|496:25,5,42.5,0|0|0|0|2|0,3:0|0:0|3:0|3:0|0:0|3:0,0:0:0:0:
416,98,166007,6,0,L|426:56,1,42.5,2|0,3:2|0:0,0:0:0:0:
346,77,166168,2,0,L|357:36,1,42.5,2|0,3:2|0:0,0:0:0:0:
363,304,166329,5,8,0:0:0:0:
384,234,166410,1,0,3:0:0:0:
355,188,166490,1,0,0:0:0:0:
302,175,166571,1,0,0:0:0:0:
279,106,166652,1,0,3:0:0:0:
445,289,166813,5,0,3:0:0:0:
405,320,166893,1,2,0:0:0:0:
363,304,166974,1,0,3:0:0:0:
322,292,167055,1,0,3:0:0:0:
281,317,167135,1,2,0:0:0:0:
271,360,167216,1,0,3:0:0:0:
196,346,167297,5,0,3:0:0:0:
175,313,167378,1,0,0:0:0:0:
187,274,167458,1,0,0:0:0:0:
198,234,167539,1,2,0:0:0:0:
178,202,167619,1,0,3:0:0:0:
128,210,167700,1,0,3:0:0:0:
88,252,167781,1,2,0:0:0:0:
30,242,167861,1,0,0:0:0:0:
3,173,167942,5,0,3:0:0:0:
27,125,168023,1,0,0:0:0:0:
72,112,168103,1,0,3:0:0:0:
112,130,168184,1,2,0:0:0:0:
143,92,168265,1,0,3:0:0:0:
131,50,168345,1,0,3:0:0:0:
94,37,168426,1,2,0:0:0:0:
198,234,168587,5,0,3:0:0:0:
244,219,168668,1,0,0:0:0:0:
265,173,168748,1,0,3:0:0:0:
249,100,168829,1,2,0:0:0:0:
311,58,168910,1,0,0:0:0:0:
381,82,168990,1,0,0:0:0:0:
379,155,169071,1,2,0:0:0:0:
326,98,169152,1,0,0:0:0:0:
339,19,169232,5,8,0:0:0:0:
488,221,169474,5,0,3:0:0:0:
468,292,169555,1,0,3:0:0:0:
442,303,169636,1,0,3:0:0:0:
407,285,169716,1,2,0:0:0:0:
363,304,169797,1,0,3:0:0:0:
298,337,169878,5,0,3:0:0:0:
269,295,169958,1,0,0:0:0:0:
281,291,170039,1,0,3:0:0:0:
264,320,170119,1,2,0:0:0:0:
198,350,170200,5,0,3:0:0:0:
167,311,170281,1,0,3:0:0:0:
173,259,170361,1,2,0:0:0:0:
208,224,170442,1,0,0:0:0:0:
200,171,170523,5,0,1:0:0:0:
155,143,170603,1,0,0:0:0:0:
100,151,170684,1,2,0:0:0:0:
73,110,170765,1,0,0:0:0:0:
98,67,170845,1,0,1:0:0:0:
152,61,170926,1,0,3:0:0:0:
214,97,171007,1,2,0:0:0:0:
262,66,171087,1,0,0:0:0:0:
256,12,171168,5,0,1:0:0:0:
229,81,171248,1,0,0:0:0:0:
277,137,171329,1,2,0:0:0:0:
284,183,171409,1,0,0:0:0:0:
337,238,171490,1,0,1:0:0:0:
359,165,171571,1,0,3:0:0:0:
381,92,171652,1,0,0:0:0:0:
403,19,171732,1,0,0:0:0:0:
397,12,171813,6,0,L|372:17,1,21.25
426,226,171974,5,0,3:0:0:0:
411,229,172055,1,0,3:0:0:0:
439,223,172781,5,0,1:0:0:0:
411,229,172861,1,0,3:0:0:0:
393,281,172942,1,2,0:0:0:0:
331,317,173023,1,0,0:0:0:0:
263,295,173103,1,0,1:0:0:0:
233,230,173184,1,0,0:0:0:0:
247,189,173265,1,0,3:0:0:0:
216,152,173345,1,0,0:0:0:0:
167,157,173426,5,0,1:0:0:0:
149,195,173507,1,0,3:0:0:0:
93,242,173587,1,2,0:0:0:0:
24,215,173668,1,0,3:0:0:0:
11,143,173748,1,0,1:0:0:0:
13,289,173910,5,2,0:0:0:0:
50,305,173990,1,0,0:0:0:0:
107,354,174071,5,0,1:0:0:0:
116,342,174152,1,0,3:0:0:0:
130,336,174232,1,2,0:0:0:0:
168,308,174313,1,0,0:0:0:0:
163,268,174394,1,0,1:0:0:0:
257,80,174555,5,2,0:0:0:0:
187,103,174636,1,0,0:0:0:0:
156,139,174716,1,0,1:0:0:0:
146,175,174797,1,0,3:0:0:0:
149,195,174878,5,2,0:0:0:0:
163,143,174958,1,0,0:0:0:0:
116,78,175039,5,0,1:0:0:0:
47,60,175119,2,0,L|39:27,1,21.25,0|2,0:0|0:0,0:0:0:0:
256,192,175361,6,0,L|287:181,1,31.8750012159348,2|0,1:2|0:0,0:0:0:0:
286,181,175684,6,0,B|298:218|276:248|266:239|244:263|249:299,1,127.500004863739,2|0,1:2|3:0,0:0:0:0:
248,296,176490,6,0,L|329:273,1,63.7500024318696,0|2,3:0|1:2,0:0:0:0:
436,356,176732,1,2,3:2:0:0:
445,361,176813,1,2,0:2:0:0:
455,309,176894,1,2,0:2:0:0:
413,249,176974,6,0,L|373:260,1,31.8750012159348,2|0,1:2|0:0,0:0:0:0:
338,381,177136,2,0,L|327:341,1,31.8750012159348,2|0,3:2|0:0,0:0:0:0:
286,181,177297,5,0,1:0:0:0:
285,171,177378,1,0,3:0:0:0:
295,175,177458,1,2,0:3:0:0:
248,296,177619,6,0,B|236:285|236:285|184:294,2,63.7500024318696,2|2|2,1:2|0:0|1:2,0:0:0:0:
170,364,178265,6,0,L|133:222,1,127.500004863739,2|0,1:2|0:0,0:0:0:0:
171,172,178668,6,0,P|197:163|186:192,1,63.7500024318696,2|0,3:2|0:0,0:0:0:0:
113,314,178910,5,2,1:2:0:0:
86,323,178990,1,2,0:0:0:0:
97,333,179071,1,2,0:0:0:0:
83,354,179152,6,0,L|66:322,1,31.8750012159348,2|0,0:0|0:0,0:0:0:0:
11,374,179232,6,0,L|50:209,1,170,2|2,1:2|1:2,0:0:0:0:
105,65,180093,6,0,L|121:69,1,14.1666666666667,2|0,3:0|0:0,0:0:0:0:
119,69,180200,6,0,P|134:96|139:114,1,42.5,2|2,1:2|0:0,0:0:0:0:
212,60,180361,6,0,P|217:101|203:134,1,63.7500024318696
292,110,180523,6,0,P|280:151|260:183,1,63.7500024318696,2|0,1:2|3:0,0:0:0:0:
272,244,180684,6,0,P|239:239|209:210,1,63.7500024318696,2|0,0:0|0:0,0:0:0:0:
137,107,180845,5,2,1:2:0:0:
50,208,181007,1,0,0:0:0:0:
29,138,181168,1,0,1:0:0:0:
137,107,181329,2,0,L|127:179,1,63.7500024318696
109,329,181490,6,0,L|101:291,1,21.25,2|0,1:2|0:0,0:0:0:0:
180,304,181652,2,0,L|172:275,1,21.25,2|0,0:0|0:0,0:0:0:0:
215,220,181813,6,0,B|192:296|244:288|252:336,1,127.500004863739,2|0,1:2|0:0,0:0:0:0:
430,352,182136,6,0,B|439:316|491:308|491:308|443:272|379:280|331:312|375:348|319:368,1,286.875010943413,2|0,1:2|0:0,0:0:0:0:
323,366,182942,6,0,L|340:228,1,127.500004863739,2|0,0:0|0:0,0:0:0:0:
377,171,183345,6,0,B|381:152|381:152|470:91|470:91|421:187|421:187|401:192,1,254.999992218018,2|0,0:0|0:0,0:0:0:0:
401,193,184394,5,2,1:2:0:0:
283,187,184609,5,2,0:0:0:0:
268,111,184716,1,2,1:2:0:0:
272,100,184878,5,2,0:0:0:0:
215,220,185039,2,0,L|181:215,2,25.4999992218018,2|0|2,1:2|0:0|0:2,0:0:0:0:
283,187,185523,5,2,3:2:0:0:
147,314,185684,2,0,L|129:256,1,50.9999984436036,2|2,1:2|0:3,0:0:0:0:
218,330,185926,5,2,0:0:0:0:
222,341,186007,2,0,P|243:321|299:312,1,76.4999976654053,2|0,1:2|0:0,0:0:0:0:
289,311,186329,5,2,1:2:0:0:
360,337,186490,1,2,0:0:0:0:
454,251,186652,2,0,B|431:317|431:317|438:343|426:371,1,101.999996887207,2|0,1:2|1:0,0:0:0:0:
439,345,187136,5,0,0:0:0:0:
508,322,187297,2,0,P|473:300|466:232,1,101.999996887207,2|0,1:2|1:0,0:0:0:0:
472,163,187700,6,2,B|405:166|413:194|377:202,1,102
316,170,188265,5,2,1:2:0:0:
287,131,188345,1,2,0:0:0:0:
324,101,188426,1,2,0:0:0:0:
244,194,188587,6,0,L|202:188,1,34,0|2,1:0|0:3,0:0:0:0:
210,189,188910,5,2,1:2:0:0:
206,196,188990,1,0,3:0:0:0:
203,204,189071,1,2,3:2:0:0:
172,347,189232,2,2,L|154:292,1,51,2|2,1:2|0:0,0:0:0:0:
88,201,189555,2,0,P|103:217|135:225,1,51,2|0,1:2|0:0,0:0:0:0:
156,298,189878,5,2,1:2:0:0:
229,280,190039,1,8,3:0:0:0:
278,336,190146,5,2,0:0:0:0:
309,351,190308,1,2,0:0:0:0:
409,312,190523,1,2,1:2:0:0:
429,305,190707,2,0,L|438:274,1,29.1428571428571,0|8,3:0|3:0,0:0:0:0:
497,367,191007,6,0,L|506:326,1,34,2|0,0:0|0:0,0:0:0:0:
494,177,191168,6,0,P|543:292|485:183,1,382.499988327027,4|2,0:0|3:0,0:0:0:0:
445,120,192055,6,0,L|451:89,1,31.8750012159348,2|0,0:0|1:0,0:0:0:0:
390,44,192216,2,0,P|377:58|355:66,1,42.5,2|2,0:0|0:3,0:0:0:0:
307,164,192378,2,0,B|359:156|347:124|391:88|452:89,1,170,2|0,0:0|3:0,0:0:0:0:
303,183,193103,6,0,L|297:212,1,21.25,0|0,1:0|0:0,0:0:0:0:
360,248,193265,2,0,L|366:277,1,21.25,0|2,3:0|0:3,0:0:0:0:
278,308,193426,2,0,L|272:337,1,21.25,0|0,1:0|3:0,0:0:0:0:
394,364,193587,2,0,L|400:393,2,21.25,2|0|2,0:3|1:0|3:2,0:0:0:0:
507,279,194071,6,0,B|475:283|457:308|457:308|423:295,1,85,2|2,1:2|0:3,0:0:0:0:
298,203,194394,6,0,P|270:214|256:231,1,42.5,2|0,1:2|0:0,0:0:0:0:
196,185,194555,2,0,P|188:208|186:234,1,42.5,2|0,3:2|0:0,0:0:0:0:
186,359,194716,5,2,1:2:0:0:
200,349,194797,1,0,3:0:0:0:
200,333,194878,1,2,0:3:0:0:
273,328,195039,6,0,P|155:327|30:384,1,212.5,2|0,1:2|1:0,0:0:0:0:
23,209,195603,6,0,P|38:186|64:171,1,42.5,2|2,0:0|1:2,0:0:0:0:
67,359,195845,2,0,P|57:334|37:313,1,42.5,2|2,0:0|1:2,0:0:0:0:
39,318,196222,5,2,0:0:0:0:
48,322,196329,2,0,P|118:267|223:253,1,170,2|0,1:2|1:0,0:0:0:0:
195,250,196790,5,2,0:0:0:0:
213,329,196974,5,2,1:2:0:0:
360,248,197113,2,0,L|381:236,2,24.2857142857143,2|2|2,3:2|1:2|0:2,0:0:0:0:
326,319,197619,6,0,L|300:188,1,127.5,2|0,1:2|0:0,0:0:0:0:
304,185,197888,5,2,0:0:0:0:
444,111,198157,1,2,0:0:0:0:
312,28,198480,2,0,B|300:40|300:40|308:85,1,56.6666666666667,2|2,0:0|1:2,0:0:0:0:
322,26,198748,1,2,0:3:0:0:
383,150,198910,2,0,B|377:109|405:85|417:93|437:65|437:37,1,127.500004863739,2|2,1:2|1:2,0:0:0:0:
502,284,199555,6,0,L|464:275,1,29.7499990921021,2|0,1:2|0:0,0:0:0:0:
431,266,199716,2,0,L|393:257,1,29.7499990921021,2|0,0:3|0:0,0:0:0:0:
360,248,199878,2,0,L|322:239,1,29.7499990921021,2|2,1:2|0:3,0:0:0:0:
438,381,200200,6,0,B|435:364|435:364|399:336|399:336|347:344|347:344|339:360,1,133.874995914459,2|0,1:2|0:0,0:0:0:0:
267,384,200523,6,0,L|249:328,1,42.5,2|0,1:2|3:0,0:0:0:0:
232,272,200684,2,0,L|214:216,1,42.5,2|0,0:3|3:0,0:0:0:0:
176,347,200845,5,2,1:2:0:0:
174,339,200926,2,0,L|124:327,1,42.5,2|2,0:0|0:3,0:0:0:0:
98,235,201168,6,0,L|109:271,2,21.25,2|0|2,1:2|0:0|3:0,0:0:0:0:
22,283,201490,6,0,B|110:272|96:327|140:331,1,127.500004863739,2|2,1:2|0:3,0:0:0:0:
133,329,201813,1,2,1:2:0:0:
158,88,202082,5,2,0:0:0:0:
161,81,202136,1,2,1:2:0:0:
246,159,202243,5,2,0:0:0:0:
88,67,202404,1,2,0:0:0:0:
93,50,202458,1,2,1:2:0:0:
67,220,202781,6,0,P|114:174|189:160,1,127.5,2|0,1:2|0:0,0:0:0:0:
172,158,203103,2,0,L|161:199,1,42.5,0|0,1:0|0:0,0:0:0:0:
200,307,203265,2,0,P|166:279|100:270,2,85,2|0|0,0:0|1:0|0:0,0:0:0:0:
278,356,203856,5,2,0:0:0:0:
283,346,203910,2,2,B|295:318|291:290|387:326|291:290|311:274|323:234,1,127.500004863739,2|0,0:0|0:0,0:0:0:0:
388,205,204313,5,0,0:0:0:0:
404,233,204394,2,0,L|457:248,1,31.8750012159348,2|0,1:2|0:0,0:0:0:0:
334,47,204878,6,0,L|281:32,1,31.8750012159348,2|0,0:0|0:0,0:0:0:0:
247,84,205039,2,0,P|283:117|378:105,1,127.500004863739,0|0,1:0|1:0,0:0:0:0:
429,93,205469,6,0,B|435:83|435:83|423:88,4,21.2500008106232,0|0|0|0|0,0:0|0:0|0:0|0:0|1:0,0:0:0:0:
178,67,205926,5,0,0:0:0:0:
169,64,206007,2,0,L|152:-10,1,63.7500024318696,2|2,1:2|0:3,0:0:0:0:
135,131,206329,6,0,B|148:120|152:105|152:105|249:83,2,127.500004863739,0|2|2,1:0|1:2|1:2,1:0:0:0:
80,83,207297,5,0,1:0:0:0:
25,214,207539,5,2,0:0:0:0:
20,223,207619,2,0,L|55:228,1,31.8750012159348,2|0,1:2|0:0,0:0:0:0:
210,248,207861,5,0,0:0:0:0:
219,228,207942,2,2,L|125:247,1,95.6250036478044,2|0,1:2|0:0,0:0:0:0:
125,246,208265,5,0,1:0:0:0:
153,321,208507,1,2,0:0:0:0:
150,328,208587,1,2,1:2:0:0:
321,113,208829,5,0,0:0:0:0:
324,106,208910,2,0,P|262:167|255:200,1,114.749996498108,2|0,1:2|0:0,0:0:0:0:
256,192,209232,6,0,B|243:226|187:228|156:156|204:88|280:58|376:126|355:218|292:267|292:267|224:315|133:290|77:236|55:117|113:-6|233:-49|365:-36|502:49|509:235|384:352|297:368|219:360,1,1338.74995914459,4|0,0:0|0:0,0:0:0:0:
237,361,210523,5,8,2:0:0:0:
315,345,210603,1,8,2:0:0:0:
377,294,210684,1,8,2:0:0:0:
409,220,210765,1,8,2:0:0:0:
405,142,210845,1,8,2:0:0:0:
362,74,210926,1,8,2:0:0:0:
289,41,211007,1,8,2:0:0:0:
209,49,211087,1,8,2:0:0:0:
145,103,211168,5,8,2:0:0:0:
126,192,211248,5,8,2:0:0:0:
170,268,211329,5,8,2:0:0:0:
256,285,211410,5,8,2:0:0:0:
322,232,211490,5,8,2:0:0:0:
325,154,211571,5,8,2:0:0:0:
258,117,211652,5,8,2:0:0:0:
204,177,211732,5,8,2:0:0:0:
126,192,211813,6,0,B|98:165|112:128|112:128|80:80|13:89|13:89|11:27|93:12|93:12|66:29|66:56,1,356.999989105225,12|0,0:0|0:0,0:0:0:0:
0,187,212055,6,0,B|24:171|24:147|24:147|156:99,1,178.499994552612,0|0,3:2|0:0,0:0:0:0:
209,49,212297,6,0,B|223:55|245:44|237:-11|188:18|194:42|209:49,1,89.2499972763062,0|0,3:0|0:0,0:0:0:0:
402,309,212458,6,0,B|403:340|425:357|425:357|362:370|324:330|328:283|328:283|333:279|333:279|338:224|273:203|273:203|266:227|243:239,1,356.999989105225,12|0,0:0|0:0,0:0:0:0:
246,239,212700,5,0,0:0:0:0:
216,331,212781,2,0,L|239:325,1,17.8499994552612
483,255,212942,2,0,B|453:242|453:242|451:246|451:246|436:231|436:231|407:218,1,89.2499972763062,10|0,0:0|0:0,0:0:0:0:
145,102,213103,5,0,3:0:0:0:
209,49,213183,5,0,0:0:0:0:
298,50,213264,5,0,0:0:0:0:
379,21,213345,6,0,B|348:18|330:-5|330:-5|272:11|276:61|287:62|290:102|255:119,1,212.5,2|0,3:2|0:0,0:0:0:0:
491,328,213587,2,0,B|470:365|422:350|422:350|419:324|398:311,1,127.500004863739,2|0,3:2|0:0,0:0:0:0:
348,136,213748,5,12,0:0:0:0:
380,94,213828,1,0,0:0:0:0:
450,113,213910,5,0,0:0:0:0:
456,165,213990,1,0,0:0:0:0:
408,219,214071,6,0,L|344:232,1,63.7500024318696,0|0,2:3|0:0,0:0:0:0:
125,8,214232,2,0,L|146:115,1,95.6250036478044
83,358,214394,5,0,0:0:0:0:
128,325,214474,1,0,0:0:0:0:
138,270,214555,1,0,0:0:0:0:
183,237,214636,1,0,0:0:0:0:
239,249,214716,6,0,L|229:306,1,53.125
23,81,214878,2,0,L|37:144,1,63.7500024318696,0|0,3:0|0:0,0:0:0:0:
18,320,215039,6,0,B|12:285|-15:263|-15:263|329:367,1,382.500014591218,12|0,0:0|0:0,0:0:0:0:
437,286,215281,5,0,3:0:0:0:
475,200,215361,2,0,B|509:215|508:251|508:251|486:210|441:207,1,148.750001418591
355,305,215523,6,0,L|340:233,1,74.3750007092953,2|0,3:2|0:0,0:0:0:0:
382,71,215684,5,0,3:0:0:0:
457,94,215765,2,0,B|419:107|419:107|402:101|402:101|381:70,1,95.6250036478044,2|0,0:0|0:0,0:0:0:0:
231,104,215926,5,0,3:0:0:0:
172,158,216007,2,0,B|209:154|209:154|223:143|223:143|230:104,1,95.6250036478044,2|0,0:2|0:0,0:0:0:0:
264,34,216168,6,0,B|247:-22|247:-22|305:-37|305:-37|320:17|320:17|264:34,1,233.750002229214,2|0,3:2|0:0,0:0:0:0:
316,129,216410,6,0,B|266:32|150:48|150:48|130:88|86:80,1,276.250007903576,2|0,3:2|0:0,0:0:0:0:
16,51,216652,6,0,B|19:37|19:37|25:32|25:32|28:21,1,31.875,2|0,3:2|0:0,0:0:0:0:
69,269,216974,6,0,B|35:291|24:327|24:327|-2:324|-2:324|9:284|74:240|184:202|149:273|186:310|233:300,1,382.500014591218,12|0,0:0|0:0,0:0:0:0:
346,319,217216,5,0,3:0:0:0:
416,295,217297,2,0,B|442:268|420:254|435:231,1,63.7500024318696
414,162,217458,2,0,B|355:177|373:218|340:231,1,106.25,0|0,3:0|0:0,0:0:0:0:
281,363,217619,6,0,B|266:285|266:285|271:277|271:277|247:149,1,212.5,8|0,0:0|0:0,0:0:0:0:
119,53,217861,6,0,B|124:42|126:26|126:26|168:0|220:27|239:63|239:63|209:65|190:84,1,212.5,2|0,0:2|2:3,0:0:0:0:
129,130,218103,6,0,B|90:143|90:143|66:159|66:159|62:151|62:151|54:159|54:159|13:173,1,127.500004863739,8|0,0:0|0:0,0:0:0:0:
314,58,218265,6,0,B|329:50|339:35|339:35|386:16|414:56|414:56|414:75|426:88,1,148.750001418591,2|0,0:2|0:0,0:0:0:0:
485,132,218426,2,0,B|483:175|441:189|441:189|430:167|405:158,1,116.875001114607,2|0,2:0|0:0,0:0:0:0:
233,299,218587,5,0,0:0:0:0:
218,224,218668,1,0,0:0:0:0:
248,155,218748,2,0,L|243:125,1,21.25,2|0,3:2|0:0,0:0:0:0:
418,314,218910,6,0,B|418:346|438:374|438:374|390:306|306:314|306:314|300:347|271:363,1,276.250007903576,12|0,0:0|0:0,0:0:0:0:
199,364,219152,6,0,B|161:350|144:308|172:300|148:248|92:248|56:284|56:284|83:305|83:305|101:289|121:288,1,276.250007903576
339,231,219394,6,0,L|349:196,1,31.8750012159348
340,111,219555,6,0,B|341:123|341:123|293:131|277:175,1,95.6250036478044,2|0,0:2|0:0,0:0:0:0:
117,289,219716,2,0,L|102:202,1,74.3750007092953,2|0,0:2|0:3,0:0:0:0:
79,71,219878,5,0,0:0:0:0:
129,20,219958,1,0,0:0:0:0:
200,29,220039,2,0,L|184:92,1,53.125,2|0,3:2|0:0,0:0:0:0:
178,196,220200,6,0,B|113:179|113:179|93:155|93:155|22:134,1,159.375003799796,12|0,0:0|0:0,0:0:0:0:
299,9,220362,5,0,0:0:0:0:
379,0,220443,1,8,0:0:0:0:
440,50,220523,1,0,0:0:0:0:
446,108,220603,1,0,0:0:0:0:
441,127,220684,2,0,L|431:162,1,31.8750012159348,10|0,0:2|0:0,0:0:0:0:
482,374,220845,5,0,3:0:0:0:
480,299,220926,2,0,P|435:315|409:354,1,95.6250036478044,2|0,0:2|0:0,0:0:0:0:
268,301,221087,5,0,3:0:0:0:
312,241,221168,2,0,P|338:280|336:327,1,95.6250036478044,2|0,0:2|0:0,0:0:0:0:
409,230,221329,5,0,3:0:0:0:
432,157,221410,2,0,L|412:224,1,63.7500024318696,2|0,0:2|0:0,0:0:0:0:
268,301,221571,2,2,B|248:309|236:337|236:337|168:361|168:361|104:305|104:305|136:325|176:313,1,276.250007903576,0|0,3:0|0:0,0:0:0:0:
307,165,221813,5,10,3:2:0:0:
329,94,221894,5,0,3:0:0:0:
279,39,221974,5,10,3:2:0:0:
205,43,222055,5,0,3:0:0:0:
162,146,222136,6,0,B|197:165|258:138|266:86|231:73|259:21|323:9|323:9|331:12|331:12|333:9|333:9|391:-3,1,297.500002837181,12|0,0:0|2:3,0:0:0:0:
505,46,222378,5,0,0:0:0:0:
501,57,222458,2,0,B|489:91|489:91|413:65,1,106.25,0|0,0:0|2:3,0:0:0:0:
268,301,222619,6,0,P|257:246|213:189,1,116.875001114607,0|0,3:0|0:0,0:0:0:0:
50,11,222781,2,0,P|21:74|24:156,1,138.125003951788,8|0,0:0|0:0,0:0:0:0:
49,286,222942,5,0,3:0:0:0:
118,245,223023,1,0,3:0:0:0:
137,176,223103,1,0,3:0:0:0:
116,107,223184,1,0,3:0:0:0:
131,57,223265,1,0,1:0:0:0:
131,57,223426,6,0,B|168:100|141:113|162:146,1,95.6250036478044,2|0,3:2|0:0,0:0:0:0:
153,342,223587,2,0,B|172:331|176:318|176:318|281:298,1,127.500004863739,2|0,0:0|2:0,0:0:0:0:
507,286,223748,6,0,B|520:309|529:283|545:311|545:311|562:341|529:360|511:331|511:331|496:304|520:309|507:286,1,170,2|0,0:2|0:0,0:0:0:0:
320,353,224071,6,0,B|348:328|351:298|327:278|339:214|412:181|483:211|483:211|441:228|431:269,1,340,12|0,0:0|0:0,0:0:0:0:
416,364,224313,5,0,3:0:0:0:
414,372,224394,2,0,B|400:368|403:358|406:348|419:352|432:355|429:365|427:375|414:372,1,59.4999981842042,0|0,0:0|2:3,0:0:0:0:
222,197,224555,6,0,L|310:179,1,89.2499972763062,2|0,3:2|0:0,0:0:0:0:
466,130,224716,6,0,B|440:147|440:147|403:124|403:124|405:120|405:120|403:124|403:124|366:100|366:100|373:67,1,152.999995330811,2|0,3:2|0:0,0:0:0:0:
293,56,224878,2,0,B|287:85|287:85|244:95|244:95|243:91|243:91|244:95|244:95|201:105|201:105|182:77,1,152.999995330811,2|0,0:2|3:0,0:0:0:0:
59,53,225039,5,0,2:3:0:0:
64,35,225119,1,0,2:3:0:0:
88,41,225200,1,0,0:0:0:0:
83,59,225280,1,0,2:3:0:0:
65,137,225361,6,0,B|81:53|157:17|233:21|233:21|186:44|185:89,1,305.999990661621,12|0,0:0|2:3,0:0:0:0:
222,197,225603,5,8,0:0:0:0:
156,236,225684,2,0,B|136:228|120:212|132:200|108:176|67:187|67:187|53:207|29:210,1,152.999995330811,2|8,0:2|2:0,0:0:0:0:
149,362,226007,5,0,3:0:0:0:
231,348,226087,2,0,L|163:358,1,68,2|0,0:2|0:0,0:0:0:0:
104,299,226248,5,0,3:0:0:0:
22,285,226328,2,0,L|104:298,1,68,2|0,0:2|0:0,0:0:0:0:
359,323,226490,6,0,B|367:307|383:295|383:295|295:307|295:307|247:315|257:339|231:347,1,203.999993774414,2|0,3:2|0:0,0:0:0:0:
156,236,226732,6,0,B|152:184|208:144|264:156|264:156|248:176|253:211,1,203.999993774414,2|0,3:2|0:0,0:0:0:0:
441,382,226974,6,0,B|449:334|449:334|454:327|454:327|461:288|461:288|459:279|459:279|467:232,1,152.999995330811,2|0,3:2|3:0,0:0:0:0:
409,73,227297,6,0,P|421:58|437:47,1,38.2499988327027
490,98,227458,2,0,P|473:120|458:132,1,38.2499988327027
403,188,227619,1,0,0:0:0:0:
399,176,227700,2,0,P|371:151|307:139,1,76.4999976654053
303,24,227942,6,0,L|294:69,1,38.2499988327027,8|0,0:0|0:0,0:0:0:0:
220,25,228103,2,0,L|222:70,1,38.2499988327027
140,47,228265,2,0,L|154:90,1,38.2499988327027
89,119,228426,1,0,0:0:0:0:
249,214,228587,6,0,L|258:169,1,38.2499988327027
186,149,228829,1,0,0:0:0:0:
179,176,228910,1,0,0:0:0:0:
172,203,228990,1,0,0:0:0:0:
165,230,229071,1,0,0:0:0:0:
158,257,229151,1,0,0:0:0:0:
96,300,229232,6,0,B|149:282|149:282|191:327,1,114.750000437737,8|0,0:0|0:0,0:0:0:0:
254,362,229474,2,0,B|283:346|290:319|290:319|306:339|343:340,1,114.750000437737
409,310,229716,2,0,L|422:254,1,57.3750002188683
494,108,229878,6,0,P|424:127|404:165,1,114.750000437737
332,141,230119,2,0,P|326:86|282:52,1,114.750000437737
407,0,230361,2,0,L|395:53,1,55.2499974708558
351,217,230523,5,8,0:0:0:0:
307,236,230603,1,0,0:0:0:0:
276,204,230684,1,0,0:0:0:0:
258,157,230765,1,0,0:0:0:0:
217,129,230846,1,0,0:0:0:0:
169,137,230926,1,0,0:0:0:0:
136,178,231007,1,8,0:0:0:0:
81,179,231088,1,0,0:0:0:0:
41,118,231168,5,8,0:0:0:0:
94,51,231248,5,8,3:0:0:0:
122,73,231329,5,8,3:0:0:0:
103,67,231410,5,8,3:0:0:0:
109,82,231490,5,8,3:0:0:0:
200,223,231652,6,0,L|187:277,1,55.2499974708558,2|0,1:2|0:0,0:0:0:0:
82,359,231813,6,0,B|75:332|51:320|51:320|62:195|62:195|142:294|142:294|128:313|137:346,1,356.999989105225,4|2,0:0|0:0,0:0:0:0:
