osu file format v14

[General]
AudioFilename: audio.mp3
AudioLeadIn: 0
PreviewTime: 168010
Countdown: 0
SampleSet: Soft
StackLeniency: 0.4
Mode: 0
LetterboxInBreaks: 0
WidescreenStoryboard: 0

[Editor]
Bookmarks: 534,5062,23175,41288,77515,95628,131854,149967,168081,204307
DistanceSpacing: 0.9
BeatDivisor: 4
GridSize: 4
TimelineZoom: 2.899999

[Metadata]
Title:Genesis At Oasis (MOONLiGHT Mix)
TitleUnicode:Genesis At Oasis (MOONLiGHT Mix)
Artist:Hakuryu
ArtistUnicode:白龍
Creator:Krimek
Version:Ryo's Another
Source:REFLEC BEAT groovin'!!
Tags:Ryu☆BEST -MOONLiGHT- Narcissus At Oasis 10th Style drum and bass Extended Mix 音源 SnowNiNo_ RyoKazuka -Famous- Vell DeRandom Otaku
BeatmapID:1076667
BeatmapSetID:500816

[Difficulty]
HPDrainRate:6
CircleSize:3.4
OverallDifficulty:8.2
ApproachRate:9.2
SliderMultiplier:1.6
SliderTickRate:2

[Events]
//Background and Video events
0,0,"bg.jpg",0,0
//Break Periods
2,132478,135813
2,137007,140341
2,141535,144869
2,146063,147133
//Storyboard Layer 0 (Background)
//Storyboard Layer 1 (Fail)
//Storyboard Layer 2 (Pass)
//Storyboard Layer 3 (Foreground)
//Storyboard Sound Samples

[TimingPoints]
534,283.018867924528,4,2,1,5,1,0
1383,-105.263157894737,4,2,1,10,0,0
1666,-105.263157894737,4,2,1,15,0,0
1949,-105.263157894737,4,2,1,20,0,0
2232,-105.263157894737,4,2,1,25,0,0
2515,-105.263157894737,4,2,1,30,0,0
2798,-105.263157894737,4,2,1,35,0,0
3081,-105.263157894737,4,2,1,40,0,0
3364,-105.263157894737,4,2,1,45,0,0
3647,-105.263157894737,4,2,1,50,0,0
3930,-105.263157894737,4,2,1,55,0,0
4213,-105.263157894737,4,2,1,60,0,0
4496,-105.263157894737,4,2,1,5,0,0
5062,-125,4,2,1,50,0,0
22892,-200,4,2,1,50,0,0
23104,-200,4,2,1,5,0,0
23175,-125,4,2,1,50,0,0
32232,-105.263157894737,4,2,1,50,0,0
41005,-200,4,2,1,50,0,0
41217,-200,4,2,1,5,0,0
41288,-90.9090909090909,4,2,1,50,0,0
43269,-100,4,2,1,50,0,0
43411,-83.3333333333333,4,2,1,50,0,0
43552,-90.9090909090909,4,2,1,50,0,0
45533,-100,4,2,1,50,0,0
45675,-83.3333333333333,4,2,1,50,0,0
45816,-90.9090909090909,4,2,1,50,0,0
47798,-100,4,2,1,50,0,0
47940,-83.3333333333333,4,2,1,50,0,0
48081,-90.9090909090909,4,2,1,50,0,0
50062,-100,4,2,1,50,0,0
50204,-83.3333333333333,4,2,1,50,0,0
50345,-90.9090909090909,4,2,1,50,0,0
52326,-100,4,2,1,50,0,0
52468,-83.3333333333333,4,2,1,50,0,0
52609,-90.9090909090909,4,2,1,50,0,0
54590,-100,4,2,1,50,0,0
54732,-83.3333333333333,4,2,1,50,0,0
54873,-90.9090909090909,4,2,1,50,0,0
56854,-100,4,2,1,50,0,0
56996,-83.3333333333333,4,2,1,50,0,0
57137,-90.9090909090909,4,2,1,50,0,0
59118,-100,4,2,1,50,0,0
59260,-83.3333333333333,4,2,1,50,0,0
59401,-90.9090909090909,4,2,1,50,0,0
61383,-100,4,2,1,50,0,0
61525,-83.3333333333333,4,2,1,50,0,0
61666,-90.9090909090909,4,2,1,50,0,0
63647,-100,4,2,1,50,0,0
63789,-83.3333333333333,4,2,1,50,0,0
63930,-90.9090909090909,4,2,1,50,0,0
65911,-100,4,2,1,50,0,0
66053,-83.3333333333333,4,2,1,50,0,0
66194,-90.9090909090909,4,2,1,50,0,0
68175,-100,4,2,1,50,0,0
68317,-83.3333333333333,4,2,1,50,0,0
68458,-90.9090909090909,4,2,1,50,0,0
70439,-100,4,2,1,50,0,0
70581,-83.3333333333333,4,2,1,50,0,0
70722,-90.9090909090909,4,2,1,50,0,0
72703,-100,4,2,1,50,0,0
72845,-83.3333333333333,4,2,1,50,0,0
72986,-90.9090909090909,4,2,1,50,0,0
74967,-100,4,2,1,50,0,0
75109,-83.3333333333333,4,2,1,50,0,0
75250,-90.9090909090909,4,2,1,50,0,0
77232,-100,4,2,1,50,0,0
77374,-83.3333333333333,4,2,1,50,0,0
77515,-125,4,2,1,50,0,0
86571,-105.263157894737,4,2,1,50,0,0
95345,-200,4,2,1,50,0,0
95557,-200,4,2,1,5,0,0
95628,-86.9565217391304,4,2,1,50,0,0
97609,-95.2380952380952,4,2,1,50,0,0
97750,-80,4,2,1,50,0,0
97892,-86.9565217391304,4,2,1,50,0,0
99873,-95.2380952380952,4,2,1,50,0,0
100014,-80,4,2,1,50,0,0
100156,-86.9565217391304,4,2,1,50,0,0
102137,-95.2380952380952,4,2,1,50,0,0
102278,-80,4,2,1,50,0,0
102420,-86.9565217391304,4,2,1,50,0,0
104401,-95.2380952380952,4,2,1,50,0,0
104542,-80,4,2,1,50,0,0
104684,-86.9565217391304,4,2,1,50,0,0
106666,-95.2380952380952,4,2,1,50,0,0
106807,-80,4,2,1,50,0,0
106949,-86.9565217391304,4,2,1,50,0,0
108930,-95.2380952380952,4,2,1,50,0,0
109071,-80,4,2,1,50,0,0
109213,-86.9565217391304,4,2,1,50,0,0
111194,-95.2380952380952,4,2,1,50,0,0
111335,-80,4,2,1,50,0,0
111477,-86.9565217391304,4,2,1,50,0,0
113458,-95.2380952380952,4,2,1,50,0,0
113599,-80,4,2,1,50,0,0
113741,-86.9565217391304,4,2,1,50,0,0
115722,-95.2380952380952,4,2,1,50,0,0
115863,-80,4,2,1,50,0,0
116005,-86.9565217391304,4,2,1,50,0,0
117986,-95.2380952380952,4,2,1,50,0,0
118127,-80,4,2,1,50,0,0
118269,-86.9565217391304,4,2,1,50,0,0
120250,-95.2380952380952,4,2,1,50,0,0
120391,-80,4,2,1,50,0,0
120533,-86.9565217391304,4,2,1,50,0,0
122515,-95.2380952380952,4,2,1,50,0,0
122656,-80,4,2,1,50,0,0
122798,-86.9565217391304,4,2,1,50,0,0
124779,-95.2380952380952,4,2,1,50,0,0
124920,-80,4,2,1,50,0,0
125062,-86.9565217391304,4,2,1,50,0,0
127043,-95.2380952380952,4,2,1,50,0,0
127184,-80,4,2,1,50,0,0
127326,-86.9565217391304,4,2,1,50,0,0
129307,-95.2380952380952,4,2,1,50,0,0
129448,-80,4,2,1,50,0,0
129590,-86.9565217391304,4,2,1,50,0,0
131571,-95.2380952380952,4,2,1,50,0,0
131712,-80,4,2,1,50,0,0
131854,-125,4,2,1,50,0,0
159024,-105.263157894737,4,2,1,50,0,0
167798,-200,4,2,1,50,0,0
168010,-200,4,2,1,5,0,0
168081,-83.3333333333333,4,2,1,60,0,1
204307,-125,4,2,1,60,0,0
208269,-125,4,2,1,50,0,0
208411,-125,4,2,1,40,0,0
208552,-125,4,2,1,30,0,0
208694,-125,4,2,1,20,0,0
208835,-125,4,2,1,10,0,0

[Colours]
Combo1 : 241,12,12
Combo2 : 70,113,125
Combo3 : 44,60,88
Combo4 : 240,189,244

[HitObjects]
256,192,1100,12,0,4496,0:0:0:0:
210,74,5062,6,0,L|192:226,1,128
111,132,5486,1,0,0:0:0:0:
281,202,5628,2,0,P|333:220|371:224,1,64
162,301,5911,1,0,0:0:0:0:
146,298,5982,1,0,0:0:0:0:
130,295,6052,1,0,0:0:0:0:
114,292,6123,1,0,0:0:0:0:
98,289,6194,6,0,L|108:365,1,64
194,201,6477,2,0,P|192:149|177:112,1,64
21,186,6760,2,0,L|85:179,1,64
242,63,7043,2,0,L|178:55,1,64
298,162,7326,6,0,P|355:130|439:147,1,128
374,295,7750,2,0,L|378:232,2,64
254,350,8175,1,0,0:0:0:0:
238,353,8245,1,0,0:0:0:0:
222,355,8316,1,0,0:0:0:0:
206,354,8387,1,0,0:0:0:0:
190,352,8458,6,0,P|147:332|108:330,1,64
238,252,8741,2,0,P|205:217|169:202,1,64
318,175,9024,2,0,P|299:131|271:103,1,64
420,131,9307,2,0,P|418:83|402:47,1,64
400,235,9590,6,0,L|416:371,1,128
296,256,10015,2,0,P|251:299|184:304,1,128
52,178,10439,1,0,0:0:0:0:
67,177,10509,1,0,0:0:0:0:
83,176,10580,1,0,0:0:0:0:
99,175,10651,1,0,0:0:0:0:
115,174,10722,6,0,P|123:220|113:259,1,64
186,95,11005,2,0,P|183:63|191:32,1,64
320,32,11288,2,0,P|328:63|326:95,1,64
391,236,11571,2,0,P|389:204|397:174,1,64
424,314,11854,6,0,P|364:314|313:268,1,128
199,206,12279,2,0,L|209:294,1,64
120,133,12562,1,0,0:0:0:0:
291,177,12703,1,0,0:0:0:0:
306,181,12773,1,0,0:0:0:0:
321,185,12844,1,0,0:0:0:0:
337,187,12915,1,0,0:0:0:0:
353,187,12986,6,0,P|338:232|333:278,1,64
487,150,13269,2,0,P|480:118|469:88,1,64
279,64,13552,2,0,P|316:77|354:81,1,64
191,152,13835,2,0,L|113:146,1,64
19,216,14118,5,0,0:0:0:0:
132,275,14260,1,0,0:0:0:0:
191,152,14401,2,0,L|113:146,1,64
321,152,14684,2,0,L|384:147,1,64
256,56,14967,1,0,0:0:0:0:
241,49,15037,1,0,0:0:0:0:
226,44,15108,1,0,0:0:0:0:
210,40,15179,1,0,0:0:0:0:
194,37,15250,6,0,P|139:50|109:49,1,64
19,216,15533,2,0,P|74:203|104:204,1,64
285,209,15817,1,0,0:0:0:0:
135,115,15958,1,0,0:0:0:0:
231,295,16100,1,0,0:0:0:0:
237,118,16241,1,0,0:0:0:0:
129,292,16383,6,0,L|26:305,1,64
305,197,16666,2,0,L|408:210,1,64
231,40,16949,1,0,0:0:0:0:
231,40,17090,1,0,0:0:0:0:
102,142,17232,1,0,0:0:0:0:
97,157,17302,1,0,0:0:0:0:
94,173,17373,1,0,0:0:0:0:
93,189,17444,1,0,0:0:0:0:
93,205,17515,6,0,L|171:197,1,64
305,197,17798,1,0,0:0:0:0:
117,310,17939,2,0,P|166:319|204:308,1,64
330,185,18222,1,0,0:0:0:0:
177,43,18364,2,0,L|164:122,1,64
386,247,18647,6,0,P|408:206|412:179,1,64
231,296,18930,2,0,P|239:326|256:353,1,64
282,173,19213,1,0,0:0:0:0:
166,106,19354,1,0,0:0:0:0:
282,39,19496,1,0,0:0:0:0:
297,34,19566,1,0,0:0:0:0:
313,31,19637,1,0,0:0:0:0:
328,29,19708,1,0,0:0:0:0:
344,28,19779,6,0,L|331:103,1,64
185,226,20062,1,0,0:0:0:0:
375,165,20203,1,0,0:0:0:0:
150,237,20345,2,0,L|74:228,1,64
269,98,20628,2,0,L|345:89,1,64
407,249,20911,6,0,P|355:211|274:210,1,128
150,237,21335,1,0,0:0:0:0:
317,309,21477,1,0,0:0:0:0:
269,98,21618,1,0,0:0:0:0:
65,49,21760,1,0,0:0:0:0:
79,43,21830,1,0,0:0:0:0:
95,39,21901,1,0,0:0:0:0:
111,36,21972,1,0,0:0:0:0:
127,35,22043,6,0,L|115:115,1,64
394,98,22326,2,0,L|385:35,1,64
150,237,22609,2,0,L|159:308,1,64
398,226,22892,6,0,P|335:213|330:214,1,60
303,217,23175,5,0,0:0:0:0:
158,300,23317,1,0,0:0:0:0:
19,185,23458,2,0,P|50:187|81:195,1,64
281,120,23741,2,0,P|250:127|218:129,1,64
24,38,24024,1,0,0:0:0:0:
39,39,24094,1,0,0:0:0:0:
55,40,24165,1,0,0:0:0:0:
71,41,24236,1,0,0:0:0:0:
87,42,24307,6,0,P|96:84|94:123,1,64
183,278,24590,2,0,P|184:246|192:215,1,64
346,75,24873,1,0,0:0:0:0:
413,191,25015,1,0,0:0:0:0:
297,259,25156,1,0,0:0:0:0:
229,142,25298,1,0,0:0:0:0:
443,195,25439,6,0,P|454:243|453:269,1,64
193,340,25722,2,0,P|182:292|183:266,1,64
229,142,26005,1,0,0:0:0:0:
229,142,26147,1,0,0:0:0:0:
122,48,26288,1,0,0:0:0:0:
106,43,26358,1,0,0:0:0:0:
91,39,26429,1,0,0:0:0:0:
75,37,26500,1,0,0:0:0:0:
59,37,26571,6,0,B|46:68|46:68|50:98,1,64
99,240,26854,1,0,0:0:0:0:
288,164,26996,2,0,P|238:143|203:140,1,64
50,98,27279,1,0,0:0:0:0:
109,270,27420,2,0,L|184:267,1,64
367,336,27703,6,0,P|314:343|284:337,1,64
442,189,27986,2,0,L|437:254,1,64
359,108,28269,1,0,0:0:0:0:
256,212,28411,1,0,0:0:0:0:
153,108,28552,1,0,0:0:0:0:
148,92,28622,1,0,0:0:0:0:
145,76,28693,1,0,0:0:0:0:
144,60,28764,1,0,0:0:0:0:
144,45,28835,6,0,P|85:67|63:64,1,64
256,10,29118,1,0,0:0:0:0:
359,108,29260,1,0,0:0:0:0:
256,212,29401,2,0,L|168:201,1,64
361,323,29684,2,0,L|297:330,1,64
490,194,29967,6,0,P|426:187|356:232,1,128
297,330,30392,1,0,0:0:0:0:
445,291,30533,1,0,0:0:0:0:
359,108,30675,1,0,0:0:0:0:
241,192,30817,1,0,0:0:0:0:
226,198,30887,1,0,0:0:0:0:
211,204,30958,1,0,0:0:0:0:
196,209,31029,1,0,0:0:0:0:
180,212,31100,6,0,L|108:202,1,64
236,116,31383,2,0,L|246:44,1,64
332,172,31666,2,0,L|404:182,1,64
276,268,31949,2,0,L|266:340,1,64
55,243,32232,6,0,P|119:202|204:204,1,151.999995941162
310,128,32656,1,0,0:0:0:0:
310,128,32727,1,0,0:0:0:0:
310,128,32798,2,0,P|239:117|204:102,1,75.9999979705811
372,252,33081,2,0,P|443:241|478:226,1,75.9999979705811
193,200,33364,6,0,L|211:286,1,75.9999979705811
148,80,33647,1,0,0:0:0:0:
235,115,33788,2,0,P|183:165|99:162,1,151.999995941162
256,11,34213,1,0,0:0:0:0:
364,80,34354,1,0,0:0:0:0:
364,80,34425,1,0,0:0:0:0:
364,80,34496,6,0,L|363:171,1,75.9999979705811
256,316,34779,2,0,P|258:267|283:227,1,75.9999979705811
459,318,35062,2,0,L|384:306,1,75.9999979705811
256,161,35345,1,0,0:0:0:0:
256,161,35486,1,0,0:0:0:0:
128,306,35628,6,0,B|54:299|54:299|26:226,1,151.999995941162
163,87,36052,2,0,P|138:148|133:172,2,75.9999979705811
349,87,36477,1,0,0:0:0:0:
357,103,36547,1,0,0:0:0:0:
365,121,36618,1,0,0:0:0:0:
371,139,36689,1,0,0:0:0:0:
376,157,36760,6,0,L|364:250,1,75.9999979705811
396,339,37043,1,0,0:0:0:0:
265,241,37184,1,0,0:0:0:0:
159,339,37326,2,0,P|104:354|69:351,1,75.9999979705811
246,155,37609,2,0,P|283:156|319:169,1,75.9999979705811
472,32,37892,6,0,B|417:29|417:29|385:42|385:42|313:39,1,151.999995941162
175,67,38317,1,0,0:0:0:0:
319,169,38458,2,0,L|424:162,1,75.9999979705811
320,292,38741,1,0,0:0:0:0:
228,139,38883,1,0,0:0:0:0:
152,270,39024,6,0,P|76:283|12:220,1,151.999995941162
175,67,39449,2,0,P|251:54|315:117,1,151.999995941162
136,162,39873,2,0,L|30:146,1,75.9999979705811
225,251,40156,6,0,P|167:263|136:277,1,75.9999979705811
306,97,40439,2,0,B|264:85|264:85|233:60,1,75.9999979705811
390,188,40722,2,0,L|291:194,1,75.9999979705811
454,326,41005,6,0,P|415:315|385:315,1,60
358,319,41288,6,0,P|278:357|177:341,1,176.000005371094
48,167,41713,2,0,P|136:156|249:126,1,176.000005371094
447,75,42137,2,0,P|428:119|412:200,1,88.000002685547
395,314,42420,1,0,0:0:0:0:
395,314,42703,5,0,0:0:0:0:
358,329,42773,1,0,0:0:0:0:
319,334,42844,1,0,0:0:0:0:
280,327,42915,1,0,0:0:0:0:
246,308,42986,2,0,P|226:297|195:269,1,44.0000013427735
110,180,43128,1,0,0:0:0:0:
304,218,43269,6,0,L|358:221,1,40
231,101,43411,6,0,L|166:104,1,47.9999985351563
52,257,43552,6,0,P|137:266|205:192,1,176.000005371094
29,60,43977,2,0,L|43:150,2,88.000002685547
244,14,44401,2,0,L|231:101,1,88.000002685547
352,227,44684,1,0,0:0:0:0:
352,227,44967,5,0,0:0:0:0:
313,238,45038,1,0,0:0:0:0:
274,249,45109,1,0,0:0:0:0:
235,260,45180,1,0,0:0:0:0:
196,271,45250,2,0,L|138:265,1,44.0000013427735
73,151,45392,1,0,0:0:0:0:
246,99,45533,6,0,P|269:94|298:92,1,40
398,236,45675,6,0,P|378:233|347:225,1,47.9999985351563
152,54,45817,6,0,P|231:24|339:22,1,176.000005371094
351,226,46241,1,0,0:0:0:0:
134,187,46383,2,0,L|245:165,1,88.000002685547
432,342,46666,2,0,P|390:343|321:320,1,88.000002685547
183,291,46949,1,0,0:0:0:0:
183,291,47232,5,0,0:0:0:0:
167,254,47302,1,0,0:0:0:0:
163,215,47373,1,0,0:0:0:0:
168,176,47444,1,0,0:0:0:0:
184,140,47515,2,0,L|115:150,1,44.0000013427735
299,68,47656,1,0,0:0:0:0:
426,195,47798,6,0,P|437:223|443:251,1,40
281,313,47939,6,0,P|284:291|293:260,1,40
369,116,48081,6,0,P|291:147|212:71,1,176.000005371094
427,49,48505,2,0,P|458:103|459:135,1,88.000002685547
375,258,48788,1,0,0:0:0:0:
208,286,48930,2,0,P|215:242|240:207,1,88.000002685547
369,116,49213,1,0,0:0:0:0:
369,116,49496,5,0,0:0:0:0:
329,122,49567,1,0,0:0:0:0:
289,128,49637,1,0,0:0:0:0:
249,134,49708,1,0,0:0:0:0:
209,140,49779,2,0,L|133:130,1,44.0000013427735
28,118,49920,1,0,0:0:0:0:
86,268,50062,6,0,L|139:258,1,40
258,359,50203,6,0,L|210:352,1,40
337,254,50345,6,0,P|420:273|487:221,1,176.000005371094
393,1,50769,2,0,P|405:88|400:176,1,176.000005371094
213,81,51194,2,0,L|306:66,1,88.000002685547
193,198,51477,1,0,0:0:0:0:
193,198,51760,5,0,0:0:0:0:
155,209,51830,1,0,0:0:0:0:
116,206,51901,1,0,0:0:0:0:
80,189,51972,1,0,0:0:0:0:
54,159,52043,2,0,L|62:228,1,44.0000013427735
129,304,52184,1,0,0:0:0:0:
142,118,52326,6,0,P|150:84|149:64,1,40
273,198,52467,6,0,P|275:217|282:243,1,40
401,82,52609,6,0,B|312:66|312:66|239:111,1,176.000005371094
399,194,53033,2,0,L|496:179,2,88.000002685547
215,300,53458,2,0,P|275:324|333:310,1,88.000002685547
239,111,53741,1,0,0:0:0:0:
239,111,54024,5,0,0:0:0:0:
203,128,54094,1,0,0:0:0:0:
164,133,54165,1,0,0:0:0:0:
126,125,54236,1,0,0:0:0:0:
92,104,54307,2,0,L|94:180,1,44.0000013427735
137,286,54449,1,0,0:0:0:0:
309,215,54590,6,0,L|242:206,1,40
384,322,54732,6,0,L|456:313,1,47.9999985351563
404,151,54873,6,0,P|326:114|238:110,1,176.000005371094
93,147,55298,1,0,0:0:0:0:
137,286,55439,2,0,L|231:279,1,88.000002685547
437,237,55722,2,0,L|343:230,1,88.000002685547
325,348,56005,1,0,0:0:0:0:
325,348,56288,5,0,0:0:0:0:
285,351,56359,1,0,0:0:0:0:
245,354,56430,1,0,0:0:0:0:
205,357,56500,1,0,0:0:0:0:
165,360,56571,2,0,L|94:353,1,44.0000013427735
17,266,56713,1,0,0:0:0:0:
112,161,56854,6,0,P|148:148|175:143,1,40
307,233,56996,6,0,P|284:229|258:217,1,47.9999985351563
321,104,57137,6,0,B|368:86|388:50|388:50|423:71|474:65,1,176.000005371094
303,9,57562,2,0,L|199:22,1,88.000002685547
82,47,57845,1,0,0:0:0:0:
236,158,57986,2,0,L|131:145,1,88.000002685547
321,104,58269,1,0,0:0:0:0:
321,104,58552,5,0,0:0:0:0:
335,140,58622,1,0,0:0:0:0:
334,180,58693,1,0,0:0:0:0:
319,216,58764,1,0,0:0:0:0:
291,244,58835,2,0,L|214:241,1,44.0000013427735
126,243,58977,1,0,0:0:0:0:
245,346,59118,6,0,L|305:349,1,40
445,259,59260,6,0,L|381:255,1,47.9999985351563
195,167,59401,6,0,P|253:153|292:161,1,88.000002685547
126,243,59684,2,0,P|82:246|40:233,1,88.000002685547
143,93,59967,1,0,0:0:0:0:
143,93,60109,1,0,0:0:0:0:
247,242,60250,2,0,L|240:336,1,88.000002685547
425,195,60533,6,0,L|418:107,1,88.000002685547
290,21,60817,2,0,P|270:64|271:121,1,88.000002685547
319,227,61100,1,0,0:0:0:0:
418,107,61241,1,0,0:0:0:0:
231,185,61383,6,0,L|169:177,1,40
48,263,61524,6,0,P|81:258|99:258,1,40
253,335,61666,6,0,P|191:348|137:339,1,88.000002685547
319,227,61949,1,0,0:0:0:0:
98,151,62090,2,0,L|278:130,1,176.000005371094
468,40,62515,2,0,P|411:31|366:32,1,88.000002685547
221,33,62798,5,0,0:0:0:0:
191,179,62939,1,0,0:0:0:0:
296,288,63081,2,0,L|402:273,1,88.000002685547
179,335,63364,2,0,L|119:331,2,44.0000013427735
326,204,63647,6,0,L|332:151,1,40
187,139,63788,6,0,L|192:189,1,40
391,92,63930,6,0,P|329:70|287:79,2,88.000002685547
326,204,64354,1,0,0:0:0:0:
187,139,64496,2,0,L|203:39,2,88.000002685547
205,289,64920,1,0,0:0:0:0:
408,237,65062,6,0,P|410:186|384:138,1,88.000002685547
244,56,65345,2,0,L|183:50,2,44.0000013427735
193,210,65628,2,0,L|100:201,1,88.000002685547
224,326,65911,6,0,L|288:321,1,40
408,237,66052,6,0,P|377:230|354:228,1,40
225,137,66194,6,0,P|283:128|321:94,1,88.000002685547
121,127,66477,2,0,P|63:136|25:170,1,88.000002685547
222,257,66760,2,0,L|329:247,2,88.000002685547
107,310,67184,1,0,0:0:0:0:
282,333,67326,5,0,0:0:0:0:
282,333,67467,1,0,0:0:0:0:
214,169,67609,2,0,L|226:117,2,44.0000013427735
374,45,67892,2,0,P|381:66|382:88,2,44.0000013427735
326,195,68175,6,0,L|334:242,1,40
212,343,68317,6,0,L|202:292,1,47.9999985351563
50,189,68458,6,0,L|70:290,1,88.000002685547
214,169,68741,2,0,P|222:99|210:60,1,88.000002685547
81,42,69024,1,0,0:0:0:0:
81,42,69166,1,0,0:0:0:0:
50,189,69307,2,0,L|70:290,1,88.000002685547
212,343,69590,6,0,B|255:342|255:342|297:313,1,88.000002685547
176,192,69873,1,0,0:0:0:0:
336,192,70015,1,0,0:0:0:0:
299,40,70156,2,0,B|256:41|256:41|215:71,1,88.000002685547
381,112,70439,6,0,L|443:105,1,40
355,278,70581,6,0,P|329:278|294:271,1,47.9999985351563
88,204,70722,6,0,L|189:189,1,88.000002685547
276,147,71005,1,0,0:0:0:0:
60,47,71147,2,0,B|98:82|133:92|133:92|169:93|219:68,1,176.000005371094
438,53,71571,2,0,P|398:37|337:38,1,88.000002685547
276,147,71854,5,0,0:0:0:0:
427,224,71996,1,0,0:0:0:0:
288,315,72137,2,0,L|185:302,1,88.000002685547
59,196,72420,2,0,L|116:187,2,44.0000013427735
178,47,72703,6,0,P|189:70|198:111,1,40
285,236,72845,6,0,L|295:166,1,47.9999985351563
426,54,72986,6,0,P|393:88|381:145,2,88.000002685547
427,224,73411,1,0,0:0:0:0:
326,333,73552,2,0,L|211:322,2,88.000002685547
256,137,73977,1,0,0:0:0:0:
145,213,74118,6,0,L|30:202,1,88.000002685547
256,137,74401,2,0,L|256:79,2,44.0000013427735
367,213,74684,2,0,L|482:202,1,88.000002685547
300,329,74967,6,0,P|266:326|231:317,1,40
145,213,75109,6,0,P|179:210|215:199,1,47.9999985351563
350,125,75250,6,0,P|278:103|231:103,1,88.000002685547
433,76,75533,2,0,P|488:24|511:-16,1,88.000002685547
432,171,75817,2,0,P|448:244|472:285,2,88.000002685547
351,30,76241,1,0,0:0:0:0:
260,176,76383,5,0,0:0:0:0:
260,176,76524,1,0,0:0:0:0:
161,30,76666,2,0,L|102:39,2,44.0000013427735
351,30,76949,2,0,L|410:39,2,44.0000013427735
181,135,77232,6,0,L|124:143,1,40
331,135,77373,6,0,L|391:143,1,40
316,279,77515,6,0,P|255:297|195:277,1,128
256,205,77939,1,0,0:0:0:0:
412,266,78081,2,0,P|401:297|395:351,1,64
349,194,78364,1,0,0:0:0:0:
351,178,78434,1,0,0:0:0:0:
353,162,78505,1,0,0:0:0:0:
355,146,78576,1,0,0:0:0:0:
358,130,78647,6,0,P|316:154|287:161,1,64
132,176,78930,2,0,P|173:151|202:144,1,64
268,266,79213,2,0,P|243:224|236:195,1,64
224,39,79496,2,0,P|248:80|255:109,1,64
49,197,79779,6,0,P|56:136|113:92,1,128
166,238,80203,2,0,L|154:316,2,64
282,195,80628,1,0,0:0:0:0:
294,204,80698,1,0,0:0:0:0:
309,211,80769,1,0,0:0:0:0:
324,217,80840,1,0,0:0:0:0:
339,220,80911,6,0,L|416:217,1,64
288,74,81194,2,0,P|256:69|225:75,1,64
109,217,81477,2,0,L|173:220,1,64
404,145,81760,2,0,L|340:142,1,64
256,302,82043,6,0,P|319:285|394:278,1,128
173,220,82467,2,0,P|109:212|47:196,1,128
191,99,82892,1,0,0:0:0:0:
206,99,82962,1,0,0:0:0:0:
222,99,83033,1,0,0:0:0:0:
238,99,83104,1,0,0:0:0:0:
254,100,83175,6,0,P|266:151|262:184,1,64
392,66,83458,2,0,P|341:50|315:30,1,64
352,202,83741,2,0,P|390:166|420:153,1,64
479,301,84024,2,0,L|413:299,1,64
242,234,84307,6,0,B|264:295|264:295|241:362,1,128
87,169,84732,2,0,L|176:170,1,64
154,295,85015,1,0,0:0:0:0:
228,152,85156,1,0,0:0:0:0:
234,137,85226,1,0,0:0:0:0:
239,122,85297,1,0,0:0:0:0:
241,106,85368,1,0,0:0:0:0:
242,90,85439,6,0,P|288:116|328:114,1,64
456,170,85722,2,0,P|425:178|399:197,1,64
268,309,86005,2,0,L|356:303,1,64
159,231,86288,2,0,B|148:201|148:201|152:145,1,64
312,40,86571,6,0,P|299:113|293:195,1,151.999995941162
465,123,86996,1,0,0:0:0:0:
465,123,87067,1,0,0:0:0:0:
465,123,87137,2,0,P|429:117|384:103,1,75.9999979705811
315,273,87420,2,0,P|351:262|388:255,1,75.9999979705811
197,111,87703,6,0,P|160:121|123:128,1,75.9999979705811
256,19,87986,1,0,0:0:0:0:
293,190,88128,2,0,B|319:185|346:194|346:194|388:177|388:177|415:188|452:179,1,151.999995941162
315,273,88552,1,0,0:0:0:0:
186,186,88694,1,0,0:0:0:0:
186,186,88765,1,0,0:0:0:0:
186,186,88835,6,0,L|198:97,1,75.9999979705811
87,245,89118,2,0,P|90:306|108:336,1,75.9999979705811
273,140,89401,2,0,P|270:79|252:49,1,75.9999979705811
115,19,89684,1,0,0:0:0:0:
115,19,89826,1,0,0:0:0:0:
9,177,89967,6,0,B|47:200|47:200|104:185|104:185|129:135,1,151.999995941162
229,284,90392,2,0,L|133:276,2,75.9999979705811
366,208,90817,1,0,0:0:0:0:
373,190,90887,1,0,0:0:0:0:
377,172,90958,1,0,0:0:0:0:
380,153,91029,1,0,0:0:0:0:
380,134,91100,6,0,L|294:141,1,75.9999979705811
132,146,91383,1,0,0:0:0:0:
243,28,91524,1,0,0:0:0:0:
296,221,91666,2,0,P|310:279|311:309,1,75.9999979705811
108,356,91949,2,0,P|112:318|123:281,1,75.9999979705811
206,132,92232,6,0,B|130:146|130:146|88:137|62:103,1,151.999995941162
243,28,92656,1,0,0:0:0:0:
296,221,92798,2,0,L|199:241,1,75.9999979705811
370,147,93081,1,0,0:0:0:0:
281,321,93222,1,0,0:0:0:0:
191,165,93364,6,0,L|183:83,1,75.9999979705811
383,333,93647,2,0,L|390:257,1,75.9999979705811
129,333,93930,2,0,L|121:257,1,75.9999979705811
321,165,94213,2,0,L|328:89,1,75.9999979705811
200,23,94496,5,0,0:0:0:0:
91,35,94637,1,0,0:0:0:0:
163,194,94779,1,0,0:0:0:0:
243,121,94920,1,0,0:0:0:0:
67,140,95062,2,0,P|53:184|65:247,1,75.9999979705811
331,148,95345,6,0,P|331:110|325:79,1,60
320,50,95628,6,0,P|407:66|476:10,1,184.000003509522
243,121,96052,2,0,P|156:105|87:161,1,184.000003509522
198,294,96477,2,0,P|201:248|183:207,1,92.0000017547608
26,324,96760,1,0,0:0:0:0:
26,324,97043,5,0,0:0:0:0:
61,344,97113,1,0,0:0:0:0:
97,365,97184,1,0,0:0:0:0:
137,369,97255,1,0,0:0:0:0:
179,368,97326,2,0,L|241:358,1,46.0000008773804
379,329,97467,1,0,0:0:0:0:
278,210,97609,6,0,L|208:220,1,41.9999987182618
68,136,97750,6,0,P|100:131|139:137,1,50
254,59,97892,6,0,L|70:39,1,184.000003509522
228,142,98317,2,0,L|336:128,2,92.0000017547608
169,278,98741,2,0,P|222:304|295:295,1,92.0000017547608
68,136,99024,1,0,0:0:0:0:
68,136,99307,5,0,0:0:0:0:
65,177,99377,1,0,0:0:0:0:
62,218,99448,1,0,0:0:0:0:
60,259,99519,1,0,0:0:0:0:
57,301,99590,2,0,P|69:334|89:368,1,46.0000008773804
164,193,99732,1,0,0:0:0:0:
254,305,99873,6,0,L|333:300,1,41.9999987182618
393,213,100015,6,0,L|480:209,1,50
368,81,100156,6,0,P|292:129|200:116,1,184.000003509522
267,13,100581,1,0,0:0:0:0:
81,74,100722,2,0,L|92:179,1,92.0000017547608
178,332,101005,2,0,L|190:229,1,92.0000017547608
202,117,101288,1,0,0:0:0:0:
202,117,101571,5,0,0:0:0:0:
241,130,101641,1,0,0:0:0:0:
282,130,101712,1,0,0:0:0:0:
321,118,101783,1,0,0:0:0:0:
355,94,101854,2,0,L|430:103,1,46.0000008773804
267,13,101996,1,0,0:0:0:0:
202,117,102137,6,0,P|189:153|183:173,1,41.9999987182618
343,257,102279,6,0,P|340:233|333:208,1,50
196,344,102420,6,0,B|332:341|332:341|300:334|264:310,1,184.000003509522
102,214,102845,2,0,L|114:332,1,92.0000017547608
233,149,103128,1,0,0:0:0:0:
343,257,103269,2,0,P|406:272|448:266,1,92.0000017547608
231,113,103552,1,0,0:0:0:0:
231,113,103835,5,0,0:0:0:0:
201,142,103905,1,0,0:0:0:0:
164,159,103976,1,0,0:0:0:0:
123,164,104047,1,0,0:0:0:0:
83,155,104118,2,0,L|96:217,1,46.0000008773804
163,316,104260,1,0,0:0:0:0:
305,261,104401,6,0,P|312:224|311:193,1,41.9999987182618
193,92,104543,6,0,P|194:114|203:148,1,50
344,58,104684,6,0,B|300:-4|227:13|227:13|266:32|280:68,1,184.000003509522
417,224,105109,2,0,P|426:132|448:34,1,184.000003509522
301,184,105533,2,0,P|318:246|324:281,1,92.0000017547608
213,359,105817,1,0,0:0:0:0:
213,359,106100,5,0,0:0:0:0:
172,356,106170,1,0,0:0:0:0:
130,353,106241,1,0,0:0:0:0:
89,350,106312,1,0,0:0:0:0:
47,347,106383,2,0,P|45:316|46:285,1,46.0000008773804
73,154,106524,1,0,0:0:0:0:
193,248,106666,6,0,L|253:245,1,41.9999987182618
375,142,106807,6,0,L|311:137,1,50
375,279,106949,6,0,P|459:248|507:171,1,184.000003509522
363,50,107373,2,0,L|376:150,2,92.0000017547608
232,129,107798,2,0,P|177:156|110:150,1,92.0000017547608
154,29,108081,1,0,0:0:0:0:
154,29,108364,5,0,0:0:0:0:
195,31,108434,1,0,0:0:0:0:
236,33,108505,1,0,0:0:0:0:
278,35,108576,1,0,0:0:0:0:
319,37,108647,2,0,L|392:33,1,46.0000008773804
507,27,108788,1,0,0:0:0:0:
408,146,108930,6,0,L|337:143,1,41.9999987182618
206,220,109071,6,0,P|248:217|277:199,1,50
104,124,109213,6,0,L|130:348,1,184.000003509522
224,147,109637,1,0,0:0:0:0:
351,228,109779,2,0,B|397:236|397:236|441:218,1,92.0000017547608
276,89,110062,2,0,B|230:97|230:97|186:79,1,92.0000017547608
381,31,110345,1,0,0:0:0:0:
381,31,110628,5,0,0:0:0:0:
393,68,110698,1,0,0:0:0:0:
394,110,110769,1,0,0:0:0:0:
380,149,110840,1,0,0:0:0:0:
354,181,110911,2,0,L|279:178,1,46.0000008773804
157,173,111052,1,0,0:0:0:0:
245,297,111194,6,0,L|286:295,1,41.9999987182618
108,254,111335,6,0,L|54:250,1,50
137,92,111477,6,0,B|187:86|221:120|221:120|320:100,1,184.000003509522
273,210,111901,2,0,P|250:260|245:309,1,92.0000017547608
157,173,112184,1,0,0:0:0:0:
338,282,112326,2,0,L|430:271,1,92.0000017547608
311,101,112609,1,0,0:0:0:0:
311,101,112892,5,0,0:0:0:0:
271,87,112962,1,0,0:0:0:0:
231,78,113033,1,0,0:0:0:0:
190,73,113104,1,0,0:0:0:0:
149,73,113175,2,0,L|74:85,1,46.0000008773804
16,192,113317,1,0,0:0:0:0:
103,303,113458,6,0,L|148:311,1,41.9999987182618
281,212,113600,6,0,P|256:211|231:211,1,50
366,310,113741,6,0,L|480:294,1,92.0000017547608
395,165,114024,2,0,P|344:148|294:107,1,92.0000017547608
407,33,114307,1,0,0:0:0:0:
407,33,114449,1,0,0:0:0:0:
253,30,114590,2,0,L|154:22,1,92.0000017547608
42,177,114873,6,0,B|85:183|85:183|131:160,1,92.0000017547608
330,253,115156,2,0,P|268:235|224:228,1,92.0000017547608
83,269,115439,1,0,0:0:0:0:
218,369,115581,1,0,0:0:0:0:
383,328,115722,6,0,L|449:317,1,41.9999987182618
364,175,115864,6,0,P|337:169|312:169,1,50
142,118,116005,6,0,P|198:106|249:77,1,92.0000017547608
359,33,116288,1,0,0:0:0:0:
453,142,116430,2,0,B|466:235|413:226|423:320,1,184.000003509522
241,230,116854,2,0,L|254:335,1,92.0000017547608
89,269,117137,5,0,0:0:0:0:
142,118,117279,1,0,0:0:0:0:
328,205,117420,2,0,P|247:230|200:223,1,92.0000017547608
377,101,117703,2,0,L|450:106,2,46.0000008773804
231,43,117986,6,0,P|203:52|156:58,1,41.9999987182618
22,122,118128,6,0,P|42:126|70:140,1,50
160,272,118269,6,0,L|52:266,2,92.0000017547608
256,139,118694,1,0,0:0:0:0:
352,272,118835,2,0,L|460:266,2,92.0000017547608
256,93,119260,1,0,0:0:0:0:
160,272,119401,6,0,P|149:326|157:367,1,92.0000017547608
256,139,119684,2,0,L|256:87,2,46.0000008773804
352,272,119967,2,0,P|363:326|355:367,1,92.0000017547608
186,188,120250,6,0,L|127:185,1,41.9999987182618
326,188,120392,6,0,L|391:185,1,50
482,56,120533,6,0,L|364:61,1,92.0000017547608
164,89,120817,2,0,L|255:92,1,92.0000017547608
375,185,121100,2,0,B|385:227|385:227|366:285,2,92.0000017547608
311,33,121524,1,0,0:0:0:0:
220,169,121666,5,0,0:0:0:0:
220,169,121807,1,0,0:0:0:0:
85,53,121949,2,0,L|97:1,2,46.0000008773804
130,223,122232,2,0,P|141:259|142:297,2,46.0000008773804
228,36,122515,6,0,L|222:100,1,41.9999987182618
298,225,122656,6,0,L|305:153,1,50
406,41,122798,6,0,L|396:142,1,92.0000017547608
238,293,123081,2,0,P|214:222|224:181,1,92.0000017547608
224,77,123364,1,0,0:0:0:0:
224,77,123505,1,0,0:0:0:0:
64,150,123647,2,0,P|62:199|56:256,1,92.0000017547608
298,225,123930,6,0,P|293:179|291:133,1,92.0000017547608
460,238,124213,2,0,L|446:343,1,92.0000017547608
385,163,124496,1,0,0:0:0:0:
256,300,124637,1,0,0:0:0:0:
127,163,124779,6,0,L|123:103,1,41.9999987182618
253,20,124920,6,0,L|246:75,1,50
184,230,125062,6,0,P|137:249|70:232,1,92.0000017547608
256,142,125345,1,0,0:0:0:0:
256,300,125486,2,0,P|174:348|70:348,1,184.000003509522
328,230,125911,2,0,P|375:211|442:228,1,92.0000017547608
346,354,126194,5,0,0:0:0:0:
256,164,126335,1,0,0:0:0:0:
119,234,126477,2,0,L|21:219,1,92.0000017547608
147,84,126760,2,0,L|204:78,2,46.0000008773804
214,251,127043,6,0,L|272:260,1,41.9999987182618
394,147,127184,6,0,L|344:153,1,50
391,292,127326,6,0,B|438:304|438:304|491:305,2,92.0000017547608
255,257,127750,1,0,0:0:0:0:
192,79,127892,2,0,P|173:135|179:182,2,92.0000017547608
316,0,128317,1,0,0:0:0:0:
344,152,128458,6,0,L|252:138,1,92.0000017547608
461,102,128741,2,0,P|473:143|473:169,2,46.0000008773804
373,277,129024,2,0,B|419:282|419:282|464:263,1,92.0000017547608
255,257,129307,6,0,L|258:317,1,41.9999987182618
150,175,129449,6,0,P|145:135|151:114,1,50
302,49,129590,6,0,L|195:37,1,92.0000017547608
375,130,129873,2,0,P|440:116|472:90,1,92.0000017547608
295,221,130156,2,0,L|301:327,2,92.0000017547608
409,329,130581,1,0,0:0:0:0:
186,282,130722,5,0,0:0:0:0:
186,282,130864,1,0,0:0:0:0:
335,154,131005,2,0,L|395:166,2,46.0000008773804
174,102,131288,2,0,L|114:114,2,46.0000008773804
331,66,131571,6,0,L|388:77,1,41.9999987182618
224,179,131713,6,0,L|163:192,1,50
326,262,131854,6,0,P|420:270|495:328,1,192
104,204,136383,6,0,P|140:115|167:16,1,192
427,102,140911,6,0,B|397:152|407:236|407:236|389:187|357:174,1,192
101,192,145439,6,0,B|105:234|105:234|160:244|160:244|203:212|203:212|188:158,1,192
256,192,147703,12,0,149684,0:0:0:0:
346,112,149967,6,0,P|304:151|297:239,1,128
393,205,150392,1,0,0:0:0:0:
284,323,150533,2,0,L|371:311,1,64
197,263,150817,1,0,0:0:0:0:
181,264,150887,1,0,0:0:0:0:
165,263,150958,1,0,0:0:0:0:
149,261,151029,1,0,0:0:0:0:
133,257,151100,6,0,P|97:237|71:217,1,64
175,133,151383,2,0,P|159:86|165:46,1,64
337,133,151666,2,0,P|353:86|347:46,1,64
379,257,151949,2,0,P|415:237|441:217,1,64
280,330,152232,6,0,L|138:320,1,128
226,171,152656,2,0,P|245:219|247:252,2,64
81,110,153081,1,0,0:0:0:0:
81,125,153151,1,0,0:0:0:0:
82,141,153222,1,0,0:0:0:0:
83,157,153293,1,0,0:0:0:0:
84,173,153364,6,0,L|70:242,1,64
177,272,153647,2,0,L|182:342,1,64
292,161,153930,2,0,L|278:230,1,64
385,260,154213,2,0,L|390:330,1,64
395,162,154496,6,0,P|374:100|309:58,1,128
186,63,154920,2,0,P|136:102|117:162,1,128
256,261,155345,1,0,0:0:0:0:
271,259,155415,1,0,0:0:0:0:
287,258,155486,1,0,0:0:0:0:
303,257,155557,1,0,0:0:0:0:
319,256,155628,6,0,P|340:305|337:332,1,64
398,155,155911,2,0,P|419:106|416:79,1,64
269,94,156194,2,0,P|248:143|251:170,1,64
190,317,156477,2,0,P|169:268|172:241,1,64
99,99,156760,6,0,P|88:163|56:246,1,128
201,88,157184,2,0,P|197:30|189:-3,1,64
267,187,157467,1,0,0:0:0:0:
351,88,157609,1,0,0:0:0:0:
366,84,157679,1,0,0:0:0:0:
382,82,157750,1,0,0:0:0:0:
398,82,157821,1,0,0:0:0:0:
414,84,157892,6,0,L|402:169,1,64
332,315,158175,2,0,P|337:254|351:230,1,64
268,148,158458,2,0,B|240:169|240:169|193:164,1,64
68,67,158741,2,0,L|136:70,1,64
234,252,159024,6,0,P|164:239|124:143,1,151.999995941162
337,252,159449,1,0,0:0:0:0:
337,252,159519,1,0,0:0:0:0:
337,252,159590,2,0,P|329:283|332:315,1,64
211,165,159873,2,0,P|203:134|205:102,1,64
366,35,160156,6,0,L|358:113,1,75.9999979705811
258,229,160439,1,0,0:0:0:0:
118,109,160581,2,0,L|295:95,1,151.999995941162
235,251,161005,1,0,0:0:0:0:
388,322,161147,1,0,0:0:0:0:
388,322,161217,1,0,0:0:0:0:
388,322,161288,6,0,P|402:267|399:238,1,75.9999979705811
222,177,161571,2,0,P|222:214|234:250,1,75.9999979705811
399,109,161854,2,0,L|307:100,1,75.9999979705811
170,91,162137,1,0,0:0:0:0:
170,91,162279,1,0,0:0:0:0:
333,194,162420,6,0,B|450:206|450:206|403:178,1,151.999995941162
222,177,162845,2,0,P|222:214|234:250,2,75.9999979705811
114,49,163269,1,0,0:0:0:0:
112,67,163339,1,0,0:0:0:0:
110,86,163410,1,0,0:0:0:0:
108,105,163481,1,0,0:0:0:0:
106,124,163552,6,0,L|113:202,1,75.9999979705811
256,96,163835,1,0,0:0:0:0:
217,277,163977,1,0,0:0:0:0:
366,199,164118,2,0,P|421:187|466:191,1,75.9999979705811
267,348,164401,2,0,P|212:360|167:356,1,75.9999979705811
46,180,164684,6,0,P|117:170|197:225,1,151.999995941162
99,277,165109,1,0,0:0:0:0:
192,359,165250,2,0,L|286:345,1,75.9999979705811
461,242,165533,1,0,0:0:0:0:
319,225,165675,1,0,0:0:0:0:
184,208,165817,6,0,L|29:230,1,151.999995941162
179,98,166241,2,0,B|253:81|253:81|331:137,1,151.999995941162
96,126,166666,2,0,P|96:73|111:34,1,75.9999979705811
402,118,166949,6,0,P|394:155|376:188,1,75.9999979705811
227,314,167232,2,0,P|234:276|252:243,1,75.9999979705811
286,50,167515,2,0,P|278:87|260:120,1,75.9999979705811
111,246,167798,6,0,P|118:208|135:179,1,60
148,153,168081,6,0,P|93:166|46:157,1,95.9999970703126
251,243,168364,2,0,P|306:230|353:239,1,95.9999970703126
176,344,168647,2,0,L|104:336,2,47.9999985351563
54,160,168930,2,0,L|60:261,1,95.9999970703126
139,62,169213,6,0,L|128:8,1,47.9999985351563
259,120,169354,2,0,L|249:167,1,47.9999985351563
352,48,169496,2,0,P|405:35|457:42,1,95.9999970703126
459,206,169779,2,0,P|406:219|354:212,1,95.9999970703126
170,146,170062,1,0,0:0:0:0:
173,189,170133,1,0,0:0:0:0:
176,232,170203,1,0,0:0:0:0:
179,275,170274,1,0,0:0:0:0:
182,318,170345,6,0,L|291:308,1,95.9999970703126
173,189,170628,2,0,B|127:178|127:178|65:205,1,95.9999970703126
317,219,170911,2,0,L|391:212,1,47.9999985351563
266,98,171052,2,0,P|237:80|209:70,1,47.9999985351563
67,102,171194,2,0,L|84:211,1,95.9999970703126
191,327,171477,5,0,0:0:0:0:
317,219,171618,1,0,0:0:0:0:
434,331,171760,2,0,L|489:324,2,47.9999985351563
272,148,172043,2,0,P|327:139|378:162,1,95.9999970703126
166,233,172326,1,0,0:0:0:0:
146,194,172396,1,0,0:0:0:0:
139,152,172467,1,0,0:0:0:0:
146,109,172538,1,0,0:0:0:0:
165,71,172609,6,0,L|66:83,1,95.9999970703126
272,148,172892,2,0,P|317:161|364:153,1,95.9999970703126
477,37,173175,2,0,L|469:101,1,47.9999985351563
424,222,173317,2,0,L|432:286,1,47.9999985351563
272,340,173458,2,0,L|291:230,1,95.9999970703126
123,355,173741,6,0,P|155:268|104:157,1,191.999994140625
26,74,174166,1,0,0:0:0:0:
219,84,174307,2,0,L|322:70,1,95.9999970703126
335,238,174590,2,0,L|251:251,2,47.9999985351563
454,130,174873,6,0,B|469:70|469:70|435:15,1,95.9999970703126
255,82,175156,2,0,B|240:142|240:142|274:197,1,95.9999970703126
390,308,175439,2,0,L|368:192,1,95.9999970703126
184,233,175722,2,0,L|206:349,1,95.9999970703126
257,171,176005,5,0,0:0:0:0:
240,76,176147,1,0,0:0:0:0:
93,200,176288,1,0,0:0:0:0:
77,105,176430,1,0,0:0:0:0:
184,233,176571,1,0,0:0:0:0:
150,43,176713,1,0,0:0:0:0:
330,108,176854,2,0,P|395:120|434:110,1,95.9999970703126
373,259,177137,6,0,P|277:241|157:232,1,191.999994140625
37,262,177562,1,0,0:0:0:0:
89,122,177703,1,0,0:0:0:0:
126,101,177773,1,0,0:0:0:0:
168,89,177844,1,0,0:0:0:0:
211,85,177915,1,0,0:0:0:0:
254,89,177986,2,0,P|305:112|374:111,1,95.9999970703126
462,246,178269,6,0,L|474:175,2,47.9999985351563
336,311,178552,1,0,0:0:0:0:
344,115,178694,1,0,0:0:0:0:
232,232,178835,2,0,P|185:251|106:241,1,95.9999970703126
34,124,179118,2,0,L|98:127,1,47.9999985351563
233,49,179260,2,0,L|185:51,1,47.9999985351563
344,115,179401,6,0,L|461:101,1,95.9999970703126
256,213,179684,2,0,L|256:313,1,95.9999970703126
168,115,179967,2,0,L|76:103,2,47.9999985351563
317,40,180250,2,0,P|385:26|418:28,1,95.9999970703126
351,222,180533,6,0,L|235:211,1,95.9999970703126
66,283,180817,2,0,P|115:281|137:273,1,47.9999985351563
87,132,180958,2,0,P|63:128|39:130,1,47.9999985351563
215,101,181100,2,0,P|268:117|322:116,1,95.9999970703126
475,219,181383,1,0,0:0:0:0:
432,217,181453,1,0,0:0:0:0:
389,215,181524,1,0,0:0:0:0:
346,213,181595,1,0,0:0:0:0:
303,211,181666,6,0,B|290:259|290:259|307:309,1,95.9999970703126
452,139,181949,2,0,B|465:91|465:91|448:41,1,95.9999970703126
298,70,182232,2,0,L|309:125,1,47.9999985351563
203,247,182373,2,0,P|217:189|233:171,1,47.9999985351563
400,313,182515,2,0,L|275:299,1,95.9999970703126
391,146,182798,6,0,L|516:132,1,95.9999970703126
298,70,183081,1,0,0:0:0:0:
203,247,183222,1,0,0:0:0:0:
122,119,183364,2,0,P|90:87|47:62,1,95.9999970703126
117,249,183647,1,0,0:0:0:0:
160,248,183718,1,0,0:0:0:0:
203,247,183789,1,0,0:0:0:0:
246,246,183860,1,0,0:0:0:0:
289,245,183930,6,0,P|358:228|391:210,1,95.9999970703126
206,88,184213,2,0,P|253:97|297:117,1,95.9999970703126
110,216,184496,2,0,L|217:197,1,95.9999970703126
28,314,184779,2,0,B|76:316|76:316|125:351,1,95.9999970703126
335,307,185062,5,0,0:0:0:0:
363,139,185203,1,0,0:0:0:0:
204,199,185345,1,0,0:0:0:0:
351,320,185486,1,0,0:0:0:0:
362,116,185627,1,0,0:0:0:0:
328,87,185699,1,0,0:0:0:0:
287,74,185769,1,0,0:0:0:0:
243,72,185840,1,0,0:0:0:0:
201,85,185911,2,0,P|142:104|97:98,1,95.9999970703126
144,268,186194,6,0,P|203:287|248:281,1,95.9999970703126
377,194,186477,2,0,L|273:179,1,95.9999970703126
409,294,186760,2,0,L|470:304,2,47.9999985351563
365,96,187043,2,0,L|460:109,1,95.9999970703126
281,180,187326,6,0,P|248:192|217:194,1,47.9999985351563
77,112,187467,2,0,P|100:116|122:125,1,47.9999985351563
122,253,187609,2,0,L|3:239,1,95.9999970703126
199,338,187892,2,0,B|247:331|247:331|309:357,1,95.9999970703126
409,244,188175,1,0,0:0:0:0:
394,203,188245,1,0,0:0:0:0:
393,160,188316,1,0,0:0:0:0:
406,119,188387,1,0,0:0:0:0:
432,85,188458,6,0,P|364:98|322:84,1,95.9999970703126
146,154,188741,2,0,P|193:147|238:160,1,95.9999970703126
67,241,189024,2,0,L|1:235,1,47.9999985351563
185,257,189166,2,0,L|250:252,1,47.9999985351563
364,358,189307,2,0,L|257:347,1,95.9999970703126
67,241,189590,5,0,0:0:0:0:
238,160,189732,1,0,0:0:0:0:
146,323,189873,2,0,L|154:383,2,47.9999985351563
160,114,190156,2,0,P|209:78|251:73,1,95.9999970703126
408,179,190439,1,0,0:0:0:0:
366,174,190510,1,0,0:0:0:0:
323,169,190581,1,0,0:0:0:0:
280,164,190652,1,0,0:0:0:0:
238,160,190722,6,0,L|253:270,1,95.9999970703126
71,341,191005,2,0,L|83:245,1,95.9999970703126
166,88,191288,2,0,P|207:67|233:64,1,47.9999985351563
73,173,191430,2,0,L|3:166,1,47.9999985351563
172,258,191571,2,0,L|273:255,1,95.9999970703126
431,125,191854,6,0,P|343:109|254:190,1,191.999994140625
209,327,192279,1,0,0:0:0:0:
358,311,192420,2,0,P|372:266|365:219,1,95.9999970703126
183,124,192703,2,0,L|187:192,2,47.9999985351563
346,62,192986,6,0,L|340:166,1,95.9999970703126
169,271,193269,2,0,P|109:247|74:203,1,95.9999970703126
343,271,193552,2,0,P|403:247|438:203,1,95.9999970703126
171,157,193835,2,0,L|166:62,1,95.9999970703126
340,157,194118,5,0,0:0:0:0:
169,271,194260,1,0,0:0:0:0:
343,271,194401,1,0,0:0:0:0:
171,157,194543,1,0,0:0:0:0:
256,308,194684,1,0,0:0:0:0:
258,120,194826,1,0,0:0:0:0:
376,292,194967,2,0,P|439:303|479:307,1,95.9999970703126
470,77,195250,6,0,P|423:83|257:121,1,191.999994140625
137,168,195675,1,0,0:0:0:0:
247,263,195817,1,0,0:0:0:0:
288,275,195887,1,0,0:0:0:0:
331,274,195958,1,0,0:0:0:0:
370,255,196029,1,0,0:0:0:0:
405,229,196100,2,0,L|391:332,1,95.9999970703126
302,161,196383,6,0,L|294:98,2,47.9999985351563
247,263,196666,1,0,0:0:0:0:
137,168,196807,1,0,0:0:0:0:
38,310,196949,2,0,L|146:323,1,95.9999970703126
317,330,197232,2,0,L|376:324,1,47.9999985351563
226,246,197373,2,0,L|178:241,1,47.9999985351563
302,161,197515,6,0,B|351:149|351:149|417:170,1,95.9999970703126
234,78,197798,2,0,B|185:90|185:90|119:69,1,95.9999970703126
329,23,198081,2,0,P|344:58|346:77,2,47.9999985351563
214,170,198364,2,0,L|230:273,1,95.9999970703126
404,343,198647,6,0,P|401:270|381:228,1,95.9999970703126
322,112,198930,2,0,P|291:143|266:154,1,47.9999985351563
169,34,199071,2,0,L|217:38,1,47.9999985351563
156,160,199213,2,0,L|48:145,1,95.9999970703126
201,273,199496,1,0,0:0:0:0:
244,276,199566,1,0,0:0:0:0:
287,280,199637,1,0,0:0:0:0:
321,258,199708,1,0,0:0:0:0:
355,230,199779,6,0,P|373:171|366:128,1,95.9999970703126
217,38,200062,2,0,P|214:85|231:130,1,95.9999970703126
391,53,200345,2,0,L|339:48,1,47.9999985351563
457,174,200486,2,0,L|509:169,1,47.9999985351563
388,303,200628,2,0,P|312:298|272:260,1,95.9999970703126
142,193,200911,6,0,L|158:322,1,95.9999970703126
370,191,201194,2,0,L|358:95,1,95.9999970703126
257,306,201477,2,0,L|352:294,1,95.9999970703126
255,78,201760,2,0,L|159:89,1,95.9999970703126
256,192,202043,5,0,0:0:0:0:
256,192,202184,1,0,0:0:0:0:
165,302,202326,2,0,P|102:314|47:303,1,95.9999970703126
256,192,202609,5,0,0:0:0:0:
256,192,202750,1,0,0:0:0:0:
347,302,202892,2,0,P|410:314|465:303,1,95.9999970703126
338,124,203175,6,0,L|352:68,3,47.9999985351563
174,124,203458,2,0,L|160:68,3,47.9999985351563
389,225,203741,6,0,P|365:230|341:231,1,47.9999985351563
133,208,203883,2,0,P|155:217|174:232,1,47.9999985351563
331,372,204024,2,0,P|318:351|312:328,1,47.9999985351563
265,125,204166,2,0,P|263:149|256:172,1,47.9999985351563
210,330,204307,5,0,0:0:0:0:
256,192,204378,12,0,208835,0:0:0:0:
