osu file format v14

[General]
AudioFilename: audio.mp3
AudioLeadIn: 0
PreviewTime: 168010
Countdown: 0
SampleSet: Soft
StackLeniency: 0.4
Mode: 0
LetterboxInBreaks: 0
WidescreenStoryboard: 0

[Editor]
Bookmarks: 5062,41288,77515,95628,131854,168081,204307
DistanceSpacing: 0.6
BeatDivisor: 4
GridSize: 4
TimelineZoom: 2.4

[Metadata]
Title:Genesis At Oasis (MOONLiGHT Mix)
TitleUnicode:Genesis At Oasis (MOONLiGHT Mix)
Artist:Hakuryu
ArtistUnicode:白龍
Creator:Krimek
Version:FK's Expert
Source:REFLEC BEAT groovin'!!
Tags:Ryu☆BEST -MOONLiGHT- Narcissus At Oasis 10th Style drum and bass Extended Mix 音源 SnowNiNo_ RyoKazuka -Famous- Vell DeRandom Otaku
BeatmapID:1081713
BeatmapSetID:500816

[Difficulty]
HPDrainRate:6
CircleSize:4.2
OverallDifficulty:8.5
ApproachRate:9.4
SliderMultiplier:1.9
SliderTickRate:1

[Events]
//Background and Video events
0,0,"bg.jpg",0,0
//Break Periods
//Storyboard Layer 0 (Background)
//Storyboard Layer 1 (Fail)
//Storyboard Layer 2 (Pass)
//Storyboard Layer 3 (Foreground)
//Storyboard Sound Samples

[TimingPoints]
534,283.018867924528,4,2,1,5,1,0
1383,-166.666666666667,4,2,1,10,0,0
1666,-166.666666666667,4,2,1,15,0,0
1949,-166.666666666667,4,2,1,20,0,0
2232,-166.666666666667,4,2,1,25,0,0
2515,-166.666666666667,4,2,1,30,0,0
2798,-166.666666666667,4,2,1,35,0,0
3081,-166.666666666667,4,2,1,40,0,0
3364,-166.666666666667,4,2,1,45,0,0
3647,-166.666666666667,4,2,1,50,0,0
3930,-166.666666666667,4,2,1,55,0,0
4213,-166.666666666667,4,2,1,60,0,0
4496,-166.666666666667,4,2,1,5,0,0
5062,-166.666666666667,4,2,1,50,0,0
23175,-125,4,2,1,50,0,0
41288,-100,4,2,1,50,0,0
77515,-166.666666666667,4,2,1,50,0,0
86571,-125,4,2,1,50,0,0
95628,-100,4,2,1,50,0,0
131854,-133.333333333333,4,2,1,50,0,0
149967,-166.666666666667,4,2,1,50,0,0
159024,-125,4,2,1,50,0,0
168081,-80,4,2,1,60,0,1
204307,-100,4,2,1,60,0,0

[Colours]
Combo1 : 241,12,12
Combo2 : 70,113,125
Combo3 : 44,60,88
Combo4 : 240,189,244

[HitObjects]
256,192,1100,12,0,4496,0:0:0:0:
136,224,5062,6,0,P|168:212|216:212,1,56.9999982604981
244,308,5345,2,0,P|215:304|189:293,1,56.9999982604981
280,224,5628,1,0,0:0:0:0:
280,224,5769,1,0,0:0:0:0:
356,288,5911,1,0,0:0:0:0:
368,268,5982,1,0,0:0:0:0:
376,247,6052,1,0,0:0:0:0:
378,224,6123,1,0,0:0:0:0:
376,202,6194,6,0,P|368:164|372:128,1,56.9999982604981
460,164,6477,1,0,0:0:0:0:
360,124,6618,1,0,0:0:0:0:
264,176,6760,2,0,L|208:168,1,56.9999982604981
240,80,7043,2,0,L|184:72,1,56.9999982604981
64,148,7326,6,0,L|120:140,1,56.9999982604981
40,244,7609,2,0,L|96:236,1,56.9999982604981
156,316,7892,1,0,0:0:0:0:
156,316,8033,1,0,0:0:0:0:
272,288,8175,2,0,L|320:296,1,28.4999991302491
344,256,8317,2,0,L|372:251,1,28.4999991302491
420,280,8458,5,0,0:0:0:0:
364,352,8600,1,0,0:0:0:0:
272,204,8741,1,0,0:0:0:0:
360,176,8883,1,0,0:0:0:0:
288,116,9024,2,0,B|280:88|280:88|288:48,1,56.9999982604981
376,32,9307,2,0,B|384:60|384:60|376:100,1,56.9999982604981
200,116,9590,6,0,L|180:48,1,56.9999982604981
112,148,9873,2,0,L|128:202,1,56.9999982604981
208,100,10156,6,0,L|188:32,1,56.9999982604981
100,168,10439,1,0,0:0:0:0:
106,189,10510,1,0,0:0:0:0:
113,211,10581,1,0,0:0:0:0:
120,233,10651,1,0,0:0:0:0:
128,255,10722,6,0,P|156:272|188:272,1,56.9999982604981
256,172,11005,2,0,P|227:175|204:190,1,56.9999982604981
256,260,11288,1,0,0:0:0:0:
256,260,11430,1,0,0:0:0:0:
336,148,11571,1,0,0:0:0:0:
336,148,11713,1,0,0:0:0:0:
412,245,11854,6,0,L|356:248,1,56.9999982604981
279,145,12137,2,0,L|335:147,1,56.9999982604981
264,244,12420,1,0,0:0:0:0:
160,180,12562,1,0,0:0:0:0:
248,104,12703,2,0,L|252:136,1,28.4999991302491
288,64,12845,2,0,L|284:96,1,28.4999991302491
256,24,12986,6,0,L|264:92,1,56.9999982604981
344,184,13269,1,0,0:0:0:0:
409,148,13411,1,0,0:0:0:0:
475,181,13552,1,0,0:0:0:0:
484,254,13694,1,0,0:0:0:0:
429,303,13835,1,0,0:0:0:0:
357,284,13977,1,0,0:0:0:0:
244,340,14118,6,0,L|252:276,1,56.9999982604981
160,272,14401,2,0,L|152:208,1,56.9999982604981
244,196,14684,2,0,L|252:132,1,56.9999982604981
160,124,14967,1,0,0:0:0:0:
157,101,15038,1,0,0:0:0:0:
154,78,15109,1,0,0:0:0:0:
151,56,15180,1,0,0:0:0:0:
148,33,15250,6,0,L|84:28,1,56.9999982604981
20,120,15533,2,0,L|84:115,1,56.9999982604981
148,208,15817,2,0,L|84:203,1,56.9999982604981
20,295,16100,2,0,L|84:290,1,56.9999982604981
176,348,16383,5,0,0:0:0:0:
176,348,16524,1,0,0:0:0:0:
280,264,16666,1,0,0:0:0:0:
280,264,16807,1,0,0:0:0:0:
392,280,16949,1,0,0:0:0:0:
404,200,17090,1,0,0:0:0:0:
304,128,17232,2,0,L|264:124,1,28.4999991302491
224,148,17373,2,0,L|184:144,1,28.4999991302491
144,168,17515,6,0,L|64:160,1,56.9999982604981
28,72,17798,1,0,0:0:0:0:
68,180,17939,1,0,0:0:0:0:
124,72,18081,2,0,L|204:64,1,56.9999982604981
288,52,18364,1,0,0:0:0:0:
288,52,18505,1,0,0:0:0:0:
380,144,18647,6,0,P|348:164|320:168,1,56.9999982604981
360,244,18930,2,0,P|322:248|295:240,1,56.9999982604981
296,324,19213,2,0,P|260:312|239:293,1,56.9999982604981
204,372,19496,1,0,0:0:0:0:
186,357,19567,1,0,0:0:0:0:
173,339,19637,1,0,0:0:0:0:
165,317,19708,1,0,0:0:0:0:
164,296,19779,6,0,L|176:232,1,56.9999982604981
96,212,20062,2,0,L|133:159,1,56.9999982604981
264,176,20345,2,0,L|184:164,1,56.9999982604981
168,96,20628,2,0,L|247:84,1,56.9999982604981
308,100,20911,5,0,0:0:0:0:
360,36,21052,1,0,0:0:0:0:
436,180,21194,1,0,0:0:0:0:
408,256,21335,1,0,0:0:0:0:
356,192,21477,1,0,0:0:0:0:
328,268,21618,1,0,0:0:0:0:
276,204,21760,2,0,L|228:196,1,28.4999991302491
208,240,21901,2,0,L|179:244,1,28.4999991302491
136,204,22043,5,0,0:0:0:0:
256,192,22114,12,0,22892,0:0:0:0:
376,179,23175,6,0,P|394:147|396:109,1,76
384,272,23458,2,0,P|420:262|448:236,1,76
292,324,23741,2,0,P|255:314|227:288,1,76
300,232,24024,1,0,0:0:0:0:
283,206,24094,1,0,0:0:0:0:
277,176,24165,1,0,0:0:0:0:
282,147,24236,1,0,0:0:0:0:
297,120,24307,5,0,0:0:0:0:
144,128,24449,1,0,0:0:0:0:
256,28,24590,1,0,0:0:0:0:
410,35,24732,1,0,0:0:0:0:
347,172,24873,2,0,P|315:152|297:120,1,76
444,164,25156,2,0,P|442:201|423:234,1,76
313,301,25439,5,0,0:0:0:0:
188,208,25581,1,0,0:0:0:0:
48,260,25722,2,0,L|68:344,1,76
100,184,26005,2,0,L|117:110,1,76
132,260,26288,1,0,0:0:0:0:
156,277,26358,1,0,0:0:0:0:
186,283,26429,1,0,0:0:0:0:
215,278,26500,1,0,0:0:0:0:
241,261,26571,6,0,L|259:188,1,76
293,38,26854,2,0,L|310:111,1,76
424,216,27137,1,0,0:0:0:0:
448,64,27279,1,0,0:0:0:0:
422,234,27420,1,0,0:0:0:0:
316,136,27562,1,0,0:0:0:0:
420,252,27703,6,0,L|500:228,1,76
400,352,27986,2,0,L|320:328,1,76
186,209,28269,2,0,L|266:185,1,76
166,309,28552,1,0,0:0:0:0:
136,300,28622,1,0,0:0:0:0:
107,292,28693,1,0,0:0:0:0:
78,283,28765,1,0,0:0:0:0:
48,272,28836,5,0,0:0:0:0:
186,209,28977,1,0,0:0:0:0:
28,172,29118,1,0,0:0:0:0:
206,109,29260,1,0,0:0:0:0:
8,72,29401,2,0,P|56:96|92:92,1,76
220,32,29684,2,0,P|182:35|150:55,1,76
186,209,29967,5,0,0:0:0:0:
28,172,30109,1,0,0:0:0:0:
206,109,30250,1,0,0:0:0:0:
364,146,30392,1,0,0:0:0:0:
324,272,30533,2,0,L|341:345,1,76
264,212,30817,1,0,0:0:0:0:
271,182,30887,1,0,0:0:0:0:
278,152,30958,1,0,0:0:0:0:
285,123,31029,1,0,0:0:0:0:
292,93,31100,6,0,L|274:19,1,76
376,132,31383,2,0,L|358:58,1,76
205,108,31666,2,0,L|188:182,1,76
10,245,31949,2,0,L|28:172,1,76
166,309,32232,6,0,P|132:328|93:330,1,76
228,252,32515,1,0,0:0:0:0:
352,336,32656,1,0,0:0:0:0:
380,352,32727,1,0,0:0:0:0:
408,364,32798,2,0,P|425:372|443:375,1,38
452,300,32940,2,0,P|469:293|485:283,1,38
436,224,33081,2,0,P|455:190|457:151,1,76
364,36,33364,5,0,0:0:0:0:
364,36,33434,1,0,0:0:0:0:
364,36,33505,2,0,P|364:54|371:72,1,38
388,144,33647,2,0,P|387:162|380:180,1,38
332,240,33788,1,0,0:0:0:0:
188,181,33930,2,0,L|132:173,3,38
108,240,34213,2,0,P|74:259|35:261,1,76
96,120,34496,5,0,0:0:0:0:
121,104,34566,1,0,0:0:0:0:
151,97,34637,2,0,L|188:102,1,38
256,140,34779,2,0,L|293:134,1,38
356,88,34920,1,0,0:0:0:0:
332,240,35062,2,0,L|344:284,3,38
400,324,35345,2,0,P|412:300|412:248,1,76
349,118,35628,5,0,0:0:0:0:
356,88,35699,1,0,0:0:0:0:
363,60,35769,1,0,0:0:0:0:
370,30,35840,1,0,0:0:0:0:
377,0,35911,2,0,P|377:18|384:36,1,38
432,96,36052,2,0,P|439:113|439:132,1,38
384,184,36194,1,0,0:0:0:0:
256,104,36335,1,0,0:0:0:0:
128,184,36477,2,0,P|94:203|55:205,1,76
192,276,36760,6,0,P|229:278|262:297,1,76
128,368,37043,1,0,0:0:0:0:
280,372,37184,1,0,0:0:0:0:
306,358,37254,1,0,0:0:0:0:
326,336,37326,2,0,P|335:318|336:300,1,38
300,232,37467,2,0,P|291:214|290:196,1,38
312,120,37609,2,0,L|392:136,1,76
428,200,37821,1,0,0:0:0:0:
428,200,37892,6,0,L|465:192,1,38
468,268,38033,2,0,L|505:260,1,38
504,339,38175,2,0,P|467:348|430:339,1,76
328,216,38458,1,0,0:0:0:0:
300,232,38529,1,0,0:0:0:0:
272,244,38600,2,0,P|255:252|237:255,1,38
164,224,38741,2,0,L|89:209,1,76
237,178,39024,5,0,0:0:0:0:
244,148,39095,1,0,0:0:0:0:
251,120,39165,1,0,0:0:0:0:
258,90,39236,1,0,0:0:0:0:
265,60,39307,2,0,L|306:52,1,38
352,112,39449,2,0,L|389:118,1,38
448,168,39590,1,0,0:0:0:0:
457,196,39660,1,0,0:0:0:0:
459,227,39731,1,0,0:0:0:0:
456,257,39802,1,0,0:0:0:0:
444,284,39873,2,0,P|411:265|373:262,1,76
256,360,40156,5,0,0:0:0:0:
228,352,40227,1,0,0:0:0:0:
200,344,40298,1,0,0:0:0:0:
172,336,40369,1,0,0:0:0:0:
144,328,40439,6,0,L|181:320,1,38
76,280,40581,2,0,L|38:272,1,38
168,244,40722,6,0,L|205:236,1,38
100,196,40864,2,0,L|62:188,1,38
229,152,41005,6,0,P|288:180|356:176,1,114
420,136,41288,6,0,L|400:328,1,190
264,284,41713,2,0,P|218:290|181:319,1,95
400,352,41996,1,0,0:0:0:0:
335,180,42137,2,0,P|297:151|250:145,1,95
100,196,42420,6,0,P|184:176|200:76,1,190
180,78,42774,1,0,0:0:0:0:
157,72,42845,1,0,0:0:0:0:
134,66,42916,1,0,0:0:0:0:
112,60,42986,2,0,P|64:88|48:136,1,95
56,264,43269,2,0,P|52:288|40:308,1,47.5
135,327,43411,2,0,P|157:318|181:318,1,47.5
260,368,43552,6,0,P|204:328|236:216,1,190
412,232,43977,2,0,L|428:360,1,95
272,288,44260,1,0,0:0:0:0:
367,165,44401,2,0,P|379:120|378:70,1,95
188,96,44684,2,0,P|224:148|288:60,1,190
280,68,45038,1,0,0:0:0:0:
258,55,45109,1,0,0:0:0:0:
237,44,45180,1,0,0:0:0:0:
218,31,45250,2,0,P|171:26|131:50,1,95
48,168,45533,2,0,L|58:214,1,47.5
152,192,45675,2,0,L|162:238,1,47.5
256,216,45817,6,0,P|296:272|424:272,1,190
276,292,46241,2,0,L|182:311,1,95
356,188,46524,1,0,0:0:0:0:
162,238,46666,2,0,L|68:257,1,95
236,140,46949,2,0,P|327:143|389:75,1,190
368,76,47302,1,0,0:0:0:0:
345,74,47373,1,0,0:0:0:0:
322,67,47444,1,0,0:0:0:0:
303,55,47515,2,0,P|260:34|213:34,1,95
128,120,47798,2,0,P|150:112|170:99,1,47.5
119,40,47939,2,0,P|135:21|146:0,1,47.5
95,194,48081,6,0,B|84:264|124:316|124:316|144:288|136:256,1,190
52,128,48505,2,0,B|36:112|8:108|8:108|0:132|8:156,1,95
172,188,48788,1,0,0:0:0:0:
16,287,48930,2,0,B|10:308|20:335|20:335|45:330|62:311,1,95
128,120,49213,2,0,P|184:108|248:216,1,190
249,227,49567,1,0,0:0:0:0:
255,250,49638,1,0,0:0:0:0:
267,271,49709,1,0,0:0:0:0:
284,287,49779,2,0,L|378:268,1,95
172,188,50062,2,0,P|156:196|124:200,1,47.5
185,108,50203,2,0,P|208:114|228:128,1,47.5
255,250,50345,6,0,P|248:200|284:68,1,190
140,94,50769,2,0,P|97:115|51:127,1,95
200,8,51052,1,0,0:0:0:0:
172,188,51194,2,0,P|145:227|111:261,1,95
255,250,51477,2,0,B|268:168|228:128|228:128|252:152|288:148,1,190
296,128,51831,1,0,0:0:0:0:
304,105,51901,1,0,0:0:0:0:
300,83,51972,1,0,0:0:0:0:
284,68,52043,2,0,P|338:88|362:128,1,95
336,312,52326,2,0,P|323:332|309:351,1,47.5
332,236,52467,2,0,P|344:215|358:196,1,47.5
255,250,52609,6,0,B|256:292|256:292|112:260,1,190
189,128,53033,2,0,L|285:149,1,95
413,298,53317,1,0,0:0:0:0:
196,204,53458,2,0,L|103:183,1,95
255,250,53741,2,0,B|304:260|341:223|341:223|380:188|432:196,1,190
426,220,54094,1,0,0:0:0:0:
421,246,54165,1,0,0:0:0:0:
417,272,54236,1,0,0:0:0:0:
413,298,54307,2,0,B|384:312|360:300|360:300|384:288|396:272,1,95
280,176,54590,2,0,P|257:170|233:172,1,47.5
208,246,54732,2,0,P|231:251|255:250,1,47.5
331,232,54873,6,0,P|350:144|274:99,1,190
103,183,55298,2,0,L|74:91,1,95
34,258,55581,1,0,0:0:0:0:
172,108,55722,2,0,L|143:17,1,95
107,258,56005,2,0,B|116:272|116:272|184:252|191:192|191:192|208:246,1,190
215,268,56359,1,0,0:0:0:0:
222,291,56430,1,0,0:0:0:0:
229,313,56501,1,0,0:0:0:0:
235,335,56571,2,0,P|278:356|325:355,1,95
373,211,56854,2,0,P|350:218|330:231,1,47.5
461,231,56996,2,0,P|465:207|464:184,1,47.5
398,301,57137,6,0,P|440:321|487:320,1,95
373,211,57420,1,0,0:0:0:0:
208,246,57562,2,0,P|165:266|118:265,1,95
232,156,57845,1,0,0:0:0:0:
320,350,57986,6,0,P|364:334|397:300,1,95
386,138,58269,2,0,P|306:177|324:264,1,190
300,260,58623,1,0,0:0:0:0:
276,257,58694,1,0,0:0:0:0:
253,254,58765,1,0,0:0:0:0:
229,250,58835,2,0,P|196:283|151:299,1,95
61,173,59118,2,0,L|51:127,1,47.5
144,196,59260,2,0,L|134:150,1,47.5
68,276,59401,5,0,0:0:0:0:
234,322,59543,1,0,0:0:0:0:
373,211,59684,2,0,L|351:118,1,95
217,173,59967,2,0,L|227:219,1,47.5
300,260,60109,1,0,0:0:0:0:
151,298,60251,1,0,0:0:0:0:
373,301,60392,1,0,0:0:0:0:
234,322,60533,6,0,B|188:336|152:300|152:300|124:184,1,190
113,185,60887,1,0,0:0:0:0:
91,174,60958,1,0,0:0:0:0:
68,171,61029,1,0,0:0:0:0:
45,175,61100,2,0,L|67:268,1,95
211,229,61383,2,0,L|201:183,1,47.5
300,260,61524,2,0,L|310:306,1,47.5
444,221,61666,5,0,0:0:0:0:
278,175,61807,1,0,0:0:0:0:
372,356,61949,2,0,P|388:311|379:265,1,95
232,313,62232,1,0,0:0:0:0:
360,200,62373,1,0,0:0:0:0:
