osu file format v14

[General]
AudioFilename: audio.mp3
AudioLeadIn: 0
PreviewTime: 168010
Countdown: 0
SampleSet: Soft
StackLeniency: 0.4
Mode: 0
LetterboxInBreaks: 0
WidescreenStoryboard: 1

[Editor]
Bookmarks: 5062,41288,77515,95628,131854,168081,204307
DistanceSpacing: 1
BeatDivisor: 4
GridSize: 4
TimelineZoom: 2.999999

[Metadata]
Title:Genesis At Oasis (MOONLiGHT Mix)
TitleUnicode:Genesis At Oasis (MOONLiGHT Mix)
Artist:Hakuryu
ArtistUnicode:白龍
Creator:Krimek
Version:Ren's Beginner
Source:REFLEC BEAT groovin'!!
Tags:Ryu☆BEST -MOONLiGHT- Narcissus At Oasis 10th Style drum and bass Extended Mix 音源 SnowNiNo_ RyoKazuka -Famous- Vell DeRandom Otaku
BeatmapID:1103685
BeatmapSetID:500816

[Difficulty]
HPDrainRate:2
CircleSize:2.5
OverallDifficulty:2
ApproachRate:3
SliderMultiplier:0.899999999999999
SliderTickRate:1

[Events]
//Background and Video events
0,0,"bg.jpg",0,0
//Break Periods
2,77715,85131
2,132055,148527
//Storyboard Layer 0 (Background)
//Storyboard Layer 1 (Fail)
//Storyboard Layer 2 (Pass)
//Storyboard Layer 3 (Foreground)
//Storyboard Sound Samples

[TimingPoints]
534,283.018867924528,4,2,1,5,1,0
1383,-100,4,2,1,10,0,0
1666,-100,4,2,1,15,0,0
1949,-100,4,2,1,20,0,0
2232,-100,4,2,1,25,0,0
2515,-100,4,2,1,30,0,0
2798,-100,4,2,1,35,0,0
3081,-100,4,2,1,40,0,0
3364,-100,4,2,1,45,0,0
3647,-100,4,2,1,50,0,0
3930,-100,4,2,1,55,0,0
4213,-100,4,2,1,60,0,0
4496,-100,4,2,1,5,0,0
5062,-100,4,2,1,50,0,0
32232,-100,4,2,1,50,0,0
41288,-100,4,2,1,50,0,0
77515,-100,4,2,1,50,0,0
86571,-100,4,2,1,50,0,0
95628,-100,4,2,1,50,0,0
131854,-100,4,2,1,50,0,0
149967,-100,4,2,1,50,0,0
159024,-100,4,2,1,50,0,0
168081,-100,4,2,1,60,0,1
204307,-100,4,2,1,60,0,0
204342,-100,4,2,1,5,0,0
204378,-100,4,2,1,60,0,0
208269,-100,4,2,1,50,0,0
208411,-100,4,2,1,40,0,0
208552,-100,4,2,1,30,0,0
208694,-100,4,2,1,20,0,0
208835,-100,4,2,1,10,0,0

[Colours]
Combo1 : 241,12,12
Combo2 : 70,113,125
Combo3 : 44,60,88
Combo4 : 240,189,244

[HitObjects]
251,253,23175,6,0,P|339:253|399:186,1,180
388,99,24024,1,0,0:0:0:0:
338,24,24307,2,0,P|250:24|190:91,1,180
251,253,25439,6,0,B|335:265|335:265|436:265,1,180
493,201,26288,1,0,0:0:0:0:
429,137,26571,2,0,B|333:137|333:137|249:149,1,180
107,258,27703,6,0,P|64:184|105:107,1,180
155,183,28552,1,0,0:0:0:0:
202,258,28835,2,0,P|245:184|204:107,1,180
107,258,29967,6,0,P|135:324|237:345,1,180
297,282,30817,1,0,0:0:0:0:
360,345,31100,2,0,P|445:333|486:256,1,180
406,95,32232,6,0,L|304:107,1,89.9999999999999
226,105,32798,2,0,L|136:94,1,89.9999999999999
47,84,33364,1,0,0:0:0:0:
82,167,33647,2,0,L|24:260,2,89.9999999999999
137,95,34496,6,0,P|168:61|223:39,1,89.9999999999999
297,42,35062,2,0,P|337:61|367:94,1,89.9999999999999
372,184,35628,2,0,P|327:190|284:180,2,89.9999999999999
451,140,36477,1,0,0:0:0:0:
503,213,36760,6,0,L|498:302,1,89.9999999999999
422,351,37326,2,0,L|314:345,1,89.9999999999999
242,334,37892,2,0,L|134:340,1,89.9999999999999
70,303,38458,2,0,L|65:213,1,89.9999999999999
141,165,39024,6,0,P|54:164|10:90,1,180
100,87,39873,1,0,0:0:0:0:
189,84,40156,2,0,L|288:81,1,89.9999999999999
368,78,40722,2,0,L|371:177,1,89.9999999999999
432,233,41288,6,0,P|345:215|249:237,2,180
495,296,42703,1,0,0:0:0:0:
431,359,42986,2,0,P|383:364|337:360,1,89.9999999999999
253,341,43552,6,0,B|163:327|163:327|70:342,2,180
341,360,44967,1,0,0:0:0:0:
379,278,45250,2,0,P|379:227|355:181,1,89.9999999999999
285,145,45817,6,0,P|370:166|446:113,2,180
206,101,47232,1,0,0:0:0:0:
134,155,47515,2,0,P|127:198|136:246,1,89.9999999999999
207,296,48081,6,0,B|138:280|138:280|27:316,2,180
270,359,49496,1,0,0:0:0:0:
333,295,49779,2,0,L|438:295,1,89.9999999999999
423,205,50345,6,0,L|239:205,2,180
479,134,51760,1,0,0:0:0:0:
430,59,52043,2,0,L|319:59,1,89.9999999999999
255,25,52609,6,0,L|243:205,2,180
165,31,54024,2,0,P|117:31|82:51,2,89.9999999999999
143,118,54873,6,0,L|107:307,2,180
165,31,56288,1,0,0:0:0:0:
231,91,56571,2,0,L|327:100,1,89.9999999999999
410,99,57137,6,0,P|439:181|411:273,2,180
365,21,58552,1,0,0:0:0:0:
320,99,58835,2,0,L|294:202,1,89.9999999999999
244,260,59401,6,0,P|331:239|426:276,2,180
161,295,60817,1,0,0:0:0:0:
74,320,61100,2,0,L|69:223,1,89.9999999999999
57,140,61666,6,0,P|111:71|204:57,1,180
347,156,62798,2,0,L|337:249,2,89.9999999999999
400,84,63647,1,0,0:0:0:0:
310,76,63930,6,0,P|224:80|157:147,1,180
112,316,65062,2,0,L|10:305,2,89.9999999999999
175,252,65911,1,0,0:0:0:0:
238,315,66194,6,0,L|427:293,1,180
416,114,67326,2,0,L|314:103,2,89.9999999999999
436,204,68175,1,0,0:0:0:0:
416,294,68458,6,0,P|337:293|251:234,1,180
178,75,69590,2,0,P|133:75|88:86,2,89.9999999999999
241,138,70439,1,0,0:0:0:0:
304,74,70722,6,0,P|394:74|464:128,1,180
332,251,71854,2,0,L|339:353,2,89.9999999999999
268,187,72703,1,0,0:0:0:0:
203,250,72986,6,0,P|178:184|248:98,1,180
416,108,74118,2,0,L|410:12,2,89.9999999999999
448,192,74967,1,0,0:0:0:0:
416,276,75250,6,0,L|220:286,1,180
71,212,76383,2,0,P|58:166|77:110,2,89.9999999999999
149,166,77232,1,0,0:0:0:0:
233,135,77515,5,0,0:0:0:0:
150,348,86571,6,0,B|276:348|276:348|293:357|293:357|429:357,1,270
436,268,87703,2,0,B|311:268|311:268|294:259|294:259|168:259,1,270
189,171,88835,6,0,B|315:171|315:171|332:180|332:180|468:180,1,270
475,91,89967,2,0,B|350:91|350:91|333:82|333:82|207:82,1,270
119,82,91100,6,0,P|60:182|120:316,1,270
209,313,92232,2,0,P|267:196|207:81,1,270
143,16,93364,6,0,B|272:62|272:1|416:36,1,270
409,124,94496,2,0,B|271:157|271:96|142:142,1,270
60,179,95628,6,0,P|60:244|146:325,1,180
276,208,96760,2,0,L|256:101,1,89.9999999999999
347,137,97326,2,0,L|367:244,1,89.9999999999999
432,283,97892,6,0,B|367:271|367:271|251:314,1,180
138,178,99024,2,0,P|130:132|142:78,1,89.9999999999999
200,26,99590,2,0,P|246:16|290:28,1,89.9999999999999
350,90,100156,6,0,B|350:180|350:180|319:270,1,180
156,337,101288,2,0,B|108:337|108:337|61:322,1,89.9999999999999
67,234,101854,2,0,B|107:221|107:221|155:221,1,89.9999999999999
223,279,102420,6,0,L|419:279,1,180
413,99,103552,2,0,P|413:56|381:12,1,89.9999999999999
298,17,104118,2,0,P|273:54|273:98,1,89.9999999999999
343,157,104684,6,0,B|278:139|278:139|154:157,1,180
58,299,105817,2,0,L|133:353,1,89.9999999999999
221,351,106383,2,0,L|294:298,1,89.9999999999999
362,240,106949,6,0,P|448:250|492:330,1,180
311,351,108081,2,0,L|203:350,1,89.9999999999999
185,267,108647,2,0,L|77:266,1,89.9999999999999
33,331,109213,6,0,P|48:261|9:154,1,180
155,49,110345,2,0,L|259:58,1,89.9999999999999
334,56,110911,2,0,L|423:48,1,89.9999999999999
475,121,111477,6,0,B|487:213|487:213|470:312,1,180
299,347,112609,1,0,0:0:0:0:
339,267,112892,2,0,P|351:228|351:177,1,89.9999999999999
351,89,113458,1,0,0:0:0:0:
268,124,113741,6,0,P|181:145|86:108,2,180
351,89,115157,1,0,0:0:0:0:
438,64,115440,2,0,L|443:161,1,89.9999999999999
455,244,116006,6,0,P|401:313|308:327,1,180
165,228,117138,2,0,L|175:135,2,89.9999999999999
112,300,117987,1,0,0:0:0:0:
202,308,118270,6,0,P|288:304|355:237,1,180
400,68,119402,2,0,L|502:79,2,89.9999999999999
337,132,120251,1,0,0:0:0:0:
274,69,120534,6,0,L|85:91,1,180
96,270,121666,2,0,L|198:281,2,89.9999999999999
76,180,122515,1,0,0:0:0:0:
96,90,122798,6,0,P|175:91|261:150,1,180
334,309,123930,2,0,P|379:309|424:298,2,89.9999999999999
271,246,124779,1,0,0:0:0:0:
208,310,125062,6,0,P|118:310|48:256,1,180
180,133,126194,2,0,L|173:31,2,89.9999999999999
244,197,127043,1,0,0:0:0:0:
309,134,127326,6,0,P|334:200|264:286,1,180
96,276,128458,2,0,L|102:372,2,89.9999999999999
64,192,129307,1,0,0:0:0:0:
96,108,129590,6,0,L|292:98,1,180
441,172,130723,2,0,P|454:218|435:274,2,89.9999999999999
363,218,131572,1,0,0:0:0:0:
279,249,131855,5,0,0:0:0:0:
261,131,149967,6,0,P|173:131|113:198,1,180
124,285,150816,1,0,0:0:0:0:
174,360,151099,2,0,P|262:360|322:293,1,180
261,131,152231,6,0,B|177:119|177:119|76:119,1,180
19,183,153080,1,0,0:0:0:0:
83,247,153363,2,0,B|179:247|179:247|263:235,1,180
405,126,154495,6,0,P|448:200|407:277,1,180
357,201,155344,1,0,0:0:0:0:
310,126,155627,2,0,P|267:200|308:277,1,180
405,126,156759,6,0,P|377:60|275:39,1,180
215,102,157609,1,0,0:0:0:0:
152,39,157892,2,0,P|67:51|26:128,1,180
113,285,159024,5,0,0:0:0:0:
188,235,159307,2,0,L|378:246,1,180
384,66,160439,2,0,L|194:55,1,180
119,84,161288,5,0,0:0:0:0:
46,136,161571,2,0,B|33:225|33:225|48:322,1,180
226,313,162703,2,0,B|239:224|239:224|226:135,1,180
209,46,163552,5,0,0:0:0:0:
294,73,163835,2,0,B|383:73|383:73|487:40,1,180
469,225,164967,2,0,B|382:197|382:197|293:197,1,180
202,197,165817,5,0,0:0:0:0:
112,197,166100,2,0,P|112:150|128:98,2,89.9999999999999
112,286,166949,2,0,P|65:286|13:270,2,89.9999999999999
192,245,167798,1,0,0:0:0:0:
261,303,168081,6,0,P|310:303|359:284,1,89.9999999999999
348,199,168647,2,0,P|305:185|260:185,1,89.9999999999999
192,245,169213,2,0,L|86:245,2,89.9999999999999
261,303,170062,1,0,0:0:0:0:
332,357,170345,6,0,L|443:357,1,89.9999999999999
485,293,170911,2,0,L|485:182,1,89.9999999999999
421,139,171477,2,0,L|310:139,1,89.9999999999999
268,203,172043,2,0,L|268:314,1,89.9999999999999
204,356,172609,6,0,B|160:356|160:356|104:336,1,89.9999999999999
38,295,173175,2,0,B|38:251|38:251|58:195,1,89.9999999999999
140,185,173741,2,0,P|54:179|14:102,1,180
104,104,174590,1,0,0:0:0:0:
194,105,174873,6,0,L|295:109,1,89.9999999999999
373,112,175439,2,0,L|369:213,1,89.9999999999999
301,260,176005,2,0,B|370:242|370:242|485:242,1,180
455,153,176854,1,0,0:0:0:0:
373,112,177137,6,0,L|270:120,1,89.9999999999999
193,118,177703,2,0,L|90:110,1,89.9999999999999
13,111,178269,2,0,P|13:72|42:25,2,89.9999999999999
56,189,179118,1,0,0:0:0:0:
13,268,179401,6,0,P|13:307|42:354,1,89.9999999999999
101,286,179967,2,0,L|194:286,1,89.9999999999999
280,286,180533,2,0,L|370:286,1,89.9999999999999
434,350,181100,2,0,P|457:312|458:267,1,89.9999999999999
398,200,181666,6,0,B|398:154|398:154|406:106,1,89.9999999999999
322,74,182232,2,0,B|276:74|276:74|232:66,1,89.9999999999999
167,5,182798,2,0,P|196:88|195:190,1,180
133,242,183647,1,0,0:0:0:0:
196,305,183930,6,0,L|297:305,1,89.9999999999999
315,219,184496,2,0,L|416:219,1,89.9999999999999
472,278,185062,2,0,B|444:217|444:217|444:95,1,180
380,40,185911,1,0,0:0:0:0:
316,103,186194,6,0,P|271:103|233:81,1,89.9999999999999
147,54,186760,2,0,P|102:53|64:76,1,89.9999999999999
125,142,187326,2,0,L|113:252,2,89.9999999999999
147,54,188175,1,0,0:0:0:0:
210,117,188458,6,0,P|254:133|306:133,1,89.9999999999999
386,134,189024,2,0,P|370:178|370:230,1,89.9999999999999
368,310,189590,2,0,P|324:294|272:294,1,89.9999999999999
192,293,190156,2,0,P|208:249|208:197,1,89.9999999999999
210,117,190722,6,0,P|163:117|121:133,1,89.9999999999999
62,197,191288,2,0,P|77:239|76:283,1,89.9999999999999
20,353,191854,2,0,P|97:326|208:348,1,180
256,276,192703,1,0,0:0:0:0:
321,337,192986,6,0,P|366:337|415:317,1,89.9999999999999
407,231,193552,2,0,P|364:215|320:215,1,89.9999999999999
256,276,194118,2,0,B|276:206|276:206|276:85,1,180
212,35,194967,1,0,0:0:0:0:
148,98,195250,6,0,L|50:98,1,89.9999999999999
58,188,195817,2,0,L|156:188,1,89.9999999999999
226,144,196383,2,0,L|320:144,2,89.9999999999999
148,98,197232,1,0,0:0:0:0:
226,52,197515,6,0,L|330:52,1,89.9999999999999
405,52,198081,2,0,L|405:156,1,89.9999999999999
316,144,198647,2,0,L|212:144,1,89.9999999999999
137,144,199213,2,0,L|137:40,1,89.9999999999999
47,63,199779,6,0,B|38:110|38:110|50:165,1,89.9999999999999
69,238,200345,2,0,B|116:247|116:247|171:235,1,89.9999999999999
216,169,200911,2,0,P|216:258|256:345,1,180
342,340,201760,1,0,0:0:0:0:
431,340,202043,6,0,B|440:297|440:297|440:247,1,89.9999999999999
376,187,202609,2,0,B|376:140|376:140|385:97,1,89.9999999999999
431,21,203175,1,0,0:0:0:0:
341,21,203458,2,0,L|251:21,1,89.9999999999999
165,48,204024,1,0,0:0:0:0:
256,192,204307,12,0,208835,0:0:0:0:
