osu file format v14

[General]
AudioFilename: audio.mp3
AudioLeadIn: 0
PreviewTime: 129514
Countdown: 0
SampleSet: Normal
StackLeniency: 0.7
Mode: 1
LetterboxInBreaks: 0
WidescreenStoryboard: 1

[Editor]
Bookmarks: 687,45952,85481,108070,130658,164540,198423,209717,230893,243599,259128,304305
DistanceSpacing: 0.85
BeatDivisor: 4
GridSize: 32
TimelineZoom: 2

[Metadata]
Title:Ruma (wanseventy bootleg)
TitleUnicode:ルマ (wanseventy bootleg)
Artist:Hakui Koyori
ArtistUnicode:博衣こより
Creator:Nokduro
Version:Nok & ler's Incorrect Answer
Source:
Tags:luma js090213 ler1211 ホロライブ hololive 秘密結社 secret society holox 頭脳 brain virtual youtuber vtuber かいりきベア kairiki bear ハイカラサウンド highkarasound びびすか Bibi_suka らいり _Rai28 japanese electronic hardcore j-core jcore わおーん
BeatmapID:3400683
BeatmapSetID:1665751

[Difficulty]
HPDrainRate:5
CircleSize:5
OverallDifficulty:6.5
ApproachRate:5
SliderMultiplier:1.4
SliderTickRate:1

[Events]
//Background and Video events
0,0,"konkoyo.png",0,90
//Break Periods
2,232420,233843
//Storyboard Layer 0 (Background)
//Storyboard Layer 1 (Fail)
//Storyboard Layer 2 (Pass)
//Storyboard Layer 3 (Foreground)
//Storyboard Layer 4 (Overlay)
//Storyboard Sound Samples

[TimingPoints]
691,352.941176470588,4,1,0,75,1,0
691,-100,4,1,0,75,0,0
776,-100.164761388386,4,1,0,75,0,0
864,-100.329794239923,4,1,0,75,0,0
953,-100.495099001878,4,1,0,75,0,0
1041,-100.660676122253,4,1,0,75,0,0
1129,-100.826526049791,4,1,0,75,0,0
1217,-100.992649233972,4,1,0,75,0,0
1306,-101.159046125018,4,1,0,74,0,0
1394,-101.325717173891,4,1,0,74,0,0
1482,-101.492662832299,4,1,0,74,0,0
1570,-101.659883552692,4,1,0,74,0,0
1659,-101.827379788265,4,1,0,74,0,0
1747,-101.995151992961,4,1,0,74,0,0
1835,-102.163200621471,4,1,0,74,0,0
1923,-102.331526129235,4,1,0,74,0,0
2012,-102.500128972442,4,1,0,74,0,0
2100,-102.669009608034,4,1,0,74,0,0
2188,-102.838168493707,4,1,0,74,0,0
2276,-103.007606087908,4,1,0,74,0,0
2364,-103.177322849841,4,1,0,74,0,0
2453,-103.347319239468,4,1,0,73,0,0
2541,-103.517595717507,4,1,0,73,0,0
2629,-103.688152745435,4,1,0,73,0,0
2717,-103.85899078549,4,1,0,73,0,0
2806,-104.030110300672,4,1,0,73,0,0
2894,-104.201511754743,4,1,0,73,0,0
2982,-104.373195612229,4,1,0,73,0,0
3070,-104.545162338423,4,1,0,73,0,0
3159,-104.717412399382,4,1,0,73,0,0
3247,-104.889946261933,4,1,0,73,0,0
3335,-105.062764393672,4,1,0,73,0,0
3423,-105.235867262964,4,1,0,73,0,0
3512,-105.409255338946,4,1,0,73,0,0
3600,-105.58292909153,4,1,0,72,0,0
3688,-105.7568889914,4,1,0,72,0,0
3776,-105.931135510016,4,1,0,72,0,0
3864,-106.105669119615,4,1,0,72,0,0
3953,-106.280490293213,4,1,0,72,0,0
4041,-106.455599504604,4,1,0,72,0,0
4129,-106.630997228362,4,1,0,72,0,0
4217,-106.806683939845,4,1,0,72,0,0
4306,-106.982660115194,4,1,0,72,0,0
4394,-107.158926231332,4,1,0,72,0,0
4482,-107.33548276597,4,1,0,72,0,0
4570,-107.512330197606,4,1,0,72,0,0
4659,-107.689469005526,4,1,0,71,0,0
4747,-107.866899669805,4,1,0,71,0,0
4835,-108.04462267131,4,1,0,71,0,0
4923,-108.2226384917,4,1,0,71,0,0
5012,-108.400947613427,4,1,0,71,0,0
5100,-108.579550519738,4,1,0,71,0,0
5188,-108.758447694678,4,1,0,71,0,0
5276,-108.937639623087,4,1,0,71,0,0
5364,-109.117126790605,4,1,0,71,0,0
5453,-109.296909683672,4,1,0,71,0,0
5541,-109.47698878953,4,1,0,71,0,0
5629,-109.657364596223,4,1,0,71,0,0
5717,-109.838037592599,4,1,0,71,0,0
5806,-110.019008268312,4,1,0,70,0,0
5894,-110.200277113824,4,1,0,70,0,0
5982,-110.381844620402,4,1,0,70,0,0
6070,-110.563711280125,4,1,0,70,0,0
6159,-110.745877585881,4,1,0,70,0,0
6247,-110.928344031372,4,1,0,70,0,0
6335,-111.111111111111,4,1,0,70,0,0
10570,-111.111111111111,4,1,0,70,0,0
10658,-110.381844620402,4,1,0,70,0,0
10746,-109.657364596222,4,1,0,71,0,0
10835,-108.937639623087,4,1,0,71,0,0
10923,-108.2226384917,4,1,0,71,0,0
11011,-107.512330197606,4,1,0,72,0,0
11099,-106.806683939845,4,1,0,72,0,0
11188,-106.105669119615,4,1,0,72,0,0
11276,-105.409255338946,4,1,0,73,0,0
11364,-104.717412399382,4,1,0,73,0,0
11452,-104.030110300672,4,1,0,73,0,0
11541,-103.347319239468,4,1,0,73,0,0
11629,-102.669009608034,4,1,0,74,0,0
11717,-101.995151992961,4,1,0,74,0,0
11805,-101.325717173891,4,1,0,74,0,0
11894,-100.660676122253,4,1,0,75,0,0
11982,-100,4,1,0,75,0,0
17632,-97.087378640777,4,1,0,80,0,0
19043,-94.339622641509,4,1,0,80,0,0
20455,-91.743119266055,4,1,0,80,0,0
21955,-103.092783505155,4,1,0,80,0,0
23279,-100,4,1,0,80,0,0
40220,-97.087378640777,4,1,0,80,0,0
41610,-94.339622641509,4,1,0,80,0,0
43043,-91.743119266055,4,1,0,80,0,0
45867,-105.263157894737,4,1,0,70,0,0
57161,-100,4,1,0,80,0,0
62808,-100,4,1,0,75,0,0
74014,-90.909090909091,4,1,0,80,0,0
75426,-83.333333333333,4,1,0,80,0,0
76132,-105.263157894737,4,1,0,75,0,0
76838,-100,4,1,0,75,0,0
79661,-90.909090909091,4,1,0,80,0,0
81073,-83.333333333333,4,1,0,80,0,0
81779,-105.263157894737,4,1,0,75,0,0
82573,-100,4,1,0,75,0,0
85396,-125,4,1,0,75,0,0
96690,-117.647058823529,4,1,0,75,0,0
102335,-111.111111111111,4,1,0,75,0,0
102423,-110.754853196171,4,1,0,75,0,0
102511,-110.399737558549,4,1,0,75,0,0
102600,-110.045760535737,4,1,0,75,0,0
102688,-109.692918476969,4,1,0,75,0,0
102776,-109.341207743187,4,1,0,75,0,0
102864,-108.990624706998,4,1,0,75,0,0
102953,-108.641165752643,4,1,0,75,0,0
103041,-108.292827275954,4,1,0,75,0,0
103129,-107.94560568432,4,1,0,75,0,0
103217,-107.599497396648,4,1,0,75,0,0
103306,-107.254498843328,4,1,0,75,0,0
103394,-106.910606466196,4,1,0,75,0,0
103482,-106.567816718494,4,1,0,75,0,0
103570,-106.22612606484,4,1,0,75,0,0
103659,-105.885530981184,4,1,0,75,0,0
103747,-95.238095238095,4,1,0,75,0,0
103835,-105.207613484133,4,1,0,75,0,0
103923,-104.870284078992,4,1,0,75,0,0
104011,-104.534036260286,4,1,0,75,0,0
104100,-104.198866560101,4,1,0,75,0,0
104188,-103.864771521643,4,1,0,75,0,0
104276,-103.531747699201,4,1,0,75,0,0
104364,-103.199791658113,4,1,0,75,0,0
104453,-102.868899974728,4,1,0,75,0,0
104541,-102.539069236374,4,1,0,75,0,0
104629,-102.210296041319,4,1,0,75,0,0
104717,-101.882576998742,4,1,0,75,0,0
104806,-101.55590872869,4,1,0,75,0,0
104894,-101.230287862048,4,1,0,75,0,0
104982,-100.905711040506,4,1,0,75,0,0
105070,-100.582174916518,4,1,0,75,0,0
105159,-90.909090909091,4,1,0,75,0,0
105247,-99.938211424666,4,1,0,75,0,0
105335,-99.617777415241,4,1,0,75,0,0
105423,-99.298370820185,4,1,0,75,0,0
105511,-98.979988345277,4,1,0,75,0,0
105600,-98.662626706859,4,1,0,75,0,0
105688,-98.346282631802,4,1,0,75,0,0
105776,-98.030952857469,4,1,0,75,0,0
105864,-88.967971530249,4,1,0,75,0,0
105953,-97.403323212712,4,1,0,75,0,0
106041,-97.091016869188,4,1,0,75,0,0
106129,-96.779711880126,4,1,0,75,0,0
106217,-96.46940503486,4,1,0,75,0,0
106306,-96.160093133021,4,1,0,75,0,0
106394,-95.851772984501,4,1,0,75,0,0
106482,-95.544441409421,4,1,0,75,0,0
106570,-86.95652173913,4,1,0,75,0,0
106926,-95.238095238095,4,1,0,75,0,0
107632,-74.074074074074,4,1,0,75,0,0
107985,-90.909090909091,4,1,0,85,0,1
118926,-76.923076923077,4,1,0,85,0,0
119279,-90.909090909091,4,1,0,85,0,1
126335,-90.909090909091,4,1,0,85,0,1
126423,-90.709865610819,4,1,0,85,0,1
126511,-90.511076910462,4,1,0,85,0,1
126600,-90.312723851224,4,1,0,85,0,1
126688,-90.114805478407,4,1,0,85,0,1
126776,-89.917320839406,4,1,0,85,0,1
126864,-89.720268983702,4,1,0,85,0,1
126953,-89.52364896286,4,1,0,85,0,1
127041,-89.327459830523,4,1,0,85,0,1
127129,-89.131700642409,4,1,0,85,0,1
127217,-88.936370456303,4,1,0,85,0,1
127306,-88.741468332059,4,1,0,85,0,1
127394,-88.546993331586,4,1,0,85,0,1
127482,-88.352944518853,4,1,0,85,0,1
127570,-88.159320959879,4,1,0,85,0,1
127659,-87.966121722729,4,1,0,85,0,1
127747,-87.773345877511,4,1,0,85,0,1
127835,-87.58099249637,4,1,0,85,0,1
127923,-87.389060653487,4,1,0,85,0,1
128011,-87.197549425069,4,1,0,85,0,1
128100,-87.006457889349,4,1,0,85,0,1
128188,-86.815785126579,4,1,0,85,0,1
128276,-86.625530219027,4,1,0,85,0,1
128364,-86.435692250973,4,1,0,85,0,1
128453,-86.246270308703,4,1,0,85,0,1
128541,-86.057263480506,4,1,0,85,0,1
128629,-85.868670856667,4,1,0,85,0,1
128717,-85.680491529467,4,1,0,85,0,1
128806,-85.492724593176,4,1,0,85,0,1
128894,-85.305369144048,4,1,0,85,0,1
128982,-85.118424280317,4,1,0,85,0,1
129070,-84.931889102195,4,1,0,85,0,1
129161,-84.745762711864,4,1,0,85,0,0
129514,-95.238095238095,4,1,0,75,0,0
130220,-74.074074074074,4,1,0,85,0,0
130573,-90.909090909091,4,1,0,85,0,1
141514,-76.923076923077,4,1,0,85,0,0
141867,-90.909090909091,4,1,0,85,0,1
148923,-90.909090909091,4,1,0,85,0,1
149011,-90.709865610819,4,1,0,85,0,1
149099,-90.511076910462,4,1,0,85,0,1
149188,-90.312723851224,4,1,0,85,0,1
149276,-90.114805478407,4,1,0,85,0,1
149364,-89.917320839406,4,1,0,85,0,1
149452,-89.720268983702,4,1,0,85,0,1
149541,-89.52364896286,4,1,0,85,0,1
149629,-89.327459830523,4,1,0,85,0,1
149717,-89.131700642409,4,1,0,85,0,1
149805,-88.936370456303,4,1,0,85,0,1
149894,-88.741468332059,4,1,0,85,0,1
149982,-88.546993331586,4,1,0,85,0,1
150070,-88.352944518853,4,1,0,85,0,1
150158,-88.159320959879,4,1,0,85,0,1
150247,-87.966121722729,4,1,0,85,0,1
150335,-87.773345877511,4,1,0,85,0,1
150423,-87.58099249637,4,1,0,85,0,1
150511,-87.389060653487,4,1,0,85,0,1
150599,-87.197549425069,4,1,0,85,0,1
150688,-87.006457889349,4,1,0,85,0,1
150776,-86.815785126579,4,1,0,85,0,1
150864,-86.625530219027,4,1,0,85,0,1
150952,-86.435692250973,4,1,0,85,0,1
151041,-86.246270308703,4,1,0,85,0,1
151129,-86.057263480506,4,1,0,85,0,1
151217,-85.868670856667,4,1,0,85,0,1
151305,-85.680491529467,4,1,0,85,0,1
151394,-85.492724593176,4,1,0,85,0,1
151482,-85.305369144048,4,1,0,85,0,1
151570,-85.118424280317,4,1,0,85,0,1
151658,-84.931889102195,4,1,0,85,0,1
151749,-84.745762711864,4,1,0,85,0,0
152014,-95.238095238095,4,1,0,75,0,0
152720,-74.074074074074,4,1,0,85,0,0
153161,-100,4,1,0,80,0,0
164102,-76.923076923077,4,1,0,80,0,0
164455,-100,4,1,0,80,0,0
173610,-100,4,1,0,80,0,0
173698,-98.890632003586,4,1,0,80,0,0
173874,-96.732205247654,4,1,0,80,0,0
173963,-95.693779904306,4,1,0,80,0,0
174139,-93.671221971607,4,1,0,80,0,0
174227,-92.697145558152,4,1,0,80,0,0
174315,-91.743119266055,4,1,0,80,0,0
175749,-100,4,1,0,75,0,0
186955,-90.909090909091,4,1,0,80,0,0
188367,-83.333333333333,4,1,0,80,0,0
189073,-105.263157894737,4,1,0,75,0,0
189779,-100,4,1,0,75,0,0
192602,-90.909090909091,4,1,0,80,0,0
194014,-83.333333333333,4,1,0,80,0,0
194720,-105.263157894737,4,1,0,75,0,0
195514,-100,4,1,0,75,0,0
197896,-74.074074074074,4,1,0,85,0,0
198338,-90.909090909091,4,1,0,85,0,1
205393,-90.909090909091,4,1,0,85,0,1
205481,-90.709865610819,4,1,0,85,0,1
205569,-90.511076910462,4,1,0,85,0,1
205658,-90.312723851224,4,1,0,85,0,1
205746,-90.114805478407,4,1,0,85,0,1
205834,-89.917320839406,4,1,0,85,0,1
205922,-89.720268983702,4,1,0,85,0,1
206011,-89.52364896286,4,1,0,85,0,1
206099,-89.327459830523,4,1,0,85,0,1
206187,-89.131700642409,4,1,0,85,0,1
206275,-88.936370456303,4,1,0,85,0,1
206364,-88.741468332059,4,1,0,85,0,1
206452,-88.546993331586,4,1,0,85,0,1
206540,-88.352944518853,4,1,0,85,0,1
206628,-88.159320959879,4,1,0,85,0,1
206717,-87.966121722729,4,1,0,85,0,1
206805,-87.773345877511,4,1,0,85,0,1
206893,-87.58099249637,4,1,0,85,0,1
206981,-87.389060653487,4,1,0,85,0,1
207069,-87.197549425069,4,1,0,85,0,1
207158,-87.006457889349,4,1,0,85,0,1
207246,-86.815785126579,4,1,0,85,0,1
207334,-86.625530219027,4,1,0,85,0,1
207422,-86.435692250973,4,1,0,85,0,1
207511,-86.246270308703,4,1,0,85,0,1
207599,-86.057263480506,4,1,0,85,0,1
207687,-85.868670856667,4,1,0,85,0,1
207775,-85.680491529467,4,1,0,85,0,1
207864,-85.492724593176,4,1,0,85,0,1
207952,-85.305369144048,4,1,0,85,0,1
208040,-85.118424280317,4,1,0,85,0,1
208128,-84.931889102195,4,1,0,85,0,1
208220,-84.745762711864,4,1,0,85,0,0
208485,-95.238095238095,4,1,0,75,0,0
209279,-74.074074074074,4,1,0,85,0,0
209632,-111.111111111111,4,1,0,75,0,0
211021,-111.111111111111,4,1,0,75,0,0
211198,-109.165986697327,4,1,0,75,0,0
211374,-107.298223442778,4,1,0,75,0,0
211463,-106.377852203455,4,1,0,75,0,0
211639,-104.603501788803,4,1,0,75,0,0
211727,-103.738339716629,4,1,0,75,0,0
211815,-102.877781661424,4,1,0,75,0,0
211904,-102.040816326531,4,1,0,75,0,0
212102,-95.238095238095,4,1,0,80,0,0
220573,-74.074074074074,4,1,0,80,0,0
220838,-95.238095238095,4,1,0,80,0,0
227982,-95.2380952380952,4,1,0,80,0,0
228070,-94.967730386088,4,1,0,80,0,0
228158,-94.6981330541894,4,1,0,80,0,0
228247,-94.4293010635396,4,1,0,80,0,0
228335,-94.1612322414641,4,1,0,80,0,0
228423,-93.8939244214564,4,1,0,80,0,0
228511,-93.6273754431603,4,1,0,80,0,0
228600,-93.3615831523525,4,1,0,80,0,0
228688,-93.0965454009249,4,1,0,80,0,0
228776,-92.8322600468681,4,1,0,80,0,0
228864,-92.5687249542528,4,1,0,80,0,0
228953,-92.305937993214,4,1,0,80,0,0
229041,-92.0438970399323,4,1,0,80,0,0
229129,-91.7825999766179,4,1,0,80,0,0
229217,-91.522044691493,4,1,0,80,0,0
229306,-91.2622290787747,4,1,0,80,0,0
229394,-91.003151038658,4,1,0,80,0,0
229482,-90.7448084772991,4,1,0,80,0,0
229570,-90.487199306798,4,1,0,80,0,0
229658,-90.2303214451822,4,1,0,80,0,0
229747,-89.9741728163892,4,1,0,80,0,0
229835,-89.7187513502505,4,1,0,80,0,0
229923,-89.4640549824741,4,1,0,80,0,0
230011,-89.2100816546285,4,1,0,80,0,0
230100,-88.9568293141254,4,1,0,80,0,0
230188,-88.7042959142037,4,1,0,80,0,0
230276,-88.4524794139126,4,1,0,80,0,0
230364,-88.2013777780952,4,1,0,80,0,0
230453,-87.9509889773723,4,1,0,80,0,0
230541,-87.7013109881254,4,1,0,80,0,0
230629,-87.4523417924809,4,1,0,80,0,0
230717,-87.2040793782936,4,1,0,80,0,0
230805,-87.2040793782936,4,1,0,80,0,0
230896,-105.263157894737,4,1,0,70,0,0
236190,-100,4,1,0,75,0,0
236543,-90.909090909091,4,1,0,80,0,0
237955,-100,4,1,0,75,0,0
240668,-100,4,1,0,80,0,0
240845,-98.76197803735,4,1,0,80,0,0
241021,-97.560975609756,4,1,0,80,0,0
241198,-96.382252559727,4,1,0,80,0,0
241374,-95.238095238095,4,1,0,80,0,0
241463,-94.669795507878,4,1,0,80,0,0
241551,-94.114510431247,4,1,0,80,0,0
241639,-93.565701411437,4,1,0,80,0,0
241727,-93.023255813953,4,1,0,80,0,0
241815,-92.481006025675,4,1,0,80,0,0
241904,-91.95102891378,4,1,0,80,0,0
241970,-91.599091793707,4,1,0,80,0,0
242036,-91.255735797841,4,1,0,80,0,0
242080,-90.909090909091,4,1,0,80,0,0
243073,-74.074074074074,4,1,0,85,0,0
243514,-90.909090909091,4,1,0,85,0,1
250570,-90.909090909091,4,1,0,85,0,1
250658,-90.709865610819,4,1,0,85,0,1
250746,-90.511076910462,4,1,0,85,0,1
250835,-90.312723851224,4,1,0,85,0,1
250923,-90.114805478407,4,1,0,85,0,1
251011,-89.917320839406,4,1,0,85,0,1
251099,-89.720268983702,4,1,0,85,0,1
251188,-89.52364896286,4,1,0,85,0,1
251276,-89.327459830523,4,1,0,85,0,1
251364,-89.131700642409,4,1,0,85,0,1
251452,-88.936370456303,4,1,0,85,0,1
251541,-88.741468332059,4,1,0,85,0,1
251629,-88.546993331586,4,1,0,85,0,1
251717,-88.352944518853,4,1,0,85,0,1
251805,-88.159320959879,4,1,0,85,0,1
251894,-87.966121722729,4,1,0,85,0,1
251982,-87.773345877511,4,1,0,85,0,1
252070,-87.58099249637,4,1,0,85,0,1
252158,-87.389060653487,4,1,0,85,0,1
252246,-87.197549425069,4,1,0,85,0,1
252335,-87.006457889349,4,1,0,85,0,1
252423,-86.815785126579,4,1,0,85,0,1
252511,-86.625530219027,4,1,0,85,0,1
252599,-86.435692250973,4,1,0,85,0,1
252688,-86.246270308703,4,1,0,85,0,1
252776,-86.057263480506,4,1,0,85,0,1
252864,-85.868670856667,4,1,0,85,0,1
252952,-85.680491529467,4,1,0,85,0,1
253041,-85.492724593176,4,1,0,85,0,1
253129,-85.305369144048,4,1,0,85,0,1
253217,-85.118424280317,4,1,0,85,0,1
253305,-84.931889102195,4,1,0,85,0,1
253396,-84.745762711864,4,1,0,85,0,0
253661,-95.238095238095,4,1,0,75,0,0
254367,-74.074074074074,4,1,0,85,0,0
254808,-87.773345877511,4,1,0,85,0,1
254893,-87.58099249637,4,1,0,85,0,1
254981,-87.389060653487,4,1,0,85,0,1
255069,-87.197549425069,4,1,0,85,0,1
255158,-87.006457889349,4,1,0,85,0,1
255246,-86.815785126579,4,1,0,85,0,1
255334,-86.625530219027,4,1,0,85,0,1
255422,-86.435692250973,4,1,0,85,0,1
255511,-86.246270308703,4,1,0,85,0,1
255599,-86.057263480506,4,1,0,85,0,1
255687,-85.868670856667,4,1,0,85,0,1
255775,-85.680491529467,4,1,0,85,0,1
255864,-85.492724593176,4,1,0,85,0,1
255952,-85.305369144048,4,1,0,85,0,1
256040,-85.118424280317,4,1,0,85,0,1
256128,-84.931889102195,4,1,0,85,0,1
256220,-84.745762711865,4,1,0,85,0,0
256485,-95.238095238095,4,1,0,75,0,0
257190,-74.074074074074,4,1,0,85,0,0
257632,-90.909090909091,4,1,0,85,0,1
257786,-89.930258167136,4,1,0,85,0,1
257963,-88.966894631725,4,1,0,85,0,1
258051,-88.495575221239,4,1,0,85,0,1
258139,-88.029223306785,4,1,0,85,0,1
258227,-87.56776076726,4,1,0,85,0,1
258315,-87.10594927708,4,1,0,85,0,1
258404,-86.65409101627,4,1,0,85,0,1
258492,-86.206896551724,4,1,0,85,0,1
258690,-74.074074074074,4,1,0,85,0,1
259043,-100,4,1,0,75,0,0
275963,-97.087378640777,4,1,0,80,0,0
277375,-94.339622641509,4,1,0,80,0,0
278786,-91.743119266055,4,1,0,80,0,0
281632,-100,4,1,0,75,0,0
281717,-100.164761388386,4,1,0,75,0,0
281805,-100.329794239923,4,1,0,75,0,0
281894,-100.495099001878,4,1,0,75,0,0
281982,-100.660676122253,4,1,0,75,0,0
282070,-100.826526049791,4,1,0,75,0,0
282158,-100.992649233972,4,1,0,75,0,0
282247,-101.159046125018,4,1,0,74,0,0
282335,-101.325717173891,4,1,0,74,0,0
282423,-101.492662832299,4,1,0,74,0,0
282511,-101.659883552692,4,1,0,74,0,0
282600,-101.827379788265,4,1,0,74,0,0
282688,-101.995151992961,4,1,0,74,0,0
282776,-102.163200621471,4,1,0,74,0,0
282864,-102.331526129235,4,1,0,74,0,0
282953,-102.500128972442,4,1,0,74,0,0
283041,-102.669009608034,4,1,0,74,0,0
283129,-102.838168493707,4,1,0,74,0,0
283217,-103.007606087908,4,1,0,74,0,0
283305,-103.177322849841,4,1,0,74,0,0
283394,-103.347319239468,4,1,0,73,0,0
283482,-103.517595717507,4,1,0,73,0,0
283570,-103.688152745435,4,1,0,73,0,0
283658,-103.85899078549,4,1,0,73,0,0
283747,-104.030110300672,4,1,0,73,0,0
283835,-104.201511754743,4,1,0,73,0,0
283923,-104.373195612229,4,1,0,73,0,0
284011,-104.545162338423,4,1,0,73,0,0
284100,-104.717412399382,4,1,0,73,0,0
284188,-104.889946261933,4,1,0,73,0,0
284276,-105.062764393672,4,1,0,73,0,0
284364,-105.235867262964,4,1,0,73,0,0
284453,-105.409255338946,4,1,0,73,0,0
284541,-105.58292909153,4,1,0,72,0,0
284629,-105.7568889914,4,1,0,72,0,0
284717,-105.931135510016,4,1,0,72,0,0
284805,-106.105669119615,4,1,0,72,0,0
284894,-106.280490293213,4,1,0,72,0,0
284982,-106.455599504604,4,1,0,72,0,0
285070,-106.630997228362,4,1,0,72,0,0
285158,-106.806683939845,4,1,0,72,0,0
285247,-106.982660115194,4,1,0,72,0,0
285335,-107.158926231332,4,1,0,72,0,0
285423,-107.33548276597,4,1,0,72,0,0
285511,-107.512330197606,4,1,0,72,0,0
285600,-107.689469005526,4,1,0,71,0,0
285688,-107.866899669805,4,1,0,71,0,0
285776,-108.04462267131,4,1,0,71,0,0
285864,-108.2226384917,4,1,0,71,0,0
285953,-108.400947613427,4,1,0,71,0,0
286041,-108.579550519738,4,1,0,71,0,0
286129,-108.758447694678,4,1,0,71,0,0
286217,-108.937639623087,4,1,0,71,0,0
286305,-109.117126790605,4,1,0,71,0,0
286394,-109.296909683672,4,1,0,71,0,0
286482,-109.47698878953,4,1,0,71,0,0
286570,-109.657364596223,4,1,0,71,0,0
286658,-109.838037592599,4,1,0,71,0,0
286747,-110.019008268312,4,1,0,70,0,0
286835,-110.200277113824,4,1,0,70,0,0
286923,-110.381844620402,4,1,0,70,0,0
287011,-110.563711280125,4,1,0,70,0,0
287100,-110.745877585881,4,1,0,70,0,0
287188,-110.928344031372,4,1,0,70,0,0
287276,-111.111111111111,4,1,0,70,0,0
291511,-111.111111111111,4,1,0,70,0,0
291599,-110.381844620402,4,1,0,70,0,0
291687,-109.657364596222,4,1,0,71,0,0
291776,-108.937639623087,4,1,0,71,0,0
291864,-108.2226384917,4,1,0,71,0,0
291952,-107.512330197606,4,1,0,72,0,0
292040,-106.806683939845,4,1,0,72,0,0
292129,-106.105669119615,4,1,0,72,0,0
292217,-105.409255338946,4,1,0,73,0,0
292305,-104.717412399382,4,1,0,73,0,0
292393,-104.030110300672,4,1,0,73,0,0
292482,-103.347319239468,4,1,0,73,0,0
292570,-102.669009608034,4,1,0,74,0,0
292835,-111.111111111111,4,1,0,70,0,0
298485,-107.52688172043,4,1,0,70,0,0
299896,-104.166666666667,4,1,0,70,0,0
301308,-101.010101010101,4,1,0,70,0,0
302896,-105.263157894737,4,1,0,70,0,0

[HitObjects]
256,192,691,5,4,0:0:0:0:
256,192,867,1,8,0:0:0:0:
256,192,1043,1,8,0:0:0:0:
256,192,1132,1,0,0:0:0:0:
256,192,1308,1,8,0:0:0:0:
256,192,1485,1,0,0:0:0:0:
256,192,1573,1,8,0:0:0:0:
256,192,1749,1,8,0:0:0:0:
256,192,2102,1,0,0:0:0:0:
256,192,2279,1,8,0:0:0:0:
256,192,2454,1,8,0:0:0:0:
256,192,2543,1,0,0:0:0:0:
256,192,2720,1,8,0:0:0:0:
256,192,2896,1,0,0:0:0:0:
256,192,2984,1,8,0:0:0:0:
256,192,3161,1,8,0:0:0:0:
256,192,3338,1,0,0:0:0:0:
256,192,3514,1,0,0:0:0:0:
256,192,3690,1,8,0:0:0:0:
256,192,3866,1,8,0:0:0:0:
256,192,3955,1,0,0:0:0:0:
256,192,4131,1,8,0:0:0:0:
256,192,4308,1,0,0:0:0:0:
256,192,4396,1,8,0:0:0:0:
256,192,4572,1,8,0:0:0:0:
256,192,4925,1,0,0:0:0:0:
256,192,5102,1,8,0:0:0:0:
256,192,5279,1,8,0:0:0:0:
256,192,5366,1,0,0:0:0:0:
256,192,5542,1,8,0:0:0:0:
256,192,5719,1,0,0:0:0:0:
256,192,5807,1,8,0:0:0:0:
256,192,5984,1,8,0:0:0:0:
256,192,6161,1,0,0:0:0:0:
256,192,6338,1,0,0:0:0:0:
256,192,6514,1,8,0:0:0:0:
256,192,6690,1,8,0:0:0:0:
256,192,6779,1,0,0:0:0:0:
256,192,6955,1,8,0:0:0:0:
256,192,7132,1,0,0:0:0:0:
256,192,7220,1,8,0:0:0:0:
256,192,7396,1,8,0:0:0:0:
256,192,7749,1,0,0:0:0:0:
256,192,7926,1,8,0:0:0:0:
256,192,8101,1,8,0:0:0:0:
256,192,8190,1,0,0:0:0:0:
256,192,8366,1,8,0:0:0:0:
256,192,8543,1,0,0:0:0:0:
256,192,8631,1,8,0:0:0:0:
256,192,8808,1,8,0:0:0:0:
256,192,8985,1,0,0:0:0:0:
256,192,9161,1,0,0:0:0:0:
256,192,9338,1,8,0:0:0:0:
256,192,9513,1,8,0:0:0:0:
256,192,9602,1,0,0:0:0:0:
256,192,9778,1,8,0:0:0:0:
256,192,9955,1,0,0:0:0:0:
256,192,10043,1,8,0:0:0:0:
256,192,10219,1,8,0:0:0:0:
256,192,10572,1,0,0:0:0:0:
256,192,10749,1,8,0:0:0:0:
256,192,10926,1,8,0:0:0:0:
256,192,11013,1,0,0:0:0:0:
256,192,11189,1,8,0:0:0:0:
256,192,11366,1,0,0:0:0:0:
256,192,11454,1,8,0:0:0:0:
256,192,11631,1,12,0:0:0:0:
256,192,11985,1,4,0:0:0:0:
256,192,12337,1,8,0:0:0:0:
256,192,12426,1,0,0:0:0:0:
256,192,12602,1,8,0:0:0:0:
256,192,12779,1,0,0:0:0:0:
256,192,12867,1,8,0:0:0:0:
256,192,13043,1,8,0:0:0:0:
256,192,13220,1,0,0:0:0:0:
256,192,13396,1,0,0:0:0:0:
256,192,13572,1,8,0:0:0:0:
256,192,13748,1,8,0:0:0:0:
256,192,13837,1,0,0:0:0:0:
256,192,14014,1,8,0:0:0:0:
256,192,14190,1,0,0:0:0:0:
256,192,14278,1,8,0:0:0:0:
256,192,14455,1,8,0:0:0:0:
256,192,14543,1,8,0:0:0:0:
256,192,14632,1,0,0:0:0:0:
256,192,14808,1,0,0:0:0:0:
256,192,14984,1,8,0:0:0:0:
256,192,15160,1,8,0:0:0:0:
256,192,15249,1,0,0:0:0:0:
256,192,15425,1,8,0:0:0:0:
256,192,15602,1,0,0:0:0:0:
256,192,15690,1,8,0:0:0:0:
256,192,15866,1,8,0:0:0:0:
256,192,16043,1,0,0:0:0:0:
256,192,16219,1,0,0:0:0:0:
256,192,16395,1,8,0:0:0:0:
256,192,16573,1,8,0:0:0:0:
256,192,16660,1,0,0:0:0:0:
256,192,16838,1,8,0:0:0:0:
256,192,17013,1,0,0:0:0:0:
256,192,17101,1,8,0:0:0:0:
256,192,17278,1,8,0:0:0:0:
256,192,17366,1,8,0:0:0:0:
256,192,17455,1,0,0:0:0:0:
256,192,17632,1,4,0:0:0:0:
256,192,17984,1,8,0:0:0:0:
256,192,18073,1,0,0:0:0:0:
256,192,18249,1,8,0:0:0:0:
256,192,18426,1,0,0:0:0:0:
256,192,18514,1,8,0:0:0:0:
256,192,18602,1,0,0:0:0:0:
256,192,18690,1,8,0:0:0:0:
256,192,18867,1,0,0:0:0:0:
256,192,19043,1,4,0:0:0:0:
256,192,19219,1,8,0:0:0:0:
256,192,19395,1,8,0:0:0:0:
256,192,19485,1,0,0:0:0:0:
256,192,19661,1,8,0:0:0:0:
256,192,19837,1,0,0:0:0:0:
256,192,19925,1,8,0:0:0:0:
256,192,20014,1,0,0:0:0:0:
256,192,20102,1,8,0:0:0:0:
256,192,20190,1,8,0:0:0:0:
256,192,20279,1,0,0:0:0:0:
256,192,20455,1,4,0:0:0:0:
256,192,20632,1,8,0:0:0:0:
256,192,20808,1,8,0:0:0:0:
256,192,20985,1,0,0:0:0:0:
256,192,21161,1,8,0:0:0:0:
256,192,21249,1,8,0:0:0:0:
256,192,21338,1,0,0:0:0:0:
256,192,21426,1,0,0:0:0:0:
256,192,21514,1,8,0:0:0:0:
224,192,21573,1,8,0:0:0:0:
224,192,21632,1,8,0:0:0:0:
224,192,21690,1,0,0:0:0:0:
256,192,21867,1,12,0:0:0:0:
256,192,22220,1,8,0:0:0:0:
256,192,22308,1,8,0:0:0:0:
256,192,22396,1,0,0:0:0:0:
256,192,22485,1,0,0:0:0:0:
256,192,22573,1,8,0:0:0:0:
256,192,22749,1,0,0:0:0:0:
256,192,22926,1,12,0:0:0:0:
256,192,23279,1,4,0:0:0:0:
256,192,23632,1,8,0:0:0:0:
256,192,23808,1,0,0:0:0:0:
256,192,23985,1,8,0:0:0:0:
256,192,24073,1,8,0:0:0:0:
256,192,24249,1,0,0:0:0:0:
256,192,24338,1,8,0:0:0:0:
256,192,24514,1,8,0:0:0:0:
256,192,24690,1,0,0:0:0:0:
256,192,24867,1,0,0:0:0:0:
256,192,24955,1,0,0:0:0:0:
256,192,25043,1,8,0:0:0:0:
256,192,25220,1,0,0:0:0:0:
256,192,25396,1,8,0:0:0:0:
256,192,25573,1,0,0:0:0:0:
256,192,25632,1,8,0:0:0:0:
256,192,25690,1,8,0:0:0:0:
256,192,25749,1,0,0:0:0:0:
256,192,25926,1,0,0:0:0:0:
256,192,26102,1,8,0:0:0:0:
256,192,26279,1,0,0:0:0:0:
256,192,26367,1,0,0:0:0:0:
256,192,26455,1,8,0:0:0:0:
256,192,26632,1,0,0:0:0:0:
256,192,26808,1,8,0:0:0:0:
256,192,26896,1,8,0:0:0:0:
256,192,27073,1,0,0:0:0:0:
256,192,27161,1,8,0:0:0:0:
256,192,27338,1,8,0:0:0:0:
256,192,27426,1,8,0:0:0:0:
256,192,27514,1,0,0:0:0:0:
256,192,27690,1,0,0:0:0:0:
256,192,27779,1,0,0:0:0:0:
256,192,27867,1,8,0:0:0:0:
256,192,28043,1,8,0:0:0:0:
256,192,28220,1,0,0:0:0:0:
256,192,28396,1,8,0:0:0:0:
256,192,28455,1,8,0:0:0:0:
256,192,28514,1,8,0:0:0:0:
256,192,28573,1,0,0:0:0:0:
256,192,28749,1,0,0:0:0:0:
256,192,28926,1,8,0:0:0:0:
256,192,29102,1,0,0:0:0:0:
256,192,29190,1,0,0:0:0:0:
256,192,29279,1,8,0:0:0:0:
256,192,29455,1,0,0:0:0:0:
256,192,29632,1,8,0:0:0:0:
256,192,29720,1,8,0:0:0:0:
256,192,29896,1,0,0:0:0:0:
256,192,29985,1,8,0:0:0:0:
256,192,30161,1,8,0:0:0:0:
256,192,30337,1,0,0:0:0:0:
256,192,30514,1,0,0:0:0:0:
256,192,30602,1,0,0:0:0:0:
256,192,30690,1,8,0:0:0:0:
256,192,30867,1,0,0:0:0:0:
256,192,31043,1,8,0:0:0:0:
256,192,31220,1,0,0:0:0:0:
256,192,31279,1,8,0:0:0:0:
256,192,31337,1,8,0:0:0:0:
256,192,31396,1,0,0:0:0:0:
256,192,31573,1,0,0:0:0:0:
256,192,31749,1,8,0:0:0:0:
256,192,31926,1,0,0:0:0:0:
256,192,32014,1,0,0:0:0:0:
256,192,32102,1,8,0:0:0:0:
256,192,32279,1,0,0:0:0:0:
256,192,32455,1,8,0:0:0:0:
256,192,32543,1,8,0:0:0:0:
256,192,32720,1,0,0:0:0:0:
256,192,32808,1,8,0:0:0:0:
256,192,32985,1,8,0:0:0:0:
256,192,33073,1,8,0:0:0:0:
256,192,33161,1,0,0:0:0:0:
256,192,33337,1,0,0:0:0:0:
256,192,33426,1,0,0:0:0:0:
256,192,33514,1,8,0:0:0:0:
256,192,33690,1,8,0:0:0:0:
256,192,33867,1,0,0:0:0:0:
256,192,33955,1,0,0:0:0:0:
256,192,34043,1,8,0:0:0:0:
256,192,34220,1,12,0:0:0:0:
256,192,34573,1,12,0:0:0:0:
256,192,34926,1,8,0:0:0:0:
256,192,35102,1,0,0:0:0:0:
256,192,35279,1,8,0:0:0:0:
256,192,35367,1,8,0:0:0:0:
256,192,35543,1,0,0:0:0:0:
256,192,35632,1,8,0:0:0:0:
256,192,35808,1,8,0:0:0:0:
256,192,35984,1,0,0:0:0:0:
256,192,36161,1,0,0:0:0:0:
256,192,36249,1,0,0:0:0:0:
256,192,36337,1,8,0:0:0:0:
256,192,36426,1,8,0:0:0:0:
256,192,36514,1,0,0:0:0:0:
256,192,36690,1,8,0:0:0:0:
256,192,36867,1,0,0:0:0:0:
256,192,36926,1,8,0:0:0:0:
256,192,36984,1,8,0:0:0:0:
256,192,37043,1,0,0:0:0:0:
256,192,37220,1,0,0:0:0:0:
256,192,37396,1,8,0:0:0:0:
256,192,37573,1,0,0:0:0:0:
256,192,37661,1,0,0:0:0:0:
256,192,37749,1,8,0:0:0:0:
256,192,37926,1,0,0:0:0:0:
256,192,38014,1,0,0:0:0:0:
256,192,38102,1,8,0:0:0:0:
256,192,38190,1,8,0:0:0:0:
256,192,38367,1,0,0:0:0:0:
256,192,38455,1,8,0:0:0:0:
256,192,38632,1,8,0:0:0:0:
256,192,38720,1,8,0:0:0:0:
256,192,38808,1,0,0:0:0:0:
256,192,38984,1,0,0:0:0:0:
256,192,39073,1,0,0:0:0:0:
256,192,39161,1,8,0:0:0:0:
256,192,39249,1,0,0:0:0:0:
256,192,39337,1,8,0:0:0:0:
256,192,39514,1,0,0:0:0:0:
256,192,39690,1,8,0:0:0:0:
256,192,39749,1,8,0:0:0:0:
256,192,39808,1,8,0:0:0:0:
256,192,39867,1,0,0:0:0:0:
256,192,40043,1,0,0:0:0:0:
256,192,40220,1,12,0:0:0:0:
256,192,40573,1,8,0:0:0:0:
256,192,40749,1,0,0:0:0:0:
256,192,40926,1,8,0:0:0:0:
256,192,41014,1,8,0:0:0:0:
256,192,41190,1,0,0:0:0:0:
256,192,41279,1,8,0:0:0:0:
256,192,41455,1,8,0:0:0:0:
256,192,41632,1,4,0:0:0:0:
256,192,41808,1,0,0:0:0:0:
256,192,41896,1,0,0:0:0:0:
256,192,41985,1,8,0:0:0:0:
256,192,42073,1,8,0:0:0:0:
256,192,42161,1,0,0:0:0:0:
256,192,42338,1,8,0:0:0:0:
256,192,42514,1,0,0:0:0:0:
256,192,42573,1,8,0:0:0:0:
256,192,42632,1,8,0:0:0:0:
256,192,42690,1,0,0:0:0:0:
256,192,42867,1,0,0:0:0:0:
256,192,43043,1,12,0:0:0:0:
256,192,43220,1,0,0:0:0:0:
256,192,43308,1,0,0:0:0:0:
256,192,43396,1,8,0:0:0:0:
288,192,43573,1,0,0:0:0:0:
256,192,43749,1,8,0:0:0:0:
256,192,43838,1,0,0:0:0:0:
256,192,43926,1,8,0:0:0:0:
256,192,44014,1,8,0:0:0:0:
256,192,44102,1,0,0:0:0:0:
256,192,44161,1,0,0:0:0:0:
256,192,44220,1,0,0:0:0:0:
256,192,44279,1,8,0:0:0:0:
256,192,44455,1,4,0:0:0:0:
256,192,44632,1,0,0:0:0:0:
256,192,44808,1,8,0:0:0:0:
256,192,44896,1,8,0:0:0:0:
256,192,45073,1,8,0:0:0:0:
256,192,45249,1,8,0:0:0:0:
256,192,45338,1,0,0:0:0:0:
256,192,45514,1,12,0:0:0:0:
256,192,45867,1,4,0:0:0:0:
256,192,46043,1,8,0:0:0:0:
256,192,46220,1,8,0:0:0:0:
256,192,46573,1,8,0:0:0:0:
256,192,46838,1,8,0:0:0:0:
256,192,46926,1,0,0:0:0:0:
256,192,47102,1,8,0:0:0:0:
256,192,47279,1,0,0:0:0:0:
256,192,47543,1,8,0:0:0:0:
256,192,47632,1,0,0:0:0:0:
256,192,47808,1,8,0:0:0:0:
256,192,47985,1,0,0:0:0:0:
256,192,48161,1,8,0:0:0:0:
256,192,48249,1,8,0:0:0:0:
256,192,48338,1,0,0:0:0:0:
256,192,48514,1,8,0:0:0:0:
256,192,48690,1,0,0:0:0:0:
256,192,48867,1,8,0:0:0:0:
256,192,49043,1,8,0:0:0:0:
256,192,49396,1,8,0:0:0:0:
256,192,49661,1,8,0:0:0:0:
256,192,49749,1,8,0:0:0:0:
256,192,49926,1,8,0:0:0:0:
256,192,50102,1,0,0:0:0:0:
256,192,50279,1,0,0:0:0:0:
256,192,50367,1,8,0:0:0:0:
256,192,50455,1,0,0:0:0:0:
256,192,50543,1,0,0:0:0:0:
256,192,50632,1,8,0:0:0:0:
256,192,50808,1,8,0:0:0:0:
256,192,50985,1,0,0:0:0:0:
256,192,51073,1,8,0:0:0:0:
256,192,51161,1,0,0:0:0:0:
256,192,51338,1,8,0:0:0:0:
256,192,51514,1,0,0:0:0:0:
256,192,51690,1,8,0:0:0:0:
256,192,51867,1,8,0:0:0:0:
256,192,52220,1,8,0:0:0:0:
256,192,52485,1,8,0:0:0:0:
256,192,52573,1,0,0:0:0:0:
256,192,52749,1,8,0:0:0:0:
288,192,52926,1,0,0:0:0:0:
256,192,53190,1,8,0:0:0:0:
256,192,53279,1,0,0:0:0:0:
256,192,53455,1,8,0:0:0:0:
256,192,53632,1,0,0:0:0:0:
256,192,53808,1,8,0:0:0:0:
256,192,53896,1,8,0:0:0:0:
256,192,53985,1,0,0:0:0:0:
256,192,54161,1,8,0:0:0:0:
256,192,54338,1,0,0:0:0:0:
256,192,54514,1,8,0:0:0:0:
256,192,54690,1,8,0:0:0:0:
256,192,55043,1,8,0:0:0:0:
256,192,55308,1,8,0:0:0:0:
256,192,55396,1,8,0:0:0:0:
256,192,55573,1,8,0:0:0:0:
256,192,55749,1,0,0:0:0:0:
256,192,55926,1,0,0:0:0:0:
256,192,56014,1,8,0:0:0:0:
256,192,56102,1,8,0:0:0:0:
256,192,56279,1,0,0:0:0:0:
256,192,56455,1,8,0:0:0:0:
256,192,56543,1,0,0:0:0:0:
256,192,56632,1,0,0:0:0:0:
256,192,56720,1,0,0:0:0:0:
256,192,56808,1,12,0:0:0:0:
256,192,57161,1,4,0:0:0:0:
256,192,57514,1,8,0:0:0:0:
256,192,57690,1,0,0:0:0:0:
256,192,57867,1,8,0:0:0:0:
256,192,57955,1,8,0:0:0:0:
256,192,58131,1,0,0:0:0:0:
256,192,58220,1,8,0:0:0:0:
256,192,58396,1,8,0:0:0:0:
256,192,58572,1,0,0:0:0:0:
256,192,58749,1,0,0:0:0:0:
256,192,58837,1,0,0:0:0:0:
256,192,58925,1,8,0:0:0:0:
256,192,59102,1,0,0:0:0:0:
256,192,59278,1,8,0:0:0:0:
256,192,59455,1,0,0:0:0:0:
256,192,59514,1,8,0:0:0:0:
256,192,59572,1,8,0:0:0:0:
256,192,59631,1,0,0:0:0:0:
256,192,59808,1,0,0:0:0:0:
256,192,59984,1,8,0:0:0:0:
256,192,60161,1,0,0:0:0:0:
256,192,60249,1,0,0:0:0:0:
256,192,60337,1,8,0:0:0:0:
256,192,60514,1,0,0:0:0:0:
256,192,60690,1,8,0:0:0:0:
256,192,60778,1,8,0:0:0:0:
256,192,60955,1,0,0:0:0:0:
256,192,61043,1,8,0:0:0:0:
256,192,61220,1,8,0:0:0:0:
256,192,61308,1,8,0:0:0:0:
256,192,61396,1,0,0:0:0:0:
256,192,61572,1,0,0:0:0:0:
256,192,61661,1,0,0:0:0:0:
256,192,61749,1,8,0:0:0:0:
256,192,61925,1,8,0:0:0:0:
256,192,62102,1,0,0:0:0:0:
256,192,62278,1,8,0:0:0:0:
256,192,62337,1,8,0:0:0:0:
256,192,62396,1,8,0:0:0:0:
256,192,62455,1,0,0:0:0:0:
256,197,62632,1,8,0:0:0:0:
256,192,62808,1,4,0:0:0:0:
256,192,62985,1,8,0:0:0:0:
256,192,63161,1,8,0:0:0:0:
256,192,63514,1,8,0:0:0:0:
256,192,63602,1,0,0:0:0:0:
256,192,63779,1,8,0:0:0:0:
256,192,63867,1,0,0:0:0:0:
256,192,64043,1,8,0:0:0:0:
256,192,64220,1,0,0:0:0:0:
256,192,64396,1,0,0:0:0:0:
256,192,64484,1,8,0:0:0:0:
256,192,64573,1,0,0:0:0:0:
256,192,64749,1,8,0:0:0:0:
256,192,64926,1,0,0:0:0:0:
256,192,65102,1,8,0:0:0:0:
256,192,65190,1,8,0:0:0:0:
256,192,65279,1,0,0:0:0:0:
256,192,65455,1,8,0:0:0:0:
256,192,65631,1,0,0:0:0:0:
256,192,65808,1,8,0:0:0:0:
256,192,65896,1,0,0:0:0:0:
256,192,65984,1,8,0:0:0:0:
256,192,66337,1,8,0:0:0:0:
256,192,66426,1,0,0:0:0:0:
256,192,66602,1,8,0:0:0:0:
256,192,66690,1,8,0:0:0:0:
256,192,66867,1,8,0:0:0:0:
256,192,67043,1,0,0:0:0:0:
256,192,67220,1,0,0:0:0:0:
256,192,67308,1,8,0:0:0:0:
256,192,67396,1,0,0:0:0:0:
256,192,67485,1,0,0:0:0:0:
256,192,67573,1,8,0:0:0:0:
256,192,67749,1,8,0:0:0:0:
256,192,67926,1,0,0:0:0:0:
256,192,68014,1,8,0:0:0:0:
256,192,68102,1,0,0:0:0:0:
256,192,68279,1,8,0:0:0:0:
256,192,68455,1,0,0:0:0:0:
256,192,68631,1,8,0:0:0:0:
256,192,68808,1,8,0:0:0:0:
256,192,69161,1,8,0:0:0:0:
256,192,69249,1,0,0:0:0:0:
256,192,69426,1,8,0:0:0:0:
256,192,69514,1,0,0:0:0:0:
256,192,69690,1,8,0:0:0:0:
288,192,69867,1,0,0:0:0:0:
256,192,70043,1,0,0:0:0:0:
256,192,70131,1,8,0:0:0:0:
256,192,70220,1,0,0:0:0:0:
256,192,70396,1,8,0:0:0:0:
256,192,70573,1,0,0:0:0:0:
256,192,70749,1,8,0:0:0:0:
256,192,70837,1,8,0:0:0:0:
256,192,70926,1,0,0:0:0:0:
256,192,71102,1,8,0:0:0:0:
256,192,71279,1,0,0:0:0:0:
256,192,71455,1,8,0:0:0:0:
256,192,71543,1,0,0:0:0:0:
256,192,71631,1,8,0:0:0:0:
256,192,71984,1,8,0:0:0:0:
256,192,72073,1,0,0:0:0:0:
256,192,72249,1,8,0:0:0:0:
256,192,72337,1,8,0:0:0:0:
256,192,72514,1,8,0:0:0:0:
256,192,72690,1,0,0:0:0:0:
256,192,72867,1,0,0:0:0:0:
256,192,72955,1,8,0:0:0:0:
256,192,73043,1,8,0:0:0:0:
256,192,73132,1,0,0:0:0:0:
256,192,73220,1,8,0:0:0:0:
256,192,73396,1,8,0:0:0:0:
256,192,73573,1,0,0:0:0:0:
256,192,73749,1,12,0:0:0:0:
256,192,74102,1,4,0:0:0:0:
256,192,75514,1,12,0:0:0:0:
256,192,75779,1,12,0:0:0:0:
256,192,76043,1,12,0:0:0:0:
256,192,76396,1,0,0:0:0:0:
256,192,76573,1,12,0:0:0:0:
256,192,76926,1,8,0:0:0:0:
256,192,77102,1,0,0:0:0:0:
256,192,77279,1,8,0:0:0:0:
256,192,77455,1,0,0:0:0:0:
256,192,77543,1,0,0:0:0:0:
256,192,77632,1,8,0:0:0:0:
256,192,77808,1,0,0:0:0:0:
256,192,77896,1,8,0:0:0:0:
256,192,77985,1,0,0:0:0:0:
256,192,78073,1,0,0:0:0:0:
256,192,78161,1,8,0:0:0:0:
256,192,78249,1,0,0:0:0:0:
256,192,78338,1,8,0:0:0:0:
256,192,78514,1,0,0:0:0:0:
256,192,78602,1,8,0:0:0:0:
256,192,78690,1,0,0:0:0:0:
256,192,78867,1,0,0:0:0:0:
256,192,79043,1,8,0:0:0:0:
256,192,79132,1,0,0:0:0:0:
256,192,79220,1,0,0:0:0:0:
256,192,79396,1,8,0:0:0:0:
256,192,79455,1,0,0:0:0:0:
256,192,79514,1,0,0:0:0:0:
256,192,79573,1,8,0:0:0:0:
256,192,79749,1,4,0:0:0:0:
256,192,81161,1,12,0:0:0:0:
256,192,81426,1,12,0:0:0:0:
256,192,81690,1,12,0:0:0:0:
256,192,82043,1,0,0:0:0:0:
256,192,82220,1,12,0:0:0:0:
256,192,82573,1,8,0:0:0:0:
256,192,82749,1,0,0:0:0:0:
256,192,82838,1,0,0:0:0:0:
256,192,82926,1,8,0:0:0:0:
256,192,83102,1,0,0:0:0:0:
256,192,83279,1,8,0:0:0:0:
256,192,83367,1,0,0:0:0:0:
256,192,83455,1,8,0:0:0:0:
256,192,83543,1,8,0:0:0:0:
256,192,83632,1,0,0:0:0:0:
256,192,83690,1,0,0:0:0:0:
256,192,83749,1,0,0:0:0:0:
256,192,83808,1,8,0:0:0:0:
256,192,83985,1,4,0:0:0:0:
256,192,84161,1,0,0:0:0:0:
256,192,84249,1,8,0:0:0:0:
256,192,84426,1,0,0:0:0:0:
256,192,84514,1,8,0:0:0:0:
256,192,84867,1,0,0:0:0:0:
224,192,85043,1,12,0:0:0:0:
256,192,85396,1,4,0:0:0:0:
256,192,85749,1,0,0:0:0:0:
256,192,86102,1,8,0:0:0:0:
256,192,86279,1,0,0:0:0:0:
256,192,86367,1,8,0:0:0:0:
256,192,86632,1,0,0:0:0:0:
256,192,86808,1,8,0:0:0:0:
256,192,87161,1,8,0:0:0:0:
256,192,87514,1,0,0:0:0:0:
256,192,87690,1,8,0:0:0:0:
256,192,87779,1,0,0:0:0:0:
256,192,88043,1,8,0:0:0:0:
256,192,88220,1,0,0:0:0:0:
256,192,88573,1,0,0:0:0:0:
256,192,88926,1,8,0:0:0:0:
256,192,89103,1,0,0:0:0:0:
256,192,89191,1,8,0:0:0:0:
256,192,89456,1,0,0:0:0:0:
256,192,89632,1,8,0:0:0:0:
256,192,89985,1,8,0:0:0:0:
256,192,90338,1,0,0:0:0:0:
256,192,90514,1,8,0:0:0:0:
256,192,90603,1,0,0:0:0:0:
256,192,90867,1,8,0:0:0:0:
256,192,91043,1,0,0:0:0:0:
256,192,91220,1,0,0:0:0:0:
256,192,91396,1,8,0:0:0:0:
256,192,91573,1,0,0:0:0:0:
256,192,91749,1,8,0:0:0:0:
256,192,91926,1,0,0:0:0:0:
256,192,92014,1,8,0:0:0:0:
256,192,92102,1,0,0:0:0:0:
256,192,92279,1,0,0:0:0:0:
256,192,92455,1,8,0:0:0:0:
256,192,92632,1,0,0:0:0:0:
256,192,92808,1,8,0:0:0:0:
256,192,92985,1,0,0:0:0:0:
256,192,93073,1,8,0:0:0:0:
256,192,93337,1,8,0:0:0:0:
256,192,93426,1,8,0:0:0:0:
256,192,93514,1,0,0:0:0:0:
256,192,93690,1,8,0:0:0:0:
256,192,93867,1,0,0:0:0:0:
256,192,94043,1,8,0:0:0:0:
256,192,94220,1,0,0:0:0:0:
256,192,94308,1,8,0:0:0:0:
256,192,94485,1,8,0:0:0:0:
256,192,94661,1,0,0:0:0:0:
256,192,94838,1,8,0:0:0:0:
256,192,94926,1,0,0:0:0:0:
256,192,95102,1,0,0:0:0:0:
256,192,95279,1,8,0:0:0:0:
256,192,95632,1,8,0:0:0:0:
256,192,95808,1,8,0:0:0:0:
256,192,95985,1,0,0:0:0:0:
256,192,96161,1,8,0:0:0:0:
256,192,96249,1,0,0:0:0:0:
256,192,96514,1,8,0:0:0:0:
256,192,96690,1,4,0:0:0:0:
256,192,97043,1,8,0:0:0:0:
256,192,97220,1,0,0:0:0:0:
256,192,97396,1,8,0:0:0:0:
256,192,97573,1,0,0:0:0:0:
256,192,97661,1,0,0:0:0:0:
256,192,97749,1,8,0:0:0:0:
256,192,97926,1,0,0:0:0:0:
256,192,98102,1,8,0:0:0:0:
256,192,98279,1,0,0:0:0:0:
256,192,98455,1,8,0:0:0:0:
256,192,98632,1,0,0:0:0:0:
256,192,98720,1,8,0:0:0:0:
256,192,98984,1,0,0:0:0:0:
256,192,99161,1,8,0:0:0:0:
256,192,99337,1,0,0:0:0:0:
256,192,99514,1,8,0:0:0:0:
256,192,99690,1,0,0:0:0:0:
256,192,99867,1,8,0:0:0:0:
256,192,99955,1,0,0:0:0:0:
256,192,100132,1,8,0:0:0:0:
256,192,100308,1,0,0:0:0:0:
256,192,100485,1,0,0:0:0:0:
256,192,100573,1,8,0:0:0:0:
256,192,100749,1,0,0:0:0:0:
256,192,100926,1,8,0:0:0:0:
256,192,101279,1,8,0:0:0:0:
256,192,101455,1,8,0:0:0:0:
256,192,101632,1,0,0:0:0:0:
256,192,101808,1,8,0:0:0:0:
256,192,101896,1,8,0:0:0:0:
256,192,102161,1,8,0:0:0:0:
256,192,102338,1,4,0:0:0:0:
256,192,102690,1,8,0:0:0:0:
256,192,102867,1,0,0:0:0:0:
256,192,103043,1,8,0:0:0:0:
256,192,103220,1,0,0:0:0:0:
256,192,103308,1,0,0:0:0:0:
256,192,103396,1,8,0:0:0:0:
256,192,103573,1,8,0:0:0:0:
256,192,103749,1,4,0:0:0:0:
256,192,104102,1,8,0:0:0:0:
256,192,104279,1,0,0:0:0:0:
256,192,104455,1,8,0:0:0:0:
256,192,104632,1,0,0:0:0:0:
256,192,104720,1,0,0:0:0:0:
256,192,104808,1,8,0:0:0:0:
256,192,104985,1,8,0:0:0:0:
256,192,105161,1,4,0:0:0:0:
256,192,105514,1,8,0:0:0:0:
256,192,105690,1,8,0:0:0:0:
256,192,105867,1,4,0:0:0:0:
256,192,106220,1,8,0:0:0:0:
256,192,106396,1,8,0:0:0:0:
256,192,106573,1,4,0:0:0:0:
256,192,106926,1,8,0:0:0:0:
256,192,107014,1,8,0:0:0:0:
256,192,107102,1,0,0:0:0:0:
256,192,107279,1,8,0:0:0:0:
256,192,107455,1,0,0:0:0:0:
256,192,107632,1,12,0:0:0:0:
256,192,107985,1,4,0:0:0:0:
256,192,108338,1,8,0:0:0:0:
256,192,108514,1,0,0:0:0:0:
256,192,108690,1,8,0:0:0:0:
256,192,108867,1,8,0:0:0:0:
256,192,108955,1,0,0:0:0:0:
256,192,109132,1,0,0:0:0:0:
256,192,109220,1,8,0:0:0:0:
256,192,109396,1,0,0:0:0:0:
256,192,109485,1,0,0:0:0:0:
256,192,109573,1,8,0:0:0:0:
256,192,109661,1,0,0:0:0:0:
256,192,109838,1,0,0:0:0:0:
256,192,109926,1,8,0:0:0:0:
256,192,110102,1,0,0:0:0:0:
256,192,110279,1,8,0:0:0:0:
256,192,110367,1,0,0:0:0:0:
256,192,110543,1,0,0:0:0:0:
256,192,110632,1,8,0:0:0:0:
256,192,110808,1,8,0:0:0:0:
256,192,110897,1,8,0:0:0:0:
256,192,110985,1,0,0:0:0:0:
256,192,111073,1,8,0:0:0:0:
256,192,111250,1,8,0:0:0:0:
256,192,111338,1,0,0:0:0:0:
256,192,111514,1,8,0:0:0:0:
256,192,111691,1,0,0:0:0:0:
256,192,111779,1,8,0:0:0:0:
256,192,111955,1,8,0:0:0:0:
256,192,112044,1,0,0:0:0:0:
256,192,112220,1,8,0:0:0:0:
256,192,112309,1,8,0:0:0:0:
256,192,112397,1,0,0:0:0:0:
256,192,112485,1,0,0:0:0:0:
256,192,112573,1,8,0:0:0:0:
256,192,112662,1,0,0:0:0:0:
256,192,112750,1,8,0:0:0:0:
256,192,112926,1,0,0:0:0:0:
256,192,113103,1,8,0:0:0:0:
256,192,113191,1,8,0:0:0:0:
256,192,113367,1,0,0:0:0:0:
256,192,113456,1,8,0:0:0:0:
256,192,113632,1,0,0:0:0:0:
256,192,113721,1,0,0:0:0:0:
256,192,113809,1,8,0:0:0:0:
256,192,113897,1,0,0:0:0:0:
256,192,113985,1,8,0:0:0:0:
256,192,114074,1,8,0:0:0:0:
256,192,114162,1,0,0:0:0:0:
256,192,114338,1,8,0:0:0:0:
256,192,114515,1,0,0:0:0:0:
256,192,114603,1,8,0:0:0:0:
256,192,114779,1,8,0:0:0:0:
256,192,114868,1,0,0:0:0:0:
256,192,115043,1,0,0:0:0:0:
256,192,115132,1,0,0:0:0:0:
256,192,115220,1,8,0:0:0:0:
256,192,115308,1,0,0:0:0:0:
256,192,115485,1,0,0:0:0:0:
256,192,115573,1,8,0:0:0:0:
256,192,115661,1,8,0:0:0:0:
256,192,115749,1,0,0:0:0:0:
256,192,115926,1,0,0:0:0:0:
256,192,116014,1,8,0:0:0:0:
256,192,116190,1,8,0:0:0:0:
256,192,116279,1,0,0:0:0:0:
256,192,116455,1,0,0:0:0:0:
256,192,116544,1,0,0:0:0:0:
256,192,116632,1,8,0:0:0:0:
256,192,116720,1,0,0:0:0:0:
256,192,116808,1,8,0:0:0:0:
256,192,116897,1,8,0:0:0:0:
256,192,116985,1,0,0:0:0:0:
256,192,117073,1,0,0:0:0:0:
256,192,117161,1,8,0:0:0:0:
256,192,117338,1,8,0:0:0:0:
256,192,117426,1,0,0:0:0:0:
256,192,117602,1,8,0:0:0:0:
256,192,117691,1,8,0:0:0:0:
256,192,117867,1,4,0:0:0:0:
256,192,118043,1,8,0:0:0:0:
256,192,118132,1,0,0:0:0:0:
256,192,118220,1,8,0:0:0:0:
256,192,118308,1,8,0:0:0:0:
256,192,118396,1,0,0:0:0:0:
256,192,118485,1,0,0:0:0:0:
256,192,118573,1,8,0:0:0:0:
256,192,118661,1,8,0:0:0:0:
256,192,118749,1,0,0:0:0:0:
256,192,118926,1,12,0:0:0:0:
256,192,119279,1,4,0:0:0:0:
256,192,119632,1,8,0:0:0:0:
256,192,119808,1,0,0:0:0:0:
256,192,119984,1,8,0:0:0:0:
256,192,120161,1,8,0:0:0:0:
256,192,120249,1,0,0:0:0:0:
256,192,120426,1,0,0:0:0:0:
256,192,120514,1,8,0:0:0:0:
256,192,120690,1,0,0:0:0:0:
256,192,120779,1,0,0:0:0:0:
256,192,120867,1,8,0:0:0:0:
256,192,120955,1,0,0:0:0:0:
256,192,121132,1,0,0:0:0:0:
256,192,121220,1,8,0:0:0:0:
256,192,121396,1,0,0:0:0:0:
256,192,121573,1,8,0:0:0:0:
256,192,121661,1,0,0:0:0:0:
256,192,121837,1,0,0:0:0:0:
256,192,121926,1,8,0:0:0:0:
256,192,122102,1,8,0:0:0:0:
256,192,122191,1,8,0:0:0:0:
256,192,122279,1,0,0:0:0:0:
256,192,122367,1,8,0:0:0:0:
256,192,122544,1,8,0:0:0:0:
256,192,122632,1,0,0:0:0:0:
256,192,122808,1,8,0:0:0:0:
256,192,122985,1,0,0:0:0:0:
256,192,123073,1,8,0:0:0:0:
256,192,123249,1,8,0:0:0:0:
256,192,123338,1,0,0:0:0:0:
256,192,123514,1,8,0:0:0:0:
256,192,123603,1,8,0:0:0:0:
256,192,123691,1,0,0:0:0:0:
256,192,123779,1,8,0:0:0:0:
256,192,123867,1,0,0:0:0:0:
256,192,123956,1,0,0:0:0:0:
256,192,124044,1,8,0:0:0:0:
256,192,124220,1,0,0:0:0:0:
256,192,124397,1,8,0:0:0:0:
256,192,124485,1,8,0:0:0:0:
256,192,124661,1,0,0:0:0:0:
256,192,124750,1,8,0:0:0:0:
256,192,124926,1,4,0:0:0:0:
256,192,125279,1,8,0:0:0:0:
256,192,125456,1,0,0:0:0:0:
256,192,125632,1,8,0:0:0:0:
256,192,125809,1,8,0:0:0:0:
256,192,125897,1,0,0:0:0:0:
256,192,126073,1,0,0:0:0:0:
256,192,126162,1,8,0:0:0:0:
256,192,126337,1,4,0:0:0:0:
256,192,126514,1,8,0:0:0:0:
256,192,126602,1,0,0:0:0:0:
256,192,126779,1,0,0:0:0:0:
256,192,126867,1,8,0:0:0:0:
256,192,126955,1,8,0:0:0:0:
256,192,127043,1,0,0:0:0:0:
256,192,127220,1,8,0:0:0:0:
256,192,127308,1,0,0:0:0:0:
256,192,127484,1,0,0:0:0:0:
256,192,127573,1,8,0:0:0:0:
256,192,127749,1,0,0:0:0:0:
256,192,127838,1,0,0:0:0:0:
256,192,127926,1,8,0:0:0:0:
256,192,128014,1,0,0:0:0:0:
256,192,128102,1,8,0:0:0:0:
256,192,128191,1,8,0:0:0:0:
256,192,128279,1,0,0:0:0:0:
256,192,128367,1,0,0:0:0:0:
256,192,128455,1,8,0:0:0:0:
256,192,128543,1,0,0:0:0:0:
256,192,128632,1,8,0:0:0:0:
256,192,128720,1,8,0:0:0:0:
256,192,128808,1,0,0:0:0:0:
256,192,128867,1,0,0:0:0:0:
256,192,128926,1,0,0:0:0:0:
256,192,128985,1,8,0:0:0:0:
256,192,129161,1,4,0:0:0:0:
256,192,129514,1,8,0:0:0:0:
256,192,129602,1,8,0:0:0:0:
256,192,129690,1,0,0:0:0:0:
256,192,129867,1,8,0:0:0:0:
256,192,130043,1,0,0:0:0:0:
256,192,130220,1,12,0:0:0:0:
256,192,130573,1,4,0:0:0:0:
256,192,130926,1,8,0:0:0:0:
256,192,131102,1,0,0:0:0:0:
256,192,131279,1,8,0:0:0:0:
256,192,131455,1,0,0:0:0:0:
256,192,131543,1,8,0:0:0:0:
256,192,131632,1,0,0:0:0:0:
256,192,131808,1,0,0:0:0:0:
256,192,131985,1,8,0:0:0:0:
256,192,132073,1,8,0:0:0:0:
256,192,132161,1,0,0:0:0:0:
256,192,132338,1,8,0:0:0:0:
256,192,132514,1,0,0:0:0:0:
256,192,132602,1,8,0:0:0:0:
256,192,132690,1,8,0:0:0:0:
256,192,132779,1,8,0:0:0:0:
256,192,132867,1,0,0:0:0:0:
256,192,133043,1,8,0:0:0:0:
256,192,133220,1,0,0:0:0:0:
256,192,133308,1,0,0:0:0:0:
256,192,133396,1,8,0:0:0:0:
256,192,133573,1,0,0:0:0:0:
256,192,133749,1,8,0:0:0:0:
256,192,133838,1,8,0:0:0:0:
256,192,133926,1,0,0:0:0:0:
256,192,134014,1,0,0:0:0:0:
256,192,134102,1,8,0:0:0:0:
256,192,134190,1,0,0:0:0:0:
256,192,134279,1,8,0:0:0:0:
256,192,134455,1,0,0:0:0:0:
256,192,134543,1,0,0:0:0:0:
256,192,134632,1,8,0:0:0:0:
256,192,134720,1,8,0:0:0:0:
256,192,134808,1,0,0:0:0:0:
256,192,134985,1,0,0:0:0:0:
256,192,135161,1,8,0:0:0:0:
256,192,135338,1,0,0:0:0:0:
256,192,135426,1,0,0:0:0:0:
256,192,135514,1,8,0:0:0:0:
256,192,135690,1,0,0:0:0:0:
256,192,135779,1,8,0:0:0:0:
256,192,135867,1,0,0:0:0:0:
256,192,136043,1,8,0:0:0:0:
256,192,136220,1,0,0:0:0:0:
256,192,136308,1,0,0:0:0:0:
256,192,136396,1,8,0:0:0:0:
256,192,136573,1,0,0:0:0:0:
256,192,136661,1,0,0:0:0:0:
256,192,136749,1,8,0:0:0:0:
256,192,136838,1,8,0:0:0:0:
256,192,136926,1,0,0:0:0:0:
256,192,137102,1,0,0:0:0:0:
256,192,137279,1,8,0:0:0:0:
256,192,137367,1,0,0:0:0:0:
256,192,137455,1,8,0:0:0:0:
256,192,137632,1,0,0:0:0:0:
256,192,137808,1,0,0:0:0:0:
256,192,137985,1,8,0:0:0:0:
256,192,138161,1,0,0:0:0:0:
256,192,138249,1,8,0:0:0:0:
256,192,138338,1,8,0:0:0:0:
256,192,138426,1,8,0:0:0:0:
256,192,138514,1,0,0:0:0:0:
256,192,138690,1,8,0:0:0:0:
256,192,138779,1,8,0:0:0:0:
256,192,138867,1,0,0:0:0:0:
256,192,139043,1,8,0:0:0:0:
256,192,139220,1,0,0:0:0:0:
256,192,139396,1,8,0:0:0:0:
256,192,139485,1,0,0:0:0:0:
256,192,139573,1,8,0:0:0:0:
256,192,139661,1,8,0:0:0:0:
256,192,139749,1,0,0:0:0:0:
256,192,139926,1,8,0:0:0:0:
256,192,140102,1,0,0:0:0:0:
256,192,140279,1,8,0:0:0:0:
256,192,140455,1,4,0:0:0:0:
256,192,140632,1,0,0:0:0:0:
256,192,140808,1,8,0:0:0:0:
256,192,140896,1,8,0:0:0:0:
256,192,140985,1,0,0:0:0:0:
256,192,141073,1,0,0:0:0:0:
256,192,141161,1,8,0:0:0:0:
256,192,141338,1,0,0:0:0:0:
256,192,141514,1,12,0:0:0:0:
256,192,141867,1,4,0:0:0:0:
256,192,142220,1,8,0:0:0:0:
256,192,142396,1,0,0:0:0:0:
256,192,142573,1,8,0:0:0:0:
256,192,142661,1,8,0:0:0:0:
256,192,142749,1,0,0:0:0:0:
256,192,142837,1,8,0:0:0:0:
256,192,142926,1,0,0:0:0:0:
256,192,143102,1,0,0:0:0:0:
256,192,143279,1,8,0:0:0:0:
256,192,143455,1,8,0:0:0:0:
256,192,143543,1,8,0:0:0:0:
256,192,143632,1,0,0:0:0:0:
256,192,143808,1,0,0:0:0:0:
256,192,143896,1,8,0:0:0:0:
256,192,143985,1,0,0:0:0:0:
256,192,144073,1,0,0:0:0:0:
256,192,144161,1,8,0:0:0:0:
256,192,144337,1,8,0:0:0:0:
256,192,144514,1,0,0:0:0:0:
256,192,144602,1,0,0:0:0:0:
256,192,144690,1,8,0:0:0:0:
256,192,144867,1,0,0:0:0:0:
256,192,145043,1,8,0:0:0:0:
256,192,145132,1,8,0:0:0:0:
256,192,145220,1,0,0:0:0:0:
256,192,145308,1,0,0:0:0:0:
256,192,145396,1,8,0:0:0:0:
256,192,145485,1,0,0:0:0:0:
256,192,145573,1,8,0:0:0:0:
256,192,145749,1,0,0:0:0:0:
256,192,145838,1,0,0:0:0:0:
256,192,145926,1,8,0:0:0:0:
256,192,146014,1,8,0:0:0:0:
256,192,146102,1,0,0:0:0:0:
256,192,146279,1,0,0:0:0:0:
256,192,146455,1,8,0:0:0:0:
256,192,146632,1,0,0:0:0:0:
256,192,146720,1,0,0:0:0:0:
256,192,146808,1,8,0:0:0:0:
256,192,146896,1,0,0:0:0:0:
256,192,146984,1,8,0:0:0:0:
256,192,147073,1,8,0:0:0:0:
256,192,147161,1,0,0:0:0:0:
256,192,147337,1,8,0:0:0:0:
256,192,147514,1,4,0:0:0:0:
256,192,147867,1,8,0:0:0:0:
256,192,148043,1,0,0:0:0:0:
256,192,148132,1,0,0:0:0:0:
256,192,148220,1,8,0:0:0:0:
256,192,148396,1,0,0:0:0:0:
256,192,148573,1,8,0:0:0:0:
256,192,148661,1,0,0:0:0:0:
256,192,148749,1,8,0:0:0:0:
256,192,148926,1,4,0:0:0:0:
256,192,149102,1,0,0:0:0:0:
256,192,149279,1,8,0:0:0:0:
256,192,149455,1,0,0:0:0:0:
256,192,149543,1,8,0:0:0:0:
256,192,149632,1,0,0:0:0:0:
256,192,149808,1,0,0:0:0:0:
256,192,149984,1,8,0:0:0:0:
256,192,150073,1,8,0:0:0:0:
256,192,150161,1,8,0:0:0:0:
256,192,150337,1,4,0:0:0:0:
256,192,150514,1,8,0:0:0:0:
256,192,150690,1,0,0:0:0:0:
256,192,150867,1,8,0:0:0:0:
256,192,150955,1,0,0:0:0:0:
256,192,151043,1,8,0:0:0:0:
256,192,151132,1,8,0:0:0:0:
256,192,151220,1,0,0:0:0:0:
256,192,151308,1,0,0:0:0:0:
256,192,151396,1,8,0:0:0:0:
256,192,151455,1,8,0:0:0:0:
256,192,151514,1,8,0:0:0:0:
256,192,151573,1,0,0:0:0:0:
256,192,151749,1,12,0:0:0:0:
256,192,152102,1,8,0:0:0:0:
256,192,152190,1,8,0:0:0:0:
256,192,152279,1,0,0:0:0:0:
256,192,152455,1,8,0:0:0:0:
256,192,152632,1,0,0:0:0:0:
256,192,152808,1,12,0:0:0:0:
256,192,153161,1,4,0:0:0:0:
256,192,153514,1,0,0:0:0:0:
256,192,153690,1,8,0:0:0:0:
256,192,153779,1,0,0:0:0:0:
256,192,153955,1,0,0:0:0:0:
256,192,154043,1,8,0:0:0:0:
256,192,154220,1,0,0:0:0:0:
256,192,154396,1,8,0:0:0:0:
256,192,154485,1,8,0:0:0:0:
256,192,154573,1,0,0:0:0:0:
256,192,154749,1,8,0:0:0:0:
256,192,154926,1,0,0:0:0:0:
256,192,155014,1,0,0:0:0:0:
256,192,155102,1,8,0:0:0:0:
256,192,155190,1,0,0:0:0:0:
256,192,155367,1,0,0:0:0:0:
256,192,155455,1,8,0:0:0:0:
256,192,155632,1,0,0:0:0:0:
256,192,155808,1,8,0:0:0:0:
256,192,155896,1,8,0:0:0:0:
256,192,155985,1,0,0:0:0:0:
256,192,156338,1,0,0:0:0:0:
256,192,156514,1,8,0:0:0:0:
256,192,156602,1,0,0:0:0:0:
256,192,156779,1,0,0:0:0:0:
256,192,156867,1,8,0:0:0:0:
256,192,157043,1,0,0:0:0:0:
256,192,157220,1,8,0:0:0:0:
256,192,157308,1,8,0:0:0:0:
256,192,157396,1,0,0:0:0:0:
256,192,157573,1,8,0:0:0:0:
256,192,157749,1,0,0:0:0:0:
256,192,157838,1,8,0:0:0:0:
256,192,158014,1,8,0:0:0:0:
256,192,158102,1,0,0:0:0:0:
256,192,158190,1,0,0:0:0:0:
256,192,158279,1,8,0:0:0:0:
256,192,158455,1,0,0:0:0:0:
256,192,158632,1,8,0:0:0:0:
256,192,158720,1,8,0:0:0:0:
256,192,158808,1,0,0:0:0:0:
256,192,159161,1,8,0:0:0:0:
256,192,159338,1,0,0:0:0:0:
256,192,159426,1,8,0:0:0:0:
256,192,159602,1,8,0:0:0:0:
256,192,159690,1,0,0:0:0:0:
256,192,159867,1,8,0:0:0:0:
256,192,160043,1,0,0:0:0:0:
256,192,160132,1,8,0:0:0:0:
256,192,160220,1,0,0:0:0:0:
256,192,160396,1,8,0:0:0:0:
256,192,160573,1,0,0:0:0:0:
256,192,160661,1,8,0:0:0:0:
256,192,160838,1,8,0:0:0:0:
256,192,160926,1,0,0:0:0:0:
256,192,161014,1,0,0:0:0:0:
256,192,161102,1,8,0:0:0:0:
256,192,161279,1,0,0:0:0:0:
256,192,161455,1,8,0:0:0:0:
256,192,161543,1,8,0:0:0:0:
256,192,161632,1,0,0:0:0:0:
256,192,161985,1,0,0:0:0:0:
256,192,162161,1,8,0:0:0:0:
256,192,162249,1,0,0:0:0:0:
256,192,162426,1,0,0:0:0:0:
256,192,162514,1,8,0:0:0:0:
256,192,162690,1,0,0:0:0:0:
256,192,162779,1,0,0:0:0:0:
256,192,162867,1,8,0:0:0:0:
256,192,163043,1,4,0:0:0:0:
256,192,163220,1,8,0:0:0:0:
256,192,163396,1,0,0:0:0:0:
256,192,163485,1,8,0:0:0:0:
256,192,163573,1,8,0:0:0:0:
256,192,163661,1,0,0:0:0:0:
256,192,163749,1,8,0:0:0:0:
256,192,163838,1,8,0:0:0:0:
256,192,163926,1,0,0:0:0:0:
256,192,164102,1,12,0:0:0:0:
256,192,164455,1,4,0:0:0:0:
256,192,164808,1,8,0:0:0:0:
256,192,164984,1,0,0:0:0:0:
256,192,165161,1,8,0:0:0:0:
256,192,165249,1,8,0:0:0:0:
256,192,165425,1,0,0:0:0:0:
256,192,165514,1,8,0:0:0:0:
256,192,165690,1,8,0:0:0:0:
256,192,165866,1,0,0:0:0:0:
256,192,166043,1,0,0:0:0:0:
256,192,166131,1,0,0:0:0:0:
256,192,166219,1,8,0:0:0:0:
256,192,166396,1,0,0:0:0:0:
256,192,166572,1,8,0:0:0:0:
256,192,166749,1,0,0:0:0:0:
256,192,166808,1,8,0:0:0:0:
256,192,166866,1,8,0:0:0:0:
256,192,166925,1,0,0:0:0:0:
256,192,167102,1,0,0:0:0:0:
256,192,167278,1,8,0:0:0:0:
256,192,167455,1,0,0:0:0:0:
256,192,167543,1,0,0:0:0:0:
256,192,167631,1,8,0:0:0:0:
256,192,167808,1,0,0:0:0:0:
256,192,167984,1,8,0:0:0:0:
256,192,168072,1,8,0:0:0:0:
256,192,168249,1,0,0:0:0:0:
256,192,168337,1,8,0:0:0:0:
256,192,168514,1,8,0:0:0:0:
256,192,168602,1,8,0:0:0:0:
256,192,168690,1,0,0:0:0:0:
256,192,168866,1,0,0:0:0:0:
256,192,168955,1,0,0:0:0:0:
256,192,169043,1,8,0:0:0:0:
256,192,169219,1,8,0:0:0:0:
256,192,169396,1,0,0:0:0:0:
256,192,169572,1,8,0:0:0:0:
256,192,169631,1,8,0:0:0:0:
256,192,169690,1,8,0:0:0:0:
256,192,169749,1,0,0:0:0:0:
256,192,169925,1,0,0:0:0:0:
256,192,170102,1,8,0:0:0:0:
256,192,170278,1,0,0:0:0:0:
256,192,170366,1,0,0:0:0:0:
256,192,170455,1,8,0:0:0:0:
256,192,170631,1,0,0:0:0:0:
256,192,170808,1,8,0:0:0:0:
256,192,170896,1,8,0:0:0:0:
256,192,171072,1,0,0:0:0:0:
256,192,171161,1,8,0:0:0:0:
256,192,171337,1,8,0:0:0:0:
256,192,171513,1,0,0:0:0:0:
256,192,171690,1,0,0:0:0:0:
256,192,171778,1,0,0:0:0:0:
256,192,171866,1,8,0:0:0:0:
256,192,172043,1,0,0:0:0:0:
256,192,172219,1,8,0:0:0:0:
256,192,172396,1,0,0:0:0:0:
256,192,172455,1,8,0:0:0:0:
256,192,172513,1,8,0:0:0:0:
256,192,172572,1,0,0:0:0:0:
256,192,172749,1,0,0:0:0:0:
256,192,172925,1,8,0:0:0:0:
256,192,173102,1,0,0:0:0:0:
256,192,173190,1,0,0:0:0:0:
256,192,173278,1,8,0:0:0:0:
256,192,173455,1,0,0:0:0:0:
256,192,173631,1,8,0:0:0:0:
256,192,173719,1,8,0:0:0:0:
256,192,173896,1,0,0:0:0:0:
256,192,173984,1,8,0:0:0:0:
256,192,174161,1,8,0:0:0:0:
256,192,174249,1,8,0:0:0:0:
256,192,174337,1,4,0:0:0:0:
256,192,174514,1,0,0:0:0:0:
256,192,174690,1,8,0:0:0:0:
256,192,174779,1,8,0:0:0:0:
256,192,174955,1,8,0:0:0:0:
256,192,175132,1,8,0:0:0:0:
256,192,175220,1,0,0:0:0:0:
256,192,175396,1,12,0:0:0:0:
256,192,175749,1,4,0:0:0:0:
256,192,175926,1,8,0:0:0:0:
256,192,176102,1,8,0:0:0:0:
256,192,176455,1,8,0:0:0:0:
256,192,176543,1,0,0:0:0:0:
256,192,176720,1,8,0:0:0:0:
256,192,176808,1,0,0:0:0:0:
256,192,176984,1,8,0:0:0:0:
256,192,177161,1,0,0:0:0:0:
256,192,177337,1,0,0:0:0:0:
256,192,177425,1,8,0:0:0:0:
256,192,177514,1,0,0:0:0:0:
256,192,177690,1,8,0:0:0:0:
256,192,177867,1,0,0:0:0:0:
256,192,178043,1,8,0:0:0:0:
256,192,178131,1,8,0:0:0:0:
256,192,178220,1,0,0:0:0:0:
256,192,178396,1,8,0:0:0:0:
256,192,178572,1,0,0:0:0:0:
256,192,178749,1,8,0:0:0:0:
256,192,178837,1,0,0:0:0:0:
256,192,178925,1,8,0:0:0:0:
256,192,179278,1,8,0:0:0:0:
256,192,179367,1,0,0:0:0:0:
256,192,179543,1,8,0:0:0:0:
256,192,179631,1,8,0:0:0:0:
256,192,179808,1,8,0:0:0:0:
256,192,179984,1,0,0:0:0:0:
256,192,180161,1,0,0:0:0:0:
256,192,180249,1,8,0:0:0:0:
256,192,180337,1,0,0:0:0:0:
256,192,180426,1,0,0:0:0:0:
256,192,180514,1,8,0:0:0:0:
256,192,180690,1,8,0:0:0:0:
256,192,180867,1,0,0:0:0:0:
256,192,180955,1,8,0:0:0:0:
256,192,181043,1,0,0:0:0:0:
256,192,181220,1,8,0:0:0:0:
256,192,181396,1,0,0:0:0:0:
256,192,181572,1,8,0:0:0:0:
256,192,181749,1,8,0:0:0:0:
256,192,182102,1,8,0:0:0:0:
256,192,182190,1,0,0:0:0:0:
256,192,182367,1,8,0:0:0:0:
256,192,182455,1,0,0:0:0:0:
256,192,182631,1,8,0:0:0:0:
288,192,182808,1,0,0:0:0:0:
256,192,182984,1,0,0:0:0:0:
256,192,183072,1,8,0:0:0:0:
256,192,183161,1,0,0:0:0:0:
256,192,183337,1,8,0:0:0:0:
256,192,183514,1,0,0:0:0:0:
256,192,183690,1,8,0:0:0:0:
256,192,183778,1,8,0:0:0:0:
256,192,183867,1,0,0:0:0:0:
256,192,184043,1,8,0:0:0:0:
256,192,184220,1,0,0:0:0:0:
256,192,184396,1,8,0:0:0:0:
256,192,184484,1,0,0:0:0:0:
256,192,184572,1,8,0:0:0:0:
256,192,184925,1,8,0:0:0:0:
256,192,185014,1,0,0:0:0:0:
256,192,185190,1,8,0:0:0:0:
256,192,185278,1,8,0:0:0:0:
256,192,185455,1,8,0:0:0:0:
256,192,185631,1,0,0:0:0:0:
256,192,185808,1,0,0:0:0:0:
256,192,185896,1,8,0:0:0:0:
256,192,185984,1,8,0:0:0:0:
256,192,186073,1,0,0:0:0:0:
256,192,186161,1,8,0:0:0:0:
256,192,186337,1,8,0:0:0:0:
256,192,186514,1,0,0:0:0:0:
256,192,186690,1,12,0:0:0:0:
256,192,187043,1,4,0:0:0:0:
256,192,188455,1,12,0:0:0:0:
256,192,188720,1,12,0:0:0:0:
256,192,188984,1,12,0:0:0:0:
256,192,189337,1,0,0:0:0:0:
256,192,189514,1,12,0:0:0:0:
256,192,189867,1,8,0:0:0:0:
256,192,190043,1,0,0:0:0:0:
256,192,190220,1,8,0:0:0:0:
256,192,190396,1,0,0:0:0:0:
256,192,190484,1,0,0:0:0:0:
256,192,190573,1,8,0:0:0:0:
256,192,190749,1,0,0:0:0:0:
256,192,190837,1,8,0:0:0:0:
256,192,190926,1,0,0:0:0:0:
256,192,191014,1,0,0:0:0:0:
256,192,191102,1,8,0:0:0:0:
256,192,191190,1,8,0:0:0:0:
256,192,191279,1,0,0:0:0:0:
256,192,191455,1,0,0:0:0:0:
256,192,191543,1,8,0:0:0:0:
256,192,191631,1,0,0:0:0:0:
256,192,191808,1,0,0:0:0:0:
256,192,191984,1,8,0:0:0:0:
256,192,192073,1,0,0:0:0:0:
256,192,192161,1,0,0:0:0:0:
256,192,192337,1,8,0:0:0:0:
256,192,192396,1,0,0:0:0:0:
256,192,192455,1,0,0:0:0:0:
256,192,192514,1,8,0:0:0:0:
256,192,192690,1,4,0:0:0:0:
256,192,194102,1,12,0:0:0:0:
256,192,194367,1,12,0:0:0:0:
256,192,194631,1,12,0:0:0:0:
256,192,194984,1,0,0:0:0:0:
256,192,195161,1,12,0:0:0:0:
256,192,195514,1,8,0:0:0:0:
256,192,195690,1,0,0:0:0:0:
256,192,195779,1,0,0:0:0:0:
256,192,195867,1,8,0:0:0:0:
256,192,196043,1,0,0:0:0:0:
256,192,196220,1,8,0:0:0:0:
256,192,196308,1,0,0:0:0:0:
256,192,196396,1,8,0:0:0:0:
256,192,196484,1,8,0:0:0:0:
256,192,196573,1,0,0:0:0:0:
256,192,196631,1,0,0:0:0:0:
256,192,196690,1,0,0:0:0:0:
256,192,196749,1,8,0:0:0:0:
256,192,196926,1,4,0:0:0:0:
256,192,197102,1,0,0:0:0:0:
256,192,197190,1,8,0:0:0:0:
256,192,197367,1,0,0:0:0:0:
256,192,197455,1,8,0:0:0:0:
256,192,197808,1,0,0:0:0:0:
256,192,197985,1,12,0:0:0:0:
256,192,198338,1,4,0:0:0:0:
256,192,198691,1,8,0:0:0:0:
256,192,198867,1,0,0:0:0:0:
256,192,199044,1,8,0:0:0:0:
256,192,199220,1,0,0:0:0:0:
256,192,199308,1,8,0:0:0:0:
256,192,199397,1,0,0:0:0:0:
256,192,199573,1,0,0:0:0:0:
256,192,199750,1,8,0:0:0:0:
256,192,199838,1,8,0:0:0:0:
256,192,199926,1,0,0:0:0:0:
256,192,200103,1,8,0:0:0:0:
256,192,200279,1,0,0:0:0:0:
256,192,200367,1,8,0:0:0:0:
256,192,200455,1,8,0:0:0:0:
256,192,200544,1,8,0:0:0:0:
256,192,200632,1,0,0:0:0:0:
256,192,200808,1,8,0:0:0:0:
256,192,200985,1,0,0:0:0:0:
256,192,201073,1,0,0:0:0:0:
256,192,201161,1,8,0:0:0:0:
256,192,201338,1,0,0:0:0:0:
256,192,201514,1,8,0:0:0:0:
256,192,201603,1,8,0:0:0:0:
256,192,201691,1,0,0:0:0:0:
256,192,201779,1,0,0:0:0:0:
256,192,201867,1,8,0:0:0:0:
256,192,202044,1,0,0:0:0:0:
256,192,202220,1,8,0:0:0:0:
256,192,202308,1,8,0:0:0:0:
256,192,202397,1,8,0:0:0:0:
256,192,202485,1,8,0:0:0:0:
256,192,202573,1,0,0:0:0:0:
256,192,202749,1,0,0:0:0:0:
256,192,202926,1,8,0:0:0:0:
256,192,203103,1,0,0:0:0:0:
256,192,203190,1,0,0:0:0:0:
256,192,203279,1,8,0:0:0:0:
256,192,203367,1,8,0:0:0:0:
256,192,203455,1,0,0:0:0:0:
256,192,203544,1,8,0:0:0:0:
256,192,203632,1,0,0:0:0:0:
256,192,203808,1,8,0:0:0:0:
256,192,203985,1,4,0:0:0:0:
256,192,204338,1,8,0:0:0:0:
256,192,204514,1,0,0:0:0:0:
256,192,204603,1,0,0:0:0:0:
256,192,204691,1,8,0:0:0:0:
256,192,204867,1,0,0:0:0:0:
256,192,205044,1,8,0:0:0:0:
256,192,205132,1,0,0:0:0:0:
256,192,205220,1,8,0:0:0:0:
256,192,205397,1,4,0:0:0:0:
256,192,205573,1,0,0:0:0:0:
256,192,205750,1,8,0:0:0:0:
256,192,205926,1,0,0:0:0:0:
256,192,206014,1,8,0:0:0:0:
256,192,206103,1,0,0:0:0:0:
256,192,206279,1,0,0:0:0:0:
256,192,206455,1,8,0:0:0:0:
256,192,206544,1,8,0:0:0:0:
256,192,206632,1,8,0:0:0:0:
256,192,206808,1,4,0:0:0:0:
256,192,206985,1,8,0:0:0:0:
256,192,207161,1,0,0:0:0:0:
256,192,207338,1,8,0:0:0:0:
256,192,207426,1,0,0:0:0:0:
256,192,207514,1,8,0:0:0:0:
256,192,207603,1,8,0:0:0:0:
256,192,207691,1,0,0:0:0:0:
256,192,207779,1,0,0:0:0:0:
256,192,207867,1,8,0:0:0:0:
256,192,207926,1,8,0:0:0:0:
256,192,207985,1,8,0:0:0:0:
256,192,208044,1,0,0:0:0:0:
256,192,208220,1,12,0:0:0:0:
256,192,208573,1,8,0:0:0:0:
256,192,208661,1,8,0:0:0:0:
256,192,208750,1,0,0:0:0:0:
256,192,208926,1,8,0:0:0:0:
256,192,209103,1,0,0:0:0:0:
256,192,209279,1,12,0:0:0:0:
256,192,209632,1,4,0:0:0:0:
256,192,209896,1,8,0:0:0:0:
256,192,209985,1,8,0:0:0:0:
256,192,210073,1,0,0:0:0:0:
249,189,210249,1,8,0:0:0:0:
249,189,210426,1,8,0:0:0:0:
249,189,210602,1,0,0:0:0:0:
249,189,210690,1,8,0:0:0:0:
249,189,210867,1,0,0:0:0:0:
249,189,211043,1,8,0:0:0:0:
247,194,211220,1,0,0:0:0:0:
247,194,211396,1,8,0:0:0:0:
247,194,211485,1,0,0:0:0:0:
247,194,211661,1,0,0:0:0:0:
247,194,211749,1,8,0:0:0:0:
239,194,211838,1,8,0:0:0:0:
239,194,211926,1,0,0:0:0:0:
239,194,212102,1,12,0:0:0:0:
239,194,212455,1,4,0:0:0:0:
256,192,212720,1,8,0:0:0:0:
256,192,212809,1,0,0:0:0:0:
256,192,212897,1,8,0:0:0:0:
249,189,213073,1,0,0:0:0:0:
249,189,213250,1,8,0:0:0:0:
249,189,213426,1,8,0:0:0:0:
249,189,213514,1,0,0:0:0:0:
248,194,213602,1,0,0:0:0:0:
249,189,213691,1,8,0:0:0:0:
249,189,213867,1,0,0:0:0:0:
247,194,214044,1,0,0:0:0:0:
249,189,214220,1,8,0:0:0:0:
249,189,214308,1,8,0:0:0:0:
256,192,214485,1,0,0:0:0:0:
255,192,214661,1,8,0:0:0:0:
249,189,214749,1,0,0:0:0:0:
255,192,214838,1,0,0:0:0:0:
255,192,214926,1,8,0:0:0:0:
255,192,215102,1,8,0:0:0:0:
255,192,215279,1,0,0:0:0:0:
256,192,215543,1,8,0:0:0:0:
256,192,215632,1,0,0:0:0:0:
256,192,215720,1,8,0:0:0:0:
249,189,215896,1,0,0:0:0:0:
249,189,216073,1,8,0:0:0:0:
249,189,216249,1,8,0:0:0:0:
249,189,216337,1,0,0:0:0:0:
249,189,216514,1,8,0:0:0:0:
249,189,216690,1,0,0:0:0:0:
249,189,216779,1,0,0:0:0:0:
247,194,216867,1,8,0:0:0:0:
247,194,217043,1,8,0:0:0:0:
247,194,217132,1,0,0:0:0:0:
247,194,217308,1,0,0:0:0:0:
239,194,217485,1,8,0:0:0:0:
239,194,217573,1,0,0:0:0:0:
247,194,217661,1,8,0:0:0:0:
249,189,217749,1,8,0:0:0:0:
256,192,217926,1,8,0:0:0:0:
256,192,218102,1,0,0:0:0:0:
256,192,218366,1,8,0:0:0:0:
256,192,218455,1,0,0:0:0:0:
256,192,218543,1,8,0:0:0:0:
249,189,218719,1,0,0:0:0:0:
249,189,218896,1,8,0:0:0:0:
249,189,219072,1,8,0:0:0:0:
249,189,219160,1,0,0:0:0:0:
249,189,219337,1,8,0:0:0:0:
249,189,219513,1,4,0:0:0:0:
247,194,219690,1,8,0:0:0:0:
247,194,219866,1,0,0:0:0:0:
247,194,219955,1,8,0:0:0:0:
249,189,220043,1,0,0:0:0:0:
247,194,220131,1,8,0:0:0:0:
247,194,220219,1,8,0:0:0:0:
239,194,220308,1,8,0:0:0:0:
239,194,220396,1,0,0:0:0:0:
239,194,220573,1,12,0:0:0:0:
256,192,220926,1,4,0:0:0:0:
256,192,221190,1,8,0:0:0:0:
256,192,221279,1,0,0:0:0:0:
256,192,221367,1,8,0:0:0:0:
249,189,221543,1,0,0:0:0:0:
249,189,221720,1,8,0:0:0:0:
249,189,221896,1,8,0:0:0:0:
249,189,221984,1,0,0:0:0:0:
249,189,222161,1,8,0:0:0:0:
249,189,222337,1,0,0:0:0:0:
249,189,222426,1,0,0:0:0:0:
247,194,222514,1,8,0:0:0:0:
247,194,222690,1,8,0:0:0:0:
247,194,222779,1,0,0:0:0:0:
247,194,222955,1,8,0:0:0:0:
239,194,223132,1,0,0:0:0:0:
239,194,223308,1,8,0:0:0:0:
239,194,223396,1,0,0:0:0:0:
247,194,223485,1,0,0:0:0:0:
239,194,223573,1,8,0:0:0:0:
239,194,223749,1,0,0:0:0:0:
256,192,224014,1,8,0:0:0:0:
256,192,224103,1,0,0:0:0:0:
256,192,224191,1,8,0:0:0:0:
249,189,224367,1,0,0:0:0:0:
249,189,224544,1,8,0:0:0:0:
249,189,224720,1,0,0:0:0:0:
249,189,224808,1,8,0:0:0:0:
248,194,224896,1,8,0:0:0:0:
249,189,224985,1,0,0:0:0:0:
249,189,225161,1,8,0:0:0:0:
247,194,225338,1,0,0:0:0:0:
249,189,225514,1,8,0:0:0:0:
249,189,225602,1,0,0:0:0:0:
256,192,225779,1,0,0:0:0:0:
248,194,225867,1,8,0:0:0:0:
255,192,225955,1,8,0:0:0:0:
249,189,226043,1,0,0:0:0:0:
255,192,226132,1,0,0:0:0:0:
255,192,226220,1,8,0:0:0:0:
255,192,226396,1,8,0:0:0:0:
255,192,226573,1,4,0:0:0:0:
256,192,226837,1,8,0:0:0:0:
256,192,226926,1,0,0:0:0:0:
256,192,227014,1,8,0:0:0:0:
249,189,227190,1,0,0:0:0:0:
249,189,227367,1,0,0:0:0:0:
249,189,227543,1,8,0:0:0:0:
249,189,227631,1,0,0:0:0:0:
256,192,227720,1,0,0:0:0:0:
249,189,227808,1,8,0:0:0:0:
249,189,227984,1,4,0:0:0:0:
247,194,228161,1,0,0:0:0:0:
247,194,228337,1,8,0:0:0:0:
247,194,228426,1,0,0:0:0:0:
247,194,228602,1,0,0:0:0:0:
256,192,228690,1,8,0:0:0:0:
239,194,228779,1,8,0:0:0:0:
239,194,228867,1,0,0:0:0:0:
247,194,228955,1,0,0:0:0:0:
249,189,229043,1,8,0:0:0:0:
256,192,229220,1,8,0:0:0:0:
256,192,229396,1,0,0:0:0:0:
256,192,229485,1,0,0:0:0:0:
247,194,229573,1,8,0:0:0:0:
256,192,229660,1,0,0:0:0:0:
256,192,229749,1,8,0:0:0:0:
256,192,229837,1,8,0:0:0:0:
247,194,229926,1,0,0:0:0:0:
249,189,230013,1,0,0:0:0:0:
256,192,230102,1,8,0:0:0:0:
249,189,230190,1,0,0:0:0:0:
256,192,230279,1,8,0:0:0:0:
249,189,230366,1,8,0:0:0:0:
249,189,230454,1,0,0:0:0:0:
256,192,230514,1,0,0:0:0:0:
247,194,230573,1,0,0:0:0:0:
249,189,230631,1,8,0:0:0:0:
256,192,230808,1,4,0:0:0:0:
256,192,231690,1,0,0:0:0:0:
256,192,231867,1,12,0:0:0:0:
256,192,232220,1,4,0:0:0:0:
256,192,235043,5,8,0:0:0:0:
256,192,235926,1,0,0:0:0:0:
256,192,236102,1,12,0:0:0:0:
256,192,236455,1,0,0:0:0:0:
256,192,236632,1,12,0:0:0:0:
256,192,236808,1,12,0:0:0:0:
256,192,237161,1,0,0:0:0:0:
256,192,237338,1,0,0:0:0:0:
256,192,237426,1,0,0:0:0:0:
256,192,237514,1,12,0:0:0:0:
256,192,237867,1,4,0:0:0:0:
256,192,238220,1,8,0:0:0:0:
256,192,238573,1,8,0:0:0:0:
256,192,238926,1,8,0:0:0:0:
256,192,239279,1,4,0:0:0:0:
256,192,239632,1,8,0:0:0:0:
256,192,239985,1,8,0:0:0:0:
256,192,240338,1,8,0:0:0:0:
256,192,240690,1,4,0:0:0:0:
256,192,240867,1,0,0:0:0:0:
256,192,241043,1,8,0:0:0:0:
256,192,241220,1,0,0:0:0:0:
256,192,241396,1,8,0:0:0:0:
256,192,241485,1,0,0:0:0:0:
256,192,241573,1,8,0:0:0:0:
256,192,241661,1,8,0:0:0:0:
256,192,241749,1,0,0:0:0:0:
256,192,241838,1,0,0:0:0:0:
256,192,241926,1,8,0:0:0:0:
256,192,241985,1,0,0:0:0:0:
256,192,242043,1,0,0:0:0:0:
256,192,242102,1,8,0:0:0:0:
256,192,242279,1,8,0:0:0:0:
256,192,242455,1,8,0:0:0:0:
256,192,242543,1,0,0:0:0:0:
256,192,242632,1,8,0:0:0:0:
256,192,242720,1,0,0:0:0:0:
256,192,242808,1,8,0:0:0:0:
256,192,242985,1,0,0:0:0:0:
256,192,243161,1,12,0:0:0:0:
256,192,243514,1,4,0:0:0:0:
256,192,243867,1,8,0:0:0:0:
256,192,244043,1,0,0:0:0:0:
256,192,244132,1,0,0:0:0:0:
256,192,244220,1,8,0:0:0:0:
256,192,244396,1,0,0:0:0:0:
256,192,244573,1,0,0:0:0:0:
256,192,244661,1,8,0:0:0:0:
256,192,244749,1,0,0:0:0:0:
256,192,244926,1,8,0:0:0:0:
256,192,245014,1,8,0:0:0:0:
256,192,245102,1,0,0:0:0:0:
256,192,245279,1,8,0:0:0:0:
256,192,245455,1,0,0:0:0:0:
256,192,245543,1,8,0:0:0:0:
256,192,245631,1,8,0:0:0:0:
256,192,245720,1,8,0:0:0:0:
256,192,245808,1,0,0:0:0:0:
256,192,245984,1,8,0:0:0:0:
256,192,246161,1,0,0:0:0:0:
256,192,246249,1,0,0:0:0:0:
256,192,246337,1,8,0:0:0:0:
256,192,246514,1,0,0:0:0:0:
256,192,246690,1,8,0:0:0:0:
256,192,246779,1,8,0:0:0:0:
256,192,246867,1,0,0:0:0:0:
256,192,246955,1,0,0:0:0:0:
256,192,247043,1,8,0:0:0:0:
256,192,247132,1,0,0:0:0:0:
256,192,247220,1,8,0:0:0:0:
256,192,247396,1,0,0:0:0:0:
256,192,247484,1,0,0:0:0:0:
256,192,247573,1,8,0:0:0:0:
256,192,247661,1,8,0:0:0:0:
256,192,247749,1,0,0:0:0:0:
256,192,247925,1,0,0:0:0:0:
256,192,248102,1,8,0:0:0:0:
256,192,248279,1,0,0:0:0:0:
256,192,248366,1,0,0:0:0:0:
256,192,248455,1,8,0:0:0:0:
256,192,248543,1,8,0:0:0:0:
256,192,248631,1,0,0:0:0:0:
256,192,248720,1,8,0:0:0:0:
256,192,248808,1,0,0:0:0:0:
256,192,248984,1,8,0:0:0:0:
256,192,249161,1,4,0:0:0:0:
256,192,249514,1,8,0:0:0:0:
256,192,249690,1,0,0:0:0:0:
256,192,249779,1,0,0:0:0:0:
256,192,249867,1,8,0:0:0:0:
256,192,250043,1,0,0:0:0:0:
256,192,250220,1,8,0:0:0:0:
256,192,250308,1,0,0:0:0:0:
256,192,250396,1,8,0:0:0:0:
256,192,250573,1,4,0:0:0:0:
256,192,250749,1,0,0:0:0:0:
256,192,250926,1,8,0:0:0:0:
256,192,251102,1,0,0:0:0:0:
256,192,251190,1,8,0:0:0:0:
256,192,251279,1,0,0:0:0:0:
256,192,251455,1,0,0:0:0:0:
256,192,251631,1,8,0:0:0:0:
256,192,251720,1,8,0:0:0:0:
256,192,251808,1,8,0:0:0:0:
256,192,251984,1,4,0:0:0:0:
256,192,252161,1,8,0:0:0:0:
256,192,252337,1,0,0:0:0:0:
256,192,252514,1,8,0:0:0:0:
256,192,252602,1,0,0:0:0:0:
256,192,252690,1,8,0:0:0:0:
256,192,252779,1,8,0:0:0:0:
256,192,252867,1,0,0:0:0:0:
256,192,252955,1,0,0:0:0:0:
256,192,253043,1,8,0:0:0:0:
256,192,253102,1,8,0:0:0:0:
256,192,253161,1,8,0:0:0:0:
256,192,253220,1,0,0:0:0:0:
256,192,253396,1,12,0:0:0:0:
256,192,253749,1,8,0:0:0:0:
256,192,253838,1,8,0:0:0:0:
256,192,253926,1,0,0:0:0:0:
256,192,254102,1,8,0:0:0:0:
256,192,254279,1,0,0:0:0:0:
256,192,254455,1,12,0:0:0:0:
256,192,254808,1,4,0:0:0:0:
256,192,254985,1,8,0:0:0:0:
256,192,255161,1,0,0:0:0:0:
256,192,255338,1,8,0:0:0:0:
256,192,255426,1,0,0:0:0:0:
256,192,255514,1,8,0:0:0:0:
256,192,255603,1,8,0:0:0:0:
256,192,255691,1,0,0:0:0:0:
256,192,255779,1,0,0:0:0:0:
256,192,255867,1,8,0:0:0:0:
256,192,255926,1,8,0:0:0:0:
256,192,255985,1,8,0:0:0:0:
256,192,256044,1,0,0:0:0:0:
256,192,256220,1,12,0:0:0:0:
256,192,256573,1,8,0:0:0:0:
256,192,256662,1,8,0:0:0:0:
256,192,256750,1,0,0:0:0:0:
256,192,256926,1,8,0:0:0:0:
256,192,257103,1,0,0:0:0:0:
256,192,257279,1,12,0:0:0:0:
256,192,257632,1,4,0:0:0:0:
256,192,257808,1,8,0:0:0:0:
256,192,257985,1,0,0:0:0:0:
256,192,258073,1,0,0:0:0:0:
256,192,258161,1,8,0:0:0:0:
256,192,258249,1,8,0:0:0:0:
256,192,258338,1,0,0:0:0:0:
256,192,258426,1,8,0:0:0:0:
256,192,258514,1,0,0:0:0:0:
256,192,258690,1,12,0:0:0:0:
256,192,259043,1,4,0:0:0:0:
256,192,259396,1,8,0:0:0:0:
256,192,259572,1,0,0:0:0:0:
256,192,259749,1,8,0:0:0:0:
256,192,259837,1,8,0:0:0:0:
256,192,260013,1,0,0:0:0:0:
256,192,260102,1,8,0:0:0:0:
256,192,260278,1,8,0:0:0:0:
256,192,260454,1,0,0:0:0:0:
256,192,260631,1,0,0:0:0:0:
256,192,260719,1,0,0:0:0:0:
256,192,260807,1,8,0:0:0:0:
256,192,260984,1,0,0:0:0:0:
256,192,261160,1,8,0:0:0:0:
256,192,261337,1,0,0:0:0:0:
256,192,261396,1,8,0:0:0:0:
256,192,261454,1,8,0:0:0:0:
256,192,261513,1,0,0:0:0:0:
256,192,261690,1,0,0:0:0:0:
256,192,261866,1,8,0:0:0:0:
256,192,262043,1,0,0:0:0:0:
256,192,262131,1,0,0:0:0:0:
256,192,262219,1,8,0:0:0:0:
256,192,262396,1,0,0:0:0:0:
256,192,262572,1,8,0:0:0:0:
256,192,262660,1,8,0:0:0:0:
256,192,262837,1,0,0:0:0:0:
256,192,262925,1,8,0:0:0:0:
256,192,263102,1,8,0:0:0:0:
256,192,263190,1,8,0:0:0:0:
256,192,263278,1,0,0:0:0:0:
256,192,263454,1,0,0:0:0:0:
256,192,263543,1,0,0:0:0:0:
256,192,263631,1,8,0:0:0:0:
256,192,263807,1,8,0:0:0:0:
256,192,263984,1,0,0:0:0:0:
256,192,264160,1,8,0:0:0:0:
256,192,264219,1,8,0:0:0:0:
256,192,264278,1,8,0:0:0:0:
256,192,264337,1,0,0:0:0:0:
256,192,264513,1,0,0:0:0:0:
256,192,264690,1,8,0:0:0:0:
256,192,264866,1,0,0:0:0:0:
256,192,264954,1,0,0:0:0:0:
256,192,265043,1,8,0:0:0:0:
256,192,265219,1,0,0:0:0:0:
256,192,265396,1,8,0:0:0:0:
256,192,265484,1,8,0:0:0:0:
256,192,265660,1,0,0:0:0:0:
256,192,265749,1,8,0:0:0:0:
256,192,265925,1,8,0:0:0:0:
256,192,266101,1,0,0:0:0:0:
256,192,266278,1,0,0:0:0:0:
256,192,266366,1,0,0:0:0:0:
256,192,266454,1,8,0:0:0:0:
256,192,266631,1,0,0:0:0:0:
256,192,266807,1,8,0:0:0:0:
256,192,266984,1,0,0:0:0:0:
256,192,267043,1,8,0:0:0:0:
256,192,267101,1,8,0:0:0:0:
256,192,267160,1,0,0:0:0:0:
256,192,267337,1,0,0:0:0:0:
256,192,267513,1,8,0:0:0:0:
256,192,267690,1,0,0:0:0:0:
256,192,267778,1,0,0:0:0:0:
256,192,267866,1,8,0:0:0:0:
256,192,268043,1,0,0:0:0:0:
256,192,268219,1,8,0:0:0:0:
256,192,268307,1,8,0:0:0:0:
256,192,268484,1,0,0:0:0:0:
256,192,268572,1,8,0:0:0:0:
256,192,268749,1,8,0:0:0:0:
256,192,268837,1,8,0:0:0:0:
256,192,268925,1,0,0:0:0:0:
256,192,269101,1,0,0:0:0:0:
256,192,269190,1,0,0:0:0:0:
256,192,269278,1,8,0:0:0:0:
256,192,269454,1,8,0:0:0:0:
256,192,269631,1,0,0:0:0:0:
256,192,269720,1,0,0:0:0:0:
256,192,269807,1,8,0:0:0:0:
256,192,269985,1,12,0:0:0:0:
256,192,270337,1,4,0:0:0:0:
256,192,270690,1,8,0:0:0:0:
256,192,270866,1,0,0:0:0:0:
256,192,271043,1,8,0:0:0:0:
256,192,271131,1,8,0:0:0:0:
256,192,271307,1,0,0:0:0:0:
256,192,271396,1,8,0:0:0:0:
256,192,271572,1,8,0:0:0:0:
256,192,271748,1,0,0:0:0:0:
256,192,271925,1,0,0:0:0:0:
256,192,272013,1,0,0:0:0:0:
256,192,272101,1,8,0:0:0:0:
256,192,272190,1,8,0:0:0:0:
256,192,272278,1,0,0:0:0:0:
256,192,272454,1,8,0:0:0:0:
256,192,272631,1,0,0:0:0:0:
256,192,272690,1,8,0:0:0:0:
256,192,272748,1,8,0:0:0:0:
256,192,272807,1,0,0:0:0:0:
256,192,272984,1,0,0:0:0:0:
256,192,273160,1,8,0:0:0:0:
256,192,273337,1,0,0:0:0:0:
256,192,273425,1,0,0:0:0:0:
256,192,273513,1,8,0:0:0:0:
256,192,273690,1,0,0:0:0:0:
256,192,273778,1,0,0:0:0:0:
256,192,273866,1,8,0:0:0:0:
256,192,273954,1,8,0:0:0:0:
256,192,274131,1,0,0:0:0:0:
256,192,274219,1,8,0:0:0:0:
256,192,274396,1,8,0:0:0:0:
256,192,274484,1,8,0:0:0:0:
256,192,274572,1,0,0:0:0:0:
256,192,274748,1,0,0:0:0:0:
256,192,274837,1,0,0:0:0:0:
256,192,274925,1,8,0:0:0:0:
256,192,275013,1,0,0:0:0:0:
256,192,275101,1,8,0:0:0:0:
256,192,275278,1,0,0:0:0:0:
256,192,275454,1,8,0:0:0:0:
256,192,275513,1,8,0:0:0:0:
256,192,275572,1,8,0:0:0:0:
256,192,275631,1,0,0:0:0:0:
256,192,275807,1,0,0:0:0:0:
256,192,275984,1,12,0:0:0:0:
256,192,276337,1,8,0:0:0:0:
256,192,276513,1,0,0:0:0:0:
256,192,276690,1,8,0:0:0:0:
256,192,276778,1,8,0:0:0:0:
256,192,276954,1,0,0:0:0:0:
256,192,277043,1,8,0:0:0:0:
256,192,277219,1,8,0:0:0:0:
256,192,277396,1,4,0:0:0:0:
256,192,277572,1,0,0:0:0:0:
256,192,277660,1,0,0:0:0:0:
256,192,277749,1,8,0:0:0:0:
256,192,277837,1,8,0:0:0:0:
256,192,277925,1,0,0:0:0:0:
256,192,278102,1,8,0:0:0:0:
256,192,278278,1,0,0:0:0:0:
256,192,278337,1,8,0:0:0:0:
256,192,278396,1,8,0:0:0:0:
256,192,278454,1,0,0:0:0:0:
256,192,278631,1,0,0:0:0:0:
256,192,278807,1,12,0:0:0:0:
256,192,278984,1,0,0:0:0:0:
256,192,279072,1,0,0:0:0:0:
256,192,279160,1,8,0:0:0:0:
288,192,279337,1,0,0:0:0:0:
256,192,279513,1,8,0:0:0:0:
256,192,279602,1,0,0:0:0:0:
256,192,279690,1,8,0:0:0:0:
256,192,279778,1,8,0:0:0:0:
256,192,279866,1,0,0:0:0:0:
256,192,279925,1,0,0:0:0:0:
256,192,279984,1,0,0:0:0:0:
256,192,280043,1,8,0:0:0:0:
256,192,280219,1,4,0:0:0:0:
256,192,280396,1,0,0:0:0:0:
256,192,280572,1,8,0:0:0:0:
256,192,280660,1,8,0:0:0:0:
256,192,280837,1,8,0:0:0:0:
256,192,281013,1,8,0:0:0:0:
256,192,281102,1,0,0:0:0:0:
256,192,281278,1,12,0:0:0:0:
256,192,281632,1,4,0:0:0:0:
256,192,281808,1,8,0:0:0:0:
256,192,281984,1,8,0:0:0:0:
256,192,282073,1,0,0:0:0:0:
256,192,282249,1,8,0:0:0:0:
256,192,282426,1,0,0:0:0:0:
256,192,282514,1,8,0:0:0:0:
256,192,282690,1,8,0:0:0:0:
256,192,283043,1,0,0:0:0:0:
256,192,283220,1,8,0:0:0:0:
256,192,283395,1,8,0:0:0:0:
256,192,283484,1,0,0:0:0:0:
256,192,283661,1,8,0:0:0:0:
256,192,283837,1,0,0:0:0:0:
256,192,283925,1,8,0:0:0:0:
256,192,284102,1,8,0:0:0:0:
256,192,284279,1,0,0:0:0:0:
256,192,284455,1,0,0:0:0:0:
256,192,284631,1,8,0:0:0:0:
256,192,284807,1,8,0:0:0:0:
256,192,284896,1,0,0:0:0:0:
256,192,285072,1,8,0:0:0:0:
256,192,285249,1,0,0:0:0:0:
256,192,285337,1,8,0:0:0:0:
256,192,285513,1,8,0:0:0:0:
256,192,285866,1,0,0:0:0:0:
256,192,286043,1,8,0:0:0:0:
256,192,286220,1,8,0:0:0:0:
256,192,286307,1,0,0:0:0:0:
256,192,286485,1,8,0:0:0:0:
256,192,286660,1,0,0:0:0:0:
256,192,286748,1,8,0:0:0:0:
256,192,286925,1,8,0:0:0:0:
256,192,287102,1,0,0:0:0:0:
256,192,287279,1,0,0:0:0:0:
256,192,287455,1,8,0:0:0:0:
256,192,287631,1,8,0:0:0:0:
256,192,287720,1,0,0:0:0:0:
256,192,287896,1,8,0:0:0:0:
256,192,288073,1,0,0:0:0:0:
256,192,288161,1,8,0:0:0:0:
256,192,288337,1,8,0:0:0:0:
256,192,288690,1,0,0:0:0:0:
256,192,288867,1,8,0:0:0:0:
256,192,289042,1,8,0:0:0:0:
256,192,289131,1,0,0:0:0:0:
256,192,289307,1,8,0:0:0:0:
256,192,289484,1,0,0:0:0:0:
256,192,289572,1,8,0:0:0:0:
256,192,289749,1,8,0:0:0:0:
256,192,289926,1,0,0:0:0:0:
256,192,290102,1,0,0:0:0:0:
256,192,290279,1,8,0:0:0:0:
256,192,290454,1,8,0:0:0:0:
256,192,290543,1,0,0:0:0:0:
256,192,290719,1,8,0:0:0:0:
256,192,290896,1,0,0:0:0:0:
256,192,290984,1,8,0:0:0:0:
256,192,291160,1,8,0:0:0:0:
256,192,291513,1,0,0:0:0:0:
256,192,291690,1,8,0:0:0:0:
256,192,291867,1,8,0:0:0:0:
256,192,291954,1,0,0:0:0:0:
256,192,292132,1,8,0:0:0:0:
256,192,292307,1,0,0:0:0:0:
256,192,292395,1,8,0:0:0:0:
256,192,292572,1,8,0:0:0:0:
256,192,292926,1,0,0:0:0:0:
256,192,293279,1,8,0:0:0:0:
256,192,293632,1,8,0:0:0:0:
256,192,293985,1,8,0:0:0:0:
256,192,294338,1,0,0:0:0:0:
256,192,294690,1,8,0:0:0:0:
256,192,295044,1,8,0:0:0:0:
256,192,295397,1,8,0:0:0:0:
256,192,295749,1,0,0:0:0:0:
256,192,296102,1,8,0:0:0:0:
256,192,296455,1,8,0:0:0:0:
256,192,296808,1,8,0:0:0:0:
256,192,297161,1,0,0:0:0:0:
256,192,297514,1,8,0:0:0:0:
256,192,297867,1,8,0:0:0:0:
256,192,298220,1,8,0:0:0:0:
256,192,298573,1,4,0:0:0:0:
256,192,298926,1,8,0:0:0:0:
256,192,299279,1,8,0:0:0:0:
256,192,299632,1,8,0:0:0:0:
256,192,299985,1,4,0:0:0:0:
256,192,300338,1,8,0:0:0:0:
256,192,300691,1,8,0:0:0:0:
256,192,301044,1,8,0:0:0:0:
256,192,301396,1,4,0:0:0:0:
256,192,301749,1,8,0:0:0:0:
256,192,302102,1,4,0:0:0:0:
256,192,302455,1,8,0:0:0:0:
256,192,302808,1,4,0:0:0:0:
256,192,303161,1,8,0:0:0:0:
256,192,303249,1,0,0:0:0:0:
256,192,303338,1,0,0:0:0:0:
256,192,303514,1,8,0:0:0:0:
256,192,303690,1,0,0:0:0:0:
256,192,303867,1,12,0:0:0:0:
256,192,304220,1,12,0:0:0:0:
