osu file format v14

[General]
AudioFilename: audio.mp3
AudioLeadIn: 0
PreviewTime: 74941
Countdown: 0
SampleSet: Soft
StackLeniency: 0.7
Mode: 0
LetterboxInBreaks: 0
WidescreenStoryboard: 0

[Editor]
Bookmarks: 11795,17128,22462,33128,43795,54462,65128,75795,94462,105128,115795,126462,137128,142462,151795,153128,163795,166462,174462,185128,195795,203795,214462,222462,225128,230128,230295
DistanceSpacing: 1.6
BeatDivisor: 4
GridSize: 32
TimelineZoom: 1.5

[Metadata]
Title:mirror
TitleUnicode:mirror
Artist:Hakubi
ArtistUnicode:Hakubi
Creator:Lasse
Version:Reflection
Source:
Tags:japanese rock alternative era Ousaka Sora
BeatmapID:3857188
BeatmapSetID:1874490

[Difficulty]
HPDrainRate:6
CircleSize:4
OverallDifficulty:8.5
ApproachRate:9
SliderMultiplier:1.7
SliderTickRate:1

[Events]
//Background and Video events
0,0,"bg.jpg",0,0
//Break Periods
2,142662,151195
//Storyboard Layer 0 (Background)
//Storyboard Layer 1 (Fail)
//Storyboard Layer 2 (Pass)
//Storyboard Layer 3 (Foreground)
//Storyboard Layer 4 (Overlay)
//Storyboard Sound Samples

[TimingPoints]
1129,333.333333333333,4,2,1,30,1,0
1129,-200,4,2,1,30,0,0
6462,-200,4,2,1,35,0,0
11795,-142.857142857143,4,2,1,40,0,0
17128,-111.111111111111,4,2,1,45,0,0
21128,-111.111111111111,4,2,1,50,0,0
21795,-111.111111111111,4,2,1,60,0,0
22462,-100,4,2,1,70,0,0
31795,-133.333333333333,4,2,1,65,0,0
32962,-133.333333333333,4,2,1,50,0,0
33128,-111.111111111111,4,2,1,60,0,0
43795,-100,4,2,1,65,0,0
54462,-111.111111111111,4,2,1,65,0,0
65128,-100,4,2,1,70,0,0
65378,-100,4,2,1,30,0,0
65462,-100,4,2,1,70,0,0
70378,-100,4,2,1,30,0,0
70462,-100,4,2,1,70,0,0
72795,-133.333333333333,4,2,1,70,0,0
73045,-133.333333333333,4,2,1,30,0,0
73128,-100,4,2,1,70,0,0
74378,-100,4,2,1,30,0,0
74462,-100,4,2,1,70,0,0
74628,-100,4,2,1,50,0,0
74795,-100,4,2,1,70,0,0
74962,-100,4,2,1,50,0,0
75795,-90.9090909090909,4,2,1,75,0,1
83712,-90.9090909090909,4,2,1,30,0,1
83795,-90.9090909090909,4,2,1,75,0,1
86712,-90.9090909090909,4,2,1,30,0,1
86795,-90.9090909090909,4,2,1,75,0,1
89378,-90.9090909090909,4,2,1,30,0,1
89462,-90.9090909090909,4,2,1,75,0,1
91795,-90.9090909090909,4,2,1,75,0,1
92045,-90.9090909090909,4,2,1,30,0,1
92128,-76.9230769230769,4,2,1,75,0,1
92462,-90.9090909090909,4,2,1,75,0,1
94462,-100,4,2,1,70,0,0
97045,-100,4,2,1,30,0,0
97128,-100,4,2,1,70,0,0
104128,-125,4,2,1,70,0,0
104628,-83.3333333333333,4,2,1,70,0,0
105128,-100,4,2,1,70,0,0
106378,-100,4,2,1,30,0,0
106462,-100,4,2,1,70,0,0
109045,-100,4,2,1,30,0,0
109128,-100,4,2,1,70,0,0
112795,-133.333333333333,4,2,1,70,0,0
113128,-100,4,2,1,70,0,0
115795,-90.9090909090909,4,2,1,75,0,1
125462,-133.333333333333,4,2,1,75,0,0
125628,-133.333333333333,4,2,1,65,0,0
125962,-133.333333333333,4,2,1,75,0,0
126128,-71.4285714285714,4,2,1,75,0,0
126378,-71.4285714285714,4,2,1,30,0,0
126462,-90.9090909090909,4,2,1,75,0,1
136628,-90.9090909090909,4,2,1,70,0,1
136795,-90.9090909090909,4,2,1,68,0,1
136962,-90.9090909090909,4,2,1,65,0,1
137128,-133.333333333333,4,2,1,60,0,0
141295,-133.333333333333,4,2,1,50,0,0
141462,-266.666666666667,4,2,1,55,0,0
141795,-266.666666666667,4,2,1,45,0,0
142462,-100,4,2,99,50,0,0
151795,-200,4,2,1,40,0,0
153128,-166.666666666667,4,2,1,50,0,0
162462,-125,4,2,1,60,0,0
162628,-125,4,2,1,50,0,0
162795,-125,4,2,1,60,0,0
163128,-125,4,2,1,50,0,0
164128,-90.9090909090909,4,2,1,70,0,0
166462,-100,4,2,1,70,0,0
166712,-100,4,2,1,30,0,0
166795,-71.4285714285714,4,2,1,70,0,1
167128,-90.9090909090909,4,2,1,75,0,1
174462,-100,4,2,1,75,0,0
174795,-76.9230769230769,4,2,1,75,0,1
175128,-90.9090909090909,4,2,1,75,0,1
182462,-111.111111111111,4,2,1,75,0,0
182712,-111.111111111111,4,2,1,30,0,0
182795,-71.4285714285714,4,2,1,75,0,1
183128,-90.9090909090909,4,2,1,75,0,1
185128,-100,4,2,1,75,0,0
185378,-100,4,2,1,30,0,0
185462,-76.9230769230769,4,2,1,75,0,1
185795,-90.9090909090909,4,2,1,75,0,1
194795,-133.333333333333,4,2,1,75,0,1
195128,-90.9090909090909,4,2,1,75,0,1
195795,-100,4,2,1,75,0,0
196128,-76.9230769230769,4,2,1,75,0,1
196462,-90.9090909090909,4,2,1,75,0,1
198462,-100,4,2,1,75,0,0
198712,-100,4,2,1,30,0,0
198795,-76.9230769230769,4,2,1,75,0,1
199128,-90.9090909090909,4,2,1,75,0,1
201128,-100,4,2,1,75,0,0
201462,-71.4285714285714,4,2,1,75,0,1
201712,-71.4285714285714,4,2,1,30,0,1
201795,-90.9090909090909,4,2,1,75,0,1
203753,-90.9090909090909,4,2,1,75,0,0
203795,-80,4,2,1,80,0,1
213128,-133.333333333333,4,2,1,75,0,0
214295,-133.333333333333,4,2,1,70,0,0
214462,-80,4,2,1,80,0,1
222462,-125,4,2,1,70,0,0
224628,-125,4,2,1,68,0,0
224795,-125,4,2,1,66,0,0
224962,-125,4,2,1,64,0,0
225128,-166.666666666667,4,2,1,60,0,0
226462,-166.666666666667,4,2,1,58,0,0
227795,-166.666666666667,4,2,1,56,0,0
229128,-166.666666666667,4,2,1,54,0,0
230128,-166.666666666667,4,2,1,70,0,0

[Colours]
Combo1 : 250,180,240
Combo2 : 120,200,230
Combo3 : 255,230,130
Combo4 : 160,230,150

[HitObjects]
248,17,1129,5,2,0:2:0:0:
248,17,1462,2,0,L|242:73,1,42.5,0|0,0:2|0:2,0:2:0:0:
209,129,2462,5,2,0:2:0:0:
209,129,2795,2,0,L|215:185,1,42.5,0|0,0:2|0:2,0:2:0:0:
279,228,3795,5,2,0:2:0:0:
279,228,4128,2,0,L|273:284,1,42.5,0|0,0:2|0:2,0:2:0:0:
216,327,5128,5,2,0:2:0:0:
216,327,5462,2,0,L|222:383,1,42.5,0|0,0:2|0:2,0:2:0:0:
228,377,6462,5,2,0:2:0:0:
228,377,6795,1,0,0:2:0:0:
228,377,6962,1,0,0:2:0:0:
274,270,7795,5,2,0:2:0:0:
274,270,8128,1,0,0:2:0:0:
274,270,8295,1,0,0:2:0:0:
213,171,9128,5,2,0:2:0:0:
213,171,9462,1,0,0:2:0:0:
213,171,9628,1,0,0:2:0:0:
243,59,10462,5,2,0:2:0:0:
243,59,10795,1,0,0:2:0:0:
243,59,10962,1,0,0:2:0:0:
22,19,11795,5,4,1:2:0:0:
44,97,12128,1,0,0:2:0:0:
44,97,12295,2,0,P|134:100|226:61,1,178.499994552612,0|0,0:2|0:2,0:2:0:0:
486,101,13128,5,2,0:2:0:0:
464,179,13462,1,0,0:2:0:0:
464,179,13628,2,0,P|374:182|282:143,1,178.499994552612,0|0,0:2|0:2,0:2:0:0:
37,197,14462,5,2,0:2:0:0:
59,275,14795,1,0,0:2:0:0:
59,275,14962,2,0,P|149:278|241:239,1,178.499994552612,0|0,0:2|0:2,0:2:0:0:
498,295,15795,5,2,0:2:0:0:
476,373,16128,1,0,0:2:0:0:
476,373,16295,2,0,P|386:376|294:337,1,178.499994552612,0|0,0:2|0:2,0:2:0:0:
172,306,17128,5,4,1:2:0:0:
128,363,17462,1,0,1:2:0:0:
62,332,17795,1,0,1:2:0:0:
106,275,18128,1,0,1:2:0:0:
332,233,18462,5,2,1:2:0:0:
413,262,18795,1,0,1:2:0:0:
474,201,19128,1,0,1:2:0:0:
393,172,19462,1,0,1:2:0:0:
166,137,19795,5,2,1:2:0:0:
85,198,20128,1,0,1:2:0:0:
0,142,20462,1,0,1:2:0:0:
81,81,20795,1,0,1:2:0:0:
322,21,21128,6,0,B|330:102|378:78|380:158,1,152.999995330811,2|0,1:2|1:2,0:2:0:0:
363,363,21795,5,2,1:2:0:0:
363,363,21962,1,2,0:2:0:0:
363,363,22462,6,0,P|406:357|463:352,1,85,12|0,0:1|0:2,0:2:0:0:
275,228,22795,2,0,P|268:183|256:139,1,85,8|0,0:2|0:2,0:2:0:0:
85,14,23128,5,10,0:2:0:0:
22,176,23295,1,0,1:2:0:0:
154,133,23462,1,8,0:2:0:0:
81,104,23628,1,0,1:2:0:0:
164,279,23795,6,0,P|80:274|-23:316,1,170,10|8,2:2|0:2,0:2:0:0:
213,384,24295,1,0,1:2:0:0:
337,283,24462,1,10,0:2:0:0:
223,220,24628,1,0,1:2:0:0:
254,302,24795,1,8,0:2:0:0:
430,252,24962,5,0,1:2:0:0:
430,252,25045,1,0,1:2:0:0:
430,252,25128,2,0,B|413:213|413:213|419:171,1,85,12|0,0:2|0:2,0:2:0:0:
188,131,25462,1,8,0:2:0:0:
303,0,25628,2,0,B|320:39|320:39|314:81,1,85,2|8,1:2|0:2,0:2:0:0:
31,192,25962,5,2,1:2:0:0:
204,142,26128,1,8,0:2:0:0:
83,17,26295,1,0,1:2:0:0:
101,101,26462,6,0,B|97:186|156:180|150:265,1,170,10|8,0:2|0:2,0:2:0:0:
0,315,26962,1,0,1:2:0:0:
31,192,27128,1,10,0:2:0:0:
224,314,27295,1,0,1:2:0:0:
64,266,27462,1,8,0:2:0:0:
131,380,27628,5,0,1:2:0:0:
131,380,27712,1,0,1:2:0:0:
131,380,27795,2,0,P|135:332|142:288,1,85,12|0,0:1|0:2,0:2:0:0:
433,240,28128,2,0,P|428:287|422:332,1,85,8|0,0:2|0:2,0:2:0:0:
173,97,28462,5,10,0:2:0:0:
364,61,28628,1,0,1:2:0:0:
243,178,28795,1,8,0:2:0:0:
285,0,28962,1,0,1:2:0:0:
270,92,29128,6,0,P|275:163|285:269,1,170,10|8,0:2|0:2,0:2:0:0:
138,132,29628,1,0,1:2:0:0:
285,0,29795,1,10,0:2:0:0:
454,113,29962,1,0,1:2:0:0:
321,182,30128,1,8,0:2:0:0:
424,275,30295,5,0,1:2:0:0:
424,275,30378,1,0,1:2:0:0:
424,275,30462,2,0,P|415:227|411:177,1,85,12|0,0:2|0:2,0:2:0:0:
96,295,30795,1,8,0:2:0:0:
96,295,30962,2,0,P|105:343|109:393,1,85,2|8,0:2|0:2,0:2:0:0:
274,189,31295,1,0,1:2:0:0:
347,317,31462,2,0,P|300:300|255:279,1,85,12|0,0:2|0:2,0:2:0:0:
146,113,31795,5,8,0:2:0:0:
143,89,31878,1,8,0:2:0:0:
137,65,31962,1,8,0:2:0:0:
129,43,32045,1,8,0:2:0:0:
118,22,32128,2,0,P|44:24|-7:62,1,127.500004863739,2|8,1:2|0:2,0:2:0:0:
229,99,32628,6,0,B|299:94|282:115|357:110,1,127.500004863739,4|0,1:2|0:2,0:2:0:0:
512,236,33128,6,0,P|446:199|370:205,1,152.999995330811,4|8,1:1|0:2,0:2:0:0:
512,339,33628,1,2,0:2:0:0:
411,360,33795,2,0,P|417:320|426:276,2,76.4999976654053,0|0|8,1:2|1:2|0:2,0:2:0:0:
249,269,34295,5,2,0:2:0:0:
358,234,34462,1,0,1:2:0:0:
284,146,34628,1,0,0:2:0:0:
175,181,34795,2,0,P|99:186|33:145,1,152.999995330811,8|0,0:2|1:2,0:2:0:0:
0,79,35295,1,0,1:2:0:0:
100,267,35462,2,0,P|64:267|20:272,1,76.4999976654053,8|0,0:2|0:2,0:2:0:0:
174,87,35795,6,0,B|259:79|240:111|336:103,1,152.999995330811,2|8,1:2|0:2,0:2:0:0:
382,153,36295,1,2,0:2:0:0:
468,135,36462,1,0,1:2:0:0:
512,230,36628,1,0,1:2:0:0:
512,230,36712,1,0,1:2:0:0:
512,230,36795,2,0,P|474:226|429:207,1,76.4999976654053,8|0,0:2|0:2,0:2:0:0:
245,100,37128,6,0,P|257:181|259:268,2,152.999995330811,2|8|0,1:2|0:2|1:2,0:2:0:0:
169,247,37962,1,0,1:2:0:0:
85,270,38128,1,8,0:2:0:0:
17,166,38295,5,0,1:2:0:0:
17,166,38378,1,0,1:2:0:0:
17,166,38462,2,0,P|5:247|3:334,1,152.999995330811,4|8,1:2|0:2,0:2:0:0:
146,384,38962,1,2,0:2:0:0:
183,247,39128,2,0,P|146:251|101:262,2,76.4999976654053,0|0|8,1:2|1:2|0:2,0:2:0:0:
396,176,39628,5,0,0:2:0:0:
325,311,39795,2,0,B|332:236|287:255|290:164,2,152.999995330811,2|8|0,1:2|0:2|1:2,0:2:0:0:
298,384,40628,1,0,1:2:0:0:
248,325,40795,1,8,0:2:0:0:
384,378,40962,5,0,1:2:0:0:
384,378,41045,1,0,1:2:0:0:
384,378,41128,2,0,L|490:366,1,76.4999976654053,2|0,1:2|0:2,0:2:0:0:
339,179,41462,2,0,L|445:167,1,76.4999976654053,8|0,0:2|0:2,0:2:0:0:
171,333,41795,2,0,L|277:321,1,76.4999976654053,2|0,1:2|1:2,0:2:0:0:
129,96,42128,2,0,L|235:84,1,76.4999976654053,8|0,0:2|0:2,0:2:0:0:
0,241,42462,5,2,1:2:0:0:
89,220,42628,5,0,1:2:0:0:
193,195,42795,5,8,0:2:0:0:
304,167,42962,5,8,0:3:0:0:
423,141,43128,5,4,0:3:0:0:
506,175,43295,5,8,0:2:0:0:
505,219,43378,1,8,0:2:0:0:
488,258,43462,1,8,0:2:0:0:
454,288,43545,1,8,0:2:0:0:
411,300,43628,1,8,0:2:0:0:
368,293,43712,1,8,0:2:0:0:
331,268,43795,6,0,L|350:81,1,170,4|8,1:1|0:2,0:2:0:0:
244,18,44295,1,2,0:2:0:0:
184,154,44462,2,0,L|194:260,2,85,0|0|8,1:2|1:2|0:2,0:2:0:0:
0,34,44962,5,2,0:2:0:0:
78,106,45128,1,0,1:2:0:0:
136,18,45295,1,0,0:2:0:0:
78,106,45462,2,0,L|60:275,1,170,8|0,0:2|1:2,0:2:0:0:
144,366,45962,1,0,1:2:0:0:
230,256,46128,2,0,L|222:171,1,85,8|0,0:2|0:2,0:2:0:0:
360,35,46462,6,0,P|344:79|346:129,1,85,2|0,1:2|0:2,0:2:0:0:
429,285,46795,2,0,L|522:301,1,85,8|0,0:2|0:2,0:2:0:0:
339,377,47128,1,2,1:2:0:0:
309,253,47295,1,0,1:2:0:0:
413,185,47462,1,8,0:2:0:0:
430,111,47628,1,0,0:2:0:0:
242,59,47795,6,0,P|317:20|407:35,1,170,2|8,1:2|0:2,0:2:0:0:
153,144,48295,2,0,P|141:98|121:31,1,85,2|0,0:2|1:2,0:2:0:0:
270,159,48628,1,0,1:2:0:0:
74,223,48795,1,8,0:2:0:0:
141,313,48962,5,0,1:2:0:0:
141,313,49045,1,0,1:2:0:0:
141,313,49128,2,0,B|240:299|214:331|325:318,1,170,6|8,0:2|0:2,0:2:0:0:
402,384,49628,1,2,0:2:0:0:
491,256,49795,2,0,L|480:363,2,85,0|0|8,1:2|1:2|0:2,0:2:0:0:
350,127,50295,5,2,0:2:0:0:
429,92,50462,1,0,1:2:0:0:
362,211,50628,1,0,0:2:0:0:
270,87,50795,2,0,P|221:149|250:263,1,170,8|0,0:2|1:2,0:2:0:0:
155,334,51295,1,0,1:2:0:0:
306,376,51462,2,0,P|354:365|412:341,1,85,8|0,0:2|0:2,0:2:0:0:
512,209,51795,6,0,L|491:108,1,85,2|0,1:2|0:2,0:2:0:0:
307,189,52128,2,0,L|328:290,1,85,8|0,0:2|0:2,0:2:0:0:
376,100,52462,1,2,1:2:0:0:
249,51,52628,1,0,1:2:0:0:
141,129,52795,1,8,0:2:0:0:
66,110,52962,1,0,0:2:0:0:
0,215,53128,5,2,1:2:0:0:
223,148,53295,1,0,1:2:0:0:
41,36,53462,1,12,0:2:0:0:
66,110,53628,1,0,0:2:0:0:
313,102,53795,5,8,0:2:0:0:
216,197,53962,5,8,0:3:0:0:
238,313,54128,5,4,0:3:0:0:
322,370,54295,5,4,0:3:0:0:
406,368,54462,5,4,1:2:0:0:
406,368,54628,2,0,L|391:278,1,76.4999976654053,2|8,0:2|0:2,0:2:0:0:
500,158,54962,2,0,L|512:233,1,76.4999976654053,2|0,0:2|1:2,0:2:0:0:
275,237,55295,2,0,L|263:162,1,76.4999976654053,2|0,0:2|1:2,0:2:0:0:
358,0,55628,2,0,L|370:75,1,76.4999976654053,10|0,0:2|1:2,0:2:0:0:
194,3,55962,5,8,0:2:0:0:
175,79,56128,2,0,B|214:80|214:80|258:53,1,76.4999976654053,12|0,2:2|0:2,0:2:0:0:
70,281,56462,2,0,B|31:280|31:280|0:299,1,76.4999976654053,12|0,0:2|0:2,0:2:0:0:
212,198,56795,1,8,0:2:0:0:
235,202,56878,1,8,0:2:0:0:
259,207,56962,1,8,0:2:0:0:
283,211,57045,1,8,0:2:0:0:
307,216,57128,1,0,1:2:0:0:
381,178,57295,6,0,P|373:140|367:95,1,76.4999976654053,2|8,0:2|0:2,0:2:0:0:
131,206,57628,2,0,P|139:244|145:289,1,76.4999976654053,2|0,0:2|1:2,0:2:0:0:
289,39,57962,2,0,P|245:32|192:19,1,76.4999976654053,10|0,0:2|1:2,0:2:0:0:
223,345,58295,2,0,P|267:352|320:365,1,76.4999976654053,10|0,0:2|1:2,0:2:0:0:
243,155,58628,5,8,0:2:0:0:
270,227,58795,2,0,P|253:187|239:139,1,76.4999976654053,12|0,2:2|0:2,0:2:0:0:
283,63,59128,5,8,0:2:0:0:
393,152,59295,5,8,0:3:0:0:
359,263,59462,5,4,0:3:0:0:
438,327,59628,5,4,0:3:0:0:
512,296,59795,5,12,0:2:0:0:
512,296,59962,2,0,L|503:214,1,76.4999976654053,2|12,0:2|0:2,0:2:0:0:
251,302,60295,2,0,L|260:384,1,76.4999976654053,2|0,0:2|1:2,0:2:0:0:
359,175,60628,2,0,L|350:93,1,76.4999976654053,10|0,0:2|1:2,0:2:0:0:
93,198,60962,2,0,L|102:280,1,76.4999976654053,10|0,0:2|1:2,0:2:0:0:
224,38,61295,5,8,0:2:0:0:
155,74,61462,2,0,B|65:61|102:89|-11:78,1,152.999995330811,12|0,0:2|1:2,0:2:0:0:
176,183,61962,1,8,0:2:0:0:
185,208,62045,1,8,0:2:0:0:
204,230,62128,1,8,0:2:0:0:
228,245,62212,1,8,0:2:0:0:
256,249,62295,1,8,0:2:0:0:
285,245,62378,1,8,0:2:0:0:
309,231,62462,1,0,1:2:0:0:
372,286,62628,6,0,P|410:295|453:314,1,76.4999976654053,2|8,0:2|0:2,0:2:0:0:
140,98,62962,2,0,P|102:89|59:70,1,76.4999976654053,2|0,0:2|1:2,0:2:0:0:
414,205,63295,2,0,P|451:196|486:181,1,76.4999976654053,10|0,0:2|1:2,0:2:0:0:
98,179,63628,2,0,P|60:187|25:202,1,76.4999976654053,10|0,0:2|1:2,0:2:0:0:
340,46,63962,5,8,0:2:0:0:
266,17,64128,2,0,P|234:90|233:175,1,152.999995330811,12|0,0:2|1:2,0:2:0:0:
322,305,64628,1,8,0:2:0:0:
353,301,64712,1,8,0:2:0:0:
385,298,64795,1,8,0:2:0:0:
417,294,64878,1,8,0:2:0:0:
448,291,64962,1,8,0:2:0:0:
480,288,65045,1,8,0:2:0:0:
512,322,65128,6,0,P|443:333|368:297,1,127.5,4|0,1:2|0:2,0:2:0:0:
352,250,65462,2,0,L|372:144,1,85,12|0,0:1|0:2,0:2:0:0:
327,99,65795,1,2,1:2:0:0:
423,111,65962,1,0,1:2:0:0:
287,169,66128,1,8,0:2:0:0:
330,18,66295,1,0,1:2:0:0:
167,60,66462,6,0,P|221:51|258:51,1,85,2|0,0:2|1:2,0:2:0:0:
52,159,66795,1,8,0:2:0:0:
52,159,66962,2,0,P|43:105|43:68,1,85,2|0,0:2|1:2,0:2:0:0:
178,217,67295,1,2,1:2:0:0:
110,293,67462,1,8,0:2:0:0:
12,266,67628,1,0,0:2:0:0:
193,195,67795,6,0,B|293:183|270:228|375:212,1,170,2|8,1:2|0:2,0:2:0:0:
428,350,68295,2,0,P|476:342|536:343,1,85,2|0,0:2|1:2,0:2:0:0:
327,303,68628,1,2,1:2:0:0:
451,233,68795,1,8,0:2:0:0:
393,138,68962,1,0,1:2:0:0:
442,67,69128,5,2,0:2:0:0:
359,214,69295,1,0,1:2:0:0:
505,155,69462,1,8,0:2:0:0:
315,94,69628,1,2,0:2:0:0:
315,94,69712,1,0,0:2:0:0:
315,94,69795,1,0,1:2:0:0:
393,138,69962,1,0,1:2:0:0:
281,319,70128,2,0,P|277:254|251:180,1,127.5,12|0,0:2|0:2,0:2:0:0:
192,141,70462,6,0,L|106:150,1,85,4|0,1:1|0:2,0:2:0:0:
363,267,70795,2,0,P|459:267|528:184,1,170,8|0,0:2|1:2,0:2:0:0:
329,64,71295,1,0,1:2:0:0:
502,136,71462,1,8,0:2:0:0:
392,190,71628,1,0,1:2:0:0:
416,21,71795,5,2,0:2:0:0:
416,21,71962,1,0,1:2:0:0:
273,210,72128,2,0,P|260:144|248:101,1,85,12|0,0:2|0:2,0:2:0:0:
103,34,72462,5,8,2:2:0:0:
82,38,72545,1,8,2:2:0:0:
61,43,72628,1,8,2:2:0:0:
40,48,72712,1,8,2:2:0:0:
22,53,72795,2,0,P|33:116|47:166,1,95.6250036478044,4|0,1:2|2:2,2:2:0:0:
18,224,73128,6,0,P|80:229|162:138,1,170,12|0,0:1|1:2,0:2:0:0:
303,4,73628,1,8,2:2:0:0:
283,24,73712,1,8,2:2:0:0:
269,49,73795,1,8,2:2:0:0:
263,76,73878,1,8,2:2:0:0:
264,104,73962,1,8,2:2:0:0:
272,131,74045,1,8,2:2:0:0:
288,154,74128,2,0,P|348:180|432:157,1,127.5,2|0,1:2|2:2,2:2:0:0:
468,227,74462,6,0,B|449:265|449:265|461:332,1,85,4|0,1:2|0:2,0:2:0:0:
44,157,74795,2,0,B|63:119|63:119|51:52,1,85,4|0,1:2|0:2,0:2:0:0:
352,372,75795,6,0,P|364:321|354:265,1,93.5000028533936,4|0,1:1|0:2,0:2:0:0:
148,149,76128,2,0,P|135:193|140:240,1,93.5000028533936,8|0,0:2|0:2,0:2:0:0:
474,55,76462,1,2,1:2:0:0:
376,0,76628,1,0,0:2:0:0:
288,70,76795,1,8,0:2:0:0:
386,125,76962,5,2,0:2:0:0:
386,125,77045,1,0,0:2:0:0:
386,125,77128,2,0,L|498:110,1,93.5000028533936,0|0,1:2|0:2,0:2:0:0:
205,245,77462,2,0,L|93:230,1,93.5000028533936,8|0,0:2|0:2,0:2:0:0:
325,379,77795,2,0,B|299:319|332:261|332:261|318:198,1,187.000005706787,0|8,1:2|0:2,0:2:0:0:
212,87,78295,5,2,0:2:0:0:
287,45,78462,1,0,1:2:0:0:
190,3,78628,1,0,0:2:0:0:
166,165,78795,1,8,0:2:0:0:
166,165,78962,1,0,0:2:0:0:
350,103,79128,5,2,1:2:0:0:
129,56,79295,1,0,0:2:0:0:
0,241,79462,1,8,0:2:0:0:
221,286,79628,1,0,0:2:0:0:
42,335,79795,5,2,1:2:0:0:
42,335,79962,2,0,P|87:333|147:307,1,93.5000028533936,0|8,0:2|0:2,0:2:0:0:
315,137,80295,2,0,L|288:32,1,93.5000028533936,2|0,0:2|1:2,0:2:0:0:
150,25,80628,1,2,0:2:0:0:
199,220,80795,2,0,P|264:262|381:253,2,187.000005706787,8|4|8,0:2|1:2|0:2,0:2:0:0:
461,73,81628,5,2,0:2:0:0:
284,167,81795,1,0,1:2:0:0:
300,10,81962,1,0,0:2:0:0:
346,75,82128,1,8,0:2:0:0:
171,201,82295,6,0,P|79:192|-1:239,1,187.000005706787,2|0,0:2|0:2,0:2:0:0:
253,331,82795,2,0,B|366:329|333:365|437:358,1,187.000005706787,10|0,0:2|1:2,0:2:0:0:
507,332,83295,1,0,0:2:0:0:
340,188,83462,2,0,P|329:101|305:54,1,140.25000428009,8|0,0:2|0:2,0:2:0:0:
305,54,83795,6,0,P|348:35|469:97,1,187.000005706787,2|8,1:2|0:2,0:2:0:0:
192,120,84295,2,0,B|174:77|174:77|183:30,1,93.5000028533936,2|0,0:2|0:2,0:2:0:0:
406,213,84628,2,0,B|415:259|415:259|397:302,1,93.5000028533936,2|8,0:2|0:2,0:2:0:0:
334,369,84962,5,2,0:2:0:0:
334,369,85045,1,0,0:2:0:0:
334,369,85128,1,0,1:2:0:0:
273,232,85295,1,8,0:2:0:0:
121,262,85462,1,2,1:3:0:0:
207,308,85628,1,0,0:2:0:0:
187,191,85795,1,8,0:3:0:0:
170,106,85962,5,8,0:2:0:0:
135,121,86045,1,8,0:2:0:0:
98,110,86128,1,8,0:2:0:0:
79,77,86212,1,8,0:2:0:0:
86,40,86295,1,8,0:2:0:0:
116,16,86378,1,8,0:2:0:0:
154,19,86462,2,0,B|139:77|139:77|145:102|145:102|122:179,1,140.25000428009,2|0,1:2|0:2,0:2:0:0:
96,223,86795,6,0,P|45:228|7:211,1,93.5000028533936,12|0,0:2|0:2,0:2:0:0:
152,358,87128,2,0,B|265:343|233:381|350:366,1,187.000005706787,0|8,1:2|0:2,0:2:0:0:
411,159,87628,5,2,0:2:0:0:
411,159,87712,1,0,0:2:0:0:
411,159,87795,1,0,1:2:0:0:
512,187,87962,1,8,0:2:0:0:
385,247,88128,1,2,1:3:0:0:
327,87,88295,1,0,0:2:0:0:
411,159,88462,1,8,0:3:0:0:
306,285,88628,5,8,0:2:0:0:
267,278,88712,1,8,0:2:0:0:
228,279,88795,1,8,0:2:0:0:
192,293,88878,1,8,0:2:0:0:
157,309,88962,1,8,0:2:0:0:
118,312,89045,1,8,0:2:0:0:
80,307,89128,2,0,P|63:241|93:170,1,140.25000428009,2|0,1:2|0:2,0:2:0:0:
104,97,89462,6,0,P|68:101|12:115,1,93.5000028533936,12|0,0:2|0:2,0:2:0:0:
275,23,89795,2,0,P|229:10|183:5,1,93.5000028533936,0|0,1:2|0:2,0:2:0:0:
271,246,90128,2,0,P|225:233|179:228,1,93.5000028533936,8|0,0:2|0:2,0:2:0:0:
397,134,90462,5,2,1:2:0:0:
512,175,90628,1,8,0:2:0:0:
475,48,90795,1,2,1:3:0:0:
299,133,90962,1,0,0:2:0:0:
440,215,91128,5,8,0:2:0:0:
443,255,91212,1,8,0:2:0:0:
433,295,91295,1,8,0:2:0:0:
411,329,91378,1,8,0:2:0:0:
379,355,91462,1,8,0:3:0:0:
341,370,91545,1,8,0:3:0:0:
301,372,91628,1,4,0:3:0:0:
261,361,91712,1,4,0:3:0:0:
228,338,91795,2,0,B|232:261|266:290|268:196,1,140.25000428009,4|0,1:2|0:2,0:2:0:0:
211,149,92128,6,0,P|285:81|407:87,1,220.999989883423,12|0,0:1|1:2,0:2:0:0:
468,118,92628,1,0,1:2:0:0:
407,159,92795,1,8,0:2:0:0:
292,31,92962,5,0,1:2:0:0:
292,31,93045,1,0,1:2:0:0:
292,31,93128,2,0,P|310:77|325:149,1,93.5000028533936,2|0,1:2|1:2,0:2:0:0:
215,292,93462,5,8,2:2:0:0:
185,315,93545,1,8,2:2:0:0:
147,317,93628,1,8,2:2:0:0:
111,303,93712,1,8,2:2:0:0:
88,273,93795,1,8,2:3:0:0:
88,235,93878,1,8,2:3:0:0:
109,204,93962,1,4,2:3:0:0:
111,166,94045,1,4,2:3:0:0:
95,132,94128,1,8,2:2:0:0:
58,122,94212,1,8,2:2:0:0:
25,140,94295,1,8,2:2:0:0:
16,176,94378,1,8,2:2:0:0:
30,210,94462,6,0,P|113:215|185:172,1,170,4|8,1:1|0:2,0:2:0:0:
361,123,94962,1,2,0:2:0:0:
277,7,95128,2,0,P|268:45|264:96,1,85,0|0,1:2|1:2,0:2:0:0:
357,276,95462,1,10,0:2:0:0:
357,276,95628,2,0,P|440:280|512:237,1,170,0|0,1:2|1:2,0:2:0:0:
311,381,96128,6,0,P|274:368|207:353,1,85,10|0,0:2|0:2,0:2:0:0:
81,204,96462,2,0,P|39:214|0:228,1,85,0|0,1:2|1:2,0:2:0:0:
171,272,96795,2,0,P|190:219|187:137,1,127.5,8|0,0:2|0:2,0:2:0:0:
156,76,97128,6,0,B|68:62|92:31|0:13,1,170,6|8,1:2|0:2,0:2:0:0:
189,148,97628,1,2,0:2:0:0:
343,77,97795,1,0,1:2:0:0:
201,7,97962,1,0,1:2:0:0:
265,60,98128,1,10,0:2:0:0:
265,60,98295,2,0,B|236:141|300:155|270:237,1,170,0|0,1:2|1:2,0:2:0:0:
148,346,98795,6,0,L|63:340,1,85,10|0,0:2|0:2,0:2:0:0:
274,226,99128,1,0,1:2:0:0:
365,241,99295,1,0,1:2:0:0:
479,260,99462,2,0,P|480:293|471:344,1,85,8|0,0:2|0:2,0:2:0:0:
246,210,99795,6,0,B|244:115|286:153|279:45,1,170,4|8,1:2|0:2,0:2:0:0:
150,231,100295,1,2,0:2:0:0:
221,313,100462,2,0,P|263:313|304:303,1,85,0|0,1:2|1:2,0:2:0:0:
189,83,100795,1,10,0:2:0:0:
189,83,100962,2,0,L|18:62,1,170,0|0,1:2|1:2,0:2:0:0:
285,197,101462,6,0,P|327:197|368:187,1,85,10|0,0:2|0:2,0:2:0:0:
486,110,101795,1,0,1:2:0:0:
379,63,101962,1,0,1:2:0:0:
467,241,102128,1,8,0:2:0:0:
311,326,102295,5,0,1:2:0:0:
311,326,102378,1,0,1:2:0:0:
311,326,102462,2,0,P|384:372|466:353,1,170,4|8,1:2|0:2,0:2:0:0:
269,184,102962,1,2,1:2:0:0:
384,269,103128,1,8,0:2:0:0:
209,384,103295,1,0,1:2:0:0:
124,173,103462,2,0,P|131:131|148:68,1,85,12|0,0:2|0:2,0:2:0:0:
265,30,103795,5,8,0:2:0:0:
283,40,103878,1,8,0:2:0:0:
303,47,103962,1,8,0:2:0:0:
324,50,104045,1,8,0:2:0:0:
345,49,104128,2,0,P|377:39|425:35,1,68,2|0,1:2|0:2,0:2:0:0:
484,3,104462,1,8,0:2:0:0:
387,162,104628,6,0,P|269:160|192:103,1,203.999993774414,4|0,1:2|0:2,0:2:0:0:
0,207,105128,6,0,B|-7:143|51:102|51:102|62:32,1,170,4|8,1:1|0:2,0:2:0:0:
173,205,105628,1,2,0:2:0:0:
173,205,105712,1,0,0:2:0:0:
173,205,105795,2,0,L|52:177,1,85,0|0,1:2|1:2,0:2:0:0:
221,362,106128,2,0,P|282:369|340:337,1,127.5,10|0,0:2|0:2,0:2:0:0:
338,338,106462,2,0,L|348:241,1,85,0|0,1:2|0:2,0:2:0:0:
394,61,106795,6,0,P|473:81|512:154,1,170,10|0,0:2|1:2,0:2:0:0:
346,253,107295,1,0,1:2:0:0:
485,314,107462,1,8,0:2:0:0:
420,156,107628,1,0,0:2:0:0:
367,89,107795,6,0,P|287:109|248:182,1,170,6|8,1:2|0:2,0:2:0:0:
120,374,108295,2,0,B|227:360|177:336|279:320,1,170,2|0,0:2|1:2,0:2:0:0:
56,167,108795,2,0,P|19:228|19:300,1,127.5,10|0,0:2|0:2,0:2:0:0:
15,282,109128,2,0,L|99:265,1,85,0|0,1:2|0:2,0:2:0:0:
246,58,109462,6,0,L|162:41,1,85,10|0,0:2|0:2,0:2:0:0:
279,191,109795,1,0,1:2:0:0:
426,162,109962,1,0,1:2:0:0:
387,0,110128,1,8,0:2:0:0:
355,82,110295,5,8,2:2:0:0:
355,82,110378,1,8,2:2:0:0:
355,82,110462,2,0,B|345:168|404:157|388:244,1,170,4|8,1:2|0:2,0:2:0:0:
245,379,110962,1,2,0:2:0:0:
245,379,111128,2,0,L|258:275,1,85,0|0,1:2|1:2,0:2:0:0:
109,159,111462,1,10,0:2:0:0:
0,299,111628,2,0,P|72:304|156:245,1,170,0|0,1:2|1:2,0:2:0:0:
209,84,112128,5,10,0:2:0:0:
78,157,112295,1,0,0:2:0:0:
272,284,112462,1,0,1:2:0:0:
307,0,112628,1,0,1:2:0:0:
188,176,112795,6,0,P|234:164|264:160,1,63.7500024318696,4|0,0:3|0:2,0:2:0:0:
358,78,113128,5,12,0:2:0:0:
424,143,113295,1,0,1:2:0:0:
509,103,113462,1,0,1:2:0:0:
446,33,113628,5,12,0:1:0:0:
333,168,113795,1,0,1:2:0:0:
434,310,113962,1,0,1:2:0:0:
504,357,114128,5,10,0:2:0:0:
424,143,114295,1,0,1:2:0:0:
203,204,114462,1,0,1:2:0:0:
350,67,114628,6,0,P|271:18|187:20,1,170,12|0,0:2|1:2,0:2:0:0:
24,164,115128,2,0,L|31:253,1,85,8|0,0:2|0:2,0:2:0:0:
153,367,115462,1,8,0:2:0:0:
184,372,115545,1,8,0:2:0:0:
216,370,115628,1,8,0:2:0:0:
246,362,115712,1,8,0:2:0:0:
275,347,115795,6,0,B|282:300|282:300|252:232,1,93.5000028533936,4|0,1:2|0:2,0:2:0:0:
512,152,116128,2,0,B|493:194|493:194|500:241,1,93.5000028533936,8|0,0:2|1:2,0:2:0:0:
237,109,116462,1,2,0:2:0:0:
374,54,116628,1,0,1:2:0:0:
253,0,116795,1,8,0:2:0:0:
344,154,116962,1,0,0:2:0:0:
263,257,117128,6,0,P|183:270|153:281,1,93.5000028533936,2|0,1:2|1:2,0:2:0:0:
113,222,117462,1,8,0:2:0:0:
344,154,117628,2,0,P|389:166|435:170,1,93.5000028533936,2|0,1:2|0:2,0:2:0:0:
209,17,117962,2,0,P|129:30|99:41,1,93.5000028533936,2|8,1:2|0:2,0:2:0:0:
16,188,118295,5,0,1:2:0:0:
16,188,118378,1,0,1:2:0:0:
16,188,118462,2,0,L|35:375,1,187.000005706787,2|8,1:2|0:2,0:2:0:0:
262,167,118962,2,0,P|221:155|137:148,1,93.5000028533936,2|0,1:2|0:2,0:2:0:0:
282,384,119295,2,0,P|241:372|157:365,1,93.5000028533936,2|8,1:2|0:2,0:2:0:0:
371,292,119628,5,0,1:2:0:0:
371,292,119712,1,0,1:2:0:0:
371,292,119795,2,0,P|464:277|514:192,1,187.000005706787,2|8,1:2|0:2,0:2:0:0:
349,82,120295,1,2,1:2:0:0:
492,24,120462,1,0,0:2:0:0:
397,213,120628,1,0,1:2:0:0:
442,117,120795,1,8,0:2:0:0:
254,18,120962,5,0,1:2:0:0:
254,18,121045,1,0,1:2:0:0:
254,18,121128,2,0,L|268:213,1,187.000005706787,4|8,1:2|0:2,0:2:0:0:
50,129,121628,2,0,P|101:118|164:114,1,93.5000028533936,2|0,1:2|0:2,0:2:0:0:
191,327,121962,1,2,1:2:0:0:
191,327,122128,2,0,P|140:338|77:342,1,93.5000028533936,8|0,0:2|0:2,0:2:0:0:
267,204,122462,5,2,1:2:0:0:
341,174,122628,1,0,1:2:0:0:
403,224,122795,1,8,0:2:0:0:
329,254,122962,1,0,1:2:0:0:
179,128,123128,1,2,0:2:0:0:
357,45,123295,1,0,1:2:0:0:
507,171,123462,1,8,0:2:0:0:
432,222,123628,5,0,1:2:0:0:
432,222,123712,1,0,1:2:0:0:
432,222,123795,2,0,P|423:169|417:98,1,93.5000028533936,2|0,1:2|0:2,0:2:0:0:
110,288,124128,2,0,P|119:341|125:412,1,93.5000028533936,8|0,0:2|1:2,0:2:0:0:
256,192,124462,1,2,0:2:0:0:
256,192,124628,2,0,P|247:139|241:68,1,93.5000028533936,0|8,1:2|0:2,0:2:0:0:
98,15,124962,5,0,1:2:0:0:
98,15,125045,1,0,1:2:0:0:
98,15,125128,1,4,1:2:0:0:
0,141,125295,1,0,1:2:0:0:
76,197,125462,2,0,P|107:189|138:184,1,63.7500024318696,8|0,0:2|0:2,0:2:0:0:
512,266,125962,5,8,0:2:0:0:
447,368,126128,2,0,P|367:373|288:298,1,178.499994552612,12|0,0:2|0:2,0:2:0:0:
260,234,126462,6,0,L|275:131,1,93.5000028533936,4|0,1:2|0:2,0:2:0:0:
377,46,126795,1,8,0:2:0:0:
490,129,126962,1,0,1:2:0:0:
388,225,127128,2,0,L|373:328,1,93.5000028533936,2|0,0:2|1:2,0:2:0:0:
150,120,127462,2,0,L|165:17,1,93.5000028533936,8|0,0:2|0:2,0:2:0:0:
240,247,127795,2,0,P|150:227|65:264,1,187.000005706787,2|8,1:2|0:2,0:2:0:0:
291,383,128295,5,2,1:2:0:0:
342,253,128462,1,0,0:2:0:0:
311,180,128628,1,0,1:2:0:0:
375,43,128795,1,8,0:2:0:0:
221,105,128962,5,0,1:2:0:0:
221,105,129045,1,0,1:2:0:0:
221,105,129128,2,0,P|267:107|309:89,1,93.5000028533936,2|0,1:2|0:2,0:2:0:0:
375,43,129462,1,8,0:2:0:0:
185,176,129628,2,0,B|86:162|98:194|-1:180,1,187.000005706787,2|0,1:2|1:2,0:2:0:0:
166,356,130128,2,0,P|226:357|282:334,1,93.5000028533936,8|0,0:2|0:2,0:2:0:0:
359,230,130462,5,2,1:2:0:0:
492,252,130628,1,0,1:2:0:0:
445,384,130795,1,8,0:2:0:0:
397,323,130962,2,0,B|385:227|428:244|417:136,1,187.000005706787,2|0,1:2|1:2,0:2:0:0:
256,152,131462,1,8,0:2:0:0:
357,13,131628,5,0,1:2:0:0:
357,13,131712,1,0,1:2:0:0:
357,13,131795,2,0,P|432:14|493:116,1,187.000005706787,6|8,1:2|0:2,0:2:0:0:
337,187,132295,2,0,B|227:179|269:214|152:204,1,187.000005706787,2|0,1:2|1:2,0:2:0:0:
96,259,132795,2,0,P|39:256|-6:260,1,93.5000028533936,8|0,0:2|0:2,0:2:0:0:
198,121,133128,5,2,1:2:0:0:
221,298,133295,1,0,1:2:0:0:
377,281,133462,1,8,0:2:0:0:
370,359,133628,2,0,P|465:358|514:271,1,187.000005706787,2|0,1:2|1:2,0:2:0:0:
420,132,134128,2,0,L|512:144,1,93.5000028533936,8|0,0:2|0:2,0:2:0:0:
297,260,134462,6,0,B|200:229|213:283|114:263,1,187.000005706787,4|8,1:2|0:2,0:2:0:0:
181,28,134962,2,0,P|86:29|37:116,1,187.000005706787,2|0,1:2|1:2,0:2:0:0:
217,173,135462,1,8,0:2:0:0:
148,114,135628,5,2,0:2:0:0:
114,263,135795,1,0,1:2:0:0:
263,342,135962,1,0,1:2:0:0:
411,200,136128,1,12,0:2:0:0:
378,125,136295,5,8,0:2:0:0:
378,125,136378,1,8,0:2:0:0:
378,125,136462,1,8,0:2:0:0:
250,188,136628,5,8,0:3:0:0:
275,315,136795,5,4,0:3:0:0:
385,346,136962,5,4,0:3:0:0:
456,306,137128,6,0,L|422:32,1,255.000009727478,4|2,1:2|0:3,0:2:0:0:
56,306,138462,2,0,L|90:32,1,255.000009727478,4|2,1:2|0:3,0:2:0:0:
256,372,139795,2,0,L|256:116,1,255.000009727478,4|2,1:2|0:3,0:2:0:0:
354,271,141128,6,0,P|392:265|423:249,1,63.7500024318696,4|0,1:2|0:2,0:2:0:0:
158,113,141462,6,0,P|120:119|89:135,1,63.7500024318696,4|0,1:2|0:2,0:2:0:0:
256,192,142462,5,6,1:2:0:0:
6,143,151795,6,0,L|98:130,1,85,2|0,0:2|0:2,0:2:0:0:
113,278,152462,2,0,L|21:291,1,85,2|0,0:2|0:2,0:2:0:0:
187,355,153128,6,0,P|250:357|294:333,1,101.999996887207,2|0,1:2|3:2,0:2:0:0:
356,367,153628,1,0,3:2:0:0:
419,323,153795,2,0,L|411:266,1,50.9999984436036,0|0,1:2|0:2,0:2:0:0:
325,197,154128,2,0,L|321:222,3,25.4999992218018,0|0|0|0,3:2|3:2|3:2|3:2,2:2:0:0:
301,237,154462,6,0,P|250:241|203:222,1,101.999996887207,2|0,1:2|3:2,0:2:0:0:
132,251,154962,1,0,3:2:0:0:
72,205,155128,1,0,3:2:0:0:
81,130,155295,1,0,3:2:0:0:
151,101,155462,1,0,3:2:0:0:
211,147,155628,1,0,3:2:0:0:
295,77,155795,6,0,P|346:81|393:62,1,101.999996887207,2|0,1:2|3:2,0:2:0:0:
423,89,156240,1,0,3:2:0:0:
461,76,156351,1,0,3:2:0:0:
499,90,156462,2,0,P|511:121|511:158,1,50.9999984436036,0|0,1:2|0:2,0:2:0:0:
448,233,156795,2,0,L|388:222,1,50.9999984436036,0|0,3:2|0:2,0:2:0:0:
299,293,157128,6,0,P|292:239|280:178,1,101.999996887207,2|0,1:2|3:2,0:2:0:0:
245,125,157628,1,0,3:2:0:0:
271,53,157795,2,0,P|296:41|335:35,1,50.9999984436036,2|0,1:3|0:2,0:2:0:0:
233,133,158128,1,0,3:2:0:0:
159,110,158295,1,0,3:2:0:0:
57,137,158462,6,0,P|40:195|46:249,1,101.999996887207,2|0,1:2|0:2,0:2:0:0:
10,305,158962,1,0,0:2:0:0:
63,358,159128,2,0,P|97:354|129:347,1,50.9999984436036,0|0,1:2|0:2,0:2:0:0:
194,287,159462,2,0,L|199:249,3,25.4999992218018,0|0|0|0,3:2|3:2|3:2|3:2,0:2:0:0:
209,238,159795,6,0,P|264:224|322:229,1,101.999996887207,2|0,1:2|3:2,0:2:0:0:
379,196,160295,1,0,3:2:0:0:
447,229,160462,1,0,3:2:0:0:
490,165,160628,1,0,3:2:0:0:
422,132,160795,1,0,3:2:0:0:
379,196,160962,1,0,3:2:0:0:
311,115,161128,6,0,P|324:69|326:3,1,101.999996887207,2|0,1:2|1:2,0:2:0:0:
67,149,161795,2,0,P|69:98|83:49,1,101.999996887207,2|0,1:2|1:2,0:2:0:0:
222,293,162462,6,0,L|140:308,1,68,2|0,1:2|0:2,0:2:0:0:
374,346,162795,2,0,L|537:365,1,136,2|0,1:2|0:2,0:2:0:0:
27,106,164128,6,0,L|36:233,1,93.5000028533936,12|0,0:1|0:2,0:2:0:0:
189,245,164462,5,8,0:2:0:0:
202,284,164545,1,8,0:2:0:0:
194,326,164628,1,8,0:2:0:0:
164,356,164712,1,8,0:2:0:0:
123,369,164795,1,8,0:2:0:0:
80,359,164878,1,8,0:2:0:0:
48,332,164962,1,8,0:2:0:0:
34,292,165045,1,8,0:2:0:0:
44,251,165128,1,8,0:2:0:0:
72,219,165212,1,8,0:2:0:0:
113,212,165295,1,8,0:2:0:0:
151,227,165378,1,8,0:2:0:0:
164,267,165462,1,8,0:2:0:0:
145,305,165545,1,8,0:2:0:0:
103,310,165628,1,8,0:2:0:0:
76,278,165712,1,8,0:2:0:0:
98,242,165795,5,4,0:3:0:0:
102,250,165878,1,4,0:3:0:0:
106,258,165962,1,8,0:2:0:0:
110,267,166045,1,8,0:2:0:0:
143,288,166128,5,8,0:3:0:0:
135,302,166212,1,8,0:3:0:0:
129,317,166295,1,4,0:3:0:0:
121,331,166378,1,4,0:3:0:0:
93,360,166462,6,0,B|170:350|147:379|245:368,1,127.5,4|0,1:2|0:2,0:2:0:0:
307,332,166795,6,0,P|433:318|500:210,1,237.999992736817,12|0,0:1|1:2,0:2:0:0:
511,142,167295,1,0,1:2:0:0:
466,59,167462,1,8,0:2:0:0:
320,217,167628,2,0,B|215:206|242:231|133:221,1,187.000005706787,2|0,1:2|1:2,0:2:0:0:
67,257,168128,1,8,0:2:0:0:
175,49,168295,5,2,0:2:0:0:
31,9,168462,1,0,1:2:0:0:
107,144,168628,5,2,1:2:0:0:
299,104,168795,1,8,0:2:0:0:
424,76,168962,5,0,1:2:0:0:
424,76,169045,1,0,1:2:0:0:
424,76,169128,2,0,P|473:154|460:262,1,187.000005706787,4|8,1:2|0:2,0:2:0:0:
307,332,169628,1,2,0:2:0:0:
228,318,169795,1,0,1:2:0:0:
97,382,169962,1,0,1:2:0:0:
18,368,170128,1,8,0:2:0:0:
238,301,170295,6,0,B|356:286|310:338|452:322,1,187.000005706787,2|0,1:2|1:2,0:2:0:0:
402,76,170795,2,0,L|512:57,1,93.5000028533936,8|0,0:2|0:2,0:2:0:0:
333,228,171128,1,2,1:2:0:0:
187,117,171295,1,0,1:2:0:0:
316,0,171462,1,8,0:2:0:0:
301,77,171628,1,0,0:2:0:0:
62,32,171795,6,0,P|22:102|37:224,2,187.000005706787,4|8|0,1:2|0:2|1:2,0:2:0:0:
154,20,172628,1,0,1:2:0:0:
210,94,172795,1,8,0:2:0:0:
481,68,172962,6,0,P|489:159|447:241,1,187.000005706787,4|0,1:2|1:2,0:2:0:0:
377,384,173462,2,0,P|422:373|468:367,1,93.5000028533936,8|0,0:2|0:2,0:2:0:0:
315,234,173795,5,8,0:3:0:0:
307,274,173878,1,8,0:3:0:0:
288,312,173962,1,4,0:3:0:0:
261,343,174045,1,4,0:3:0:0:
226,366,174128,1,8,0:2:0:0:
185,378,174212,1,8,0:2:0:0:
143,378,174295,1,8,0:2:0:0:
102,366,174378,1,8,0:2:0:0:
67,344,174462,2,0,L|80:236,1,85,2|0,1:2|0:2,0:2:0:0:
199,29,174795,6,0,P|89:23|26:114,1,220.999989883423,12|0,0:2|1:2,0:2:0:0:
9,196,175295,1,0,1:2:0:0:
77,259,175462,1,8,0:2:0:0:
264,163,175628,6,0,B|375:156|347:182|449:176,1,187.000005706787,2|0,1:2|1:2,0:2:0:0:
512,224,176128,1,8,0:2:0:0:
292,331,176295,2,0,P|354:382|475:346,1,187.000005706787,2|0,0:2|1:2,0:2:0:0:
337,196,176795,1,8,0:2:0:0:
446,64,176962,5,0,1:2:0:0:
446,64,177045,1,0,1:2:0:0:
446,64,177128,2,0,L|430:168,1,93.5000028533936,4|0,1:2|0:2,0:2:0:0:
169,110,177462,2,0,L|273:97,1,93.5000028533936,8|0,0:2|0:2,0:2:0:0:
315,24,177795,5,2,1:2:0:0:
230,193,177962,1,0,1:2:0:0:
105,50,178128,1,8,0:2:0:0:
42,98,178295,2,0,P|11:191|27:285,1,187.000005706787,2|0,1:2|1:2,0:2:0:0:
95,383,178795,1,8,0:2:0:0:
283,264,178962,5,2,0:2:0:0:
162,231,179128,1,0,1:2:0:0:
304,351,179295,1,0,1:2:0:0:
355,156,179462,1,8,0:2:0:0:
283,264,179628,1,0,0:2:0:0:
234,107,179795,6,0,B|127:87|152:131|40:114,1,187.000005706787,4|8,1:2|0:2,0:2:0:0:
0,54,180295,1,2,0:2:0:0:
125,206,180462,2,0,P|79:209|11:224,1,93.5000028533936,0|0,1:2|1:2,0:2:0:0:
246,94,180795,2,0,P|260:37|275:-7,1,93.5000028533936,8|0,0:2|1:2,0:2:0:0:
512,156,181128,5,2,0:2:0:0:
437,99,181295,1,0,1:2:0:0:
364,158,181462,1,8,0:2:0:0:
464,306,181628,2,0,P|453:260|439:215,1,93.5000028533936,2|0,0:2|1:2,0:2:0:0:
246,94,181962,5,0,1:2:0:0:
202,364,182128,1,12,0:2:0:0:
1,319,182295,5,8,0:3:0:0:
1,319,182378,1,8,0:3:0:0:
1,319,182462,2,0,P|45:324|128:286,1,114.749996498108,4|0,1:2|0:2,0:2:0:0:
180,260,182795,6,0,B|153:130|233:169|202:13,1,237.999992736817,12|0,0:1|1:2,0:2:0:0:
115,1,183295,1,0,1:2:0:0:
73,84,183462,1,8,0:2:0:0:
269,207,183628,2,0,B|386:199|349:224|454:220,1,187.000005706787,4|0,1:2|1:2,0:2:0:0:
504,278,184128,1,8,0:2:0:0:
408,111,184295,5,2,0:2:0:0:
362,319,184462,1,4,1:2:0:0:
244,189,184628,5,8,0:2:0:0:
202,178,184712,1,8,0:2:0:0:
163,194,184795,1,8,0:2:0:0:
144,232,184878,1,8,0:2:0:0:
113,261,184962,1,8,0:2:0:0:
72,271,185045,1,8,0:2:0:0:
31,261,185128,2,0,P|13:183|46:114,1,127.5,2|0,1:2|0:2,0:2:0:0:
86,77,185462,6,0,B|227:74|149:34|316:21,1,220.999989883423,12|0,0:2|1:2,0:2:0:0:
380,65,185962,1,0,1:2:0:0:
466,29,186128,1,8,0:2:0:0:
419,253,186295,5,0,1:2:0:0:
419,253,186378,1,0,1:2:0:0:
419,253,186462,2,0,P|466:252|522:232,1,93.5000028533936,2|0,1:2|0:2,0:2:0:0:
260,112,186795,2,0,P|236:195|241:308,2,187.000005706787,12|0|8,0:2|1:2|0:2,0:2:0:0:
210,12,187628,5,2,0:2:0:0:
360,162,187795,1,4,1:2:0:0:
158,214,187962,1,0,0:2:0:0:
264,116,188128,1,8,0:2:0:0:
264,116,188295,1,0,0:2:0:0:
135,56,188462,5,2,1:2:0:0:
2,211,188628,1,0,0:2:0:0:
187,300,188795,1,8,0:2:0:0:
158,214,188962,1,0,0:2:0:0:
92,281,189128,5,2,1:2:0:0:
254,235,189295,1,0,0:2:0:0:
282,355,189462,1,8,0:2:0:0:
456,292,189628,6,0,L|442:392,1,93.5000028533936,2|0,0:2|1:2,0:2:0:0:
384,140,189962,1,2,0:2:0:0:
384,140,190128,2,0,P|420:125|492:122,1,93.5000028533936,8|0,0:2|0:2,0:2:0:0:
250,261,190462,2,0,P|165:281|60:224,1,187.000005706787,4|8,1:2|0:2,0:2:0:0:
0,90,190962,5,2,0:2:0:0:
74,33,191128,1,0,1:2:0:0:
157,74,191295,1,0,0:2:0:0:
83,131,191462,1,8,0:2:0:0:
259,100,191628,5,2,2:2:0:0:
259,100,191712,1,0,2:2:0:0:
259,100,191795,2,0,L|244:-11,1,93.5000028533936,0|0,1:2|0:2,0:2:0:0:
342,215,192128,2,0,P|433:253|525:231,2,187.000005706787,10|0|8,0:2|1:2|0:2,0:2:0:0:
88,340,192962,5,2,0:2:0:0:
255,307,193128,1,4,1:2:0:0:
182,377,193295,1,0,0:2:0:0:
160,268,193462,1,8,0:2:0:0:
140,162,193628,5,2,0:2:0:0:
140,162,193712,1,0,0:2:0:0:
140,162,193795,2,0,P|99:166|29:190,1,93.5000028533936,0|0,1:2|0:2,0:2:0:0:
293,35,194128,2,0,P|248:21|201:16,1,93.5000028533936,8|0,0:2|0:2,0:2:0:0:
334,217,194462,5,2,1:2:0:0:
512,165,194628,1,8,0:2:0:0:
455,351,194795,2,0,B|431:308|453:267|453:267|438:216,1,127.500004863739,8|4,0:3|0:3,0:2:0:0:
351,127,195295,5,8,0:2:0:0:
309,126,195378,1,8,0:2:0:0:
270,143,195462,1,8,0:2:0:0:
247,178,195545,1,8,0:2:0:0:
239,219,195628,1,8,0:2:0:0:
213,252,195712,1,8,0:2:0:0:
174,268,195795,2,0,P|127:262|85:240,1,85,2|0,1:2|0:2,0:2:0:0:
182,32,196128,6,0,P|43:54|4:139,2,220.999989883423,12|0|8,0:2|1:2|0:2,0:2:0:0:
281,18,196962,1,0,1:2:0:0:
281,18,197045,1,0,1:2:0:0:
281,18,197128,1,2,1:2:0:0:
315,105,197295,1,8,0:2:0:0:
216,119,197462,1,2,1:3:0:0:
87,227,197628,1,2,0:2:0:0:
198,353,197795,1,8,0:3:0:0:
278,305,197962,5,8,0:2:0:0:
313,295,198045,1,8,0:2:0:0:
349,305,198128,1,8,0:2:0:0:
374,333,198212,1,8,0:2:0:0:
393,365,198295,1,8,0:2:0:0:
427,377,198378,1,8,0:2:0:0:
464,375,198462,2,0,P|488:310|474:235,1,127.5,2|0,1:2|0:2,0:2:0:0:
416,182,198795,6,0,B|276:152|329:211|198:183,1,220.999989883423,12|0,0:2|1:2,0:2:0:0:
117,230,199295,1,0,1:2:0:0:
38,178,199462,1,8,0:2:0:0:
133,35,199628,5,0,1:2:0:0:
133,35,199712,1,0,1:2:0:0:
133,35,199795,2,0,P|93:22|23:24,1,93.5000028533936,0|8,1:2|0:2,0:2:0:0:
199,247,200128,2,0,P|207:191|239:134,1,93.5000028533936,2|0,1:3|0:2,0:2:0:0:
393,23,200462,5,8,0:2:0:0:
419,27,200545,1,8,0:2:0:0:
447,32,200628,1,8,0:2:0:0:
474,37,200712,1,8,0:2:0:0:
492,21,200795,5,8,0:3:0:0:
452,27,200878,1,8,0:3:0:0:
410,35,200962,1,4,0:3:0:0:
371,42,201045,1,4,0:3:0:0:
326,22,201128,6,0,P|308:78|308:135,1,85,4|0,1:2|0:2,0:2:0:0:
362,316,201462,6,0,P|462:324|517:260,1,178.499994552612,12|0,0:1|0:2,0:2:0:0:
512,272,201795,2,0,P|505:213|488:164,1,93.5000028533936,2|0,0:2|1:2,0:2:0:0:
445,124,202045,1,2,0:2:0:0:
445,124,202128,1,8,0:2:0:0:
292,260,202295,1,0,1:2:0:0:
231,165,202462,5,2,0:2:0:0:
371,237,202628,1,0,1:2:0:0:
262,353,202795,1,12,0:2:0:0:
122,281,202962,1,0,0:2:0:0:
40,299,203128,5,8,0:2:0:0:
15,266,203212,1,8,0:2:0:0:
2,227,203295,1,8,0:2:0:0:
0,187,203378,1,8,0:2:0:0:
10,147,203462,1,8,0:2:0:0:
32,113,203545,1,8,0:2:0:0:
63,86,203628,1,8,0:2:0:0:
100,69,203712,1,8,0:2:0:0:
140,65,203795,6,0,B|162:116|162:116|144:187,1,106.25,4|0,1:1|0:2,0:2:0:0:
490,110,204128,2,0,B|477:60|477:60|499:9,1,106.25,8|0,0:2|0:2,0:2:0:0:
245,197,204462,5,10,0:2:0:0:
405,234,204628,1,0,1:2:0:0:
351,103,204795,1,8,0:2:0:0:
306,324,204962,1,0,1:2:0:0:
223,354,205128,6,0,B|107:337|146:379|5:365,1,212.5,10|8,0:2|0:2,0:2:0:0:
137,154,205628,1,2,1:2:0:0:
0,217,205795,1,8,0:2:0:0:
177,261,205962,1,0,1:2:0:0:
35,51,206128,1,8,0:2:0:0:
236,22,206295,5,0,1:2:0:0:
236,22,206378,1,0,1:2:0:0:
236,22,206462,2,0,B|218:142,1,106.25,12|0,0:2|0:2,0:2:0:0:
398,236,206795,1,8,0:2:0:0:
256,384,206962,2,0,B|271:278,1,106.25,2|8,1:2|0:2,0:2:0:0:
470,44,207295,5,2,1:2:0:0:
335,70,207462,1,8,0:2:0:0:
384,278,207628,1,0,1:2:0:0:
512,182,207795,6,0,B|392:153|434:215|303:182,1,212.5,10|8,0:2|0:2,0:2:0:0:
159,251,208295,1,2,1:2:0:0:
46,138,208462,1,8,0:2:0:0:
190,69,208628,1,0,1:2:0:0:
203,147,208795,1,8,0:2:0:0:
0,42,208962,5,0,1:2:0:0:
0,42,209045,1,0,1:2:0:0:
0,42,209128,2,0,P|59:39|105:19,1,106.25,12|0,0:2|0:2,0:2:0:0:
181,285,209462,2,0,P|233:286|282:306,1,106.25,8|0,0:2|0:2,0:2:0:0:
512,157,209795,5,10,0:2:0:0:
396,175,209962,1,0,1:2:0:0:
225,79,210128,1,8,0:2:0:0:
109,98,210295,1,0,1:2:0:0:
31,69,210462,6,0,P|5:122|46:282,1,212.5,10|8,0:2|0:2,0:2:0:0:
234,384,210962,1,2,1:2:0:0:
360,197,211128,1,8,0:2:0:0:
122,244,211295,1,0,1:2:0:0:
234,290,211462,1,8,0:2:0:0:
335,79,211628,5,0,1:2:0:0:
335,79,211712,1,0,1:2:0:0:
335,79,211795,2,0,B|281:90|281:90|233:70,1,106.25,12|0,0:2|0:2,0:2:0:0:
375,362,212128,1,8,0:2:0:0:
375,362,212295,2,0,B|429:351|429:351|477:371,1,106.25,2|8,1:2|0:2,0:2:0:0:
215,265,212628,5,2,1:2:0:0:
363,219,212795,1,12,0:2:0:0:
512,174,212962,1,0,1:2:0:0:
341,129,213128,5,8,0:2:0:0:
371,136,213212,1,8,0:2:0:0:
403,130,213295,1,8,0:2:0:0:
429,113,213378,1,8,0:2:0:0:
447,86,213462,2,0,P|373:48|314:51,1,127.500004863739,2|8,1:2|0:2,0:2:0:0:
139,98,213962,6,0,B|67:91|84:114|12:109,1,127.500004863739,4|0,1:2|0:2,0:2:0:0:
220,155,214462,6,0,B|239:105|239:105|227:53,1,106.25,4|0,1:1|0:2,0:2:0:0:
465,283,214795,2,0,B|446:333|446:333|457:384,1,106.25,8|0,0:2|0:2,0:2:0:0:
226,260,215128,5,10,0:2:0:0:
317,182,215295,1,0,1:2:0:0:
239,366,215462,1,8,0:2:0:0:
120,198,215628,1,0,1:2:0:0:
328,286,215795,6,0,P|418:289|501:208,1,212.5,10|8,0:2|0:2,0:2:0:0:
319,78,216295,1,2,1:2:0:0:
428,15,216462,1,8,0:2:0:0:
379,196,216628,1,0,1:2:0:0:
213,25,216795,1,8,0:2:0:0:
65,55,216962,5,0,1:2:0:0:
65,55,217045,1,0,1:2:0:0:
65,55,217128,2,0,L|53:180,1,106.25,12|0,0:2|0:2,0:2:0:0:
260,274,217462,1,8,0:2:0:0:
123,384,217628,2,0,L|135:259,1,106.25,2|8,1:2|0:2,0:2:0:0:
390,146,217962,5,2,1:2:0:0:
221,183,218128,1,8,0:2:0:0:
270,366,218295,1,0,1:2:0:0:
350,330,218462,6,0,P|420:340|513:234,1,212.5,10|8,2:2|0:2,0:2:0:0:
300,120,218962,1,2,1:2:0:0:
469,55,219128,1,8,0:2:0:0:
407,249,219295,1,0,1:2:0:0:
413,169,219462,1,8,0:2:0:0:
202,132,219628,5,0,1:2:0:0:
202,132,219712,1,0,1:2:0:0:
202,132,219795,2,0,P|185:183|188:241,1,106.25,12|0,0:2|0:2,0:2:0:0:
484,282,220128,2,0,P|485:334|468:384,1,106.25,8|0,0:2|0:2,0:2:0:0:
317,187,220462,5,10,0:2:0:0:
413,169,220628,1,0,1:2:0:0:
227,354,220795,1,8,0:2:0:0:
131,336,220962,1,0,1:2:0:0:
25,371,221128,6,0,P|2:268|45:173,1,212.5,10|8,0:2|0:2,0:2:0:0:
263,27,221628,1,2,1:2:0:0:
340,251,221795,1,8,0:2:0:0:
139,308,221962,1,0,1:2:0:0:
171,226,222128,1,8,0:2:0:0:
53,81,222295,5,0,1:2:0:0:
53,81,222378,1,0,1:2:0:0:
53,81,222462,2,0,B|119:97|119:97|197:55,1,136,12|0,0:2|0:2,0:2:0:0:
330,5,222962,2,0,P|293:55|296:144,1,136,8|0,0:3|1:2,0:2:0:0:
377,222,223462,2,0,P|421:219|461:203,1,68,12|0,0:2|0:2,0:2:0:0:
272,139,223795,5,2,1:2:0:0:
213,246,223962,1,0,1:2:0:0:
245,363,224128,1,8,0:2:0:0:
313,291,224295,5,8,0:2:0:0:
313,291,224378,1,8,0:2:0:0:
313,291,224462,1,8,0:2:0:0:
153,322,224628,5,8,0:3:0:0:
56,235,224795,5,4,0:3:0:0:
48,126,224962,5,4,0:3:0:0:
105,55,225128,6,0,P|158:56|209:29,1,101.999996887207,4|0,1:2|0:2,0:2:0:0:
314,123,225628,2,0,P|359:101|410:103,1,101.999996887207,8|0,0:2|1:2,0:2:0:0:
472,56,226128,1,8,0:2:0:0:
498,234,226462,6,0,L|487:343,1,101.999996887207,4|0,1:2|0:2,0:2:0:0:
344,383,226962,2,0,L|354:281,1,101.999996887207,8|0,0:2|1:2,0:2:0:0:
302,222,227462,1,8,0:2:0:0:
97,355,227795,6,0,P|147:357|194:339,1,101.999996887207,4|0,1:2|0:2,0:2:0:0:
172,199,228295,2,0,P|121:196|74:214,1,101.999996887207,8|0,0:2|1:2,0:2:0:0:
0,190,228795,1,8,0:2:0:0:
256,268,229128,6,0,L|263:166,1,101.999996887207,4|0,1:2|0:2,0:2:0:0:
442,246,229628,2,0,L|434:347,1,101.999996887207,8|0,0:2|0:2,0:2:0:0:
362,167,230128,5,10,0:2:0:0:
512,131,230295,1,8,0:2:0:0:
