osu file format v14

[General]
AudioFilename: audio.mp3
AudioLeadIn: 0
PreviewTime: 74941
Countdown: 0
SampleSet: Soft
StackLeniency: 0.7
Mode: 0
LetterboxInBreaks: 0
WidescreenStoryboard: 1

[Editor]
Bookmarks: 11795,17128,22462,33128,43795,54462,65128,75795,94462,105128,115795,126462,137128,142462,151795,153128,163795,174462,185128,195795,203795,214462,222462,225128,230128,230295
DistanceSpacing: 0.5
BeatDivisor: 4
GridSize: 32
TimelineZoom: 1.5

[Metadata]
Title:mirror
TitleUnicode:mirror
Artist:Hakubi
ArtistUnicode:Hakubi
Creator:Lasse
Version:Insane
Source:
Tags:japanese rock alternative era Ousaka Sora
BeatmapID:3875710
BeatmapSetID:1874490

[Difficulty]
HPDrainRate:5
CircleSize:4
OverallDifficulty:8
ApproachRate:9
SliderMultiplier:1.5
SliderTickRate:1

[Events]
//Background and Video events
0,0,"bg.jpg",0,0
//Break Periods
2,142662,151195
//Storyboard Layer 0 (Background)
//Storyboard Layer 1 (Fail)
//Storyboard Layer 2 (Pass)
//Storyboard Layer 3 (Foreground)
//Storyboard Layer 4 (Overlay)
//Storyboard Sound Samples

[TimingPoints]
1129,333.333333333333,4,2,1,30,1,0
1129,-200,4,2,1,30,0,0
6462,-200,4,2,1,35,0,0
11795,-142.857142857143,4,2,1,40,0,0
17128,-111.111111111111,4,2,1,45,0,0
21128,-111.111111111111,4,2,1,50,0,0
21795,-111.111111111111,4,2,1,60,0,0
22462,-100,4,2,1,70,0,0
31795,-133.333333333333,4,2,1,65,0,0
32962,-133.333333333333,4,2,1,50,0,0
33128,-111.111111111111,4,2,1,60,0,0
43795,-100,4,2,1,65,0,0
54462,-111.111111111111,4,2,1,65,0,0
65128,-100,4,2,1,70,0,0
65378,-100,4,2,1,30,0,0
65462,-100,4,2,1,70,0,0
70378,-100,4,2,1,30,0,0
70462,-100,4,2,1,70,0,0
72795,-133.333333333333,4,2,1,70,0,0
73045,-133.333333333333,4,2,1,30,0,0
73128,-100,4,2,1,70,0,0
74378,-100,4,2,1,30,0,0
74462,-100,4,2,1,70,0,0
74628,-100,4,2,1,50,0,0
74795,-100,4,2,1,70,0,0
74962,-100,4,2,1,50,0,0
75795,-90.9090909090909,4,2,1,75,0,1
81045,-90.9090909090909,4,2,1,30,0,1
81128,-90.9090909090909,4,2,1,75,0,1
83712,-90.9090909090909,4,2,1,30,0,1
83795,-90.9090909090909,4,2,1,75,0,1
86712,-90.9090909090909,4,2,1,30,0,1
86795,-90.9090909090909,4,2,1,75,0,1
89378,-90.9090909090909,4,2,1,30,0,1
89462,-90.9090909090909,4,2,1,75,0,1
91795,-90.9090909090909,4,2,1,75,0,1
92045,-90.9090909090909,4,2,1,30,0,1
92128,-76.9230769230769,4,2,1,75,0,1
92462,-90.9090909090909,4,2,1,75,0,1
94462,-100,4,2,1,70,0,0
97045,-100,4,2,1,30,0,0
97128,-100,4,2,1,70,0,0
104128,-125,4,2,1,70,0,0
104628,-83.3333333333333,4,2,1,70,0,0
105128,-100,4,2,1,70,0,0
106378,-100,4,2,1,30,0,0
106462,-100,4,2,1,70,0,0
109045,-100,4,2,1,30,0,0
109128,-100,4,2,1,70,0,0
112795,-133.333333333333,4,2,1,70,0,0
113128,-100,4,2,1,70,0,0
115795,-90.9090909090909,4,2,1,75,0,1
125462,-133.333333333333,4,2,1,75,0,0
125628,-133.333333333333,4,2,1,65,0,0
125962,-133.333333333333,4,2,1,75,0,0
126128,-71.4285714285714,4,2,1,75,0,0
126378,-71.4285714285714,4,2,1,30,0,0
126462,-90.9090909090909,4,2,1,75,0,1
136628,-90.9090909090909,4,2,1,70,0,1
136795,-90.9090909090909,4,2,1,68,0,1
136962,-90.9090909090909,4,2,1,65,0,1
137128,-133.333333333333,4,2,1,60,0,0
141295,-133.333333333333,4,2,1,50,0,0
141462,-133.333333333333,4,2,1,55,0,0
141795,-266.666666666667,4,2,1,45,0,0
142462,-100,4,2,99,50,0,0
151795,-200,4,2,1,40,0,0
153128,-166.666666666667,4,2,1,50,0,0
162462,-125,4,2,1,60,0,0
162628,-125,4,2,1,50,0,0
162795,-125,4,2,1,60,0,0
163128,-125,4,2,1,50,0,0
164128,-90.9090909090909,4,2,1,70,0,0
166462,-100,4,2,1,70,0,0
166712,-100,4,2,1,30,0,0
166795,-71.4285714285714,4,2,1,70,0,1
167128,-90.9090909090909,4,2,1,75,0,1
174462,-100,4,2,1,75,0,0
174795,-76.9230769230769,4,2,1,75,0,1
175128,-90.9090909090909,4,2,1,75,0,1
182462,-111.111111111111,4,2,1,75,0,0
182712,-111.111111111111,4,2,1,30,0,0
182795,-71.4285714285714,4,2,1,75,0,1
183128,-90.9090909090909,4,2,1,75,0,1
185128,-100,4,2,1,75,0,0
185378,-100,4,2,1,30,0,0
185462,-76.9230769230769,4,2,1,75,0,1
185795,-90.9090909090909,4,2,1,75,0,1
190378,-90.9090909090909,4,2,1,30,0,1
190462,-90.9090909090909,4,2,1,75,0,1
194795,-133.333333333333,4,2,1,75,0,1
195128,-90.9090909090909,4,2,1,75,0,1
195795,-100,4,2,1,75,0,0
196045,-90.9090909090909,4,2,1,30,0,0
196128,-76.9230769230769,4,2,1,75,0,1
196462,-90.9090909090909,4,2,1,75,0,1
198462,-100,4,2,1,75,0,0
198712,-100,4,2,1,30,0,0
198795,-76.9230769230769,4,2,1,75,0,1
199128,-90.9090909090909,4,2,1,75,0,1
201128,-100,4,2,1,75,0,0
201462,-71.4285714285714,4,2,1,75,0,1
201712,-71.4285714285714,4,2,1,30,0,1
201795,-90.9090909090909,4,2,1,75,0,1
203753,-90.9090909090909,4,2,1,75,0,0
203795,-80,4,2,1,80,0,1
213128,-133.333333333333,4,2,1,75,0,0
214295,-133.333333333333,4,2,1,70,0,0
214462,-80,4,2,1,80,0,1
222462,-125,4,2,1,70,0,0
224628,-125,4,2,1,68,0,0
224795,-125,4,2,1,66,0,0
224962,-125,4,2,1,64,0,0
225128,-166.666666666667,4,2,1,60,0,0
226462,-166.666666666667,4,2,1,58,0,0
227795,-166.666666666667,4,2,1,56,0,0
229128,-166.666666666667,4,2,1,54,0,0
230128,-166.666666666667,4,2,1,70,0,0

[Colours]
Combo1 : 250,180,240
Combo2 : 120,200,230
Combo3 : 255,230,130
Combo4 : 160,230,150

[HitObjects]
3,169,1129,5,2,0:2:0:0:
3,169,1462,2,0,L|57:172,1,37.5,0|0,0:2|0:2,0:2:0:0:
119,217,2462,5,2,0:2:0:0:
119,217,2795,2,0,L|173:214,1,37.5,0|0,0:2|0:2,0:2:0:0:
263,165,3795,5,2,0:2:0:0:
263,165,4128,2,0,L|317:168,1,37.5,0|0,0:2|0:2,0:2:0:0:
448,226,5128,5,2,0:2:0:0:
448,226,5462,2,0,L|502:223,1,37.5,0|0,0:2|0:2,0:2:0:0:
485,223,6462,5,2,0:2:0:0:
454,295,6795,1,0,0:2:0:0:
454,295,6962,1,0,0:2:0:0:
354,181,7795,5,2,0:2:0:0:
324,111,8128,1,0,0:2:0:0:
324,111,8295,1,0,0:2:0:0:
199,232,9128,5,2,0:2:0:0:
169,302,9462,1,0,0:2:0:0:
169,302,9628,1,0,0:2:0:0:
31,149,10462,5,2,0:2:0:0:
1,79,10795,1,0,0:2:0:0:
1,79,10962,1,0,0:2:0:0:
1,79,11795,5,4,1:2:0:0:
38,172,12128,1,0,0:2:0:0:
38,172,12295,2,0,L|8:341,1,157.499995193482,0|0,0:2|0:2,0:2:0:0:
156,376,13128,5,2,0:2:0:0:
193,283,13462,1,0,0:2:0:0:
193,283,13628,2,0,L|163:114,1,157.499995193482,0|0,0:2|0:2,0:2:0:0:
293,38,14462,5,2,0:2:0:0:
330,131,14795,1,0,0:2:0:0:
330,131,14962,2,0,L|300:300,1,157.499995193482,0|0,0:2|0:2,0:2:0:0:
463,376,15795,5,2,0:2:0:0:
500,283,16128,1,0,0:2:0:0:
500,283,16295,2,0,L|470:114,1,157.499995193482,0|0,0:2|0:2,0:2:0:0:
424,30,17128,5,4,1:2:0:0:
354,57,17462,1,0,1:2:0:0:
284,84,17795,1,0,1:2:0:0:
214,111,18128,1,0,1:2:0:0:
144,138,18462,5,2,1:2:0:0:
236,154,18795,1,0,1:2:0:0:
328,170,19128,1,0,1:2:0:0:
420,186,19462,1,0,1:2:0:0:
512,202,19795,5,2,1:2:0:0:
401,232,20128,1,0,1:2:0:0:
290,262,20462,1,0,1:2:0:0:
179,292,20795,1,0,1:2:0:0:
58,374,21128,6,0,P|31:307|52:223,1,134.999995880127,2|0,1:2|1:2,0:2:0:0:
130,76,21795,5,2,1:2:0:0:
130,76,21962,1,2,0:2:0:0:
130,76,22462,6,0,P|85:70|30:65,1,75,12|0,0:1|0:2,0:2:0:0:
228,141,22795,2,0,P|237:107|252:63,1,75,8|0,0:2|0:2,0:2:0:0:
370,12,23128,5,10,0:2:0:0:
460,44,23295,1,0,1:2:0:0:
357,115,23462,1,8,0:2:0:0:
452,141,23628,1,0,1:2:0:0:
339,225,23795,6,0,P|344:286|374:384,1,150,10|8,2:2|0:2,0:2:0:0:
183,315,24295,1,0,1:2:0:0:
262,266,24462,1,10,0:2:0:0:
162,333,24628,1,0,1:2:0:0:
175,203,24795,1,8,0:2:0:0:
147,361,24962,5,0,1:2:0:0:
147,361,25045,1,0,1:2:0:0:
147,361,25128,2,0,P|90:380|5:324,1,150,12|8,0:2|0:2,0:2:0:0:
169,232,25628,2,0,L|260:245,1,75,2|8,1:2|0:2,0:2:0:0:
114,130,25962,5,2,1:2:0:0:
0,154,26128,1,8,0:2:0:0:
34,45,26295,1,0,1:2:0:0:
131,141,26462,6,0,B|174:153|205:125|205:125|219:88|259:77,1,150,10|8,0:2|0:2,0:2:0:0:
380,76,26962,1,0,1:2:0:0:
279,152,27128,1,10,0:2:0:0:
316,31,27295,1,0,1:2:0:0:
356,150,27462,1,8,0:2:0:0:
225,208,27628,5,0,1:2:0:0:
225,208,27712,1,0,1:2:0:0:
225,208,27795,2,0,L|132:215,1,75,12|0,0:1|0:2,0:2:0:0:
282,333,28128,2,0,L|189:340,1,75,8|0,0:2|0:2,0:2:0:0:
353,243,28462,5,10,0:2:0:0:
464,267,28628,1,0,1:2:0:0:
423,196,28795,1,8,0:2:0:0:
396,310,28962,1,0,1:2:0:0:
326,233,29128,6,0,B|315:157|357:167|339:86,1,150,10|8,0:2|0:2,0:2:0:0:
249,10,29628,1,0,1:2:0:0:
228,130,29795,1,10,0:2:0:0:
328,60,29962,1,0,1:2:0:0:
223,4,30128,1,8,0:2:0:0:
205,151,30295,5,0,1:2:0:0:
205,151,30378,1,0,1:2:0:0:
205,151,30462,2,0,P|209:215|220:311,1,150,12|8,0:2|0:2,0:2:0:0:
136,384,30962,2,0,P|132:346|125:306,1,75,2|8,0:2|0:2,0:2:0:0:
304,264,31295,1,0,1:2:0:0:
304,264,31462,2,0,P|307:301|315:342,1,75,12|0,0:2|0:2,0:2:0:0:
202,215,31795,5,8,0:2:0:0:
182,207,31878,1,8,0:2:0:0:
161,201,31962,1,8,0:2:0:0:
141,198,32045,1,8,0:2:0:0:
119,196,32128,2,0,P|66:208|22:171,1,112.500004291535,2|8,1:2|0:2,0:2:0:0:
114,108,32628,6,0,B|174:97|163:123|234:117,1,112.500004291535,4|0,1:2|0:2,0:2:0:0:
360,166,33128,6,0,P|368:116|384:29,1,134.999995880127,4|8,1:1|0:2,0:2:0:0:
507,152,33628,1,2,0:2:0:0:
438,219,33795,2,0,P|443:247|452:289,2,67.4999979400635,0|0|8,1:2|1:2|0:2,0:2:0:0:
301,264,34295,5,2,0:2:0:0:
371,326,34462,1,0,1:2:0:0:
293,379,34628,1,0,0:2:0:0:
223,317,34795,2,0,P|179:344|101:319,1,134.999995880127,8|0,0:2|1:2,0:2:0:0:
33,360,35295,1,0,1:2:0:0:
70,245,35462,2,0,P|43:247|-14:256,1,67.4999979400635,8|0,0:2|0:2,0:2:0:0:
156,145,35795,6,0,P|188:207|150:265,1,134.999995880127,2|8,1:2|0:2,0:2:0:0:
239,367,36295,1,2,0:2:0:0:
313,300,36462,2,0,P|305:260|304:213,1,67.4999979400635,0|0,1:2|1:2,0:0:0:0:
459,285,36795,2,0,P|432:274|365:257,1,67.4999979400635,8|0,0:2|0:2,0:2:0:0:
274,147,37128,6,0,P|328:136|418:102,2,134.999995880127,2|8|0,1:2|0:2|1:2,0:2:0:0:
162,112,37962,1,0,1:2:0:0:
237,58,38128,1,8,0:2:0:0:
198,208,38295,5,0,1:2:0:0:
198,208,38378,1,0,1:2:0:0:
198,208,38462,2,0,P|220:271|235:337,1,134.999995880127,4|8,1:2|0:2,0:2:0:0:
143,384,38962,1,2,0:2:0:0:
75,310,39128,2,0,P|37:313|-7:325,2,67.4999979400635,0|0|8,1:2|1:2|0:2,0:2:0:0:
198,208,39628,5,0,0:2:0:0:
271,255,39795,2,0,P|331:260|418:238,2,134.999995880127,2|8|0,1:2|0:2|1:2,0:2:0:0:
198,208,40628,1,0,1:2:0:0:
274,173,40795,1,8,0:2:0:0:
203,123,40962,5,0,1:2:0:0:
203,123,41045,1,0,1:2:0:0:
203,123,41128,2,0,P|146:105|111:100,1,67.4999979400635,2|0,1:2|0:2,0:2:0:0:
314,31,41462,2,0,P|257:13|222:8,1,67.4999979400635,8|0,0:2|0:2,0:2:0:0:
377,140,41795,2,0,P|395:101|417:73,1,67.4999979400635,2|0,1:2|1:2,0:2:0:0:
480,219,42128,2,0,P|499:191|512:160,1,67.4999979400635,8|0,0:2|0:2,0:2:0:0:
309,195,42462,5,2,1:2:0:0:
390,226,42628,1,0,1:2:0:0:
324,285,42795,1,8,0:2:0:0:
243,254,42962,2,0,P|213:247|160:242,1,67.4999979400635,8|4,0:3|0:3,0:0:0:0:
112,147,43295,1,8,0:2:0:0:
99,158,43378,1,8,0:2:0:0:
85,167,43462,1,8,0:2:0:0:
69,172,43545,1,8,0:2:0:0:
52,175,43628,1,8,0:2:0:0:
35,174,43712,1,8,0:2:0:0:
19,170,43795,6,0,P|17:99|59:28,1,150,4|8,1:1|0:2,0:2:0:0:
155,17,44295,1,2,0:2:0:0:
227,89,44462,2,0,L|221:180,2,75,0|0|8,1:2|1:2|0:2,0:2:0:0:
324,10,44962,5,2,0:2:0:0:
380,99,45128,1,0,1:2:0:0:
429,9,45295,1,0,0:2:0:0:
365,111,45462,2,0,P|351:192|352:275,1,150,8|0,0:2|1:2,0:2:0:0:
198,332,45962,1,0,1:2:0:0:
293,384,46128,2,0,P|286:335|277:301,1,75,8|0,0:2|0:2,0:2:0:0:
121,289,46462,6,0,P|112:325|107:362,1,75,2|0,1:2|0:2,0:2:0:0:
231,231,46795,2,0,P|187:221|144:186,1,75,8|0,0:2|0:2,0:2:0:0:
16,86,47128,1,2,1:2:0:0:
113,117,47295,1,0,1:2:0:0:
41,190,47462,1,8,0:2:0:0:
41,190,47628,1,0,0:2:0:0:
135,101,47795,6,0,B|230:81|182:122|284:105,1,150,2|8,1:2|0:2,0:2:0:0:
413,19,48295,2,0,P|375:14|330:-2,1,75,2|0,0:2|1:2,0:2:0:0:
376,148,48628,1,0,1:2:0:0:
463,126,48795,1,8,0:2:0:0:
327,234,48962,5,0,1:2:0:0:
327,234,49045,1,0,1:2:0:0:
327,234,49128,2,0,P|370:277|463:264,1,150,6|8,0:2|0:2,0:2:0:0:
356,116,49628,1,2,0:2:0:0:
264,154,49795,2,0,P|220:164|173:166,2,75,0|0|8,1:2|1:2|0:2,0:2:0:0:
155,30,50295,5,2,0:2:0:0:
87,112,50462,1,0,1:2:0:0:
52,7,50628,1,0,0:2:0:0:
101,130,50795,2,0,P|92:188|63:296,1,150,8|0,0:2|1:2,0:2:0:0:
162,377,51295,1,0,1:2:0:0:
263,322,51462,2,0,P|254:282|249:235,1,75,8|0,0:2|0:2,0:2:0:0:
440,294,51795,6,0,P|449:334|454:381,1,75,2|0,1:2|0:2,0:2:0:0:
356,264,52128,2,0,P|443:252|499:189,1,150,8|2,0:2|1:2,0:2:0:0:
303,172,52628,1,0,1:2:0:0:
382,103,52795,2,0,P|391:143|396:190,1,75,8|0,0:2|0:2,0:0:0:0:
155,185,53128,5,2,1:2:0:0:
232,95,53295,1,0,1:2:0:0:
262,252,53462,1,12,0:2:0:0:
125,67,53795,5,8,0:2:0:0:
43,117,53962,5,8,0:3:0:0:
8,193,54128,5,4,0:3:0:0:
10,270,54295,5,4,0:3:0:0:
61,334,54462,5,4,1:2:0:0:
61,334,54628,2,0,L|138:327,1,67.4999979400635,2|8,0:2|0:2,0:2:0:0:
173,234,54962,2,0,L|240:227,1,67.4999979400635,2|0,0:2|1:2,0:2:0:0:
301,339,55295,2,0,L|378:332,1,67.4999979400635,2|0,0:2|1:2,0:2:0:0:
420,206,55628,2,0,L|497:199,1,67.4999979400635,10|0,0:2|1:2,0:2:0:0:
314,83,55962,5,8,0:2:0:0:
314,83,56128,2,0,P|325:108|332:149,1,67.4999979400635,12|0,2:2|0:2,0:2:0:0:
190,215,56462,2,0,P|179:190|172:149,1,67.4999979400635,12|0,0:2|0:2,0:2:0:0:
286,231,56795,1,8,0:2:0:0:
289,247,56878,1,8,0:2:0:0:
293,263,56962,1,8,0:2:0:0:
297,280,57045,1,8,0:2:0:0:
300,296,57128,6,0,P|375:302|423:261,1,134.999995880127,0|8,1:2|0:2,0:0:0:0:
512,194,57628,2,0,L|503:272,1,67.4999979400635,2|0,0:2|1:2,0:2:0:0:
362,164,57962,2,0,L|369:96,1,67.4999979400635,10|0,0:2|1:2,0:2:0:0:
213,155,58295,2,0,L|204:233,1,67.4999979400635,10|0,0:2|1:2,0:2:0:0:
54,58,58628,5,8,0:2:0:0:
54,58,58795,2,0,P|90:52|134:33,1,67.4999979400635,12|0,2:2|0:2,0:2:0:0:
222,149,59128,5,8,0:2:0:0:
133,129,59295,5,8,0:3:0:0:
62,173,59462,5,4,0:3:0:0:
51,250,59628,5,4,0:3:0:0:
109,311,59795,5,12,0:2:0:0:
109,311,59962,2,0,L|100:382,1,67.4999979400635,2|12,0:2|0:2,0:2:0:0:
291,269,60295,2,0,L|282:340,1,67.4999979400635,2|0,0:2|1:2,0:2:0:0:
184,178,60628,2,0,L|175:249,1,67.4999979400635,10|0,0:2|1:2,0:2:0:0:
401,181,60962,2,0,L|392:252,1,67.4999979400635,10|0,0:2|1:2,0:2:0:0:
291,77,61295,5,8,0:2:0:0:
291,77,61462,2,0,P|338:78|428:24,1,134.999995880127,12|0,0:2|1:2,0:2:0:0:
269,164,61962,1,8,0:2:0:0:
246,161,62045,1,8,0:2:0:0:
224,162,62128,1,8,0:2:0:0:
202,167,62212,1,8,0:2:0:0:
181,175,62295,1,8,0:2:0:0:
162,187,62378,1,8,0:2:0:0:
143,201,62462,6,0,P|133:249|133:352,1,134.999995880127,0|8,1:2|0:2,0:0:0:0:
264,383,62962,2,0,P|252:344|237:309,1,67.4999979400635,2|0,0:2|1:2,0:2:0:0:
409,225,63295,2,0,P|396:256|386:288,1,67.4999979400635,10|0,0:2|1:2,0:2:0:0:
228,196,63628,2,0,P|240:164|250:132,1,67.4999979400635,10|0,0:2|1:2,0:2:0:0:
459,44,63962,5,8,0:2:0:0:
459,44,64128,2,0,P|399:58|330:17,1,134.999995880127,12|0,0:2|1:2,0:2:0:0:
235,118,64628,1,8,0:2:0:0:
218,103,64712,1,8,0:2:0:0:
198,92,64795,1,8,0:2:0:0:
177,86,64878,1,8,0:2:0:0:
154,85,64962,1,8,0:2:0:0:
132,90,65045,1,8,0:2:0:0:
112,99,65128,6,0,P|92:156|93:223,1,112.5,4|0,1:2|0:2,0:2:0:0:
131,273,65462,2,0,P|167:264|204:257,1,75,12|0,0:1|0:2,0:2:0:0:
346,294,65795,1,2,1:2:0:0:
281,343,65962,1,0,1:2:0:0:
359,276,66128,1,8,0:2:0:0:
371,384,66295,1,0,1:2:0:0:
375,255,66462,6,0,P|362:187|338:99,1,150,2|8,0:2|0:2,0:2:0:0:
464,34,66962,2,0,P|450:64|436:105,1,75,2|0,0:2|1:2,0:2:0:0:
271,58,67295,1,2,1:2:0:0:
357,22,67462,1,8,0:2:0:0:
256,140,67628,1,0,0:2:0:0:
187,38,67795,6,0,B|130:28|130:28|81:61|18:41,1,150,2|8,1:2|0:2,0:2:0:0:
181,150,68295,2,0,P|220:144|284:136,1,75,2|0,0:2|1:2,0:2:0:0:
229,292,68628,1,2,1:2:0:0:
137,237,68795,2,0,P|99:231|62:226,1,75,8|0,0:2|1:2,0:0:0:0:
191,378,69128,5,2,0:2:0:0:
251,263,69295,1,0,1:2:0:0:
366,314,69462,1,8,0:2:0:0:
282,359,69628,1,2,0:2:0:0:
282,359,69712,1,0,0:2:0:0:
282,359,69795,1,0,1:2:0:0:
329,226,69962,1,0,1:2:0:0:
451,260,70128,2,0,B|443:236|443:236|445:213|445:213|429:192|426:153,1,112.5,12|0,0:2|0:2,0:2:0:0:
440,73,70462,6,0,P|480:62|529:62,1,75,4|0,1:1|0:2,0:2:0:0:
353,213,70795,2,0,P|288:226|188:171,1,150,8|0,0:2|1:2,0:2:0:0:
84,92,71295,1,0,1:2:0:0:
196,103,71462,1,8,0:2:0:0:
96,208,71628,1,0,1:2:0:0:
165,265,71795,5,2,0:2:0:0:
53,286,71962,1,0,1:2:0:0:
171,352,72128,2,0,P|182:298|196:250,1,75,12|0,0:2|0:2,0:2:0:0:
301,223,72462,5,8,2:2:0:0:
324,237,72545,1,8,2:2:0:0:
351,247,72628,1,8,2:2:0:0:
379,250,72712,1,8,2:2:0:0:
407,248,72795,2,0,P|420:210|410:149,1,84.3750032186509,4|0,1:2|2:2,2:2:0:0:
376,87,73128,6,0,B|319:70|319:70|272:93|216:68,1,150,12|0,0:1|1:2,0:2:0:0:
137,130,73628,1,8,2:2:0:0:
118,120,73712,1,8,2:2:0:0:
98,116,73795,1,8,2:2:0:0:
77,120,73878,1,8,2:2:0:0:
59,130,73962,1,8,2:2:0:0:
45,145,74045,1,8,2:2:0:0:
37,164,74128,2,0,P|39:232|57:300,1,112.5,2|0,1:2|2:2,2:2:0:0:
97,337,74462,6,0,P|134:329|196:318,1,75,4|0,1:2|0:2,0:2:0:0:
325,375,74795,2,0,P|363:369|398:361,1,75,4|0,1:2|0:2,0:2:0:0:
126,218,75795,6,0,P|88:210|40:203,1,82.5000025177003,4|0,1:1|0:2,0:2:0:0:
192,304,76128,2,0,P|202:343|209:384,1,82.5000025177003,8|0,0:2|0:2,0:2:0:0:
342,248,76462,2,0,P|347:204|364:152,1,82.5000025177003,2|0,1:2|0:2,0:0:0:0:
512,107,76795,1,8,0:2:0:0:
405,18,76962,5,2,0:2:0:0:
405,18,77045,1,0,0:2:0:0:
405,18,77128,2,0,P|416:57|420:98,1,82.5000025177003,0|0,1:2|0:2,0:2:0:0:
180,109,77462,2,0,P|259:117|338:50,2,165.000005035401,8|0|8,0:2|1:2|0:2,0:2:0:0:
0,75,78295,5,2,0:2:0:0:
48,155,78462,1,0,1:2:0:0:
104,51,78628,1,0,0:2:0:0:
42,177,78795,2,0,P|44:218|56:257,1,82.5000025177003,8|0,0:2|0:2,0:0:0:0:
219,306,79128,5,2,1:2:0:0:
114,375,79295,1,0,0:2:0:0:
161,227,79462,1,8,0:2:0:0:
230,340,79628,1,0,0:2:0:0:
304,252,79795,5,2,1:2:0:0:
304,252,79962,2,0,P|301:211|286:155,1,82.5000025177003,0|8,0:2|0:2,0:2:0:0:
458,90,80295,2,0,P|461:131|476:187,1,82.5000025177003,2|0,0:2|1:2,0:2:0:0:
349,72,80628,1,2,0:2:0:0:
349,72,80795,2,0,P|294:71|212:42,1,123.75000377655,8|0,0:2|0:0,0:2:0:0:
144,75,81128,6,0,B|75:55|18:101|18:101|58:138,1,165.000005035401,4|8,1:2|0:2,0:0:0:0:
175,154,81628,1,2,0:2:0:0:
14,230,81795,1,0,1:2:0:0:
121,286,81962,2,0,P|114:244|101:205,1,82.5000025177003,0|8,0:2|0:2,0:0:0:0:
326,298,82295,6,0,P|279:232|193:238,1,165.000005035401,2|0,0:2|0:2,0:2:0:0:
223,384,82795,2,0,P|235:344|242:304,1,82.5000025177003,10|0,0:2|0:0,0:2:0:0:
427,257,83128,2,0,P|439:296|446:336,1,82.5000025177003,0|0,1:2|0:2,0:0:0:0:
286,207,83462,2,0,B|292:163|331:141|331:141|340:124|341:93,1,123.75000377655,8|0,0:2|0:2,0:2:0:0:
277,48,83795,6,0,B|238:77|187:58|187:58|171:25|126:10,1,165.000005035401,2|8,1:2|0:2,0:2:0:0:
80,148,84295,2,0,P|37:160|-14:166,1,82.5000025177003,2|0,0:2|0:2,0:2:0:0:
102,322,84628,2,0,P|89:279|85:238,1,82.5000025177003,2|8,0:2|0:2,0:2:0:0:
209,143,84962,5,2,0:2:0:0:
209,143,85045,1,0,0:2:0:0:
209,143,85128,1,0,1:2:0:0:
293,208,85295,1,8,0:2:0:0:
182,256,85462,2,0,P|257:275|293:207,1,165.000005035401,2|8,1:3|0:3,0:0:0:0:
441,128,85962,1,8,0:2:0:0:
430,109,86045,1,8,0:2:0:0:
426,89,86128,1,8,0:2:0:0:
429,68,86212,1,8,0:2:0:0:
437,50,86295,1,8,0:2:0:0:
450,34,86378,1,8,0:2:0:0:
468,24,86462,6,0,P|434:49|346:31,1,123.75000377655,2|0,1:2|0:2,0:2:0:0:
283,67,86795,2,0,P|239:50|194:51,1,82.5000025177003,12|0,0:2|0:2,0:2:0:0:
76,124,87128,2,0,P|91:189|107:292,1,165.000005035401,0|8,1:2|0:2,0:2:0:0:
214,363,87628,5,2,0:2:0:0:
214,363,87712,1,0,0:2:0:0:
214,363,87795,1,0,1:2:0:0:
290,298,87962,1,8,0:2:0:0:
211,236,88128,2,0,P|223:154|241:73,1,165.000005035401,2|8,1:3|0:3,0:0:0:0:
367,9,88628,1,8,0:2:0:0:
387,11,88712,1,8,0:2:0:0:
407,14,88795,1,8,0:2:0:0:
428,17,88878,1,8,0:2:0:0:
448,20,88962,1,8,0:2:0:0:
469,23,89045,1,8,0:2:0:0:
489,26,89128,6,0,P|478:109|461:168,1,123.75000377655,2|0,1:2|0:2,0:2:0:0:
411,200,89462,2,0,P|372:208|323:224,1,82.5000025177003,12|0,0:2|0:2,0:2:0:0:
410,377,89795,2,0,P|449:369|498:353,1,82.5000025177003,0|0,1:2|0:2,0:2:0:0:
307,319,90128,2,0,P|267:306|227:298,1,82.5000025177003,8|0,0:2|0:2,0:2:0:0:
152,205,90462,5,2,1:2:0:0:
24,289,90628,1,8,0:2:0:0:
152,384,90795,2,0,P|143:342|129:304,1,82.5000025177003,2|0,1:3|0:2,0:0:0:0:
59,198,91128,1,8,0:2:0:0:
33,180,91212,1,8,0:2:0:0:
14,154,91295,1,8,0:2:0:0:
11,124,91378,1,8,0:2:0:0:
18,95,91462,2,0,L|64:82,3,41.2500012588501,8|8|4|4,0:3|0:3|0:3|0:3,0:0:0:0:
118,25,91795,6,0,P|157:56|226:41,1,123.75000377655,4|0,1:2|0:2,0:2:0:0:
297,81,92128,2,0,B|354:88|387:53|387:53|446:47|476:87,1,194.999991073609,12|0,0:1|1:2,0:2:0:0:
502,191,92628,1,0,1:2:0:0:
380,155,92795,1,8,0:2:0:0:
421,305,92962,5,0,1:2:0:0:
421,305,93045,1,0,1:2:0:0:
421,305,93128,2,0,P|458:301|506:276,1,82.5000025177003,2|0,1:2|1:2,0:2:0:0:
354,138,93462,1,8,2:2:0:0:
333,138,93545,1,8,2:2:0:0:
313,143,93628,1,8,2:2:0:0:
294,150,93712,1,8,2:2:0:0:
276,161,93795,2,0,P|239:157|191:132,1,82.5000025177003,8|4,2:3|2:3,0:0:0:0:
102,210,94128,1,8,2:2:0:0:
71,205,94212,1,8,2:2:0:0:
42,215,94295,1,8,2:2:0:0:
22,238,94378,1,8,2:2:0:0:
14,267,94462,6,0,P|76:317|163:292,1,150,4|8,1:1|0:2,0:2:0:0:
218,369,94962,1,2,0:2:0:0:
311,333,95128,2,0,L|318:248,1,75,0|0,1:2|1:2,0:2:0:0:
512,134,95462,5,10,0:2:0:0:
512,134,95628,2,0,P|450:184|363:159,1,150,0|0,1:2|1:2,0:2:0:0:
245,274,96128,2,0,P|280:262|328:259,1,75,10|0,0:2|0:2,0:2:0:0:
217,121,96462,2,0,P|254:117|289:105,1,75,0|0,1:2|1:2,0:2:0:0:
165,216,96795,2,0,B|134:220|134:220|119:210|119:210|88:216|40:188,1,112.5,8|0,0:2|0:2,0:2:0:0:
0,140,97128,6,0,P|8:63|80:25,1,150,6|8,1:2|0:2,0:2:0:0:
197,98,97628,1,2,0:2:0:0:
107,123,97795,1,0,1:2:0:0:
187,8,97962,1,0,1:2:0:0:
275,149,98128,5,10,0:2:0:0:
275,149,98295,2,0,B|287:319,1,150,0|0,1:2|1:2,0:2:0:0:
424,378,98795,2,0,P|393:376|344:354,1,75,10|0,0:2|0:2,0:2:0:0:
386,229,99128,2,0,P|417:231|466:253,1,75,0|0,1:2|1:2,0:0:0:0:
285,298,99462,2,0,P|250:312|213:316,1,75,8|0,0:2|0:2,0:2:0:0:
56,234,99795,6,0,P|43:135|31:59,1,150,4|8,1:2|0:2,0:2:0:0:
195,124,100295,1,2,0:2:0:0:
136,2,100462,2,0,P|127:41|121:92,1,75,0|0,1:2|1:2,0:2:0:0:
282,174,100795,5,10,0:2:0:0:
282,174,100962,2,0,P|359:161|443:153,1,150,0|0,1:2|1:2,0:2:0:0:
341,268,101462,2,0,P|332:300|327:345,1,75,10|0,0:2|0:2,0:2:0:0:
195,237,101795,1,0,1:2:0:0:
279,202,101962,1,0,1:2:0:0:
236,326,102128,1,8,0:2:0:0:
115,264,102295,5,0,1:2:0:0:
115,264,102378,1,0,1:2:0:0:
115,264,102462,2,0,B|102:202|151:165|151:165|137:107,1,150,4|8,1:2|0:2,0:2:0:0:
235,10,102962,1,2,1:2:0:0:
243,114,103128,1,8,0:2:0:0:
136,24,103295,1,0,1:2:0:0:
252,131,103462,2,0,P|263:164|264:223,1,75,12|0,0:2|0:2,0:2:0:0:
176,300,103795,5,8,0:2:0:0:
159,297,103878,1,8,0:2:0:0:
142,296,103962,1,8,0:2:0:0:
125,299,104045,1,8,0:2:0:0:
110,304,104128,2,0,P|43:317|-9:278,1,120,2|8,1:2|0:2,0:2:0:0:
74,159,104628,6,0,P|125:145|266:131,1,179.999994506836,4|0,1:2|0:2,0:2:0:0:
470,54,105128,6,0,P|391:54|317:15,1,150,4|8,1:1|0:2,0:2:0:0:
443,153,105628,1,2,0:2:0:0:
443,153,105712,1,0,0:2:0:0:
443,153,105795,2,0,P|459:191|460:243,1,75,0|0,1:2|1:2,0:2:0:0:
367,322,106128,2,0,P|299:291|224:292,1,150,10|0,0:2|1:2,0:2:0:0:
216,302,106795,6,0,P|137:302|63:263,1,150,10|0,0:2|1:2,0:2:0:0:
129,102,107295,1,0,1:2:0:0:
10,69,107462,1,8,0:2:0:0:
42,183,107628,1,0,0:2:0:0:
151,73,107795,6,0,B|212:65|212:65|254:94|306:79,1,150,6|8,1:2|0:2,0:2:0:0:
431,189,108295,2,0,B|370:180|370:180|328:209|276:194,1,150,2|0,0:2|1:2,0:2:0:0:
177,324,108795,2,0,B|237:315|237:315|279:344|331:329,1,150,10|0,0:2|1:2,0:2:0:0:
338,351,109462,6,0,P|345:275|362:200,1,150,10|0,0:2|1:2,0:2:0:0:
405,124,109962,1,0,1:2:0:0:
452,199,110128,1,8,0:2:0:0:
314,128,110295,5,8,2:2:0:0:
314,128,110378,1,8,2:2:0:0:
314,128,110462,2,0,B|236:106|248:149|157:118,1,150,4|8,1:2|0:2,0:2:0:0:
22,66,110962,1,2,0:2:0:0:
22,66,111128,2,0,P|65:60|103:46,1,75,0|0,1:2|1:2,0:2:0:0:
127,209,111462,5,10,0:2:0:0:
127,209,111628,2,0,P|42:231|15:303,1,150,0|0,1:2|1:2,0:2:0:0:
178,384,112128,2,0,P|184:326|193:283,1,75,10|0,0:2|0:2,0:0:0:0:
273,253,112462,1,0,1:2:0:0:
370,287,112628,1,0,1:2:0:0:
481,247,112795,6,0,P|488:283|491:315,1,56.2500021457673,4|0,0:3|0:2,0:2:0:0:
370,192,113128,5,12,0:2:0:0:
443,144,113295,1,0,1:2:0:0:
367,107,113462,1,0,1:2:0:0:
435,60,113628,5,12,0:1:0:0:
321,33,113795,1,0,1:2:0:0:
295,150,113962,1,0,1:2:0:0:
219,184,114128,5,10,0:2:0:0:
337,245,114295,1,0,1:2:0:0:
228,312,114462,1,0,1:2:0:0:
190,169,114628,6,0,B|208:122|186:81|186:81|211:9,1,150,12|0,0:2|1:2,0:2:0:0:
115,132,115128,2,0,P|79:146|28:148,1,75,8|0,0:2|0:2,0:2:0:0:
272,74,115462,1,8,0:2:0:0:
290,74,115545,1,8,0:2:0:0:
309,77,115628,1,8,0:2:0:0:
327,83,115712,1,8,0:2:0:0:
343,91,115795,6,0,P|350:132|364:179,1,82.5000025177003,4|0,1:2|0:2,0:2:0:0:
241,332,116128,2,0,P|234:291|220:244,1,82.5000025177003,8|0,0:2|1:2,0:2:0:0:
388,279,116462,1,2,0:2:0:0:
366,374,116628,1,0,1:2:0:0:
461,326,116795,1,8,0:2:0:0:
360,262,116962,1,0,0:2:0:0:
497,228,117128,6,0,P|504:148|479:65,1,165.000005035401,2|8,1:2|0:2,0:2:0:0:
315,147,117628,2,0,P|358:160|406:163,1,82.5000025177003,2|0,1:2|0:2,0:2:0:0:
390,11,117962,2,0,P|349:15|309:27,1,82.5000025177003,2|8,1:2|0:2,0:2:0:0:
192,98,118295,5,0,1:2:0:0:
192,98,118378,1,0,1:2:0:0:
192,98,118462,2,0,P|119:107|28:61,1,165.000005035401,2|8,1:2|0:2,0:2:0:0:
105,201,118962,2,0,P|79:204|-7:224,1,82.5000025177003,2|0,1:2|0:2,0:2:0:0:
201,312,119295,2,0,P|160:303|119:297,1,82.5000025177003,2|8,1:2|0:2,0:2:0:0:
285,186,119628,5,0,1:2:0:0:
285,186,119712,1,0,1:2:0:0:
285,186,119795,2,0,P|358:195|449:149,1,165.000005035401,2|8,1:2|0:2,0:2:0:0:
402,322,120295,1,2,1:2:0:0:
506,283,120462,1,0,0:2:0:0:
473,384,120628,1,0,1:2:0:0:
380,309,120795,1,8,0:2:0:0:
449,205,120962,5,0,1:2:0:0:
449,205,121045,1,0,1:2:0:0:
449,205,121128,2,0,P|456:130|402:43,1,165.000005035401,4|8,1:2|0:2,0:2:0:0:
263,121,121628,2,0,P|256:196|310:283,1,165.000005035401,2|2,1:2|1:2,0:2:0:0:
322,54,122128,2,0,P|272:35|206:33,1,82.5000025177003,8|0,0:2|0:2,0:2:0:0:
101,112,122462,6,0,P|60:118|22:134,1,82.5000025177003,2|0,1:2|1:2,0:0:0:0:
186,243,122795,2,0,P|136:224|70:222,1,82.5000025177003,8|0,0:2|1:2,0:0:0:0:
263,121,123128,1,2,0:2:0:0:
308,217,123295,1,0,1:2:0:0:
399,147,123462,1,8,0:2:0:0:
474,252,123628,5,0,1:2:0:0:
474,252,123712,1,0,1:2:0:0:
474,252,123795,2,0,L|486:370,1,82.5000025177003,2|0,1:2|0:2,0:2:0:0:
263,384,124128,2,0,L|271:301,1,82.5000025177003,8|0,0:2|1:2,0:2:0:0:
71,354,124462,1,2,0:2:0:0:
71,354,124628,2,0,P|115:354|158:334,1,82.5000025177003,0|8,1:2|0:2,0:2:0:0:
245,188,124962,5,0,1:2:0:0:
245,188,125045,1,0,1:2:0:0:
245,188,125128,1,4,1:2:0:0:
136,241,125295,1,0,1:2:0:0:
235,324,125462,2,0,P|224:290|209:259,1,56.2500021457673,8|0,0:2|0:2,0:2:0:0:
215,271,125962,5,8,0:2:0:0:
314,365,126128,2,0,P|394:370|465:304,1,157.499995193482,12|0,0:2|0:2,0:2:0:0:
491,257,126462,6,0,P|497:213|512:156,1,82.5000025177003,4|0,1:2|0:2,0:2:0:0:
337,60,126795,1,8,0:2:0:0:
477,13,126962,1,0,1:2:0:0:
434,153,127128,2,0,P|428:112|419:71,1,82.5000025177003,2|0,0:2|1:2,0:2:0:0:
290,195,127462,2,0,P|331:199|377:211,1,82.5000025177003,8|0,0:2|0:2,0:2:0:0:
249,66,127795,6,0,B|217:91|172:89|172:89|146:59|97:52,1,165.000005035401,2|8,1:2|0:2,0:2:0:0:
2,155,128295,1,2,1:2:0:0:
130,221,128462,1,0,0:2:0:0:
98,135,128628,1,0,1:2:0:0:
27,251,128795,1,8,0:2:0:0:
109,331,128962,5,0,1:2:0:0:
109,331,129045,1,0,1:2:0:0:
109,331,129128,2,0,P|172:343|271:300,1,165.000005035401,2|8,1:2|0:2,0:2:0:0:
382,153,129628,2,0,B|378:109|348:78|348:78|361:27|411:37,1,165.000005035401,2|0,1:2|1:2,0:2:0:0:
289,147,130128,2,0,P|233:143|193:116,1,82.5000025177003,8|0,0:2|0:2,0:2:0:0:
0,97,130462,5,2,1:2:0:0:
0,97,130628,1,0,1:2:0:0:
97,49,130795,1,8,0:2:0:0:
65,197,130962,2,0,P|145:207|208:151,1,165.000005035401,2|0,1:2|1:2,0:2:0:0:
293,79,131462,1,8,0:2:0:0:
419,164,131628,5,0,1:2:0:0:
419,164,131712,1,0,1:2:0:0:
419,164,131795,2,0,P|450:234|425:330,1,165.000005035401,6|8,1:2|0:2,0:2:0:0:
307,379,132295,2,0,P|230:365|124:357,1,165.000005035401,2|0,1:2|1:2,0:2:0:0:
83,242,132795,2,0,P|42:251|1:254,1,82.5000025177003,8|0,0:2|0:2,0:2:0:0:
189,85,133128,5,2,1:2:0:0:
91,28,133295,1,0,1:2:0:0:
83,137,133462,1,8,0:2:0:0:
203,66,133628,2,0,B|239:37|290:51|290:51|315:81|367:79,1,165.000005035401,2|0,1:2|1:2,0:2:0:0:
432,169,134128,2,0,P|472:174|512:185,1,82.5000025177003,8|0,0:2|0:2,0:2:0:0:
324,301,134462,6,0,P|397:318|458:260,1,165.000005035401,4|8,1:2|0:2,0:2:0:0:
355,79,134962,2,0,P|370:134|377:263,1,165.000005035401,2|0,1:2|1:2,0:2:0:0:
281,377,135462,1,8,0:2:0:0:
147,257,135628,5,2,0:2:0:0:
117,353,135795,1,0,1:2:0:0:
214,323,135962,1,0,1:2:0:0:
122,236,136128,1,12,0:2:0:0:
224,174,136295,5,8,0:2:0:0:
224,174,136378,1,8,0:2:0:0:
224,174,136462,1,8,0:2:0:0:
143,106,136628,5,8,0:3:0:0:
178,25,136795,5,4,0:3:0:0:
260,23,136962,5,4,0:3:0:0:
313,76,137128,6,0,P|385:106|475:-7,1,225.000008583069,4|2,1:2|0:3,0:2:0:0:
483,33,138462,2,0,P|422:120|319:96,1,225.000008583069,4|2,1:2|0:3,0:2:0:0:
323,114,139795,2,0,P|427:138|488:52,1,225.000008583069,4|2,1:2|0:3,0:2:0:0:
244,140,141128,6,0,P|214:127|185:125,1,56.2500021457673,4|0,1:2|0:2,0:2:0:0:
129,169,141462,2,0,P|152:255|152:294,1,112.500004291535,4|0,1:2|0:2,0:2:0:0:
122,369,142462,5,6,1:2:0:0:
23,237,151795,6,0,P|17:284|10:317,1,75,2|0,0:2|0:2,0:2:0:0:
104,375,152462,2,0,P|110:328|117:295,1,75,2|0,0:2|0:2,0:2:0:0:
217,234,153128,6,0,P|276:247|319:229,1,89.9999972534181,2|0,1:2|3:2,0:2:0:0:
373,260,153628,1,0,3:2:0:0:
425,207,153795,2,0,L|417:158,1,44.999998626709,0|0,1:2|0:2,0:2:0:0:
443,93,154128,2,0,L|439:68,3,22.4999993133545,0|0|0|0,3:2|3:2|3:2|3:2,2:2:0:0:
429,53,154462,6,0,P|386:39|342:48,1,89.9999972534181,2|0,1:2|3:2,0:2:0:0:
269,38,154962,1,0,3:2:0:0:
228,99,155128,2,0,L|237:150,1,44.999998626709,0|0,3:2|3:2,0:0:0:0:
214,214,155462,2,0,L|223:265,1,44.999998626709,0|0,3:2|3:2,0:0:0:0:
171,345,155795,6,0,P|127:345|89:330,1,59.9999981689454,2|0,1:2|0:0,0:2:0:0:
86,355,156128,2,0,L|77:389,2,29.9999990844727,0|0|0,3:2|3:2|3:2,0:0:0:0:
52,288,156462,2,0,L|59:243,1,44.999998626709,0|0,1:2|0:2,0:2:0:0:
30,174,156795,2,0,L|39:123,1,44.999998626709,0|0,3:2|0:2,0:2:0:0:
95,50,157128,6,0,P|137:64|197:50,1,89.9999972534181,2|0,1:2|3:2,0:2:0:0:
247,24,157628,1,0,3:2:0:0:
291,83,157795,2,0,L|275:189,1,89.9999972534181,2|0,1:3|3:2,0:2:0:0:
317,234,158295,1,0,3:2:0:0:
413,205,158462,6,0,L|426:116,1,89.9999972534181,2|0,1:2|0:2,0:2:0:0:
386,53,158962,1,0,0:2:0:0:
316,78,159128,2,0,P|282:74|255:61,1,44.999998626709,0|0,1:2|0:2,0:2:0:0:
197,76,159462,2,0,P|179:71|157:65,3,22.4999993133545,0|0|0|0,3:2|3:2|3:2|3:2,0:2:0:0:
154,86,159795,6,0,P|109:92|67:78,1,89.9999972534181,2|0,1:2|3:2,0:2:0:0:
2,113,160295,1,0,3:2:0:0:
22,184,160462,2,0,L|24:238,1,44.999998626709,0|0,3:2|3:2,0:0:0:0:
71,285,160795,2,0,P|99:284|122:276,1,44.999998626709,0|0,3:2|3:2,0:0:0:0:
185,341,161128,6,0,P|222:343|273:384,1,89.9999972534181,2|0,1:2|1:2,0:2:0:0:
391,265,161795,2,0,P|435:260|471:234,1,89.9999972534181,2|0,1:2|1:2,0:2:0:0:
287,126,162462,6,0,P|276:84|262:56,1,60,2|0,1:2|0:2,0:2:0:0:
202,26,162795,2,0,P|171:40|74:40,1,120,2|0,1:2|0:2,0:2:0:0:
0,228,164128,6,0,P|43:214|92:210,1,82.5000025177003,12|0,0:1|0:2,0:2:0:0:
203,131,164462,5,8,0:2:0:0:
218,135,164545,1,8,0:2:0:0:
235,135,164628,1,8,0:2:0:0:
251,130,164712,1,8,0:2:0:0:
263,122,164795,1,8,0:2:0:0:
275,110,164878,1,8,0:2:0:0:
283,95,164962,1,8,0:2:0:0:
291,79,165045,1,8,0:2:0:0:
302,67,165128,1,8,0:2:0:0:
316,59,165212,1,8,0:2:0:0:
332,55,165295,1,8,0:2:0:0:
348,55,165378,1,8,0:2:0:0:
364,59,165462,2,0,P|374:81|379:110,3,41.2500012588501,8|8|8|8,0:2|0:2|0:2|0:2,0:0:0:0:
454,103,165795,2,0,P|449:126|436:153,3,41.2500012588501,4|4|8|8,0:3|0:3|0:2|0:2,0:0:0:0:
500,191,166128,2,0,P|482:207|456:221,3,41.2500012588501,8|8|4|4,0:3|0:3|0:3|0:3,0:0:0:0:
417,278,166462,6,0,P|362:255|283:261,1,112.5,4|0,1:2|0:2,0:2:0:0:
230,303,166795,6,0,B|204:356|204:356|116:381|58:322,1,209.999993591309,12|0,0:1|1:2,0:2:0:0:
91,175,167295,1,0,1:2:0:0:
0,218,167462,1,8,0:2:0:0:
112,160,167628,6,0,P|134:107|89:1,1,165.000005035401,2|0,1:2|1:2,0:2:0:0:
298,138,168128,2,0,P|262:124|192:111,1,82.5000025177003,8|2,0:2|0:2,0:0:0:0:
373,16,168462,1,0,1:2:0:0:
440,101,168628,1,2,1:2:0:0:
480,1,168795,1,8,0:2:0:0:
439,138,168962,5,0,1:2:0:0:
439,138,169045,1,0,1:2:0:0:
439,138,169128,2,0,P|453:250|475:324,1,165.000005035401,4|8,1:2|0:2,0:2:0:0:
297,382,169628,1,2,0:2:0:0:
338,255,169795,1,0,1:2:0:0:
380,341,169962,1,0,1:2:0:0:
255,302,170128,1,8,0:2:0:0:
349,237,170295,6,0,P|335:125|313:51,1,165.000005035401,2|0,1:2|1:2,0:2:0:0:
135,101,170795,2,0,P|140:60|148:19,1,82.5000025177003,8|0,0:2|0:2,0:2:0:0:
232,76,171128,1,2,1:2:0:0:
45,109,171295,1,0,1:2:0:0:
196,161,171462,1,8,0:2:0:0:
196,161,171628,1,0,0:2:0:0:
81,260,171795,6,0,P|175:280|235:217,2,165.000005035401,4|8|0,1:2|0:2|1:2,0:2:0:0:
111,87,172628,1,0,1:2:0:0:
5,142,172795,1,8,0:2:0:0:
145,204,172962,6,0,P|232:193|320:184,1,165.000005035401,4|0,1:2|1:2,0:2:0:0:
426,352,173462,2,0,P|468:347|516:342,1,82.5000025177003,8|0,0:2|0:2,0:2:0:0:
343,289,173795,1,8,0:3:0:0:
331,306,173878,1,8,0:3:0:0:
317,320,173962,1,4,0:3:0:0:
299,331,174045,1,4,0:3:0:0:
279,337,174128,1,8,0:2:0:0:
259,339,174212,1,8,0:2:0:0:
239,336,174295,1,8,0:2:0:0:
219,329,174378,1,8,0:2:0:0:
202,317,174462,6,0,L|183:212,1,75,2|0,1:2|0:2,0:2:0:0:
132,67,174795,6,0,P|60:81|8:183,1,194.999991073609,12|0,0:2|1:2,0:2:0:0:
119,319,175295,1,0,1:2:0:0:
30,371,175462,1,8,0:2:0:0:
92,226,175628,6,0,P|157:208|272:194,1,165.000005035401,2|0,1:2|1:2,0:2:0:0:
386,121,176128,1,8,0:2:0:0:
449,288,176295,2,0,P|374:310|302:237,1,165.000005035401,2|0,0:2|1:2,0:2:0:0:
465,182,176795,1,8,0:2:0:0:
375,147,176962,5,0,1:2:0:0:
375,147,177045,1,0,1:2:0:0:
375,147,177128,2,0,P|383:186|391:251,1,82.5000025177003,4|0,1:2|0:2,0:2:0:0:
186,90,177462,2,0,P|233:101|326:17,1,165.000005035401,8|2,0:2|1:2,0:2:0:0:
479,100,177962,1,0,1:2:0:0:
433,0,178128,1,8,0:2:0:0:
375,147,178295,6,0,P|384:218|401:330,1,165.000005035401,2|0,1:2|1:2,0:2:0:0:
221,384,178795,2,0,P|215:343|208:303,1,82.5000025177003,8|0,0:2|0:2,0:0:0:0:
49,187,179128,1,2,1:2:0:0:
20,288,179295,1,0,1:2:0:0:
136,239,179462,1,8,0:2:0:0:
34,157,179628,1,0,0:2:0:0:
136,75,179795,6,0,P|225:66|301:24,1,165.000005035401,4|8,1:2|0:2,0:2:0:0:
374,139,180295,1,2,0:2:0:0:
488,76,180462,2,0,P|442:66|398:61,1,82.5000025177003,0|0,1:2|1:2,0:2:0:0:
383,230,180795,2,0,P|428:239|472:244,1,82.5000025177003,8|0,0:2|1:2,0:2:0:0:
258,110,181128,5,2,0:2:0:0:
182,220,181295,1,0,1:2:0:0:
265,260,181462,1,8,0:2:0:0:
177,134,181628,2,0,P|141:145|81:174,1,82.5000025177003,2|0,0:2|1:2,0:2:0:0:
87,315,181962,1,0,1:2:0:0:
6,248,182128,1,12,0:2:0:0:
189,226,182295,5,8,0:3:0:0:
189,226,182378,1,8,0:3:0:0:
189,226,182462,2,0,L|178:321,1,67.4999979400635,4|0,1:2|0:0,0:2:0:0:
397,382,182795,6,0,P|361:274|259:272,1,209.999993591309,12|0,0:1|1:2,0:2:0:0:
143,202,183295,1,0,1:2:0:0:
181,293,183462,1,8,0:2:0:0:
241,168,183628,6,0,P|231:90|223:-5,1,165.000005035401,4|0,1:2|1:2,0:2:0:0:
449,83,184128,1,8,0:2:0:0:
332,108,184295,1,2,0:2:0:0:
370,0,184462,1,4,1:2:0:0:
460,97,184628,1,8,0:2:0:0:
465,118,184712,1,8,0:2:0:0:
468,139,184795,1,8,0:2:0:0:
468,161,184878,1,8,0:2:0:0:
464,183,184962,1,8,0:2:0:0:
457,204,185045,1,8,0:2:0:0:
447,223,185128,6,0,B|423:226|423:226|405:213|405:213|373:215|325:190,1,112.5,2|0,1:2|0:2,0:2:0:0:
266,232,185462,6,0,B|160:192|185:282|78:246,1,194.999991073609,12|0,0:2|1:2,0:2:0:0:
5,129,185962,1,0,1:2:0:0:
117,165,186128,1,8,0:2:0:0:
55,328,186295,5,0,1:2:0:0:
55,328,186378,1,0,1:2:0:0:
55,328,186462,2,0,P|94:327|153:300,1,82.5000025177003,2|0,1:2|0:2,0:2:0:0:
271,217,186795,2,0,P|246:302|256:415,2,165.000005035401,12|0|8,0:2|1:2|0:2,0:2:0:0:
415,115,187628,5,2,0:2:0:0:
377,240,187795,1,4,1:2:0:0:
421,95,187962,1,0,0:2:0:0:
499,259,188128,2,0,P|486:206|470:164,1,82.5000025177003,8|0,0:2|0:2,0:0:0:0:
247,64,188462,5,2,1:2:0:0:
307,167,188628,1,0,0:2:0:0:
356,10,188795,1,8,0:2:0:0:
223,76,188962,1,0,0:2:0:0:
388,119,189128,5,2,1:2:0:0:
388,119,189295,2,0,P|429:106|474:100,1,82.5000025177003,0|8,0:2|0:2,0:0:0:0:
314,285,189628,2,0,P|354:291|393:303,1,82.5000025177003,2|0,0:2|1:2,0:2:0:0:
245,152,189962,1,2,0:2:0:0:
245,152,190128,2,0,B|222:154|222:154|199:139|199:139|161:144|115:121,1,123.75000377655,8|0,0:2|0:0,0:2:0:0:
43,165,190462,6,0,P|8:217|38:324,1,165.000005035401,4|8,1:2|0:2,0:2:0:0:
245,306,190962,1,2,0:2:0:0:
164,379,191128,1,0,1:2:0:0:
141,275,191295,2,0,P|149:231|165:178,1,82.5000025177003,0|8,0:2|0:2,0:0:0:0:
405,177,191628,5,2,2:2:0:0:
405,177,191712,1,0,2:2:0:0:
405,177,191795,2,0,P|397:133|381:80,1,82.5000025177003,0|0,1:2|0:2,0:2:0:0:
275,214,192128,2,0,P|282:279|305:400,2,165.000005035401,10|0|8,0:2|1:2|0:2,0:2:0:0:
179,62,192962,5,2,0:2:0:0:
300,77,193128,1,4,1:2:0:0:
209,148,193295,1,0,0:2:0:0:
254,8,193462,1,8,0:2:0:0:
156,77,193628,5,2,0:2:0:0:
156,77,193712,1,0,0:2:0:0:
156,77,193795,2,0,P|115:73|53:47,1,82.5000025177003,0|0,1:2|0:2,0:2:0:0:
253,233,194128,2,0,P|238:182|233:142,1,82.5000025177003,8|0,0:2|0:2,0:2:0:0:
381,12,194462,5,2,1:2:0:0:
486,57,194628,1,8,0:2:0:0:
389,163,194795,2,0,P|439:178|489:128,1,112.500004291535,8|4,0:3|0:3,0:2:0:0:
340,248,195295,1,8,0:2:0:0:
320,238,195378,1,8,0:2:0:0:
299,231,195462,1,8,0:2:0:0:
278,226,195545,1,8,0:2:0:0:
256,223,195628,1,8,0:2:0:0:
234,223,195712,1,8,0:2:0:0:
212,226,195795,6,0,P|169:236|99:215,1,112.5,2|0,1:2|0:0,0:2:0:0:
29,182,196128,6,0,P|9:236|2:384,2,194.999991073609,12|0|8,0:2|1:2|0:2,0:2:0:0:
136,45,196962,5,0,1:2:0:0:
136,45,197045,1,0,1:2:0:0:
136,45,197128,2,0,P|181:40|238:21,1,82.5000025177003,2|8,1:2|0:2,0:0:0:0:
315,159,197462,2,0,P|270:154|213:135,1,82.5000025177003,2|2,1:3|0:2,0:0:0:0:
395,54,197795,1,8,0:3:0:0:
463,147,197962,1,8,0:2:0:0:
467,167,198045,1,8,0:2:0:0:
469,187,198128,1,8,0:2:0:0:
469,208,198212,1,8,0:2:0:0:
466,228,198295,1,8,0:2:0:0:
461,248,198378,1,8,0:2:0:0:
453,267,198462,6,0,P|409:271|342:247,1,112.5,2|0,1:2|0:2,0:2:0:0:
265,278,198795,6,0,B|214:228|126:239|126:239|187:307,1,194.999991073609,12|0,0:2|1:2,0:2:0:0:
280,365,199295,1,0,1:2:0:0:
331,223,199462,1,8,0:2:0:0:
164,280,199628,5,0,1:2:0:0:
164,280,199712,1,0,1:2:0:0:
164,280,199795,2,0,P|124:293|57:291,1,82.5000025177003,0|8,1:2|0:2,0:2:0:0:
85,113,200128,2,0,P|43:115|4:128,1,82.5000025177003,2|0,1:3|0:2,0:2:0:0:
191,176,200462,5,8,0:2:0:0:
192,160,200545,1,8,0:2:0:0:
194,145,200628,1,8,0:2:0:0:
196,129,200712,1,8,0:2:0:0:
198,114,200795,1,8,0:3:0:0:
200,99,200878,1,8,0:3:0:0:
202,83,200962,1,4,0:3:0:0:
204,68,201045,1,4,0:3:0:0:
206,53,201128,6,0,P|249:39|305:31,1,75,4|0,1:2|0:2,0:2:0:0:
486,77,201462,6,0,P|508:141|502:207,1,104.999996795654,12|0,0:1|0:0,0:2:0:0:
457,292,201795,2,0,P|420:281|363:274,1,82.5000025177003,2|0,0:2|1:2,0:2:0:0:
376,274,202045,1,2,0:2:0:0:
376,274,202128,1,8,0:2:0:0:
315,360,202295,1,0,1:2:0:0:
230,247,202462,5,2,0:2:0:0:
329,188,202628,1,0,1:2:0:0:
293,341,202795,1,12,0:2:0:0:
200,233,202962,1,0,0:2:0:0:
349,164,203128,1,8,0:2:0:0:
366,175,203212,1,8,0:2:0:0:
386,180,203295,1,8,0:2:0:0:
406,179,203378,1,8,0:2:0:0:
425,172,203462,1,8,0:2:0:0:
441,159,203545,1,8,0:2:0:0:
452,141,203628,1,8,0:2:0:0:
458,122,203712,1,8,0:2:0:0:
456,101,203795,6,0,P|411:83|346:82,1,93.75,4|0,1:1|0:2,0:2:0:0:
284,225,204128,2,0,P|237:220|194:203,1,93.75,8|0,0:2|0:2,0:2:0:0:
60,81,204462,5,10,0:2:0:0:
140,27,204628,1,0,1:2:0:0:
38,96,204795,1,8,0:2:0:0:
153,131,204962,1,0,1:2:0:0:
14,115,205128,6,0,P|8:179|38:314,1,187.5,10|8,0:2|0:2,0:2:0:0:
203,341,205628,1,2,1:2:0:0:
111,382,205795,1,8,0:2:0:0:
153,259,205962,1,0,1:2:0:0:
230,357,206128,1,8,0:2:0:0:
281,249,206295,5,0,1:2:0:0:
281,249,206378,1,0,1:2:0:0:
281,249,206462,2,0,B|307:178|259:126|259:126|286:45,1,187.5,12|8,0:2|0:2,0:2:0:0:
205,207,206962,2,0,P|174:222|106:227,1,93.75,2|8,1:2|0:2,0:2:0:0:
354,108,207295,5,2,1:2:0:0:
473,138,207462,1,8,0:2:0:0:
441,34,207628,1,0,1:2:0:0:
337,123,207795,6,0,P|350:214|372:330,1,187.5,10|8,0:2|0:2,0:2:0:0:
194,384,208295,1,2,1:2:0:0:
235,251,208462,1,8,0:2:0:0:
280,336,208628,1,0,1:2:0:0:
149,305,208795,1,8,0:2:0:0:
248,221,208962,5,0,1:2:0:0:
248,221,209045,1,0,1:2:0:0:
248,221,209128,2,0,P|205:204|144:192,1,93.75,12|0,0:2|0:2,0:2:0:0:
338,64,209462,2,0,P|295:47|234:35,1,93.75,8|0,0:2|0:2,0:2:0:0:
400,183,209795,5,10,0:2:0:0:
512,159,209962,1,0,1:2:0:0:
438,98,210128,1,8,0:2:0:0:
471,241,210295,1,0,1:2:0:0:
374,164,210462,6,0,B|336:132|284:145|284:145|238:178|177:148,1,187.5,10|8,0:2|0:2,0:2:0:0:
65,108,210962,1,2,1:2:0:0:
156,62,211128,1,8,0:2:0:0:
104,203,211295,1,0,1:2:0:0:
196,156,211462,1,8,0:2:0:0:
38,107,211628,5,0,1:2:0:0:
38,107,211712,1,0,1:2:0:0:
38,107,211795,2,0,P|-8:186|19:296,1,187.5,12|8,0:2|0:2,0:2:0:0:
123,383,212295,2,0,L|141:276,1,93.75,2|8,1:2|0:2,0:2:0:0:
328,261,212628,1,2,1:2:0:0:
244,143,212795,2,0,L|228:235,1,93.75,12|0,0:2|1:2,0:0:0:0:
300,351,213128,5,8,0:2:0:0:
322,357,213212,1,8,0:2:0:0:
345,357,213295,1,8,0:2:0:0:
367,352,213378,1,8,0:2:0:0:
386,340,213462,2,0,B|388:290|415:286|414:212,1,112.500004291535,2|8,1:2|0:2,0:2:0:0:
348,143,213962,6,0,P|409:119|472:135,1,112.500004291535,4|0,1:2|0:2,0:2:0:0:
276,218,214462,6,0,P|265:167|244:124,1,93.75,4|0,1:1|0:2,0:2:0:0:
79,296,214795,2,0,P|90:347|111:390,1,93.75,8|0,0:2|0:2,0:2:0:0:
152,206,215128,5,10,0:2:0:0:
42,173,215295,1,0,1:2:0:0:
166,224,215462,1,8,0:2:0:0:
128,102,215628,1,0,1:2:0:0:
180,241,215795,6,0,P|302:272|367:233,1,187.5,10|8,0:2|0:2,0:2:0:0:
491,298,216295,1,2,1:2:0:0:
450,199,216462,1,8,0:2:0:0:
389,345,216628,1,0,1:2:0:0:
507,318,216795,1,8,0:2:0:0:
426,193,216962,5,0,1:2:0:0:
426,193,217045,1,0,1:2:0:0:
426,193,217128,2,0,B|366:126|421:49|421:49|472:74,1,187.5,12|8,0:2|0:2,0:2:0:0:
326,204,217628,2,0,P|285:226|239:229,1,93.75,2|8,1:2|0:2,0:2:0:0:
11,159,217962,5,2,1:2:0:0:
128,113,218128,1,8,0:2:0:0:
37,39,218295,1,0,1:2:0:0:
146,127,218462,6,0,B|189:159|246:137|246:137|264:85|307:81,1,187.5,10|8,2:2|0:2,0:2:0:0:
444,126,218962,1,2,1:2:0:0:
393,18,219128,1,8,0:2:0:0:
347,176,219295,1,0,1:2:0:0:
460,114,219462,1,8,0:2:0:0:
286,76,219628,5,0,1:2:0:0:
286,76,219712,1,0,1:2:0:0:
286,76,219795,2,0,P|232:77|188:87,1,93.75,12|0,0:2|0:2,0:2:0:0:
122,261,220128,2,0,P|76:270|29:270,1,93.75,8|0,0:2|0:2,0:2:0:0:
224,195,220462,5,10,0:2:0:0:
125,169,220628,1,0,1:2:0:0:
207,300,220795,1,8,0:2:0:0:
246,172,220962,1,0,1:2:0:0:
308,346,221128,6,0,P|368:355|490:294,1,187.5,10|8,0:2|0:2,0:2:0:0:
367,152,221628,1,2,1:2:0:0:
506,186,221795,1,8,0:2:0:0:
391,263,221962,1,0,1:2:0:0:
458,103,222128,1,8,0:2:0:0:
333,51,222295,5,0,1:2:0:0:
333,51,222378,1,0,1:2:0:0:
333,51,222462,2,0,B|265:31|277:65|206:49,1,120,12|0,0:2|0:2,0:2:0:0:
157,110,222962,2,0,P|100:99|41:149,1,120,8|0,0:3|1:2,0:2:0:0:
0,189,223462,2,0,L|7:256,1,60,12|0,0:2|0:2,0:2:0:0:
106,338,223795,5,2,1:2:0:0:
205,293,223962,1,0,1:2:0:0:
180,377,224128,1,8,0:2:0:0:
134,256,224295,5,8,0:2:0:0:
134,256,224378,1,8,0:2:0:0:
134,256,224462,1,8,0:2:0:0:
218,301,224628,5,8,0:3:0:0:
295,248,224795,5,4,0:3:0:0:
297,169,224962,5,4,0:3:0:0:
235,124,225128,6,0,P|184:122|137:148,1,89.9999972534181,4|0,1:2|0:2,0:2:0:0:
111,201,225628,2,0,L|130:300,1,89.9999972534181,8|0,0:2|1:2,0:2:0:0:
179,342,226128,1,8,0:2:0:0:
314,282,226462,6,0,L|411:291,1,89.9999972534181,4|0,1:2|0:2,0:2:0:0:
469,257,226962,2,0,P|481:210|476:155,1,89.9999972534181,8|0,0:2|1:2,0:2:0:0:
430,113,227462,1,8,0:2:0:0:
305,190,227795,6,0,L|208:199,1,89.9999972534181,4|0,1:2|0:2,0:2:0:0:
162,249,228295,2,0,L|65:258,1,89.9999972534181,8|0,0:2|1:2,0:2:0:0:
7,221,228795,1,8,0:2:0:0:
118,151,229128,6,0,L|127:58,1,89.9999972534181,4|0,1:2|0:2,0:2:0:0:
225,90,229628,2,0,L|216:179,1,89.9999972534181,8|0,0:2|0:2,0:2:0:0:
283,272,230128,5,10,0:2:0:0:
174,300,230295,1,8,0:2:0:0:
