osu file format v14

[General]
AudioFilename: audio.mp3
AudioLeadIn: 0
PreviewTime: 105802
Countdown: 0
SampleSet: Normal
StackLeniency: 0.7
Mode: 1
LetterboxInBreaks: 0
WidescreenStoryboard: 0

[Editor]
DistanceSpacing: 1
BeatDivisor: 4
GridSize: 8
TimelineZoom: 2.4

[Metadata]
Title:Nekomatsuri
TitleUnicode:猫祭り
Artist:Hakobe Naru(CV:M.A.O)
ArtistUnicode:箱部なる(CV:M・A・O)
Creator:komasy
Version:tasuke's Inner Oni
Source:CHUNITHM AIR PLUS
Tags:チュウニズム イロドリミドリ CHUNITHM Irodorimidori ヒゲドライバー Hige Driver Tes. 市道真央 Ichimichi Mao SEGA セガ butter0414 tasuke912
BeatmapID:1397122
BeatmapSetID:659442

[Difficulty]
HPDrainRate:5
CircleSize:2
OverallDifficulty:6
ApproachRate:5
SliderMultiplier:1.4
SliderTickRate:1

[Events]
//Background and Video events
0,0,"BG.jpg",0,80
//Break Periods
//Storyboard Layer 0 (Background)
//Storyboard Layer 1 (Fail)
//Storyboard Layer 2 (Pass)
//Storyboard Layer 3 (Foreground)
//Storyboard Sound Samples

[TimingPoints]
896,375,4,1,0,90,1,0
27896,-111.111111111111,4,1,0,90,0,0
39521,-108.695652173913,4,1,0,90,0,0
39614,-106.382978723404,4,1,0,90,0,0
39708,-104.166666666667,4,1,0,90,0,0
39802,-102.040816326531,4,1,0,90,0,0
39896,-100,4,1,0,90,0,0
39989,-100,4,1,0,80,0,0
42146,-100,4,1,0,90,0,0
42896,-100,4,1,0,90,0,1
54896,-86.9565217391304,4,1,0,90,0,1
66896,-100,4,1,0,90,0,0
78896,-100,4,1,0,90,0,0
90896,-111.111111111111,4,1,0,90,0,0
102521,-108.695652173913,4,1,0,90,0,0
102614,-106.382978723404,4,1,0,90,0,0
102708,-104.166666666667,4,1,0,90,0,0
102802,-102.040816326531,4,1,0,90,0,0
102896,-100,4,1,0,90,0,0
102989,-100,4,1,0,80,0,0
105052,-100,4,1,0,90,0,0
105896,-100,4,1,0,90,0,1
117896,-80,4,1,0,90,0,1
129896,-100,4,1,0,90,0,0

[HitObjects]
256,192,3896,5,4,0:0:0:0:
256,192,4177,1,0,0:0:0:0:
256,192,4271,1,2,0:0:0:0:
256,192,4458,1,2,0:0:0:0:
256,192,4646,1,0,0:0:0:0:
256,192,4833,1,2,0:0:0:0:
256,192,4927,1,2,0:0:0:0:
256,192,5021,1,0,0:0:0:0:
256,192,5208,1,2,0:0:0:0:
256,192,5396,1,0,0:0:0:0:
256,192,5583,1,0,0:0:0:0:
256,192,5771,1,2,0:0:0:0:
256,192,5958,1,0,0:0:0:0:
256,192,6052,1,0,0:0:0:0:
256,192,6146,1,0,0:0:0:0:
256,192,6333,1,0,0:0:0:0:
256,192,6521,1,2,0:0:0:0:
256,192,6708,1,2,0:0:0:0:
256,192,6896,1,0,0:0:0:0:
256,192,7177,1,0,0:0:0:0:
256,192,7271,1,2,0:0:0:0:
256,192,7458,1,0,0:0:0:0:
256,192,7646,1,2,0:0:0:0:
256,192,7833,1,2,0:0:0:0:
256,192,7927,1,2,0:0:0:0:
256,192,8021,1,0,0:0:0:0:
256,192,8208,1,2,0:0:0:0:
256,192,8396,1,0,0:0:0:0:
256,192,8583,1,2,0:0:0:0:
256,192,8677,1,0,0:0:0:0:
256,192,8771,1,0,0:0:0:0:
256,192,8958,1,2,0:0:0:0:
256,192,9146,1,0,0:0:0:0:
256,192,9333,1,0,0:0:0:0:
256,192,9427,1,0,0:0:0:0:
256,192,9521,1,2,0:0:0:0:
256,192,9708,1,2,0:0:0:0:
256,192,9896,5,0,0:0:0:0:
256,192,10177,1,0,0:0:0:0:
256,192,10271,1,2,0:0:0:0:
256,192,10458,1,2,0:0:0:0:
256,192,10646,1,0,0:0:0:0:
256,192,10833,1,2,0:0:0:0:
256,192,10927,1,2,0:0:0:0:
256,192,11021,1,0,0:0:0:0:
256,192,11208,1,2,0:0:0:0:
256,192,11396,1,0,0:0:0:0:
256,192,11583,1,2,0:0:0:0:
256,192,11677,1,0,0:0:0:0:
256,192,11771,1,0,0:0:0:0:
256,192,11958,1,2,0:0:0:0:
256,192,12146,1,0,0:0:0:0:
256,192,12239,1,2,0:0:0:0:
256,192,12427,1,2,0:0:0:0:
256,192,12521,1,0,0:0:0:0:
256,192,12614,1,0,0:0:0:0:
256,192,12708,1,2,0:0:0:0:
256,192,12802,1,2,0:0:0:0:
256,192,12896,1,0,0:0:0:0:
256,192,13083,1,2,0:0:0:0:
256,192,13177,1,2,0:0:0:0:
256,192,13364,1,2,0:0:0:0:
256,192,13458,1,2,0:0:0:0:
256,192,13552,1,2,0:0:0:0:
256,192,13646,1,0,0:0:0:0:
256,192,13833,1,2,0:0:0:0:
256,192,13927,1,2,0:0:0:0:
256,192,14114,1,0,0:0:0:0:
256,192,14208,1,2,0:0:0:0:
256,192,14302,1,2,0:0:0:0:
256,192,14396,1,0,0:0:0:0:
256,192,14583,1,2,0:0:0:0:
256,192,14677,1,0,0:0:0:0:
256,192,14771,1,0,0:0:0:0:
256,192,14958,1,2,0:0:0:0:
256,192,15146,1,0,0:0:0:0:
256,192,15521,1,6,0:0:0:0:
256,192,15896,5,0,0:0:0:0:
256,192,16083,1,2,0:0:0:0:
256,192,16271,1,0,0:0:0:0:
256,192,16458,1,2,0:0:0:0:
256,192,16646,1,0,0:0:0:0:
256,192,16739,1,2,0:0:0:0:
256,192,16833,1,2,0:0:0:0:
256,192,17021,1,0,0:0:0:0:
256,192,17208,1,2,0:0:0:0:
256,192,17302,1,2,0:0:0:0:
256,192,17396,1,0,0:0:0:0:
256,192,17583,1,2,0:0:0:0:
256,192,17771,1,0,0:0:0:0:
256,192,17864,1,2,0:0:0:0:
256,192,18052,1,2,0:0:0:0:
256,192,18146,1,0,0:0:0:0:
256,192,18333,1,0,0:0:0:0:
256,192,18427,1,0,0:0:0:0:
256,192,18521,1,2,0:0:0:0:
256,192,18708,1,2,0:0:0:0:
256,192,18896,1,0,0:0:0:0:
256,192,19083,1,2,0:0:0:0:
256,192,19271,1,0,0:0:0:0:
256,192,19364,1,0,0:0:0:0:
256,192,19458,1,2,0:0:0:0:
256,192,19646,1,0,0:0:0:0:
256,192,19833,1,2,0:0:0:0:
256,192,19927,1,2,0:0:0:0:
256,192,20021,1,0,0:0:0:0:
256,192,20208,1,2,0:0:0:0:
256,192,20396,1,4,0:0:0:0:
256,192,20771,1,0,0:0:0:0:
256,192,20958,1,0,0:0:0:0:
256,192,21146,1,6,0:0:0:0:
256,192,21521,1,2,0:0:0:0:
256,192,21708,1,2,0:0:0:0:
256,192,21802,1,2,0:0:0:0:
256,192,21896,5,0,0:0:0:0:
256,192,22083,1,2,0:0:0:0:
256,192,22177,1,0,0:0:0:0:
256,192,22364,1,0,0:0:0:0:
256,192,22458,1,2,0:0:0:0:
256,192,22646,1,0,0:0:0:0:
256,192,22833,1,2,0:0:0:0:
256,192,23021,1,0,0:0:0:0:
256,192,23114,1,0,0:0:0:0:
256,192,23208,1,2,0:0:0:0:
256,192,23396,1,0,0:0:0:0:
256,192,23583,1,2,0:0:0:0:
256,192,23677,1,0,0:0:0:0:
256,192,23864,1,0,0:0:0:0:
256,192,23958,1,2,0:0:0:0:
256,192,24052,1,2,0:0:0:0:
256,192,24146,1,0,0:0:0:0:
256,192,24333,1,2,0:0:0:0:
256,192,24427,1,0,0:0:0:0:
256,192,24521,1,2,0:0:0:0:
256,192,24614,1,2,0:0:0:0:
256,192,24708,1,2,0:0:0:0:
256,192,24802,1,2,0:0:0:0:
256,192,24896,5,0,0:0:0:0:
256,192,25646,1,4,0:0:0:0:
256,192,26396,1,4,0:0:0:0:
256,192,26771,1,4,0:0:0:0:
256,192,27146,1,4,0:0:0:0:
256,192,27333,1,0,0:0:0:0:
256,192,27427,1,0,0:0:0:0:
256,192,27521,1,2,0:0:0:0:
256,192,27896,1,4,0:0:0:0:
256,192,28646,1,2,0:0:0:0:
256,192,29021,1,2,0:0:0:0:
256,192,29396,1,0,0:0:0:0:
256,192,29771,1,0,0:0:0:0:
256,192,29958,1,0,0:0:0:0:
256,192,30146,1,2,0:0:0:0:
256,192,30521,1,0,0:0:0:0:
256,192,30708,1,2,0:0:0:0:
256,192,30896,1,0,0:0:0:0:
256,192,31271,1,0,0:0:0:0:
256,192,31646,1,2,0:0:0:0:
256,192,32021,1,2,0:0:0:0:
256,192,32208,1,2,0:0:0:0:
256,192,32396,1,0,0:0:0:0:
256,192,32583,1,2,0:0:0:0:
256,192,32771,1,0,0:0:0:0:
256,192,32958,1,0,0:0:0:0:
256,192,33052,1,0,0:0:0:0:
256,192,33146,1,2,0:0:0:0:
256,192,33333,1,0,0:0:0:0:
256,192,33521,1,2,0:0:0:0:
256,192,33708,1,2,0:0:0:0:
256,192,33802,1,2,0:0:0:0:
256,192,33896,1,0,0:0:0:0:
256,192,34458,1,0,0:0:0:0:
256,192,34646,1,2,0:0:0:0:
256,192,35021,1,2,0:0:0:0:
256,192,35396,1,0,0:0:0:0:
256,192,35583,1,2,0:0:0:0:
256,192,35771,1,0,0:0:0:0:
256,192,35958,1,0,0:0:0:0:
256,192,36146,1,2,0:0:0:0:
256,192,36521,1,2,0:0:0:0:
256,192,36708,1,2,0:0:0:0:
256,192,36896,1,0,0:0:0:0:
256,192,37177,1,0,0:0:0:0:
256,192,37458,1,0,0:0:0:0:
256,192,37646,1,2,0:0:0:0:
256,192,37833,1,2,0:0:0:0:
256,192,38021,1,0,0:0:0:0:
256,192,38208,1,0,0:0:0:0:
256,192,38302,1,0,0:0:0:0:
256,192,38396,1,0,0:0:0:0:
256,192,38771,1,0,0:0:0:0:
256,192,38958,1,0,0:0:0:0:
256,192,39052,1,0,0:0:0:0:
256,192,39146,1,2,0:0:0:0:
256,192,39333,1,0,0:0:0:0:
256,192,39521,1,2,0:0:0:0:
256,192,39614,1,2,0:0:0:0:
256,192,39708,1,2,0:0:0:0:
256,192,39802,1,2,0:0:0:0:
256,192,39896,1,0,0:0:0:0:
256,192,40083,1,2,0:0:0:0:
256,192,40271,1,0,0:0:0:0:
256,192,40458,1,2,0:0:0:0:
256,192,40646,1,0,0:0:0:0:
256,192,40833,1,2,0:0:0:0:
256,192,40896,1,2,0:0:0:0:
256,192,40958,1,2,0:0:0:0:
256,192,41021,1,0,0:0:0:0:
256,192,41208,1,2,0:0:0:0:
256,192,41396,1,0,0:0:0:0:
256,192,41583,1,0,0:0:0:0:
256,192,41646,1,0,0:0:0:0:
256,192,41708,1,0,0:0:0:0:
256,192,41771,1,2,0:0:0:0:
256,192,41958,1,2,0:0:0:0:
256,192,42146,1,4,0:0:0:0:
256,192,42521,1,6,0:0:0:0:
256,192,42896,5,4,0:0:0:0:
256,192,43177,1,2,0:0:0:0:
256,192,43271,1,0,0:0:0:0:
256,192,43458,1,2,0:0:0:0:
256,192,43646,1,0,0:0:0:0:
256,192,43739,1,0,0:0:0:0:
256,192,43833,1,2,0:0:0:0:
256,192,44021,1,2,0:0:0:0:
256,192,44208,1,2,0:0:0:0:
256,192,44302,1,2,0:0:0:0:
256,192,44396,1,0,0:0:0:0:
256,192,44583,1,0,0:0:0:0:
256,192,44677,1,2,0:0:0:0:
256,192,44771,1,0,0:0:0:0:
256,192,44958,1,2,0:0:0:0:
256,192,45146,1,0,0:0:0:0:
256,192,45239,1,0,0:0:0:0:
256,192,45333,1,0,0:0:0:0:
256,192,45521,1,2,0:0:0:0:
256,192,45708,1,2,0:0:0:0:
256,192,45802,1,2,0:0:0:0:
256,192,45896,1,0,0:0:0:0:
256,192,46177,1,2,0:0:0:0:
256,192,46271,1,0,0:0:0:0:
256,192,46458,1,2,0:0:0:0:
256,192,46646,1,0,0:0:0:0:
256,192,46739,1,0,0:0:0:0:
256,192,46833,1,2,0:0:0:0:
256,192,47021,1,2,0:0:0:0:
256,192,47208,1,2,0:0:0:0:
256,192,47302,1,2,0:0:0:0:
256,192,47396,1,0,0:0:0:0:
256,192,47583,1,2,0:0:0:0:
256,192,47771,1,0,0:0:0:0:
256,192,47864,1,2,0:0:0:0:
256,192,47958,1,0,0:0:0:0:
256,192,48146,1,0,0:0:0:0:
256,192,48239,1,0,0:0:0:0:
256,192,48333,1,2,0:0:0:0:
256,192,48427,1,0,0:0:0:0:
256,192,48521,1,2,0:0:0:0:
256,192,48708,1,2,0:0:0:0:
256,192,48802,1,2,0:0:0:0:
256,192,48896,1,0,0:0:0:0:
256,192,49177,1,2,0:0:0:0:
256,192,49271,1,0,0:0:0:0:
256,192,49458,1,2,0:0:0:0:
256,192,49646,1,0,0:0:0:0:
256,192,49739,1,0,0:0:0:0:
256,192,49833,1,2,0:0:0:0:
256,192,50021,1,2,0:0:0:0:
256,192,50208,1,2,0:0:0:0:
256,192,50302,1,2,0:0:0:0:
256,192,50396,1,0,0:0:0:0:
256,192,50583,1,0,0:0:0:0:
256,192,50677,1,2,0:0:0:0:
256,192,50771,1,0,0:0:0:0:
256,192,50958,1,2,0:0:0:0:
256,192,51146,1,0,0:0:0:0:
256,192,51239,1,2,0:0:0:0:
256,192,51427,1,2,0:0:0:0:
256,192,51521,1,0,0:0:0:0:
256,192,51614,1,0,0:0:0:0:
256,192,51708,1,2,0:0:0:0:
256,192,51802,1,2,0:0:0:0:
256,192,51896,1,0,0:0:0:0:
256,192,52083,1,2,0:0:0:0:
256,192,52177,1,2,0:0:0:0:
256,192,52364,1,2,0:0:0:0:
256,192,52458,1,2,0:0:0:0:
256,192,52552,1,2,0:0:0:0:
256,192,52646,1,0,0:0:0:0:
256,192,52833,1,2,0:0:0:0:
256,192,52927,1,2,0:0:0:0:
256,192,53114,1,0,0:0:0:0:
256,192,53208,1,2,0:0:0:0:
256,192,53302,1,2,0:0:0:0:
256,192,53396,1,0,0:0:0:0:
256,192,53583,1,0,0:0:0:0:
256,192,53677,1,2,0:0:0:0:
256,192,53771,1,0,0:0:0:0:
256,192,53864,1,0,0:0:0:0:
256,192,53958,1,2,0:0:0:0:
256,192,54052,1,2,0:0:0:0:
256,192,54146,1,2,0:0:0:0:
256,192,54333,1,0,0:0:0:0:
256,192,54521,1,6,0:0:0:0:
256,192,54896,5,4,0:0:0:0:
256,192,55083,1,2,0:0:0:0:
256,192,55177,1,0,0:0:0:0:
256,192,55364,1,0,0:0:0:0:
256,192,55458,1,2,0:0:0:0:
256,192,55646,1,0,0:0:0:0:
256,192,55739,1,0,0:0:0:0:
256,192,55833,1,2,0:0:0:0:
256,192,56021,1,2,0:0:0:0:
256,192,56208,1,2,0:0:0:0:
256,192,56302,1,2,0:0:0:0:
256,192,56396,1,0,0:0:0:0:
256,192,56583,1,0,0:0:0:0:
256,192,56677,1,2,0:0:0:0:
256,192,56771,1,0,0:0:0:0:
256,192,56958,1,2,0:0:0:0:
256,192,57146,1,0,0:0:0:0:
256,192,57239,1,0,0:0:0:0:
256,192,57427,1,0,0:0:0:0:
256,192,57521,1,2,0:0:0:0:
256,192,57708,1,2,0:0:0:0:
256,192,57802,1,2,0:0:0:0:
256,192,57896,1,0,0:0:0:0:
256,192,58083,1,2,0:0:0:0:
256,192,58177,1,0,0:0:0:0:
256,192,58364,1,0,0:0:0:0:
256,192,58458,1,2,0:0:0:0:
256,192,58646,1,0,0:0:0:0:
256,192,58739,1,0,0:0:0:0:
256,192,58833,1,2,0:0:0:0:
256,192,59021,1,2,0:0:0:0:
256,192,59208,1,2,0:0:0:0:
256,192,59302,1,2,0:0:0:0:
256,192,59396,1,0,0:0:0:0:
256,192,59583,1,2,0:0:0:0:
256,192,59771,1,0,0:0:0:0:
256,192,59864,1,2,0:0:0:0:
256,192,59958,1,0,0:0:0:0:
256,192,60146,1,0,0:0:0:0:
256,192,60239,1,0,0:0:0:0:
256,192,60333,1,2,0:0:0:0:
256,192,60427,1,0,0:0:0:0:
256,192,60521,1,2,0:0:0:0:
256,192,60614,1,2,0:0:0:0:
256,192,60708,1,0,0:0:0:0:
256,192,60896,1,4,0:0:0:0:
256,192,61177,1,2,0:0:0:0:
256,192,61458,1,2,0:0:0:0:
256,192,61646,1,4,0:0:0:0:
256,192,61833,1,2,0:0:0:0:
256,192,62021,1,2,0:0:0:0:
256,192,62396,1,4,0:0:0:0:
256,192,62583,1,2,0:0:0:0:
256,192,62677,1,2,0:0:0:0:
256,192,62771,1,0,0:0:0:0:
256,192,62958,1,2,0:0:0:0:
256,192,63146,1,0,0:0:0:0:
256,192,63239,1,0,0:0:0:0:
256,192,63333,1,0,0:0:0:0:
256,192,63427,1,0,0:0:0:0:
256,192,63521,1,2,0:0:0:0:
256,192,63708,1,2,0:0:0:0:
256,192,63802,1,2,0:0:0:0:
256,192,63896,1,0,0:0:0:0:
256,192,64083,1,0,0:0:0:0:
256,192,64177,1,2,0:0:0:0:
256,192,64364,1,2,0:0:0:0:
256,192,64458,1,2,0:0:0:0:
256,192,64552,1,2,0:0:0:0:
256,192,64646,1,0,0:0:0:0:
256,192,64833,1,0,0:0:0:0:
256,192,64927,1,2,0:0:0:0:
256,192,65114,1,0,0:0:0:0:
256,192,65208,1,2,0:0:0:0:
256,192,65302,1,2,0:0:0:0:
256,192,65396,1,0,0:0:0:0:
256,192,65583,1,2,0:0:0:0:
256,192,65677,1,0,0:0:0:0:
256,192,65864,1,0,0:0:0:0:
256,192,65958,1,2,0:0:0:0:
256,192,66146,1,0,0:0:0:0:
256,192,66239,1,0,0:0:0:0:
256,192,66333,1,0,0:0:0:0:
256,192,66521,1,6,0:0:0:0:
256,192,66896,5,4,0:0:0:0:
256,192,67177,1,0,0:0:0:0:
256,192,67271,1,2,0:0:0:0:
256,192,67458,1,2,0:0:0:0:
256,192,67646,1,0,0:0:0:0:
256,192,67833,1,2,0:0:0:0:
256,192,67927,1,0,0:0:0:0:
256,192,68021,1,0,0:0:0:0:
256,192,68208,1,2,0:0:0:0:
256,192,68396,1,0,0:0:0:0:
256,192,68583,1,2,0:0:0:0:
256,192,68677,1,2,0:0:0:0:
256,192,68771,1,0,0:0:0:0:
256,192,68958,1,2,0:0:0:0:
256,192,69146,1,0,0:0:0:0:
256,192,69239,1,0,0:0:0:0:
256,192,69427,1,0,0:0:0:0:
256,192,69521,1,2,0:0:0:0:
256,192,69708,1,2,0:0:0:0:
256,192,69802,1,2,0:0:0:0:
256,192,69896,1,0,0:0:0:0:
256,192,70177,1,0,0:0:0:0:
256,192,70271,1,2,0:0:0:0:
256,192,70458,1,0,0:0:0:0:
256,192,70646,1,2,0:0:0:0:
256,192,70833,1,2,0:0:0:0:
256,192,70927,1,2,0:0:0:0:
256,192,71021,1,0,0:0:0:0:
256,192,71208,1,2,0:0:0:0:
256,192,71396,1,0,0:0:0:0:
256,192,71583,1,2,0:0:0:0:
256,192,71677,1,0,0:0:0:0:
256,192,71771,1,0,0:0:0:0:
256,192,71958,1,2,0:0:0:0:
256,192,72146,1,0,0:0:0:0:
256,192,72239,1,2,0:0:0:0:
256,192,72333,1,0,0:0:0:0:
256,192,72427,1,0,0:0:0:0:
256,192,72521,1,2,0:0:0:0:
256,192,72708,1,2,0:0:0:0:
256,192,72802,1,2,0:0:0:0:
256,192,72896,5,0,0:0:0:0:
256,192,73177,1,0,0:0:0:0:
256,192,73271,1,2,0:0:0:0:
256,192,73458,1,2,0:0:0:0:
256,192,73646,1,0,0:0:0:0:
256,192,73833,1,2,0:0:0:0:
256,192,73927,1,0,0:0:0:0:
256,192,74021,1,0,0:0:0:0:
256,192,74208,1,2,0:0:0:0:
256,192,74396,1,0,0:0:0:0:
256,192,74583,1,2,0:0:0:0:
256,192,74677,1,2,0:0:0:0:
256,192,74771,1,0,0:0:0:0:
256,192,74958,1,2,0:0:0:0:
256,192,75146,1,0,0:0:0:0:
256,192,75239,1,2,0:0:0:0:
256,192,75427,1,0,0:0:0:0:
256,192,75521,1,2,0:0:0:0:
256,192,75614,1,0,0:0:0:0:
256,192,75708,1,0,0:0:0:0:
256,192,75802,1,2,0:0:0:0:
256,192,75896,1,0,0:0:0:0:
256,192,76083,1,2,0:0:0:0:
256,192,76177,1,2,0:0:0:0:
256,192,76364,1,2,0:0:0:0:
256,192,76458,1,2,0:0:0:0:
256,192,76552,1,2,0:0:0:0:
256,192,76646,1,0,0:0:0:0:
256,192,76833,1,0,0:0:0:0:
256,192,76927,1,2,0:0:0:0:
256,192,77114,1,0,0:0:0:0:
256,192,77208,1,2,0:0:0:0:
256,192,77302,1,2,0:0:0:0:
256,192,77396,1,0,0:0:0:0:
256,192,77583,1,0,0:0:0:0:
256,192,77677,1,2,0:0:0:0:
256,192,77771,1,0,0:0:0:0:
256,192,77958,1,2,0:0:0:0:
256,192,78146,1,0,0:0:0:0:
256,192,78521,1,6,0:0:0:0:
256,192,78896,5,0,0:0:0:0:
256,192,79646,1,2,0:0:0:0:
256,192,80771,1,0,0:0:0:0:
256,192,81146,1,2,0:0:0:0:
256,192,81521,1,2,0:0:0:0:
256,192,81708,1,2,0:0:0:0:
256,192,81896,1,0,0:0:0:0:
256,192,82646,1,2,0:0:0:0:
256,192,83771,1,0,0:0:0:0:
256,192,84146,1,2,0:0:0:0:
256,192,84333,1,2,0:0:0:0:
256,192,84521,1,2,0:0:0:0:
256,192,84896,1,0,0:0:0:0:
256,192,85458,1,0,0:0:0:0:
256,192,85646,1,2,0:0:0:0:
256,192,86021,1,2,0:0:0:0:
256,192,86396,1,2,0:0:0:0:
256,192,86583,1,2,0:0:0:0:
256,192,86771,1,0,0:0:0:0:
256,192,87146,1,2,0:0:0:0:
256,192,87521,1,2,0:0:0:0:
256,192,87896,1,4,0:0:0:0:
256,192,88646,1,4,0:0:0:0:
256,192,89021,1,2,0:0:0:0:
256,192,89396,1,4,0:0:0:0:
256,192,89771,1,4,0:0:0:0:
256,192,90146,1,4,0:0:0:0:
256,192,90521,1,6,0:0:0:0:
256,192,90896,1,0,0:0:0:0:
256,192,91458,1,0,0:0:0:0:
256,192,91646,1,2,0:0:0:0:
256,192,92021,1,2,0:0:0:0:
256,192,92396,1,0,0:0:0:0:
256,192,92771,1,0,0:0:0:0:
256,192,92958,1,0,0:0:0:0:
256,192,93146,1,2,0:0:0:0:
256,192,93521,1,0,0:0:0:0:
256,192,93708,1,2,0:0:0:0:
256,192,93896,1,0,0:0:0:0:
256,192,94271,1,0,0:0:0:0:
256,192,94646,1,2,0:0:0:0:
256,192,95021,1,2,0:0:0:0:
256,192,95208,1,2,0:0:0:0:
256,192,95396,1,0,0:0:0:0:
256,192,95583,1,2,0:0:0:0:
256,192,95771,1,0,0:0:0:0:
256,192,95958,1,0,0:0:0:0:
256,192,96052,1,0,0:0:0:0:
256,192,96146,1,2,0:0:0:0:
256,192,96333,1,0,0:0:0:0:
256,192,96521,1,2,0:0:0:0:
256,192,96708,1,2,0:0:0:0:
256,192,96896,1,0,0:0:0:0:
256,192,97458,1,0,0:0:0:0:
256,192,97646,1,2,0:0:0:0:
256,192,98021,1,2,0:0:0:0:
256,192,98396,1,0,0:0:0:0:
256,192,98771,1,0,0:0:0:0:
256,192,98958,1,0,0:0:0:0:
256,192,99146,1,2,0:0:0:0:
256,192,99521,1,0,0:0:0:0:
256,192,99708,1,2,0:0:0:0:
256,192,99896,1,0,0:0:0:0:
256,192,100177,1,0,0:0:0:0:
256,192,100458,1,0,0:0:0:0:
256,192,100646,1,2,0:0:0:0:
256,192,100833,1,0,0:0:0:0:
256,192,100927,1,0,0:0:0:0:
256,192,101021,1,2,0:0:0:0:
256,192,101208,1,2,0:0:0:0:
256,192,101396,1,0,0:0:0:0:
256,192,101771,1,0,0:0:0:0:
256,192,101958,1,2,0:0:0:0:
256,192,102052,1,2,0:0:0:0:
256,192,102146,1,2,0:0:0:0:
256,192,102333,1,0,0:0:0:0:
256,192,102521,1,2,0:0:0:0:
256,192,102614,1,2,0:0:0:0:
256,192,102708,1,2,0:0:0:0:
256,192,102802,1,2,0:0:0:0:
256,192,102896,1,0,0:0:0:0:
256,192,103083,1,2,0:0:0:0:
256,192,103271,1,0,0:0:0:0:
256,192,103458,1,2,0:0:0:0:
256,192,103646,1,0,0:0:0:0:
256,192,103833,1,2,0:0:0:0:
256,192,103896,1,2,0:0:0:0:
256,192,103958,1,2,0:0:0:0:
256,192,104021,1,0,0:0:0:0:
256,192,104208,1,2,0:0:0:0:
256,192,104396,1,0,0:0:0:0:
256,192,104583,1,0,0:0:0:0:
256,192,104646,1,0,0:0:0:0:
256,192,104708,1,0,0:0:0:0:
256,192,104771,1,2,0:0:0:0:
256,192,104958,1,2,0:0:0:0:
256,192,105146,1,4,0:0:0:0:
256,192,105521,1,6,0:0:0:0:
256,192,105896,5,4,0:0:0:0:
256,192,106177,1,2,0:0:0:0:
256,192,106271,1,0,0:0:0:0:
256,192,106458,1,2,0:0:0:0:
256,192,106646,1,0,0:0:0:0:
256,192,106739,1,0,0:0:0:0:
256,192,106833,1,2,0:0:0:0:
256,192,106927,1,0,0:0:0:0:
256,192,107021,1,2,0:0:0:0:
256,192,107208,1,2,0:0:0:0:
256,192,107302,1,2,0:0:0:0:
256,192,107396,1,0,0:0:0:0:
256,192,107583,1,0,0:0:0:0:
256,192,107677,1,2,0:0:0:0:
256,192,107771,1,0,0:0:0:0:
256,192,107958,1,2,0:0:0:0:
256,192,108146,1,0,0:0:0:0:
256,192,108239,1,0,0:0:0:0:
256,192,108427,1,0,0:0:0:0:
256,192,108521,1,2,0:0:0:0:
256,192,108708,1,2,0:0:0:0:
256,192,108802,1,2,0:0:0:0:
256,192,108896,1,0,0:0:0:0:
256,192,108989,1,2,0:0:0:0:
256,192,109177,1,2,0:0:0:0:
256,192,109271,1,0,0:0:0:0:
256,192,109364,1,0,0:0:0:0:
256,192,109458,1,2,0:0:0:0:
256,192,109646,1,0,0:0:0:0:
256,192,109833,1,2,0:0:0:0:
256,192,109927,1,0,0:0:0:0:
256,192,110021,1,2,0:0:0:0:
256,192,110208,1,2,0:0:0:0:
256,192,110302,1,2,0:0:0:0:
256,192,110396,1,0,0:0:0:0:
256,192,110583,1,2,0:0:0:0:
256,192,110771,1,0,0:0:0:0:
256,192,110864,1,2,0:0:0:0:
256,192,110958,1,0,0:0:0:0:
256,192,111146,1,0,0:0:0:0:
256,192,111239,1,2,0:0:0:0:
256,192,111333,1,2,0:0:0:0:
256,192,111427,1,0,0:0:0:0:
256,192,111521,1,2,0:0:0:0:
256,192,111614,1,2,0:0:0:0:
256,192,111708,1,0,0:0:0:0:
256,192,111896,5,4,0:0:0:0:
256,192,112177,1,2,0:0:0:0:
256,192,112271,1,0,0:0:0:0:
256,192,112458,1,2,0:0:0:0:
256,192,112646,1,0,0:0:0:0:
256,192,112739,1,0,0:0:0:0:
256,192,112833,1,2,0:0:0:0:
256,192,112927,1,0,0:0:0:0:
256,192,113021,1,2,0:0:0:0:
256,192,113208,1,2,0:0:0:0:
256,192,113302,1,2,0:0:0:0:
256,192,113396,1,0,0:0:0:0:
256,192,113583,1,0,0:0:0:0:
256,192,113677,1,2,0:0:0:0:
256,192,113771,1,0,0:0:0:0:
256,192,113958,1,2,0:0:0:0:
256,192,114146,1,0,0:0:0:0:
256,192,114239,1,2,0:0:0:0:
256,192,114427,1,0,0:0:0:0:
256,192,114521,1,2,0:0:0:0:
256,192,114614,1,2,0:0:0:0:
256,192,114708,1,0,0:0:0:0:
256,192,114802,1,2,0:0:0:0:
256,192,114896,1,0,0:0:0:0:
256,192,115083,1,0,0:0:0:0:
256,192,115177,1,2,0:0:0:0:
256,192,115364,1,2,0:0:0:0:
256,192,115458,1,2,0:0:0:0:
256,192,115552,1,2,0:0:0:0:
256,192,115646,1,0,0:0:0:0:
256,192,115833,1,0,0:0:0:0:
256,192,115927,1,2,0:0:0:0:
256,192,116114,1,0,0:0:0:0:
256,192,116208,1,2,0:0:0:0:
256,192,116302,1,2,0:0:0:0:
256,192,116396,1,0,0:0:0:0:
256,192,116583,1,2,0:0:0:0:
256,192,116677,1,0,0:0:0:0:
256,192,116771,1,0,0:0:0:0:
256,192,116864,1,0,0:0:0:0:
256,192,116958,1,2,0:0:0:0:
256,192,117052,1,2,0:0:0:0:
256,192,117146,1,0,0:0:0:0:
256,192,117333,1,2,0:0:0:0:
256,192,117521,1,6,0:0:0:0:
256,192,117896,5,4,0:0:0:0:
256,192,118083,1,2,0:0:0:0:
256,192,118177,1,0,0:0:0:0:
256,192,118364,1,0,0:0:0:0:
256,192,118458,1,2,0:0:0:0:
256,192,118646,1,0,0:0:0:0:
256,192,118739,1,0,0:0:0:0:
256,192,118833,1,2,0:0:0:0:
256,192,118927,1,0,0:0:0:0:
256,192,119021,1,2,0:0:0:0:
256,192,119208,1,2,0:0:0:0:
256,192,119302,1,2,0:0:0:0:
256,192,119396,1,0,0:0:0:0:
256,192,119583,1,0,0:0:0:0:
256,192,119677,1,2,0:0:0:0:
256,192,119771,1,0,0:0:0:0:
256,192,119958,1,2,0:0:0:0:
256,192,120146,1,0,0:0:0:0:
256,192,120239,1,0,0:0:0:0:
256,192,120427,1,0,0:0:0:0:
256,192,120521,1,2,0:0:0:0:
256,192,120708,1,2,0:0:0:0:
256,192,120802,1,2,0:0:0:0:
256,192,120896,1,0,0:0:0:0:
256,192,121083,1,2,0:0:0:0:
256,192,121177,1,0,0:0:0:0:
256,192,121364,1,0,0:0:0:0:
256,192,121458,1,2,0:0:0:0:
256,192,121552,1,2,0:0:0:0:
256,192,121646,1,0,0:0:0:0:
256,192,121833,1,2,0:0:0:0:
256,192,121927,1,0,0:0:0:0:
256,192,122021,1,2,0:0:0:0:
256,192,122208,1,2,0:0:0:0:
256,192,122302,1,2,0:0:0:0:
256,192,122396,1,0,0:0:0:0:
256,192,122583,1,2,0:0:0:0:
256,192,122771,1,0,0:0:0:0:
256,192,122864,1,2,0:0:0:0:
256,192,122958,1,0,0:0:0:0:
256,192,123146,1,0,0:0:0:0:
256,192,123239,1,0,0:0:0:0:
256,192,123333,1,2,0:0:0:0:
256,192,123427,1,0,0:0:0:0:
256,192,123521,1,2,0:0:0:0:
256,192,123614,1,2,0:0:0:0:
256,192,123708,1,0,0:0:0:0:
256,192,123896,5,4,0:0:0:0:
256,192,124177,1,2,0:0:0:0:
256,192,124458,1,2,0:0:0:0:
256,192,124646,1,4,0:0:0:0:
256,192,124833,1,2,0:0:0:0:
256,192,125021,1,2,0:0:0:0:
256,192,125208,1,2,0:0:0:0:
256,192,125302,1,2,0:0:0:0:
256,192,125396,1,0,0:0:0:0:
256,192,125583,1,0,0:0:0:0:
256,192,125677,1,2,0:0:0:0:
256,192,125771,1,0,0:0:0:0:
256,192,125958,1,2,0:0:0:0:
256,192,126146,1,0,0:0:0:0:
256,192,126333,1,0,0:0:0:0:
256,192,126427,1,0,0:0:0:0:
256,192,126521,1,2,0:0:0:0:
256,192,126708,1,2,0:0:0:0:
256,192,126896,1,0,0:0:0:0:
256,192,127083,1,2,0:0:0:0:
256,192,127177,1,2,0:0:0:0:
256,192,127364,1,2,0:0:0:0:
256,192,127458,1,2,0:0:0:0:
256,192,127552,1,2,0:0:0:0:
256,192,127646,1,0,0:0:0:0:
256,192,127833,1,0,0:0:0:0:
256,192,127927,1,2,0:0:0:0:
256,192,128114,1,0,0:0:0:0:
256,192,128208,1,2,0:0:0:0:
256,192,128302,1,2,0:0:0:0:
256,192,128396,1,0,0:0:0:0:
256,192,128677,1,4,0:0:0:0:
256,192,128958,1,6,0:0:0:0:
256,192,129146,1,4,0:0:0:0:
256,192,129521,1,6,0:0:0:0:
256,192,129896,1,4,0:0:0:0:
256,192,130177,1,0,0:0:0:0:
256,192,130271,1,2,0:0:0:0:
256,192,130458,1,2,0:0:0:0:
256,192,130646,1,0,0:0:0:0:
256,192,130833,1,2,0:0:0:0:
256,192,130927,1,0,0:0:0:0:
256,192,131021,1,0,0:0:0:0:
256,192,131208,1,2,0:0:0:0:
256,192,131396,1,0,0:0:0:0:
256,192,131583,1,2,0:0:0:0:
256,192,131677,1,2,0:0:0:0:
256,192,131771,1,0,0:0:0:0:
256,192,131958,1,2,0:0:0:0:
256,192,132146,1,0,0:0:0:0:
256,192,132239,1,2,0:0:0:0:
256,192,132333,1,0,0:0:0:0:
256,192,132427,1,0,0:0:0:0:
256,192,132521,1,2,0:0:0:0:
256,192,132708,1,2,0:0:0:0:
256,192,132802,1,2,0:0:0:0:
256,192,132896,1,0,0:0:0:0:
256,192,133177,1,0,0:0:0:0:
256,192,133271,1,2,0:0:0:0:
256,192,133458,1,0,0:0:0:0:
256,192,133646,1,2,0:0:0:0:
256,192,133833,1,2,0:0:0:0:
256,192,133927,1,2,0:0:0:0:
256,192,134021,1,0,0:0:0:0:
256,192,134208,1,2,0:0:0:0:
256,192,134396,1,0,0:0:0:0:
256,192,134583,1,2,0:0:0:0:
256,192,134677,1,0,0:0:0:0:
256,192,134771,1,0,0:0:0:0:
256,192,134958,1,2,0:0:0:0:
256,192,135146,1,0,0:0:0:0:
256,192,135239,1,0,0:0:0:0:
256,192,135333,1,2,0:0:0:0:
256,192,135427,1,0,0:0:0:0:
256,192,135521,1,2,0:0:0:0:
256,192,135614,1,2,0:0:0:0:
256,192,135708,1,0,0:0:0:0:
256,192,135896,5,4,0:0:0:0:
256,192,136177,1,0,0:0:0:0:
256,192,136271,1,2,0:0:0:0:
256,192,136458,1,2,0:0:0:0:
256,192,136646,1,0,0:0:0:0:
256,192,136833,1,2,0:0:0:0:
256,192,136927,1,0,0:0:0:0:
256,192,137021,1,0,0:0:0:0:
256,192,137208,1,2,0:0:0:0:
256,192,137396,1,0,0:0:0:0:
256,192,137583,1,2,0:0:0:0:
256,192,137677,1,2,0:0:0:0:
256,192,137771,1,0,0:0:0:0:
256,192,137958,1,2,0:0:0:0:
256,192,138146,1,0,0:0:0:0:
256,192,138239,1,2,0:0:0:0:
256,192,138333,1,0,0:0:0:0:
256,192,138427,1,0,0:0:0:0:
256,192,138521,1,2,0:0:0:0:
256,192,138614,1,0,0:0:0:0:
256,192,138708,1,2,0:0:0:0:
256,192,138802,1,2,0:0:0:0:
256,192,138896,1,0,0:0:0:0:
256,192,139083,1,2,0:0:0:0:
256,192,139177,1,2,0:0:0:0:
256,192,139364,1,2,0:0:0:0:
256,192,139458,1,2,0:0:0:0:
256,192,139552,1,2,0:0:0:0:
256,192,139646,1,0,0:0:0:0:
256,192,139833,1,0,0:0:0:0:
256,192,139927,1,2,0:0:0:0:
256,192,140114,1,0,0:0:0:0:
256,192,140208,1,2,0:0:0:0:
256,192,140302,1,2,0:0:0:0:
256,192,140396,1,0,0:0:0:0:
256,192,140583,1,0,0:0:0:0:
256,192,140677,1,2,0:0:0:0:
256,192,140771,1,0,0:0:0:0:
256,192,140958,1,2,0:0:0:0:
256,192,141146,1,0,0:0:0:0:
256,192,141521,1,6,0:0:0:0:
