osu file format v14

[General]
AudioFilename: audio.mp3
AudioLeadIn: 0
PreviewTime: 105802
Countdown: 0
SampleSet: Normal
StackLeniency: 0.7
Mode: 1
LetterboxInBreaks: 0
WidescreenStoryboard: 0

[Editor]
DistanceSpacing: 1
BeatDivisor: 4
GridSize: 8
TimelineZoom: 1.1

[Metadata]
Title:Nekomatsuri
TitleUnicode:猫祭り
Artist:Hakobe Naru(CV:M.A.O)
ArtistUnicode:箱部なる(CV:M・A・O)
Creator:komasy
Version:Futsuu
Source:CHUNITHM AIR PLUS
Tags:チュウニズム イロドリミドリ CHUNITHM Irodorimidori ヒゲドライバー Hige Driver Tes. 市道真央 Ichimichi Mao SEGA セガ butter0414 tasuke912
BeatmapID:1397363
BeatmapSetID:659442

[Difficulty]
HPDrainRate:7
CircleSize:2
OverallDifficulty:4
ApproachRate:5
SliderMultiplier:1.4
SliderTickRate:1

[Events]
//Background and Video events
0,0,"BG.jpg",0,80
//Break Periods
//Storyboard Layer 0 (Background)
//Storyboard Layer 1 (Fail)
//Storyboard Layer 2 (Pass)
//Storyboard Layer 3 (Foreground)
//Storyboard Sound Samples

[TimingPoints]
896,375,4,1,0,20,1,0
3427,-100,4,1,0,90,0,0
3896,-100,4,1,0,100,0,1
15896,-100,4,1,0,90,0,0
27896,-100,4,1,0,80,0,0
40271,-100,4,1,0,70,0,0
40646,-100,4,1,0,60,0,0
41021,-100,4,1,0,40,0,0
41396,-100,4,1,0,20,0,0
42896,-100,4,1,0,100,0,1
60896,-100,4,1,0,100,0,0
62396,-100,4,1,0,100,0,1
66521,-100,4,1,0,100,0,0
66896,-100,4,1,0,100,0,1
78896,-100,4,1,0,90,0,0
90896,-100,4,1,0,80,0,0
103271,-100,4,1,0,60,0,0
103646,-100,4,1,0,40,0,0
104021,-100,4,1,0,20,0,0
105896,-100,4,1,0,100,0,1
123896,-100,4,1,0,100,0,0
125396,-100,4,1,0,100,0,1
129521,-100,4,1,0,100,0,0
129896,-100,4,1,0,100,0,1
141521,-100,4,1,0,100,0,0

[HitObjects]
248,144,3521,5,12,0:0:0:0:
248,144,3896,1,4,0:0:0:0:
248,144,4271,1,0,0:0:0:0:
352,256,4646,1,8,0:0:0:0:
288,208,4833,1,0,0:0:0:0:
240,176,5021,1,0,0:0:0:0:
368,192,5396,1,8,0:0:0:0:
368,192,5771,1,0,0:0:0:0:
312,160,5958,1,0,0:0:0:0:
368,192,6146,1,8,0:0:0:0:
368,192,6896,1,0,0:0:0:0:
264,112,7271,1,0,0:0:0:0:
368,192,7646,1,8,0:0:0:0:
336,136,7833,1,8,0:0:0:0:
336,136,8021,1,0,0:0:0:0:
416,232,8396,1,8,0:0:0:0:
416,232,8771,1,0,0:0:0:0:
416,232,8958,1,8,0:0:0:0:
416,232,9146,1,8,0:0:0:0:
248,144,9896,1,0,0:0:0:0:
376,160,10271,1,0,0:0:0:0:
352,256,10646,1,8,0:0:0:0:
328,208,10833,1,0,0:0:0:0:
304,152,11021,1,0,0:0:0:0:
368,192,11396,1,8,0:0:0:0:
368,192,11771,1,0,0:0:0:0:
304,152,11958,1,0,0:0:0:0:
368,192,12146,1,8,0:0:0:0:
368,192,12896,1,0,0:0:0:0:
472,288,13271,1,8,0:0:0:0:
360,216,13646,1,0,0:0:0:0:
336,168,13833,1,8,0:0:0:0:
280,136,14021,1,8,0:0:0:0:
288,176,14396,1,0,0:0:0:0:
160,184,14771,1,0,0:0:0:0:
24,200,15146,1,0,0:0:0:0:
296,144,15521,1,12,0:0:0:0:
296,144,15896,1,0,0:0:0:0:
288,64,16646,1,0,0:0:0:0:
328,104,17021,1,8,0:0:0:0:
288,64,17396,1,0,0:0:0:0:
328,104,17583,1,0,0:0:0:0:
288,64,17771,1,0,0:0:0:0:
288,64,18146,1,8,0:0:0:0:
384,160,18521,1,8,0:0:0:0:
296,72,18896,1,0,0:0:0:0:
296,72,19646,1,8,0:0:0:0:
360,192,20021,1,8,0:0:0:0:
400,320,20396,1,4,0:0:0:0:
352,200,20771,1,0,0:0:0:0:
368,264,20958,1,0,0:0:0:0:
336,72,21146,1,12,0:0:0:0:
344,200,21521,1,8,0:0:0:0:
208,208,21896,1,4,0:0:0:0:
456,248,22646,1,0,0:0:0:0:
200,224,23021,1,8,0:0:0:0:
200,224,23396,1,0,0:0:0:0:
200,224,23583,1,0,0:0:0:0:
264,240,23771,1,0,0:0:0:0:
264,240,24146,1,8,0:0:0:0:
328,184,24521,1,8,0:0:0:0:
328,184,24708,1,8,0:0:0:0:
280,168,24896,1,4,0:0:0:0:
40,48,25646,1,12,0:0:0:0:
232,112,26396,1,4,0:0:0:0:
232,112,26771,1,4,0:0:0:0:
232,112,27146,1,12,0:0:0:0:
208,112,27896,5,0,0:0:0:0:
216,168,28646,1,8,0:0:0:0:
488,264,29396,1,0,0:0:0:0:
248,184,29771,1,0,0:0:0:0:
360,216,30146,1,8,0:0:0:0:
280,64,30521,1,8,0:0:0:0:
360,264,30896,1,0,0:0:0:0:
440,8,31646,1,8,0:0:0:0:
360,272,32396,1,0,0:0:0:0:
312,160,32771,1,0,0:0:0:0:
376,184,32958,1,0,0:0:0:0:
360,264,33146,1,8,0:0:0:0:
312,144,33521,1,8,0:0:0:0:
416,240,33896,1,0,0:0:0:0:
416,240,34646,1,8,0:0:0:0:
416,240,35396,1,0,0:0:0:0:
280,176,35771,1,0,0:0:0:0:
288,184,36146,1,8,0:0:0:0:
328,136,36521,1,8,0:0:0:0:
168,120,36896,1,0,0:0:0:0:
216,72,37646,1,8,0:0:0:0:
232,72,38396,1,8,0:0:0:0:
304,216,38771,1,0,0:0:0:0:
408,240,38958,1,0,0:0:0:0:
408,240,39146,1,8,0:0:0:0:
392,104,39521,1,8,0:0:0:0:
256,192,39896,12,8,41771,0:0:0:0:
256,128,42896,5,4,0:0:0:0:
376,200,43271,1,8,0:0:0:0:
336,184,43458,1,0,0:0:0:0:
392,368,43646,1,8,0:0:0:0:
304,256,44021,1,8,0:0:0:0:
288,112,44396,1,0,0:0:0:0:
344,240,44771,1,8,0:0:0:0:
296,216,44958,1,8,0:0:0:0:
280,168,45146,1,0,0:0:0:0:
296,128,45896,1,0,0:0:0:0:
336,248,46271,1,8,0:0:0:0:
296,208,46458,1,0,0:0:0:0:
264,96,46646,1,8,0:0:0:0:
200,192,47021,1,8,0:0:0:0:
264,96,47396,1,0,0:0:0:0:
200,192,47583,1,0,0:0:0:0:
264,96,47771,1,8,0:0:0:0:
264,96,48146,1,0,0:0:0:0:
264,96,48896,1,0,0:0:0:0:
368,184,49271,1,8,0:0:0:0:
312,176,49458,1,0,0:0:0:0:
264,96,49646,1,8,0:0:0:0:
176,200,50021,1,8,0:0:0:0:
264,96,50396,1,0,0:0:0:0:
296,216,50771,1,8,0:0:0:0:
296,216,50958,1,8,0:0:0:0:
296,216,51146,1,0,0:0:0:0:
296,216,51521,1,8,0:0:0:0:
336,216,51896,1,0,0:0:0:0:
352,96,52271,1,0,0:0:0:0:
216,72,52458,1,8,0:0:0:0:
336,216,52646,1,0,0:0:0:0:
336,216,53021,1,8,0:0:0:0:
336,216,53396,1,0,0:0:0:0:
304,120,54521,1,12,0:0:0:0:
336,216,54896,1,4,0:0:0:0:
360,112,55271,1,0,0:0:0:0:
360,136,55458,1,8,0:0:0:0:
376,216,55646,1,8,0:0:0:0:
272,152,56021,1,8,0:0:0:0:
376,216,56396,1,0,0:0:0:0:
256,184,56771,1,8,0:0:0:0:
312,200,56958,1,8,0:0:0:0:
360,216,57146,1,0,0:0:0:0:
272,120,57896,1,0,0:0:0:0:
320,8,58271,1,0,0:0:0:0:
304,48,58458,1,8,0:0:0:0:
272,120,58646,1,8,0:0:0:0:
368,208,59021,1,8,0:0:0:0:
408,320,59396,1,0,0:0:0:0:
352,264,59583,1,0,0:0:0:0:
384,224,59771,1,8,0:0:0:0:
384,224,60146,1,0,0:0:0:0:
408,200,60896,1,0,0:0:0:0:
432,232,61646,1,0,0:0:0:0:
384,232,61833,1,8,0:0:0:0:
312,168,62021,1,8,0:0:0:0:
432,232,62396,1,0,0:0:0:0:
464,216,62771,1,8,0:0:0:0:
464,216,62958,1,8,0:0:0:0:
464,216,63146,1,0,0:0:0:0:
464,216,63521,1,8,0:0:0:0:
464,216,63896,1,0,0:0:0:0:
360,184,64271,1,0,0:0:0:0:
280,160,64458,1,8,0:0:0:0:
192,160,64646,1,0,0:0:0:0:
304,144,65021,1,8,0:0:0:0:
456,208,65396,1,0,0:0:0:0:
56,152,66521,1,12,0:0:0:0:
248,144,66896,1,4,0:0:0:0:
248,144,67271,1,0,0:0:0:0:
352,256,67646,1,8,0:0:0:0:
288,208,67833,1,0,0:0:0:0:
240,176,68021,1,0,0:0:0:0:
368,192,68396,1,8,0:0:0:0:
368,192,68771,1,0,0:0:0:0:
312,160,68958,1,0,0:0:0:0:
368,192,69146,1,8,0:0:0:0:
368,192,69896,1,0,0:0:0:0:
264,112,70271,1,0,0:0:0:0:
368,192,70646,1,8,0:0:0:0:
336,136,70833,1,8,0:0:0:0:
336,136,71021,1,0,0:0:0:0:
416,232,71396,1,8,0:0:0:0:
416,232,71771,1,0,0:0:0:0:
416,232,71958,1,8,0:0:0:0:
416,232,72146,1,8,0:0:0:0:
248,144,72896,1,0,0:0:0:0:
376,160,73271,1,0,0:0:0:0:
352,256,73646,1,8,0:0:0:0:
328,208,73833,1,0,0:0:0:0:
304,152,74021,1,0,0:0:0:0:
368,192,74396,1,8,0:0:0:0:
368,192,74771,1,0,0:0:0:0:
304,152,74958,1,0,0:0:0:0:
368,192,75146,1,8,0:0:0:0:
368,192,75896,1,0,0:0:0:0:
472,288,76271,1,8,0:0:0:0:
360,216,76646,1,0,0:0:0:0:
336,168,76833,1,8,0:0:0:0:
280,136,77021,1,8,0:0:0:0:
288,176,77396,1,0,0:0:0:0:
160,184,77771,5,0,0:0:0:0:
24,200,78146,1,0,0:0:0:0:
296,144,78521,1,12,0:0:0:0:
296,128,78896,5,0,0:0:0:0:
480,336,79646,1,8,0:0:0:0:
184,48,80771,1,0,0:0:0:0:
280,136,81146,1,8,0:0:0:0:
280,136,81521,1,8,0:0:0:0:
288,136,81896,1,0,0:0:0:0:
360,176,82646,1,8,0:0:0:0:
160,368,83396,1,8,0:0:0:0:
360,176,83771,1,0,0:0:0:0:
360,176,84146,1,8,0:0:0:0:
360,176,84521,1,8,0:0:0:0:
360,176,84896,1,0,0:0:0:0:
344,264,85646,1,8,0:0:0:0:
344,264,86771,1,0,0:0:0:0:
344,264,87146,1,8,0:0:0:0:
344,264,87521,1,8,0:0:0:0:
328,144,87896,1,0,0:0:0:0:
328,104,88646,1,8,0:0:0:0:
248,216,89021,1,8,0:0:0:0:
328,104,89396,1,0,0:0:0:0:
328,104,89771,1,0,0:0:0:0:
328,104,90146,1,0,0:0:0:0:
264,104,90521,1,12,0:0:0:0:
208,112,90896,5,0,0:0:0:0:
216,168,91646,1,8,0:0:0:0:
224,40,92021,1,8,0:0:0:0:
488,264,92396,1,0,0:0:0:0:
360,216,92771,1,8,0:0:0:0:
320,184,92958,1,8,0:0:0:0:
248,184,93146,1,0,0:0:0:0:
280,64,93521,1,8,0:0:0:0:
360,264,93896,1,0,0:0:0:0:
440,8,94646,1,0,0:0:0:0:
304,152,95021,1,8,0:0:0:0:
360,272,95396,1,0,0:0:0:0:
312,160,95771,1,0,0:0:0:0:
376,184,95958,1,0,0:0:0:0:
360,264,96146,1,8,0:0:0:0:
312,144,96521,1,8,0:0:0:0:
416,240,96896,1,0,0:0:0:0:
416,240,97646,1,8,0:0:0:0:
344,128,98021,1,8,0:0:0:0:
416,240,98396,1,0,0:0:0:0:
288,184,98771,1,8,0:0:0:0:
328,136,98958,1,8,0:0:0:0:
280,176,99146,1,0,0:0:0:0:
328,136,99521,1,8,0:0:0:0:
168,120,99896,1,0,0:0:0:0:
216,72,100646,1,8,0:0:0:0:
280,176,101021,1,0,0:0:0:0:
232,72,101396,1,8,0:0:0:0:
304,216,101771,5,0,0:0:0:0:
408,240,101958,1,0,0:0:0:0:
408,240,102146,1,8,0:0:0:0:
296,200,102521,1,8,0:0:0:0:
256,192,102896,12,8,104396,0:0:0:0:
256,128,105896,5,4,0:0:0:0:
376,200,106271,1,8,0:0:0:0:
336,184,106458,1,0,0:0:0:0:
392,368,106646,1,8,0:0:0:0:
304,256,107021,1,8,0:0:0:0:
288,112,107396,1,0,0:0:0:0:
344,240,107771,1,8,0:0:0:0:
296,216,107958,1,8,0:0:0:0:
280,168,108146,1,0,0:0:0:0:
296,128,108896,1,0,0:0:0:0:
336,248,109271,1,8,0:0:0:0:
296,208,109458,1,0,0:0:0:0:
264,96,109646,1,8,0:0:0:0:
200,192,110021,1,8,0:0:0:0:
264,96,110396,1,0,0:0:0:0:
200,192,110583,1,0,0:0:0:0:
264,96,110771,1,8,0:0:0:0:
264,96,111146,1,0,0:0:0:0:
264,96,111896,1,0,0:0:0:0:
368,184,112271,1,8,0:0:0:0:
312,176,112458,1,0,0:0:0:0:
264,96,112646,1,8,0:0:0:0:
176,200,113021,1,8,0:0:0:0:
264,96,113396,1,0,0:0:0:0:
296,216,113771,1,8,0:0:0:0:
296,216,113958,1,8,0:0:0:0:
296,216,114146,1,0,0:0:0:0:
296,216,114521,1,8,0:0:0:0:
336,216,114896,1,0,0:0:0:0:
352,96,115271,1,0,0:0:0:0:
216,72,115458,1,8,0:0:0:0:
336,216,115646,1,0,0:0:0:0:
336,216,116021,1,8,0:0:0:0:
336,216,116396,1,0,0:0:0:0:
304,120,117521,1,12,0:0:0:0:
336,216,117896,1,4,0:0:0:0:
360,112,118271,1,0,0:0:0:0:
360,136,118458,1,8,0:0:0:0:
376,216,118646,1,8,0:0:0:0:
272,152,119021,1,8,0:0:0:0:
376,216,119396,1,0,0:0:0:0:
256,184,119771,1,8,0:0:0:0:
312,200,119958,1,8,0:0:0:0:
360,216,120146,1,0,0:0:0:0:
272,120,120896,1,0,0:0:0:0:
320,8,121271,1,0,0:0:0:0:
304,48,121458,1,8,0:0:0:0:
272,120,121646,1,8,0:0:0:0:
368,208,122021,1,8,0:0:0:0:
408,320,122396,1,0,0:0:0:0:
352,264,122583,1,0,0:0:0:0:
384,224,122771,1,8,0:0:0:0:
384,224,123146,1,0,0:0:0:0:
408,200,123896,1,0,0:0:0:0:
432,232,124646,1,0,0:0:0:0:
376,216,124833,1,8,0:0:0:0:
328,200,125021,1,8,0:0:0:0:
432,232,125396,1,0,0:0:0:0:
464,216,125771,1,8,0:0:0:0:
464,216,125958,1,8,0:0:0:0:
464,216,126146,1,0,0:0:0:0:
464,216,126521,1,8,0:0:0:0:
464,216,126896,1,0,0:0:0:0:
360,184,127271,1,0,0:0:0:0:
280,160,127458,1,8,0:0:0:0:
192,160,127646,1,0,0:0:0:0:
304,144,128021,1,8,0:0:0:0:
240,112,128208,1,8,0:0:0:0:
456,208,128396,1,0,0:0:0:0:
56,152,129521,5,12,0:0:0:0:
248,144,129896,1,4,0:0:0:0:
248,144,130271,1,0,0:0:0:0:
352,256,130646,1,8,0:0:0:0:
288,208,130833,1,0,0:0:0:0:
240,176,131021,1,0,0:0:0:0:
368,192,131396,1,8,0:0:0:0:
368,192,131771,1,0,0:0:0:0:
312,160,131958,1,0,0:0:0:0:
368,192,132146,1,8,0:0:0:0:
368,192,132896,1,0,0:0:0:0:
264,112,133271,1,0,0:0:0:0:
368,192,133646,1,8,0:0:0:0:
336,136,133833,1,8,0:0:0:0:
336,136,134021,1,0,0:0:0:0:
416,232,134396,1,8,0:0:0:0:
416,232,134771,1,0,0:0:0:0:
416,232,134958,1,8,0:0:0:0:
416,232,135146,1,8,0:0:0:0:
248,144,135896,1,0,0:0:0:0:
376,160,136271,1,0,0:0:0:0:
352,256,136646,1,8,0:0:0:0:
328,208,136833,1,0,0:0:0:0:
304,152,137021,1,0,0:0:0:0:
368,192,137396,1,8,0:0:0:0:
368,192,137771,1,0,0:0:0:0:
304,152,137958,1,0,0:0:0:0:
368,192,138146,1,8,0:0:0:0:
368,192,138896,1,0,0:0:0:0:
472,288,139271,1,8,0:0:0:0:
360,216,139646,1,0,0:0:0:0:
336,168,139833,1,8,0:0:0:0:
280,136,140021,1,8,0:0:0:0:
288,176,140396,1,0,0:0:0:0:
160,184,140771,1,0,0:0:0:0:
24,200,141146,1,0,0:0:0:0:
296,144,141521,1,12,0:0:0:0:
