osu file format v14

[General]
AudioFilename: audio.mp3
AudioLeadIn: 0
PreviewTime: 105802
Countdown: 0
SampleSet: Normal
StackLeniency: 0.7
Mode: 1
LetterboxInBreaks: 0
WidescreenStoryboard: 0

[Editor]
DistanceSpacing: 1
BeatDivisor: 4
GridSize: 8
TimelineZoom: 1.5

[Metadata]
Title:Nekomatsuri
TitleUnicode:猫祭り
Artist:Hakobe Naru(CV:M.A.O)
ArtistUnicode:箱部なる(CV:M・A・O)
Creator:komasy
Version:butter's Muzukashii
Source:CHUNITHM AIR PLUS
Tags:チュウニズム イロドリミドリ CHUNITHM Irodorimidori ヒゲドライバー Hige Driver Tes. 市道真央 Ichimichi Mao SEGA セガ butter0414 tasuke912
BeatmapID:1398455
BeatmapSetID:659442

[Difficulty]
HPDrainRate:6
CircleSize:5
OverallDifficulty:5
ApproachRate:5
SliderMultiplier:1.4
SliderTickRate:1

[Events]
//Background and Video events
0,0,"BG.jpg",0,80
//Break Periods
//Storyboard Layer 0 (Background)
//Storyboard Layer 1 (Fail)
//Storyboard Layer 2 (Pass)
//Storyboard Layer 3 (Foreground)
//Storyboard Sound Samples

[TimingPoints]
896,375,4,1,0,20,1,0
3427,-100,4,1,0,90,0,0
3896,-100,4,1,0,100,0,1
15896,-100,4,1,0,90,0,0
27896,-100,4,1,0,80,0,0
40083,-100,4,1,0,76,0,0
40271,-100,4,1,0,72,0,0
40646,-100,4,1,0,68,0,0
41021,-100,4,1,0,64,0,0
41396,-100,4,1,0,60,0,0
42052,-100,4,1,0,90,0,0
42896,-100,4,1,0,100,0,1
60896,-100,4,1,0,100,0,0
62396,-100,4,1,0,100,0,1
66521,-100,4,1,0,100,0,0
66896,-100,4,1,0,100,0,1
78896,-100,4,1,0,90,0,0
103083,-100,4,1,0,76,0,0
103271,-100,4,1,0,72,0,0
103646,-100,4,1,0,68,0,0
104021,-100,4,1,0,64,0,0
104396,-100,4,1,0,60,0,0
105052,-100,4,1,0,90,0,0
105896,-100,4,1,0,100,0,1
123896,-100,4,1,0,100,0,0
125396,-100,4,1,0,100,0,1
129521,-100,4,1,0,100,0,0
129896,-100,4,1,0,100,0,1
141521,-100,4,1,0,100,0,0

[HitObjects]
272,216,3521,5,6,0:0:0:0:
392,280,3896,1,4,0:0:0:0:
352,288,4271,1,2,0:0:0:0:
352,288,4646,1,0,0:0:0:0:
352,288,4833,1,2,0:0:0:0:
352,288,4927,1,2,0:0:0:0:
352,288,5021,1,2,0:0:0:0:
352,288,5208,1,0,0:0:0:0:
432,288,5396,1,2,0:0:0:0:
328,248,5771,1,0,0:0:0:0:
392,288,5958,1,2,0:0:0:0:
384,232,6146,1,0,0:0:0:0:
240,184,6333,1,0,0:0:0:0:
376,208,6521,1,2,0:0:0:0:
344,168,6896,1,0,0:0:0:0:
256,128,7271,1,2,0:0:0:0:
344,168,7646,1,0,0:0:0:0:
344,168,7833,1,2,0:0:0:0:
344,168,7927,1,2,0:0:0:0:
352,256,8021,1,2,0:0:0:0:
344,184,8208,1,0,0:0:0:0:
376,200,8396,1,2,0:0:0:0:
304,192,8583,1,0,0:0:0:0:
304,200,8677,1,0,0:0:0:0:
296,208,8771,1,0,0:0:0:0:
360,176,8958,1,2,0:0:0:0:
360,176,9146,1,0,0:0:0:0:
376,200,9521,1,2,0:0:0:0:
328,200,9896,1,4,0:0:0:0:
368,336,10271,1,2,0:0:0:0:
352,288,10646,1,0,0:0:0:0:
352,288,10833,1,2,0:0:0:0:
352,288,10927,1,2,0:0:0:0:
352,288,11021,1,2,0:0:0:0:
352,288,11208,1,0,0:0:0:0:
432,288,11396,1,2,0:0:0:0:
328,248,11771,1,0,0:0:0:0:
368,192,11958,1,2,0:0:0:0:
408,144,12146,1,0,0:0:0:0:
232,144,12333,1,2,0:0:0:0:
392,160,12521,1,2,0:0:0:0:
392,160,12708,1,2,0:0:0:0:
392,160,12896,1,0,0:0:0:0:
392,160,13271,1,0,0:0:0:0:
392,160,13458,1,2,0:0:0:0:
392,160,13646,1,0,0:0:0:0:
392,160,13833,1,2,0:0:0:0:
392,160,13927,1,2,0:0:0:0:
392,160,14021,1,2,0:0:0:0:
256,192,14208,1,2,0:0:0:0:
360,144,14396,1,0,0:0:0:0:
296,112,14771,1,0,0:0:0:0:
296,112,15146,1,0,0:0:0:0:
296,112,15521,1,6,0:0:0:0:
296,112,15896,1,4,0:0:0:0:
280,224,16271,1,0,0:0:0:0:
280,224,16458,1,2,0:0:0:0:
344,232,16646,1,0,0:0:0:0:
320,232,16833,1,0,0:0:0:0:
320,232,17021,1,2,0:0:0:0:
320,232,17208,1,2,0:0:0:0:
320,232,17396,1,0,0:0:0:0:
256,104,17771,1,0,0:0:0:0:
272,128,17958,1,2,0:0:0:0:
272,128,18146,1,0,0:0:0:0:
328,184,18521,1,2,0:0:0:0:
168,160,18896,1,0,0:0:0:0:
232,160,19271,1,2,0:0:0:0:
384,264,19458,1,0,0:0:0:0:
384,264,19646,1,2,0:0:0:0:
360,232,19833,1,2,0:0:0:0:
456,328,20021,1,0,0:0:0:0:
432,312,20208,1,0,0:0:0:0:
400,264,20396,1,6,0:0:0:0:
392,264,20771,1,0,0:0:0:0:
360,224,20958,1,0,0:0:0:0:
352,200,21146,1,6,0:0:0:0:
360,224,21521,1,2,0:0:0:0:
360,136,21708,1,2,0:0:0:0:
360,224,21896,1,4,0:0:0:0:
432,200,22271,1,0,0:0:0:0:
344,176,22458,1,2,0:0:0:0:
304,128,22646,1,0,0:0:0:0:
376,96,22833,1,0,0:0:0:0:
336,112,23021,1,2,0:0:0:0:
336,112,23208,1,2,0:0:0:0:
416,80,23396,1,0,0:0:0:0:
416,80,23771,1,2,0:0:0:0:
416,80,23958,1,2,0:0:0:0:
344,80,24146,1,0,0:0:0:0:
408,96,24333,1,0,0:0:0:0:
448,104,24521,1,2,0:0:0:0:
448,104,24708,1,2,0:0:0:0:
448,104,24896,1,4,0:0:0:0:
352,216,25271,1,2,0:0:0:0:
168,136,25646,1,4,0:0:0:0:
288,208,26021,1,0,0:0:0:0:
288,208,26208,1,0,0:0:0:0:
288,208,26396,1,6,0:0:0:0:
288,208,26771,1,6,0:0:0:0:
360,72,27146,1,0,0:0:0:0:
336,120,27239,1,0,0:0:0:0:
320,152,27333,1,0,0:0:0:0:
320,152,27521,1,6,0:0:0:0:
320,304,27896,1,0,0:0:0:0:
256,176,28646,1,2,0:0:0:0:
352,280,29021,1,2,0:0:0:0:
320,184,29396,1,0,0:0:0:0:
320,184,29771,1,0,0:0:0:0:
320,184,29958,1,0,0:0:0:0:
376,200,30146,1,2,0:0:0:0:
376,200,30521,1,0,0:0:0:0:
376,200,30708,1,2,0:0:0:0:
376,200,30896,1,0,0:0:0:0:
464,256,31271,1,0,0:0:0:0:
464,256,31646,1,2,0:0:0:0:
464,256,32021,1,2,0:0:0:0:
464,256,32396,1,0,0:0:0:0:
264,152,32771,1,0,0:0:0:0:
264,152,32958,1,2,0:0:0:0:
264,152,33052,1,2,0:0:0:0:
272,200,33146,1,2,0:0:0:0:
264,152,33333,1,0,0:0:0:0:
256,168,33521,1,2,0:0:0:0:
232,208,33708,1,2,0:0:0:0:
320,304,33896,1,0,0:0:0:0:
256,176,34646,1,2,0:0:0:0:
352,280,35021,1,2,0:0:0:0:
320,184,35396,1,0,0:0:0:0:
320,184,35771,1,0,0:0:0:0:
320,184,35958,1,0,0:0:0:0:
376,200,36146,1,2,0:0:0:0:
376,200,36521,1,0,0:0:0:0:
376,200,36708,1,2,0:0:0:0:
376,200,36896,1,0,0:0:0:0:
464,256,37271,1,0,0:0:0:0:
464,256,37458,1,0,0:0:0:0:
464,256,37646,1,2,0:0:0:0:
320,200,37833,1,0,0:0:0:0:
464,256,38021,1,0,0:0:0:0:
400,224,38396,1,2,0:0:0:0:
464,256,38771,1,0,0:0:0:0:
464,256,38958,1,2,0:0:0:0:
464,256,39052,1,2,0:0:0:0:
464,256,39146,1,2,0:0:0:0:
464,256,39333,1,0,0:0:0:0:
464,256,39521,1,2,0:0:0:0:
256,192,39896,1,0,0:0:0:0:
240,216,40271,1,2,0:0:0:0:
248,216,40458,1,2,0:0:0:0:
248,216,40646,1,0,0:0:0:0:
248,216,40833,1,2,0:0:0:0:
248,216,40927,1,2,0:0:0:0:
248,216,41021,1,2,0:0:0:0:
248,216,41208,1,2,0:0:0:0:
248,216,41396,1,0,0:0:0:0:
248,216,41771,1,2,0:0:0:0:
248,216,41958,1,2,0:0:0:0:
304,216,42146,5,4,0:0:0:0:
304,216,42521,1,6,0:0:0:0:
400,320,42896,1,4,0:0:0:0:
424,256,43177,1,0,0:0:0:0:
368,280,43458,1,2,0:0:0:0:
440,272,43646,1,0,0:0:0:0:
328,216,43833,1,2,0:0:0:0:
328,216,44021,1,2,0:0:0:0:
328,216,44396,1,0,0:0:0:0:
392,240,44583,1,2,0:0:0:0:
312,184,44677,1,2,0:0:0:0:
448,264,44771,1,2,0:0:0:0:
448,264,44958,1,2,0:0:0:0:
448,264,45146,1,0,0:0:0:0:
448,264,45521,1,2,0:0:0:0:
248,168,45708,1,2,0:0:0:0:
376,248,45896,1,0,0:0:0:0:
376,248,46177,1,0,0:0:0:0:
376,248,46458,1,2,0:0:0:0:
376,248,46646,1,0,0:0:0:0:
376,248,46833,1,2,0:0:0:0:
376,248,47021,1,2,0:0:0:0:
248,256,47396,1,2,0:0:0:0:
352,232,47583,1,0,0:0:0:0:
272,160,47677,1,0,0:0:0:0:
272,160,47771,1,0,0:0:0:0:
368,208,47958,1,2,0:0:0:0:
352,144,48146,1,0,0:0:0:0:
304,216,48521,1,0,0:0:0:0:
344,120,48708,1,2,0:0:0:0:
400,320,48896,1,0,0:0:0:0:
424,224,49177,1,0,0:0:0:0:
368,280,49458,1,2,0:0:0:0:
440,272,49646,1,0,0:0:0:0:
400,248,49833,1,2,0:0:0:0:
328,216,50021,1,2,0:0:0:0:
328,216,50396,1,0,0:0:0:0:
392,240,50583,1,2,0:0:0:0:
264,208,50677,1,2,0:0:0:0:
448,264,50771,1,2,0:0:0:0:
448,264,50958,1,2,0:0:0:0:
448,264,51146,1,0,0:0:0:0:
376,248,51521,1,2,0:0:0:0:
448,264,51708,1,0,0:0:0:0:
304,152,51802,1,0,0:0:0:0:
304,152,51896,1,0,0:0:0:0:
312,192,52083,1,2,0:0:0:0:
288,176,52271,1,0,0:0:0:0:
272,160,52646,1,2,0:0:0:0:
272,160,53021,1,0,0:0:0:0:
176,160,53208,1,0,0:0:0:0:
272,160,53396,1,2,0:0:0:0:
240,64,53677,1,2,0:0:0:0:
280,64,53958,1,2,0:0:0:0:
312,184,54146,1,0,0:0:0:0:
312,184,54521,1,6,0:0:0:0:
312,184,54896,1,4,0:0:0:0:
424,256,55177,1,2,0:0:0:0:
368,280,55458,1,2,0:0:0:0:
440,272,55646,1,0,0:0:0:0:
400,248,55833,1,2,0:0:0:0:
328,216,56021,1,2,0:0:0:0:
328,216,56208,1,0,0:0:0:0:
448,264,56396,1,2,0:0:0:0:
392,240,56583,1,2,0:0:0:0:
312,200,56677,1,2,0:0:0:0:
448,264,56771,1,2,0:0:0:0:
448,264,56958,1,2,0:0:0:0:
448,264,57146,1,0,0:0:0:0:
448,264,57521,1,2,0:0:0:0:
376,248,57708,1,2,0:0:0:0:
376,248,57896,1,0,0:0:0:0:
376,248,58177,1,2,0:0:0:0:
376,248,58458,1,2,0:0:0:0:
376,248,58646,1,0,0:0:0:0:
376,248,58833,1,2,0:0:0:0:
376,248,59021,1,2,0:0:0:0:
328,248,59208,1,0,0:0:0:0:
248,256,59396,1,2,0:0:0:0:
392,184,59583,1,0,0:0:0:0:
312,144,59677,1,0,0:0:0:0:
368,208,59771,1,0,0:0:0:0:
368,208,59958,1,2,0:0:0:0:
352,144,60146,1,0,0:0:0:0:
344,120,60521,1,2,0:0:0:0:
344,120,60896,1,0,0:0:0:0:
232,176,61458,1,2,0:0:0:0:
352,184,61646,1,0,0:0:0:0:
248,160,62396,1,0,0:0:0:0:
344,192,62583,1,2,0:0:0:0:
240,176,62677,1,2,0:0:0:0:
328,184,62771,1,2,0:0:0:0:
328,184,62958,1,2,0:0:0:0:
328,184,63146,1,0,0:0:0:0:
328,184,63521,1,2,0:0:0:0:
272,120,63708,1,0,0:0:0:0:
248,152,64083,1,0,0:0:0:0:
248,152,64271,1,2,0:0:0:0:
264,160,64458,1,2,0:0:0:0:
248,152,64646,1,0,0:0:0:0:
248,152,65021,1,2,0:0:0:0:
248,152,65208,1,0,0:0:0:0:
248,152,65396,1,2,0:0:0:0:
312,208,65677,1,2,0:0:0:0:
376,216,65958,1,2,0:0:0:0:
336,240,66146,1,0,0:0:0:0:
376,112,66521,1,6,0:0:0:0:
392,280,66896,1,4,0:0:0:0:
352,288,67271,1,2,0:0:0:0:
352,288,67646,1,0,0:0:0:0:
352,288,67833,1,2,0:0:0:0:
352,288,67927,1,2,0:0:0:0:
352,288,68021,1,2,0:0:0:0:
352,288,68208,1,2,0:0:0:0:
432,288,68396,1,0,0:0:0:0:
328,248,68771,1,2,0:0:0:0:
392,288,68958,1,2,0:0:0:0:
384,232,69146,1,0,0:0:0:0:
248,192,69333,1,0,0:0:0:0:
376,208,69521,1,2,0:0:0:0:
288,168,69708,1,2,0:0:0:0:
344,168,69896,1,0,0:0:0:0:
256,128,70271,1,2,0:0:0:0:
344,168,70646,1,0,0:0:0:0:
344,168,70833,1,2,0:0:0:0:
344,168,70927,1,2,0:0:0:0:
352,256,71021,1,2,0:0:0:0:
376,200,71208,1,0,0:0:0:0:
344,184,71396,1,2,0:0:0:0:
272,200,71583,1,0,0:0:0:0:
272,200,71677,1,0,0:0:0:0:
296,208,71771,1,0,0:0:0:0:
360,176,71958,1,2,0:0:0:0:
360,176,72146,1,0,0:0:0:0:
376,200,72521,1,2,0:0:0:0:
328,200,72896,1,4,0:0:0:0:
368,336,73271,1,2,0:0:0:0:
352,288,73646,1,0,0:0:0:0:
352,288,73833,1,2,0:0:0:0:
352,288,73927,1,2,0:0:0:0:
352,288,74021,1,2,0:0:0:0:
432,288,74208,1,2,0:0:0:0:
352,288,74396,1,0,0:0:0:0:
328,248,74771,1,0,0:0:0:0:
232,208,74958,1,0,0:0:0:0:
368,192,75146,1,2,0:0:0:0:
408,144,75333,1,0,0:0:0:0:
392,160,75521,1,2,0:0:0:0:
392,160,75708,1,2,0:0:0:0:
392,160,75896,1,0,0:0:0:0:
392,160,76271,1,0,0:0:0:0:
392,160,76458,1,2,0:0:0:0:
392,160,76646,1,0,0:0:0:0:
392,160,76833,1,2,0:0:0:0:
392,160,76927,1,2,0:0:0:0:
392,160,77021,1,2,0:0:0:0:
256,192,77208,1,2,0:0:0:0:
360,144,77396,1,0,0:0:0:0:
296,112,77771,1,0,0:0:0:0:
296,112,78146,1,0,0:0:0:0:
296,112,78521,1,6,0:0:0:0:
312,200,78896,1,0,0:0:0:0:
240,312,79646,1,2,0:0:0:0:
280,192,80021,1,2,0:0:0:0:
376,192,80771,1,0,0:0:0:0:
376,192,81146,1,2,0:0:0:0:
400,248,81521,1,2,0:0:0:0:
312,200,81896,1,0,0:0:0:0:
240,312,82646,1,2,0:0:0:0:
248,200,83021,1,0,0:0:0:0:
352,192,83396,1,2,0:0:0:0:
296,224,83583,1,2,0:0:0:0:
376,192,83771,1,0,0:0:0:0:
376,192,84146,1,2,0:0:0:0:
400,248,84521,1,2,0:0:0:0:
296,224,84708,1,0,0:0:0:0:
312,200,84896,1,0,0:0:0:0:
240,312,85646,1,2,0:0:0:0:
280,192,86021,1,2,0:0:0:0:
376,192,86771,1,0,0:0:0:0:
376,192,87146,1,2,0:0:0:0:
256,208,87333,1,0,0:0:0:0:
400,248,87521,1,2,0:0:0:0:
312,200,87896,1,0,0:0:0:0:
200,376,88646,1,0,0:0:0:0:
240,224,89021,1,0,0:0:0:0:
280,192,89208,1,2,0:0:0:0:
312,120,89396,1,0,0:0:0:0:
312,200,89771,1,0,0:0:0:0:
312,200,90146,1,0,0:0:0:0:
208,184,90521,1,6,0:0:0:0:
320,304,90896,1,0,0:0:0:0:
256,176,91646,1,2,0:0:0:0:
352,280,92021,1,2,0:0:0:0:
320,184,92396,1,0,0:0:0:0:
320,184,92771,1,0,0:0:0:0:
320,184,92958,1,0,0:0:0:0:
376,200,93146,1,2,0:0:0:0:
376,200,93521,1,0,0:0:0:0:
376,200,93708,1,2,0:0:0:0:
376,200,93896,1,0,0:0:0:0:
464,256,94271,1,0,0:0:0:0:
464,256,94646,1,2,0:0:0:0:
464,256,95021,1,2,0:0:0:0:
464,256,95396,1,0,0:0:0:0:
256,192,95771,1,0,0:0:0:0:
256,200,95958,1,2,0:0:0:0:
240,192,96052,1,2,0:0:0:0:
272,200,96146,1,2,0:0:0:0:
248,208,96333,1,0,0:0:0:0:
256,168,96521,1,2,0:0:0:0:
232,208,96708,1,2,0:0:0:0:
320,304,96896,1,0,0:0:0:0:
256,176,97646,1,2,0:0:0:0:
352,280,98021,1,2,0:0:0:0:
320,184,98396,1,0,0:0:0:0:
320,184,98771,1,0,0:0:0:0:
320,184,98958,1,0,0:0:0:0:
376,200,99146,1,2,0:0:0:0:
376,200,99521,1,0,0:0:0:0:
376,200,99708,1,2,0:0:0:0:
376,200,99896,1,0,0:0:0:0:
464,256,100271,1,0,0:0:0:0:
464,256,100458,1,0,0:0:0:0:
464,256,100646,1,2,0:0:0:0:
360,176,100833,1,0,0:0:0:0:
464,256,101021,1,0,0:0:0:0:
400,224,101396,1,2,0:0:0:0:
464,256,101771,1,0,0:0:0:0:
464,256,101958,1,2,0:0:0:0:
464,256,102052,1,2,0:0:0:0:
464,256,102146,1,2,0:0:0:0:
464,256,102333,1,0,0:0:0:0:
464,256,102521,1,2,0:0:0:0:
280,240,102896,1,0,0:0:0:0:
288,240,103271,1,2,0:0:0:0:
288,240,103458,1,2,0:0:0:0:
320,224,103646,1,0,0:0:0:0:
296,200,103833,1,2,0:0:0:0:
296,200,103927,1,2,0:0:0:0:
312,192,104021,1,2,0:0:0:0:
312,192,104208,1,2,0:0:0:0:
312,192,104396,1,0,0:0:0:0:
312,192,104771,1,2,0:0:0:0:
312,200,104958,1,2,0:0:0:0:
312,200,105146,1,4,0:0:0:0:
304,216,105521,1,6,0:0:0:0:
400,320,105896,1,4,0:0:0:0:
424,256,106177,1,0,0:0:0:0:
368,280,106458,1,2,0:0:0:0:
440,272,106646,1,0,0:0:0:0:
328,216,106833,1,2,0:0:0:0:
328,216,107021,1,2,0:0:0:0:
328,216,107396,1,0,0:0:0:0:
392,240,107583,1,2,0:0:0:0:
216,152,107677,1,2,0:0:0:0:
448,264,107771,1,2,0:0:0:0:
448,264,107958,1,2,0:0:0:0:
448,264,108146,1,0,0:0:0:0:
448,264,108521,1,2,0:0:0:0:
248,168,108708,1,2,0:0:0:0:
376,248,108896,1,0,0:0:0:0:
376,248,109177,1,0,0:0:0:0:
376,248,109458,1,2,0:0:0:0:
376,248,109646,1,0,0:0:0:0:
376,248,109833,1,2,0:0:0:0:
376,248,110021,1,2,0:0:0:0:
248,256,110396,1,2,0:0:0:0:
352,232,110583,1,0,0:0:0:0:
176,200,110677,1,0,0:0:0:0:
176,200,110771,1,0,0:0:0:0:
368,208,110958,1,2,0:0:0:0:
352,144,111146,1,0,0:0:0:0:
344,120,111521,1,0,0:0:0:0:
336,200,111708,1,2,0:0:0:0:
400,320,111896,1,0,0:0:0:0:
424,224,112177,1,0,0:0:0:0:
368,280,112458,1,2,0:0:0:0:
440,272,112646,1,0,0:0:0:0:
400,248,112833,1,2,0:0:0:0:
328,216,113021,1,2,0:0:0:0:
328,216,113396,1,0,0:0:0:0:
392,240,113583,1,2,0:0:0:0:
224,200,113677,1,2,0:0:0:0:
448,264,113771,1,2,0:0:0:0:
448,264,113958,1,2,0:0:0:0:
448,264,114146,1,0,0:0:0:0:
200,216,114521,1,2,0:0:0:0:
240,216,114708,1,0,0:0:0:0:
240,216,114802,1,0,0:0:0:0:
240,216,114896,1,0,0:0:0:0:
312,192,115083,1,2,0:0:0:0:
288,176,115271,1,0,0:0:0:0:
272,160,115646,1,2,0:0:0:0:
272,160,116021,1,0,0:0:0:0:
272,160,116208,1,0,0:0:0:0:
272,160,116396,1,2,0:0:0:0:
240,64,116677,1,2,0:0:0:0:
280,64,116958,1,2,0:0:0:0:
312,184,117146,1,0,0:0:0:0:
312,184,117521,1,6,0:0:0:0:
312,184,117896,1,4,0:0:0:0:
424,256,118177,1,2,0:0:0:0:
368,280,118458,1,2,0:0:0:0:
440,272,118646,1,0,0:0:0:0:
400,248,118833,1,2,0:0:0:0:
328,216,119021,1,2,0:0:0:0:
328,216,119208,1,0,0:0:0:0:
448,264,119396,1,2,0:0:0:0:
392,240,119583,1,2,0:0:0:0:
288,256,119677,1,2,0:0:0:0:
448,264,119771,1,2,0:0:0:0:
448,264,119958,1,2,0:0:0:0:
448,264,120146,1,0,0:0:0:0:
448,264,120521,1,2,0:0:0:0:
376,248,120708,1,2,0:0:0:0:
376,248,120896,1,0,0:0:0:0:
376,248,121177,1,2,0:0:0:0:
376,248,121458,1,2,0:0:0:0:
376,248,121646,1,0,0:0:0:0:
376,248,121833,1,2,0:0:0:0:
376,248,122021,1,2,0:0:0:0:
328,248,122208,1,0,0:0:0:0:
248,256,122396,1,2,0:0:0:0:
256,240,122583,1,0,0:0:0:0:
256,240,122677,1,0,0:0:0:0:
368,208,122771,1,0,0:0:0:0:
368,208,122958,1,2,0:0:0:0:
352,144,123146,1,0,0:0:0:0:
344,120,123521,1,2,0:0:0:0:
344,120,123896,1,0,0:0:0:0:
264,104,124458,1,2,0:0:0:0:
352,184,124646,1,0,0:0:0:0:
248,160,125396,1,0,0:0:0:0:
344,192,125583,1,2,0:0:0:0:
224,176,125677,1,2,0:0:0:0:
328,184,125771,1,2,0:0:0:0:
328,184,125958,1,2,0:0:0:0:
328,184,126146,1,0,0:0:0:0:
328,184,126521,1,2,0:0:0:0:
272,120,126708,1,0,0:0:0:0:
248,152,126896,1,0,0:0:0:0:
248,152,127177,1,2,0:0:0:0:
248,152,127458,1,2,0:0:0:0:
248,144,127646,1,2,0:0:0:0:
248,152,127927,1,2,0:0:0:0:
248,152,128208,1,0,0:0:0:0:
248,152,128396,1,2,0:0:0:0:
312,208,128677,1,2,0:0:0:0:
376,216,128958,5,2,0:0:0:0:
336,240,129146,1,0,0:0:0:0:
376,112,129521,1,6,0:0:0:0:
392,280,129896,1,4,0:0:0:0:
352,288,130271,1,2,0:0:0:0:
352,288,130646,1,0,0:0:0:0:
352,288,130833,1,2,0:0:0:0:
352,288,130927,1,2,0:0:0:0:
352,288,131021,1,2,0:0:0:0:
352,288,131208,1,0,0:0:0:0:
432,288,131396,1,2,0:0:0:0:
328,248,131583,1,2,0:0:0:0:
384,232,131771,1,0,0:0:0:0:
392,288,131958,1,2,0:0:0:0:
248,192,132146,1,0,0:0:0:0:
376,208,132521,1,2,0:0:0:0:
240,176,132708,1,2,0:0:0:0:
344,168,132896,1,0,0:0:0:0:
256,128,133271,1,2,0:0:0:0:
344,168,133646,1,0,0:0:0:0:
344,168,133833,1,2,0:0:0:0:
344,168,133927,1,2,0:0:0:0:
352,256,134021,1,2,0:0:0:0:
376,200,134208,1,0,0:0:0:0:
344,184,134396,1,2,0:0:0:0:
288,200,134583,1,0,0:0:0:0:
288,192,134677,1,0,0:0:0:0:
296,208,134771,1,0,0:0:0:0:
360,176,134958,1,2,0:0:0:0:
360,176,135146,1,0,0:0:0:0:
376,200,135521,1,2,0:0:0:0:
256,208,135708,1,2,0:0:0:0:
328,200,135896,1,4,0:0:0:0:
368,336,136271,1,2,0:0:0:0:
352,288,136646,1,0,0:0:0:0:
352,288,136833,1,2,0:0:0:0:
352,288,136927,1,2,0:0:0:0:
352,288,137021,1,2,0:0:0:0:
432,288,137208,1,0,0:0:0:0:
352,288,137396,1,2,0:0:0:0:
384,216,137583,1,0,0:0:0:0:
328,248,137771,1,0,0:0:0:0:
368,192,137958,1,2,0:0:0:0:
408,144,138146,1,0,0:0:0:0:
392,160,138521,1,2,0:0:0:0:
392,160,138708,1,2,0:0:0:0:
392,160,138896,1,0,0:0:0:0:
392,160,139271,1,0,0:0:0:0:
392,160,139458,1,2,0:0:0:0:
392,160,139646,1,0,0:0:0:0:
392,160,139833,1,2,0:0:0:0:
392,160,139927,1,2,0:0:0:0:
392,160,140021,1,2,0:0:0:0:
256,192,140208,1,2,0:0:0:0:
360,144,140396,1,0,0:0:0:0:
296,112,140771,1,0,0:0:0:0:
296,112,141146,1,0,0:0:0:0:
296,112,141521,1,6,0:0:0:0:
