osu file format v14

[General]
AudioFilename: audio.mp3
AudioLeadIn: 0
PreviewTime: 105802
Countdown: 0
SampleSet: Normal
StackLeniency: 0.7
Mode: 1
LetterboxInBreaks: 0
WidescreenStoryboard: 0

[Editor]
DistanceSpacing: 1
BeatDivisor: 4
GridSize: 8
TimelineZoom: 2.4

[Metadata]
Title:Nekomatsuri
TitleUnicode:猫祭り
Artist:Hakobe Naru(CV:M.A.O)
ArtistUnicode:箱部なる(CV:M・A・O)
Creator:komasy
Version:Oni
Source:CHUNITHM AIR PLUS
Tags:チュウニズム イロドリミドリ CHUNITHM Irodorimidori ヒゲドライバー Hige Driver Tes. 市道真央 Ichimichi Mao SEGA セガ butter0414 tasuke912
BeatmapID:1418602
BeatmapSetID:659442

[Difficulty]
HPDrainRate:5
CircleSize:2
OverallDifficulty:5.5
ApproachRate:5
SliderMultiplier:1.4
SliderTickRate:1

[Events]
//Background and Video events
0,0,"BG.jpg",0,80
//Break Periods
//Storyboard Layer 0 (Background)
//Storyboard Layer 1 (Fail)
//Storyboard Layer 2 (Pass)
//Storyboard Layer 3 (Foreground)
//Storyboard Sound Samples

[TimingPoints]
896,375,4,1,0,20,1,0
3427,-100,4,1,0,90,0,0
3896,-100,4,1,0,100,0,1
15896,-100,4,1,0,90,0,0
27896,-100,4,1,0,80,0,0
40271,-100,4,1,0,75,0,0
40646,-100,4,1,0,50,0,0
41021,-100,4,1,0,35,0,0
41396,-100,4,1,0,20,0,0
42052,-100,4,1,0,90,0,0
42896,-100,4,1,0,100,0,1
60896,-100,4,1,0,100,0,0
62396,-100,4,1,0,100,0,1
66521,-100,4,1,0,100,0,0
66896,-100,4,1,0,100,0,1
78896,-100,4,1,0,90,0,0
103271,-100,4,1,0,60,0,0
103646,-100,4,1,0,40,0,0
104021,-100,4,1,0,20,0,0
105052,-100,4,1,0,90,0,0
105896,-100,4,1,0,100,0,1
123896,-100,4,1,0,100,0,0
125396,-100,4,1,0,100,0,1
129521,-100,4,1,0,100,0,0
129896,-100,4,1,0,100,0,1
141521,-100,4,1,0,100,0,0

[HitObjects]
296,200,3521,5,12,0:0:0:0:
296,200,3896,1,4,0:0:0:0:
296,200,4271,1,8,0:0:0:0:
312,80,4646,1,0,0:0:0:0:
312,80,4833,1,8,0:0:0:0:
312,80,4927,1,8,0:0:0:0:
312,80,5021,1,0,0:0:0:0:
264,112,5208,1,8,0:0:0:0:
304,160,5396,1,0,0:0:0:0:
352,200,5583,1,8,0:0:0:0:
416,248,5771,1,0,0:0:0:0:
456,280,5864,1,0,0:0:0:0:
480,296,5958,1,8,0:0:0:0:
480,296,6146,1,0,0:0:0:0:
416,248,6333,1,8,0:0:0:0:
416,248,6427,1,0,0:0:0:0:
480,296,6521,1,8,0:0:0:0:
432,232,6708,1,8,0:0:0:0:
416,248,6896,1,0,0:0:0:0:
416,248,7271,1,8,0:0:0:0:
432,232,7646,1,0,0:0:0:0:
416,248,7833,1,8,0:0:0:0:
416,248,7927,1,8,0:0:0:0:
416,248,8021,1,0,0:0:0:0:
416,248,8208,1,8,0:0:0:0:
432,232,8396,1,0,0:0:0:0:
432,232,8583,1,8,0:0:0:0:
432,232,8677,1,0,0:0:0:0:
432,232,8771,1,0,0:0:0:0:
432,232,8958,1,8,0:0:0:0:
432,232,9146,1,0,0:0:0:0:
432,232,9333,1,8,0:0:0:0:
432,232,9427,1,0,0:0:0:0:
408,224,9521,1,8,0:0:0:0:
352,192,9708,1,8,0:0:0:0:
296,152,9896,1,0,0:0:0:0:
408,240,10271,1,8,0:0:0:0:
296,152,10646,1,0,0:0:0:0:
352,192,10833,1,8,0:0:0:0:
328,176,10927,1,8,0:0:0:0:
328,176,11021,1,0,0:0:0:0:
328,176,11208,1,8,0:0:0:0:
328,176,11396,1,0,0:0:0:0:
328,176,11583,1,8,0:0:0:0:
328,176,11771,1,0,0:0:0:0:
328,176,11864,1,0,0:0:0:0:
328,176,11958,1,8,0:0:0:0:
328,176,12146,1,0,0:0:0:0:
328,176,12333,1,8,0:0:0:0:
328,176,12427,1,0,0:0:0:0:
328,176,12521,1,8,0:0:0:0:
328,176,12708,1,8,0:0:0:0:
328,176,12896,1,0,0:0:0:0:
328,176,13083,1,8,0:0:0:0:
328,176,13177,1,8,0:0:0:0:
328,176,13364,1,8,0:0:0:0:
328,176,13552,1,8,0:0:0:0:
328,176,13646,1,0,0:0:0:0:
328,176,13833,1,8,0:0:0:0:
328,176,13927,1,8,0:0:0:0:
328,176,14114,1,8,0:0:0:0:
328,176,14302,1,8,0:0:0:0:
328,176,14396,1,0,0:0:0:0:
336,184,14583,1,0,0:0:0:0:
328,216,14677,1,0,0:0:0:0:
336,200,14771,1,0,0:0:0:0:
264,96,14958,1,8,0:0:0:0:
264,96,15146,1,0,0:0:0:0:
368,176,15521,1,12,0:0:0:0:
472,248,15896,1,0,0:0:0:0:
408,224,16083,1,8,0:0:0:0:
368,176,16271,1,0,0:0:0:0:
432,200,16458,1,8,0:0:0:0:
416,224,16646,1,0,0:0:0:0:
432,216,16739,1,0,0:0:0:0:
456,208,16833,1,8,0:0:0:0:
456,208,17021,1,0,0:0:0:0:
416,224,17208,1,8,0:0:0:0:
432,200,17396,1,0,0:0:0:0:
416,224,17583,1,8,0:0:0:0:
368,176,17771,1,0,0:0:0:0:
416,224,17864,1,8,0:0:0:0:
416,224,18052,1,8,0:0:0:0:
416,224,18146,1,0,0:0:0:0:
368,176,18333,1,0,0:0:0:0:
368,176,18521,1,8,0:0:0:0:
272,80,18896,1,0,0:0:0:0:
312,120,19083,1,8,0:0:0:0:
368,152,19271,1,0,0:0:0:0:
336,144,19364,1,0,0:0:0:0:
368,176,19458,1,8,0:0:0:0:
344,240,19646,1,0,0:0:0:0:
344,240,19833,1,8,0:0:0:0:
344,240,19927,1,8,0:0:0:0:
344,240,20021,1,0,0:0:0:0:
296,192,20208,1,8,0:0:0:0:
360,192,20396,1,4,0:0:0:0:
448,304,20771,1,8,0:0:0:0:
488,256,20958,1,0,0:0:0:0:
440,200,21146,1,12,0:0:0:0:
320,128,21521,1,8,0:0:0:0:
440,200,21896,1,4,0:0:0:0:
376,168,22083,1,8,0:0:0:0:
360,152,22271,1,0,0:0:0:0:
304,96,22364,1,0,0:0:0:0:
320,128,22458,1,8,0:0:0:0:
392,152,22646,1,0,0:0:0:0:
328,120,22833,1,8,0:0:0:0:
296,104,22927,1,0,0:0:0:0:
240,72,23114,1,0,0:0:0:0:
240,72,23208,1,8,0:0:0:0:
240,72,23396,1,0,0:0:0:0:
240,72,23583,1,8,0:0:0:0:
240,72,23771,1,0,0:0:0:0:
240,72,23864,1,0,0:0:0:0:
240,72,23958,1,8,0:0:0:0:
240,72,24146,1,0,0:0:0:0:
240,72,24333,1,8,0:0:0:0:
240,72,24427,1,0,0:0:0:0:
240,72,24521,1,8,0:0:0:0:
264,80,24614,1,8,0:0:0:0:
296,96,24708,1,8,0:0:0:0:
336,112,24896,1,4,0:0:0:0:
448,360,25646,1,12,0:0:0:0:
336,104,26396,1,4,0:0:0:0:
392,240,26771,1,4,0:0:0:0:
336,104,27146,1,12,0:0:0:0:
384,152,27333,1,0,0:0:0:0:
416,184,27427,1,0,0:0:0:0:
440,208,27521,1,8,0:0:0:0:
320,136,27896,1,0,0:0:0:0:
184,88,28271,1,0,0:0:0:0:
304,128,28646,1,8,0:0:0:0:
304,128,29021,1,8,0:0:0:0:
304,128,29396,1,0,0:0:0:0:
304,128,29771,1,8,0:0:0:0:
304,128,29958,1,0,0:0:0:0:
248,88,30146,1,8,0:0:0:0:
304,128,30521,1,8,0:0:0:0:
296,184,30708,1,8,0:0:0:0:
304,128,30896,1,0,0:0:0:0:
304,128,31271,1,0,0:0:0:0:
304,128,31646,1,8,0:0:0:0:
304,128,32021,1,8,0:0:0:0:
304,128,32396,1,0,0:0:0:0:
304,128,32771,1,0,0:0:0:0:
304,128,32958,1,0,0:0:0:0:
304,128,33052,1,0,0:0:0:0:
304,128,33146,1,8,0:0:0:0:
304,128,33333,1,0,0:0:0:0:
304,128,33521,1,8,0:0:0:0:
304,128,33708,1,8,0:0:0:0:
360,160,33896,1,0,0:0:0:0:
240,88,34271,1,0,0:0:0:0:
360,160,34646,1,8,0:0:0:0:
240,88,35021,1,0,0:0:0:0:
360,160,35396,1,8,0:0:0:0:
232,96,35771,1,8,0:0:0:0:
296,128,35958,1,0,0:0:0:0:
360,168,36146,1,8,0:0:0:0:
248,96,36521,1,8,0:0:0:0:
312,120,36708,1,8,0:0:0:0:
360,168,36896,1,0,0:0:0:0:
360,168,37177,1,0,0:0:0:0:
320,64,37458,1,0,0:0:0:0:
344,120,37646,1,8,0:0:0:0:
360,168,37833,1,0,0:0:0:0:
360,168,38021,1,0,0:0:0:0:
360,168,38208,1,8,0:0:0:0:
360,168,38396,1,0,0:0:0:0:
360,168,38771,1,0,0:0:0:0:
360,168,38958,1,0,0:0:0:0:
360,168,39052,1,0,0:0:0:0:
360,168,39146,1,8,0:0:0:0:
360,168,39333,1,0,0:0:0:0:
360,168,39521,1,8,0:0:0:0:
360,168,39614,1,8,0:0:0:0:
360,168,39708,1,8,0:0:0:0:
360,168,39896,1,4,0:0:0:0:
256,192,40083,12,0,41771,0:0:0:0:
224,192,42146,5,12,0:0:0:0:
224,192,42521,1,12,0:0:0:0:
224,192,42896,1,4,0:0:0:0:
320,224,43177,1,8,0:0:0:0:
344,232,43271,1,0,0:0:0:0:
416,248,43458,1,8,0:0:0:0:
416,248,43646,1,0,0:0:0:0:
416,248,43833,1,8,0:0:0:0:
440,240,43927,1,0,0:0:0:0:
416,248,44021,1,8,0:0:0:0:
472,288,44208,1,8,0:0:0:0:
416,240,44396,1,0,0:0:0:0:
464,280,44583,1,8,0:0:0:0:
464,280,44677,1,8,0:0:0:0:
472,288,44771,1,0,0:0:0:0:
472,288,44958,1,8,0:0:0:0:
472,288,45146,1,0,0:0:0:0:
464,280,45239,1,0,0:0:0:0:
464,280,45333,1,0,0:0:0:0:
464,280,45521,1,8,0:0:0:0:
360,200,45896,1,0,0:0:0:0:
280,144,46177,1,8,0:0:0:0:
248,112,46271,1,0,0:0:0:0:
248,112,46458,1,8,0:0:0:0:
248,112,46646,1,0,0:0:0:0:
248,112,46833,1,8,0:0:0:0:
248,112,46927,1,0,0:0:0:0:
248,112,47021,1,8,0:0:0:0:
248,112,47208,1,8,0:0:0:0:
296,48,47396,1,0,0:0:0:0:
256,96,47583,1,0,0:0:0:0:
272,72,47677,1,8,0:0:0:0:
272,72,47771,1,0,0:0:0:0:
272,72,47958,1,8,0:0:0:0:
208,40,48146,1,0,0:0:0:0:
208,40,48239,1,8,0:0:0:0:
272,72,48333,1,0,0:0:0:0:
272,72,48427,1,0,0:0:0:0:
272,72,48521,1,8,0:0:0:0:
328,184,48896,1,4,0:0:0:0:
392,104,49177,1,8,0:0:0:0:
376,112,49271,1,0,0:0:0:0:
392,104,49458,1,8,0:0:0:0:
392,104,49646,1,0,0:0:0:0:
392,104,49833,1,8,0:0:0:0:
392,104,49927,1,0,0:0:0:0:
392,104,50021,1,8,0:0:0:0:
328,112,50208,1,8,0:0:0:0:
328,112,50396,1,0,0:0:0:0:
328,112,50583,1,8,0:0:0:0:
328,112,50677,1,8,0:0:0:0:
328,112,50771,1,0,0:0:0:0:
328,112,50958,1,8,0:0:0:0:
328,112,51146,1,0,0:0:0:0:
304,104,51239,1,8,0:0:0:0:
304,104,51427,1,8,0:0:0:0:
304,104,51521,1,0,0:0:0:0:
240,104,51614,1,0,0:0:0:0:
240,104,51708,1,8,0:0:0:0:
256,112,51896,1,0,0:0:0:0:
320,152,52083,1,8,0:0:0:0:
352,176,52177,1,8,0:0:0:0:
352,176,52364,1,8,0:0:0:0:
352,176,52552,1,8,0:0:0:0:
352,176,52646,1,0,0:0:0:0:
352,176,52833,1,8,0:0:0:0:
352,176,52927,1,8,0:0:0:0:
352,176,53114,1,8,0:0:0:0:
384,224,53208,1,8,0:0:0:0:
352,176,53302,1,8,0:0:0:0:
352,176,53396,1,0,0:0:0:0:
304,136,53583,1,0,0:0:0:0:
384,224,53677,1,8,0:0:0:0:
312,200,53864,1,8,0:0:0:0:
384,224,53958,1,0,0:0:0:0:
384,224,54146,1,8,0:0:0:0:
272,144,54521,1,12,0:0:0:0:
224,192,54896,1,4,0:0:0:0:
320,224,55177,1,8,0:0:0:0:
344,232,55271,1,0,0:0:0:0:
416,248,55458,1,8,0:0:0:0:
416,248,55646,1,0,0:0:0:0:
416,248,55833,1,8,0:0:0:0:
440,240,55927,1,0,0:0:0:0:
416,248,56021,1,8,0:0:0:0:
472,288,56208,1,8,0:0:0:0:
416,240,56396,1,0,0:0:0:0:
464,280,56583,1,8,0:0:0:0:
464,280,56677,1,8,0:0:0:0:
472,288,56771,1,0,0:0:0:0:
472,288,56958,1,8,0:0:0:0:
472,288,57146,1,0,0:0:0:0:
464,280,57239,1,0,0:0:0:0:
464,280,57333,1,0,0:0:0:0:
464,280,57521,1,8,0:0:0:0:
400,264,57708,1,8,0:0:0:0:
360,200,57896,1,0,0:0:0:0:
280,144,58177,1,8,0:0:0:0:
248,112,58271,1,0,0:0:0:0:
248,112,58458,1,8,0:0:0:0:
248,112,58646,1,0,0:0:0:0:
248,112,58833,1,8,0:0:0:0:
248,112,58927,1,0,0:0:0:0:
248,112,59021,1,8,0:0:0:0:
248,112,59208,1,8,0:0:0:0:
296,48,59396,1,0,0:0:0:0:
256,96,59583,1,0,0:0:0:0:
272,72,59677,1,8,0:0:0:0:
272,72,59771,1,0,0:0:0:0:
272,72,59958,1,8,0:0:0:0:
272,72,60146,1,0,0:0:0:0:
272,72,60239,1,8,0:0:0:0:
272,72,60333,1,0,0:0:0:0:
272,72,60427,1,0,0:0:0:0:
272,72,60521,1,8,0:0:0:0:
336,56,60708,1,8,0:0:0:0:
328,184,60896,1,4,0:0:0:0:
312,256,61646,1,4,0:0:0:0:
368,288,61833,1,8,0:0:0:0:
424,328,62021,1,8,0:0:0:0:
320,192,62396,1,4,0:0:0:0:
328,112,62583,1,8,0:0:0:0:
328,112,62677,1,8,0:0:0:0:
328,112,62771,1,0,0:0:0:0:
328,112,62958,1,8,0:0:0:0:
328,112,63146,1,0,0:0:0:0:
232,160,63427,1,0,0:0:0:0:
320,152,63521,1,8,0:0:0:0:
240,104,63708,1,8,0:0:0:0:
256,112,63896,1,0,0:0:0:0:
320,152,64083,1,8,0:0:0:0:
352,176,64177,1,8,0:0:0:0:
352,176,64364,1,8,0:0:0:0:
352,176,64552,1,8,0:0:0:0:
352,176,64646,1,0,0:0:0:0:
352,176,64833,1,8,0:0:0:0:
352,176,64927,1,8,0:0:0:0:
352,176,65114,1,8,0:0:0:0:
352,176,65208,1,8,0:0:0:0:
352,176,65302,1,8,0:0:0:0:
352,176,65396,1,0,0:0:0:0:
384,224,65677,1,4,0:0:0:0:
384,224,65958,1,4,0:0:0:0:
384,224,66146,1,12,0:0:0:0:
272,144,66521,1,12,0:0:0:0:
296,200,66896,1,4,0:0:0:0:
296,200,67271,1,8,0:0:0:0:
312,80,67646,1,0,0:0:0:0:
312,80,67833,1,8,0:0:0:0:
312,80,67927,1,8,0:0:0:0:
312,80,68021,1,0,0:0:0:0:
264,112,68208,1,8,0:0:0:0:
304,160,68396,1,0,0:0:0:0:
456,280,68489,1,0,0:0:0:0:
352,200,68583,1,8,0:0:0:0:
416,248,68771,1,0,0:0:0:0:
480,296,68958,1,8,0:0:0:0:
480,296,69146,1,0,0:0:0:0:
416,248,69333,1,8,0:0:0:0:
416,248,69427,1,0,0:0:0:0:
480,296,69521,1,8,0:0:0:0:
432,232,69708,1,8,0:0:0:0:
416,248,69896,1,0,0:0:0:0:
416,248,70271,1,8,0:0:0:0:
432,232,70646,1,0,0:0:0:0:
416,248,70833,1,8,0:0:0:0:
416,248,70927,1,8,0:0:0:0:
416,248,71021,1,0,0:0:0:0:
416,248,71208,1,8,0:0:0:0:
432,232,71396,1,0,0:0:0:0:
432,232,71583,1,8,0:0:0:0:
432,232,71677,1,0,0:0:0:0:
432,232,71771,1,0,0:0:0:0:
432,232,71958,1,8,0:0:0:0:
432,232,72146,1,0,0:0:0:0:
432,232,72333,1,8,0:0:0:0:
432,232,72427,1,0,0:0:0:0:
408,224,72521,1,8,0:0:0:0:
352,192,72708,1,8,0:0:0:0:
296,152,72896,1,0,0:0:0:0:
408,240,73271,1,8,0:0:0:0:
296,152,73646,1,0,0:0:0:0:
352,192,73833,1,8,0:0:0:0:
328,176,73927,1,8,0:0:0:0:
328,176,74021,1,0,0:0:0:0:
328,176,74208,1,8,0:0:0:0:
328,176,74396,1,0,0:0:0:0:
328,176,74489,1,0,0:0:0:0:
328,176,74583,1,8,0:0:0:0:
328,176,74771,1,0,0:0:0:0:
328,176,74958,1,8,0:0:0:0:
328,176,75146,1,0,0:0:0:0:
328,176,75333,1,8,0:0:0:0:
328,176,75427,1,0,0:0:0:0:
328,176,75521,1,8,0:0:0:0:
328,176,75708,1,8,0:0:0:0:
328,176,75896,1,0,0:0:0:0:
328,176,76083,1,8,0:0:0:0:
328,176,76177,1,8,0:0:0:0:
328,176,76364,1,8,0:0:0:0:
328,176,76552,1,8,0:0:0:0:
328,176,76646,1,0,0:0:0:0:
328,176,76833,1,8,0:0:0:0:
328,176,76927,1,8,0:0:0:0:
328,176,77114,1,8,0:0:0:0:
328,176,77302,1,8,0:0:0:0:
328,176,77396,1,0,0:0:0:0:
336,184,77583,1,0,0:0:0:0:
328,216,77677,1,0,0:0:0:0:
336,200,77771,1,0,0:0:0:0:
264,96,77958,1,8,0:0:0:0:
264,96,78146,1,0,0:0:0:0:
368,176,78521,1,12,0:0:0:0:
488,112,78896,1,0,0:0:0:0:
288,288,79646,1,8,0:0:0:0:
392,200,80021,1,0,0:0:0:0:
336,248,80208,1,8,0:0:0:0:
392,200,80583,1,8,0:0:0:0:
392,200,80771,1,0,0:0:0:0:
400,336,81146,1,8,0:0:0:0:
392,192,81521,1,8,0:0:0:0:
376,48,81896,1,0,0:0:0:0:
408,328,82646,1,8,0:0:0:0:
384,184,83021,1,0,0:0:0:0:
376,104,83208,1,8,0:0:0:0:
384,176,83396,1,8,0:0:0:0:
376,112,83583,1,8,0:0:0:0:
376,112,83771,1,0,0:0:0:0:
448,240,84146,1,8,0:0:0:0:
376,120,84521,1,8,0:0:0:0:
376,120,84896,1,0,0:0:0:0:
376,120,85646,1,8,0:0:0:0:
376,120,86021,1,0,0:0:0:0:
376,120,86208,1,8,0:0:0:0:
376,120,86583,1,8,0:0:0:0:
376,120,86771,1,0,0:0:0:0:
472,232,87146,1,8,0:0:0:0:
384,128,87521,1,8,0:0:0:0:
384,128,87896,1,0,0:0:0:0:
472,248,88458,1,0,0:0:0:0:
512,312,88646,1,8,0:0:0:0:
416,216,89021,1,0,0:0:0:0:
360,160,89208,1,8,0:0:0:0:
312,112,89396,1,4,0:0:0:0:
440,160,89771,1,4,0:0:0:0:
320,112,90146,1,12,0:0:0:0:
200,168,90521,1,12,0:0:0:0:
320,136,90896,1,0,0:0:0:0:
184,88,91271,1,0,0:0:0:0:
304,128,91646,1,8,0:0:0:0:
304,128,92021,1,8,0:0:0:0:
304,128,92396,1,0,0:0:0:0:
304,128,92771,1,8,0:0:0:0:
304,128,92958,1,0,0:0:0:0:
248,88,93146,1,8,0:0:0:0:
304,128,93521,1,8,0:0:0:0:
296,184,93708,1,8,0:0:0:0:
304,128,93896,1,0,0:0:0:0:
304,128,94271,1,0,0:0:0:0:
304,128,94646,1,8,0:0:0:0:
304,128,95021,1,8,0:0:0:0:
304,128,95396,1,0,0:0:0:0:
304,128,95771,1,0,0:0:0:0:
304,128,95958,1,0,0:0:0:0:
304,128,96052,1,0,0:0:0:0:
304,128,96146,1,8,0:0:0:0:
304,128,96333,1,0,0:0:0:0:
304,128,96521,1,8,0:0:0:0:
304,128,96708,1,8,0:0:0:0:
360,160,96896,1,0,0:0:0:0:
240,88,97271,1,0,0:0:0:0:
360,160,97646,1,8,0:0:0:0:
240,88,98021,1,0,0:0:0:0:
360,160,98396,1,8,0:0:0:0:
232,96,98771,1,8,0:0:0:0:
296,128,98958,1,0,0:0:0:0:
360,168,99146,1,8,0:0:0:0:
248,96,99521,1,8,0:0:0:0:
312,120,99708,1,8,0:0:0:0:
360,168,99896,1,0,0:0:0:0:
360,168,100177,1,0,0:0:0:0:
320,64,100458,1,0,0:0:0:0:
344,120,100646,1,8,0:0:0:0:
360,168,100833,1,0,0:0:0:0:
360,168,101021,1,0,0:0:0:0:
360,168,101208,1,8,0:0:0:0:
360,168,101396,1,0,0:0:0:0:
360,168,101771,1,0,0:0:0:0:
360,168,101958,1,0,0:0:0:0:
360,168,102052,1,0,0:0:0:0:
360,168,102146,1,8,0:0:0:0:
360,168,102333,1,0,0:0:0:0:
360,168,102521,1,8,0:0:0:0:
360,168,102614,1,8,0:0:0:0:
360,168,102708,1,8,0:0:0:0:
360,168,102896,1,4,0:0:0:0:
256,192,103083,12,0,104396,0:0:0:0:
224,192,105146,5,12,0:0:0:0:
224,192,105521,1,12,0:0:0:0:
224,192,105896,1,4,0:0:0:0:
320,224,106177,1,8,0:0:0:0:
344,232,106271,1,0,0:0:0:0:
416,248,106458,1,8,0:0:0:0:
416,248,106646,1,0,0:0:0:0:
416,248,106833,1,8,0:0:0:0:
440,240,106927,1,0,0:0:0:0:
416,248,107021,1,8,0:0:0:0:
472,288,107208,1,8,0:0:0:0:
416,240,107396,1,0,0:0:0:0:
376,216,107489,1,0,0:0:0:0:
464,280,107583,1,8,0:0:0:0:
464,280,107677,1,8,0:0:0:0:
472,288,107771,1,0,0:0:0:0:
472,288,107958,1,8,0:0:0:0:
472,288,108146,1,0,0:0:0:0:
464,280,108239,1,0,0:0:0:0:
464,280,108427,1,0,0:0:0:0:
464,280,108521,1,8,0:0:0:0:
248,112,108708,1,8,0:0:0:0:
360,200,108896,1,0,0:0:0:0:
280,144,109177,1,8,0:0:0:0:
248,112,109271,1,0,0:0:0:0:
248,112,109458,1,8,0:0:0:0:
248,112,109646,1,0,0:0:0:0:
248,112,109833,1,8,0:0:0:0:
248,112,109927,1,0,0:0:0:0:
248,112,110021,1,8,0:0:0:0:
248,112,110208,1,8,0:0:0:0:
296,48,110396,1,0,0:0:0:0:
312,64,110489,1,0,0:0:0:0:
328,80,110583,1,8,0:0:0:0:
272,72,110677,1,0,0:0:0:0:
272,72,110771,1,0,0:0:0:0:
272,72,110958,1,8,0:0:0:0:
272,72,111146,1,0,0:0:0:0:
272,72,111239,1,8,0:0:0:0:
272,72,111333,1,0,0:0:0:0:
288,88,111427,1,0,0:0:0:0:
272,72,111521,1,8,0:0:0:0:
328,184,111896,1,4,0:0:0:0:
392,104,112177,1,8,0:0:0:0:
376,112,112271,1,0,0:0:0:0:
392,104,112458,1,8,0:0:0:0:
392,104,112646,1,0,0:0:0:0:
392,104,112833,1,8,0:0:0:0:
392,104,112927,1,0,0:0:0:0:
392,104,113021,1,8,0:0:0:0:
328,112,113208,1,8,0:0:0:0:
328,112,113396,1,0,0:0:0:0:
304,136,113489,1,0,0:0:0:0:
328,112,113583,1,8,0:0:0:0:
328,112,113677,1,8,0:0:0:0:
328,112,113771,1,0,0:0:0:0:
328,112,113958,1,8,0:0:0:0:
328,112,114146,1,0,0:0:0:0:
304,104,114239,1,8,0:0:0:0:
304,104,114427,1,8,0:0:0:0:
304,104,114521,1,0,0:0:0:0:
240,104,114614,1,0,0:0:0:0:
240,104,114708,1,8,0:0:0:0:
256,112,114896,1,0,0:0:0:0:
320,152,115083,1,8,0:0:0:0:
352,176,115177,1,8,0:0:0:0:
352,176,115364,1,8,0:0:0:0:
352,176,115552,1,8,0:0:0:0:
352,176,115646,1,0,0:0:0:0:
352,176,115833,1,8,0:0:0:0:
352,176,115927,1,8,0:0:0:0:
352,176,116114,1,8,0:0:0:0:
352,176,116208,1,8,0:0:0:0:
352,176,116302,1,8,0:0:0:0:
352,176,116396,1,0,0:0:0:0:
304,136,116583,1,0,0:0:0:0:
384,224,116677,1,8,0:0:0:0:
312,200,116864,1,8,0:0:0:0:
384,224,116958,1,0,0:0:0:0:
384,224,117146,1,8,0:0:0:0:
272,144,117521,1,12,0:0:0:0:
224,192,117896,1,4,0:0:0:0:
320,224,118177,1,8,0:0:0:0:
344,232,118271,1,0,0:0:0:0:
416,248,118458,1,8,0:0:0:0:
416,248,118646,1,0,0:0:0:0:
416,248,118833,1,8,0:0:0:0:
440,240,118927,1,0,0:0:0:0:
416,248,119021,1,8,0:0:0:0:
472,288,119208,1,8,0:0:0:0:
416,240,119396,1,0,0:0:0:0:
384,224,119489,1,0,0:0:0:0:
464,280,119583,1,8,0:0:0:0:
464,280,119677,1,8,0:0:0:0:
472,288,119771,1,0,0:0:0:0:
472,288,119958,1,8,0:0:0:0:
472,288,120146,1,0,0:0:0:0:
464,280,120239,1,0,0:0:0:0:
448,256,120427,1,0,0:0:0:0:
464,280,120521,1,8,0:0:0:0:
248,112,120708,1,8,0:0:0:0:
360,200,120896,1,0,0:0:0:0:
280,144,121177,1,8,0:0:0:0:
248,112,121271,1,0,0:0:0:0:
248,112,121458,1,8,0:0:0:0:
248,112,121646,1,0,0:0:0:0:
248,112,121833,1,8,0:0:0:0:
248,112,121927,1,0,0:0:0:0:
248,112,122021,1,8,0:0:0:0:
248,112,122208,1,8,0:0:0:0:
296,48,122396,1,0,0:0:0:0:
304,80,122489,1,0,0:0:0:0:
304,80,122583,1,8,0:0:0:0:
304,80,122677,1,0,0:0:0:0:
272,72,122771,1,0,0:0:0:0:
272,72,122958,1,8,0:0:0:0:
272,72,123146,1,0,0:0:0:0:
272,72,123239,1,8,0:0:0:0:
272,72,123333,1,0,0:0:0:0:
272,72,123427,1,0,0:0:0:0:
272,72,123521,1,8,0:0:0:0:
328,104,123708,1,8,0:0:0:0:
328,184,123896,1,4,0:0:0:0:
312,256,124646,1,4,0:0:0:0:
368,288,124833,1,8,0:0:0:0:
424,328,125021,1,8,0:0:0:0:
320,192,125396,1,4,0:0:0:0:
328,112,125583,1,8,0:0:0:0:
328,112,125677,1,8,0:0:0:0:
328,112,125771,1,0,0:0:0:0:
328,112,125958,1,8,0:0:0:0:
328,112,126146,1,0,0:0:0:0:
232,160,126427,1,0,0:0:0:0:
320,152,126521,1,8,0:0:0:0:
240,104,126708,1,8,0:0:0:0:
256,112,126896,1,0,0:0:0:0:
320,152,127083,1,8,0:0:0:0:
352,176,127177,1,8,0:0:0:0:
352,176,127364,1,8,0:0:0:0:
320,152,127458,1,8,0:0:0:0:
352,176,127552,1,8,0:0:0:0:
352,176,127646,1,0,0:0:0:0:
352,176,127833,1,8,0:0:0:0:
352,176,127927,1,8,0:0:0:0:
352,176,128114,1,8,0:0:0:0:
352,176,128208,1,8,0:0:0:0:
352,176,128302,1,8,0:0:0:0:
352,176,128396,1,0,0:0:0:0:
384,224,128677,1,4,0:0:0:0:
384,224,128958,1,4,0:0:0:0:
384,224,129146,1,12,0:0:0:0:
272,144,129521,1,12,0:0:0:0:
296,200,129896,1,4,0:0:0:0:
296,200,130271,1,8,0:0:0:0:
312,80,130646,1,0,0:0:0:0:
312,80,130833,1,8,0:0:0:0:
312,80,130927,1,8,0:0:0:0:
312,80,131021,1,0,0:0:0:0:
264,112,131208,1,8,0:0:0:0:
304,160,131396,1,0,0:0:0:0:
352,200,131583,1,8,0:0:0:0:
384,216,131677,1,8,0:0:0:0:
416,248,131771,1,0,0:0:0:0:
456,280,131864,1,0,0:0:0:0:
480,296,131958,1,8,0:0:0:0:
480,296,132146,1,0,0:0:0:0:
416,248,132333,1,8,0:0:0:0:
416,248,132427,1,0,0:0:0:0:
480,296,132521,1,8,0:0:0:0:
432,232,132708,1,8,0:0:0:0:
416,248,132896,1,0,0:0:0:0:
416,248,133271,1,8,0:0:0:0:
432,232,133646,1,0,0:0:0:0:
416,248,133833,1,8,0:0:0:0:
416,248,133927,1,8,0:0:0:0:
416,248,134021,1,0,0:0:0:0:
416,248,134208,1,8,0:0:0:0:
432,232,134396,1,0,0:0:0:0:
400,224,134489,1,0,0:0:0:0:
432,232,134583,1,8,0:0:0:0:
432,232,134677,1,0,0:0:0:0:
432,232,134771,1,0,0:0:0:0:
432,232,134958,1,8,0:0:0:0:
432,232,135146,1,0,0:0:0:0:
432,232,135333,1,8,0:0:0:0:
432,232,135427,1,0,0:0:0:0:
408,224,135521,1,8,0:0:0:0:
352,192,135708,1,8,0:0:0:0:
296,152,135896,1,0,0:0:0:0:
408,240,136271,1,8,0:0:0:0:
296,152,136646,1,0,0:0:0:0:
352,192,136833,1,8,0:0:0:0:
328,176,136927,1,8,0:0:0:0:
328,176,137021,1,0,0:0:0:0:
328,176,137208,1,8,0:0:0:0:
328,176,137396,1,0,0:0:0:0:
328,176,137583,1,8,0:0:0:0:
312,160,137677,1,8,0:0:0:0:
328,176,137771,1,0,0:0:0:0:
328,176,137864,1,0,0:0:0:0:
328,176,137958,1,8,0:0:0:0:
328,176,138146,1,0,0:0:0:0:
328,176,138333,1,8,0:0:0:0:
328,176,138427,1,0,0:0:0:0:
328,176,138521,1,8,0:0:0:0:
328,176,138708,1,8,0:0:0:0:
328,176,138896,1,0,0:0:0:0:
328,176,139083,1,8,0:0:0:0:
328,176,139177,1,8,0:0:0:0:
328,176,139364,1,8,0:0:0:0:
328,176,139552,1,8,0:0:0:0:
328,176,139646,1,0,0:0:0:0:
328,176,139833,1,8,0:0:0:0:
328,176,139927,1,8,0:0:0:0:
328,176,140114,1,8,0:0:0:0:
376,192,140208,1,8,0:0:0:0:
328,176,140302,1,8,0:0:0:0:
328,176,140396,1,0,0:0:0:0:
336,184,140583,1,0,0:0:0:0:
328,216,140677,1,0,0:0:0:0:
336,200,140771,1,0,0:0:0:0:
264,96,140958,1,8,0:0:0:0:
264,96,141146,1,0,0:0:0:0:
368,176,141521,1,12,0:0:0:0:
