osu file format v14

[General]
AudioFilename: audio.mp3
AudioLeadIn: 0
PreviewTime: 105802
Countdown: 0
SampleSet: Normal
StackLeniency: 0.7
Mode: 1
LetterboxInBreaks: 0
WidescreenStoryboard: 0

[Editor]
DistanceSpacing: 1
BeatDivisor: 4
GridSize: 8
TimelineZoom: 2.4

[Metadata]
Title:Nekomatsuri
TitleUnicode:猫祭り
Artist:Hakobe Naru(CV:M.A.O)
ArtistUnicode:箱部なる(CV:M・A・O)
Creator:komasy
Version:Nya~!
Source:CHUNITHM AIR PLUS
Tags:チュウニズム イロドリミドリ CHUNITHM Irodorimidori ヒゲドライバー Hige Driver Tes. 市道真央 Ichimichi Mao SEGA セガ butter0414 tasuke912
BeatmapID:1396585
BeatmapSetID:659442

[Difficulty]
HPDrainRate:6
CircleSize:2
OverallDifficulty:6
ApproachRate:5
SliderMultiplier:1.4
SliderTickRate:1

[Events]
//Background and Video events
0,0,"BG.jpg",0,80
//Break Periods
//Storyboard Layer 0 (Background)
//Storyboard Layer 1 (Fail)
//Storyboard Layer 2 (Pass)
//Storyboard Layer 3 (Foreground)
//Storyboard Sound Samples

[TimingPoints]
896,375,4,1,0,20,1,0
3521,-55.5555555555556,4,1,0,90,0,0
3896,-100,4,1,0,100,0,1
15896,-100,4,1,0,90,0,0
27896,-100,4,1,0,80,0,0
40271,-100,4,1,0,75,0,0
40646,-100,4,1,0,50,0,0
41021,-100,4,1,0,35,0,0
41396,-100,4,1,0,20,0,0
42052,-100,4,1,0,90,0,0
42896,-100,4,1,0,100,0,1
60896,-100,4,1,0,100,0,0
62396,-100,4,1,0,100,0,1
66521,-100,4,1,0,100,0,0
66896,-100,4,1,0,100,0,1
78896,-100,4,1,0,90,0,0
103271,-100,4,1,0,60,0,0
103646,-100,4,1,0,40,0,0
104021,-100,4,1,0,20,0,0
105052,-100,4,1,0,90,0,0
105896,-100,4,1,0,100,0,1
123896,-100,4,1,0,100,0,0
125396,-100,4,1,0,100,0,1
129521,-100,4,1,0,100,0,0
129896,-100,4,1,0,100,0,1
141521,-100,4,1,0,100,0,0

[HitObjects]
272,216,3521,5,12,0:0:0:0:
392,280,3896,1,4,0:0:0:0:
368,336,4271,1,0,0:0:0:0:
352,288,4458,1,8,0:0:0:0:
352,288,4646,1,0,0:0:0:0:
352,288,4833,1,8,0:0:0:0:
352,288,4927,1,8,0:0:0:0:
352,288,5021,1,0,0:0:0:0:
352,288,5208,1,8,0:0:0:0:
432,288,5396,1,0,0:0:0:0:
384,288,5583,1,8,0:0:0:0:
384,288,5677,1,0,0:0:0:0:
328,248,5771,1,0,0:0:0:0:
392,288,5958,1,8,0:0:0:0:
384,232,6146,1,0,0:0:0:0:
376,208,6239,1,8,0:0:0:0:
376,208,6427,1,8,0:0:0:0:
376,208,6521,1,0,0:0:0:0:
376,208,6708,1,8,0:0:0:0:
344,168,6896,1,0,0:0:0:0:
256,128,7177,1,8,0:0:0:0:
288,136,7271,1,0,0:0:0:0:
344,168,7458,1,8,0:0:0:0:
344,168,7646,1,0,0:0:0:0:
344,168,7833,1,8,0:0:0:0:
344,168,7927,1,8,0:0:0:0:
344,184,8021,1,0,0:0:0:0:
352,256,8208,1,8,0:0:0:0:
376,200,8396,1,0,0:0:0:0:
360,232,8489,1,0,0:0:0:0:
296,208,8583,1,8,0:0:0:0:
296,208,8677,1,0,0:0:0:0:
296,208,8771,1,0,0:0:0:0:
360,176,8958,1,8,0:0:0:0:
376,200,9146,1,0,0:0:0:0:
376,200,9239,1,0,0:0:0:0:
376,200,9333,1,8,0:0:0:0:
376,200,9427,1,0,0:0:0:0:
376,200,9521,1,8,0:0:0:0:
376,200,9708,1,8,0:0:0:0:
328,200,9896,5,0,0:0:0:0:
368,336,10271,1,0,0:0:0:0:
352,288,10458,1,8,0:0:0:0:
352,288,10646,1,0,0:0:0:0:
352,288,10833,1,8,0:0:0:0:
352,288,10927,1,8,0:0:0:0:
352,288,11021,1,0,0:0:0:0:
352,288,11208,1,8,0:0:0:0:
432,288,11396,1,0,0:0:0:0:
384,288,11489,1,0,0:0:0:0:
384,288,11583,1,8,0:0:0:0:
368,272,11677,1,8,0:0:0:0:
328,248,11771,1,0,0:0:0:0:
368,192,11958,1,8,0:0:0:0:
408,144,12146,1,0,0:0:0:0:
392,160,12239,1,8,0:0:0:0:
392,160,12427,1,8,0:0:0:0:
392,160,12521,1,0,0:0:0:0:
392,160,12614,1,0,0:0:0:0:
392,160,12708,1,8,0:0:0:0:
392,160,12802,1,8,0:0:0:0:
392,160,12896,1,0,0:0:0:0:
392,160,13083,1,8,0:0:0:0:
392,160,13177,1,0,0:0:0:0:
336,168,13364,1,0,0:0:0:0:
392,160,13458,1,8,0:0:0:0:
392,160,13552,1,8,0:0:0:0:
392,160,13646,1,0,0:0:0:0:
336,176,13833,1,0,0:0:0:0:
392,160,13927,1,8,0:0:0:0:
392,160,14114,1,8,0:0:0:0:
392,160,14208,1,8,0:0:0:0:
392,160,14302,1,8,0:0:0:0:
360,144,14396,1,0,0:0:0:0:
296,112,14583,1,8,0:0:0:0:
296,112,14677,1,8,0:0:0:0:
296,112,14771,1,0,0:0:0:0:
296,112,14958,1,8,0:0:0:0:
296,112,15146,1,0,0:0:0:0:
296,112,15521,1,12,0:0:0:0:
296,112,15896,1,0,0:0:0:0:
288,144,15989,1,8,0:0:0:0:
280,200,16177,1,8,0:0:0:0:
280,224,16271,1,0,0:0:0:0:
280,224,16458,1,8,0:0:0:0:
344,232,16646,1,0,0:0:0:0:
320,232,16739,1,0,0:0:0:0:
320,232,16833,1,8,0:0:0:0:
320,232,17021,1,0,0:0:0:0:
320,232,17208,1,8,0:0:0:0:
288,176,17302,1,8,0:0:0:0:
320,232,17396,1,0,0:0:0:0:
288,176,17583,1,8,0:0:0:0:
312,168,17677,1,0,0:0:0:0:
256,104,17771,1,0,0:0:0:0:
272,128,17864,1,8,0:0:0:0:
312,168,18052,1,8,0:0:0:0:
272,128,18146,1,0,0:0:0:0:
312,168,18333,1,8,0:0:0:0:
328,184,18521,1,0,0:0:0:0:
312,168,18614,1,8,0:0:0:0:
376,160,18708,1,8,0:0:0:0:
344,176,18802,1,8,0:0:0:0:
168,160,18896,1,0,0:0:0:0:
224,176,19083,1,8,0:0:0:0:
232,160,19271,1,0,0:0:0:0:
232,160,19364,1,0,0:0:0:0:
384,264,19458,1,8,0:0:0:0:
384,264,19646,1,0,0:0:0:0:
360,232,19739,1,8,0:0:0:0:
456,328,19927,1,8,0:0:0:0:
456,328,20021,1,0,0:0:0:0:
432,312,20114,1,8,0:0:0:0:
432,312,20208,1,8,0:0:0:0:
400,264,20396,1,0,0:0:0:0:
368,200,20583,1,0,0:0:0:0:
368,232,20677,1,8,0:0:0:0:
392,264,20771,1,0,0:0:0:0:
360,224,20958,1,8,0:0:0:0:
336,200,21052,1,8,0:0:0:0:
352,200,21146,1,0,0:0:0:0:
328,184,21239,1,8,0:0:0:0:
312,176,21333,1,0,0:0:0:0:
360,224,21521,1,8,0:0:0:0:
360,168,21708,1,8,0:0:0:0:
360,136,21802,1,8,0:0:0:0:
360,224,21896,1,0,0:0:0:0:
432,200,22083,1,8,0:0:0:0:
432,200,22177,1,0,0:0:0:0:
376,184,22364,1,0,0:0:0:0:
344,176,22458,1,8,0:0:0:0:
336,112,22552,1,0,0:0:0:0:
304,128,22646,1,0,0:0:0:0:
376,96,22833,1,8,0:0:0:0:
336,112,22927,1,0,0:0:0:0:
336,112,23114,1,0,0:0:0:0:
336,112,23208,1,8,0:0:0:0:
416,80,23396,1,0,0:0:0:0:
416,80,23583,1,8,0:0:0:0:
416,80,23677,1,0,0:0:0:0:
416,80,23864,1,0,0:0:0:0:
416,80,23958,1,8,0:0:0:0:
392,80,24052,1,8,0:0:0:0:
344,80,24146,1,0,0:0:0:0:
408,96,24333,1,8,0:0:0:0:
448,104,24427,1,0,0:0:0:0:
448,104,24521,1,8,0:0:0:0:
448,104,24614,1,8,0:0:0:0:
448,104,24708,1,8,0:0:0:0:
448,104,24802,1,8,0:0:0:0:
448,104,24896,1,0,0:0:0:0:
352,216,25177,1,0,0:0:0:0:
368,168,25271,1,8,0:0:0:0:
352,216,25458,1,0,0:0:0:0:
168,136,25646,1,12,0:0:0:0:
288,208,25927,1,8,0:0:0:0:
352,216,26021,1,0,0:0:0:0:
288,208,26208,1,8,0:0:0:0:
288,208,26396,1,4,0:0:0:0:
288,208,26771,1,4,0:0:0:0:
360,72,27146,1,12,0:0:0:0:
320,152,27333,1,0,0:0:0:0:
320,152,27427,1,0,0:0:0:0:
320,152,27521,1,8,0:0:0:0:
320,304,27896,1,0,0:0:0:0:
392,192,28271,1,8,0:0:0:0:
320,184,28458,1,0,0:0:0:0:
256,176,28646,1,8,0:0:0:0:
352,280,29021,1,8,0:0:0:0:
320,184,29396,1,0,0:0:0:0:
320,184,29677,1,0,0:0:0:0:
320,184,29771,1,0,0:0:0:0:
320,184,29958,1,0,0:0:0:0:
376,200,30146,1,8,0:0:0:0:
376,200,30521,1,0,0:0:0:0:
376,200,30708,1,8,0:0:0:0:
376,200,30896,1,0,0:0:0:0:
464,256,31177,1,0,0:0:0:0:
464,256,31271,1,8,0:0:0:0:
464,256,31458,1,0,0:0:0:0:
464,256,31646,1,8,0:0:0:0:
464,256,32021,1,8,0:0:0:0:
464,256,32396,1,0,0:0:0:0:
464,256,32771,1,0,0:0:0:0:
464,256,32958,1,0,0:0:0:0:
464,256,33052,1,0,0:0:0:0:
464,256,33146,1,8,0:0:0:0:
464,256,33333,1,0,0:0:0:0:
464,256,33521,1,8,0:0:0:0:
464,256,33708,1,8,0:0:0:0:
320,304,33896,1,0,0:0:0:0:
392,192,34271,1,8,0:0:0:0:
320,184,34458,1,0,0:0:0:0:
256,176,34646,1,8,0:0:0:0:
352,280,35021,1,8,0:0:0:0:
320,184,35396,1,0,0:0:0:0:
320,184,35677,1,8,0:0:0:0:
320,184,35771,1,0,0:0:0:0:
320,184,35958,1,0,0:0:0:0:
376,200,36146,1,8,0:0:0:0:
376,200,36521,1,0,0:0:0:0:
376,200,36708,1,8,0:0:0:0:
376,200,36896,1,0,0:0:0:0:
464,256,37177,1,0,0:0:0:0:
464,256,37271,1,8,0:0:0:0:
464,256,37458,1,0,0:0:0:0:
464,256,37646,1,8,0:0:0:0:
376,240,37833,1,0,0:0:0:0:
344,224,37927,1,0,0:0:0:0:
464,256,38021,1,8,0:0:0:0:
400,224,38208,1,8,0:0:0:0:
368,208,38302,1,8,0:0:0:0:
464,256,38396,1,0,0:0:0:0:
464,256,38771,1,0,0:0:0:0:
464,256,38958,1,8,0:0:0:0:
464,256,39052,1,0,0:0:0:0:
464,256,39146,1,8,0:0:0:0:
464,256,39333,1,0,0:0:0:0:
464,256,39521,1,8,0:0:0:0:
432,240,39614,1,8,0:0:0:0:
464,256,39708,1,8,0:0:0:0:
256,192,39896,12,0,41771,0:0:0:0:
304,216,42146,5,12,0:0:0:0:
304,216,42521,1,12,0:0:0:0:
400,320,42896,1,4,0:0:0:0:
424,224,43177,1,8,0:0:0:0:
424,256,43271,1,0,0:0:0:0:
368,280,43458,1,8,0:0:0:0:
440,272,43646,1,0,0:0:0:0:
400,248,43833,1,8,0:0:0:0:
368,232,43927,1,0,0:0:0:0:
328,216,44021,1,8,0:0:0:0:
328,216,44208,1,8,0:0:0:0:
440,272,44302,1,8,0:0:0:0:
328,216,44396,1,0,0:0:0:0:
392,240,44583,1,8,0:0:0:0:
448,264,44771,1,0,0:0:0:0:
448,264,44864,1,0,0:0:0:0:
448,264,44958,1,8,0:0:0:0:
448,264,45146,1,0,0:0:0:0:
448,264,45239,1,8,0:0:0:0:
448,264,45333,1,0,0:0:0:0:
448,264,45427,1,0,0:0:0:0:
448,264,45521,1,8,0:0:0:0:
376,248,45708,1,8,0:0:0:0:
376,248,45802,1,8,0:0:0:0:
376,248,45896,1,0,0:0:0:0:
376,248,46177,1,8,0:0:0:0:
376,248,46271,1,0,0:0:0:0:
376,248,46458,1,8,0:0:0:0:
376,248,46646,1,0,0:0:0:0:
376,248,46833,1,8,0:0:0:0:
376,248,46927,1,0,0:0:0:0:
376,248,47021,1,8,0:0:0:0:
328,248,47208,1,8,0:0:0:0:
352,232,47302,1,8,0:0:0:0:
248,256,47396,1,0,0:0:0:0:
352,232,47583,1,0,0:0:0:0:
392,184,47677,1,8,0:0:0:0:
368,208,47771,1,0,0:0:0:0:
368,208,47958,1,8,0:0:0:0:
352,144,48146,1,0,0:0:0:0:
344,120,48239,1,0,0:0:0:0:
344,120,48333,1,8,0:0:0:0:
344,120,48427,1,0,0:0:0:0:
344,120,48521,1,8,0:0:0:0:
344,120,48614,1,8,0:0:0:0:
344,120,48708,1,0,0:0:0:0:
400,320,48896,1,4,0:0:0:0:
424,224,49177,1,8,0:0:0:0:
424,256,49271,1,0,0:0:0:0:
368,280,49458,1,8,0:0:0:0:
440,272,49646,1,0,0:0:0:0:
400,248,49833,1,8,0:0:0:0:
368,232,49927,1,0,0:0:0:0:
328,216,50021,1,8,0:0:0:0:
328,216,50208,1,8,0:0:0:0:
440,272,50302,1,8,0:0:0:0:
328,216,50396,1,0,0:0:0:0:
392,240,50583,1,8,0:0:0:0:
368,232,50677,1,0,0:0:0:0:
448,264,50771,1,0,0:0:0:0:
448,264,50958,1,8,0:0:0:0:
448,264,51146,1,0,0:0:0:0:
448,264,51239,1,8,0:0:0:0:
448,264,51427,1,8,0:0:0:0:
448,264,51521,1,0,0:0:0:0:
432,256,51614,1,0,0:0:0:0:
376,248,51708,1,8,0:0:0:0:
376,248,51802,1,8,0:0:0:0:
376,248,51896,1,0,0:0:0:0:
312,192,52083,1,8,0:0:0:0:
288,176,52177,1,0,0:0:0:0:
240,136,52364,1,0,0:0:0:0:
256,152,52458,1,8,0:0:0:0:
272,160,52552,1,8,0:0:0:0:
272,160,52646,1,0,0:0:0:0:
272,160,52833,1,0,0:0:0:0:
272,160,52927,1,8,0:0:0:0:
272,160,53114,1,8,0:0:0:0:
272,160,53208,1,8,0:0:0:0:
272,160,53302,1,8,0:0:0:0:
272,160,53396,1,0,0:0:0:0:
272,192,53489,1,8,0:0:0:0:
328,120,53583,1,8,0:0:0:0:
240,64,53677,1,0,0:0:0:0:
232,96,53771,1,8,0:0:0:0:
280,64,53864,1,8,0:0:0:0:
248,152,53958,1,0,0:0:0:0:
312,184,54052,1,0,0:0:0:0:
312,184,54146,1,8,0:0:0:0:
312,184,54333,1,8,0:0:0:0:
312,184,54427,1,0,0:0:0:0:
304,152,54521,1,8,0:0:0:0:
280,176,54614,1,8,0:0:0:0:
312,184,54708,1,0,0:0:0:0:
312,184,54771,1,8,0:0:0:0:
288,176,54833,1,8,0:0:0:0:
312,184,54896,1,0,0:0:0:0:
424,224,55177,1,8,0:0:0:0:
424,256,55271,1,0,0:0:0:0:
368,280,55458,1,8,0:0:0:0:
440,272,55646,1,0,0:0:0:0:
424,264,55739,1,0,0:0:0:0:
400,248,55833,1,8,0:0:0:0:
368,232,55927,1,0,0:0:0:0:
328,216,56021,1,8,0:0:0:0:
328,216,56208,1,8,0:0:0:0:
336,184,56302,1,8,0:0:0:0:
328,216,56396,1,0,0:0:0:0:
440,272,56489,1,8,0:0:0:0:
392,240,56677,1,8,0:0:0:0:
448,264,56771,1,0,0:0:0:0:
448,264,56958,1,8,0:0:0:0:
448,264,57052,1,8,0:0:0:0:
448,264,57146,1,0,0:0:0:0:
448,264,57239,1,8,0:0:0:0:
448,264,57333,1,0,0:0:0:0:
448,264,57427,1,0,0:0:0:0:
448,264,57521,1,8,0:0:0:0:
376,248,57708,1,8,0:0:0:0:
376,248,57802,1,8,0:0:0:0:
376,248,57896,1,0,0:0:0:0:
376,248,58177,1,8,0:0:0:0:
376,248,58271,1,0,0:0:0:0:
376,248,58458,1,8,0:0:0:0:
376,248,58646,1,0,0:0:0:0:
376,248,58739,1,0,0:0:0:0:
376,248,58833,1,8,0:0:0:0:
376,248,58927,1,0,0:0:0:0:
376,248,59021,1,8,0:0:0:0:
328,248,59208,1,8,0:0:0:0:
320,208,59302,1,0,0:0:0:0:
248,256,59396,1,0,0:0:0:0:
352,232,59489,1,8,0:0:0:0:
392,184,59677,1,8,0:0:0:0:
368,208,59771,1,0,0:0:0:0:
368,208,59958,1,8,0:0:0:0:
344,200,60052,1,8,0:0:0:0:
352,144,60146,1,0,0:0:0:0:
344,120,60239,1,8,0:0:0:0:
336,120,60333,1,0,0:0:0:0:
344,120,60427,1,0,0:0:0:0:
344,120,60521,1,8,0:0:0:0:
344,120,60614,1,0,0:0:0:0:
400,320,60708,1,8,0:0:0:0:
344,120,60896,1,4,0:0:0:0:
304,200,61177,1,8,0:0:0:0:
304,200,61271,1,8,0:0:0:0:
304,200,61458,1,8,0:0:0:0:
352,184,61646,1,4,0:0:0:0:
352,176,62021,1,8,0:0:0:0:
248,160,62396,1,4,0:0:0:0:
344,192,62677,1,8,0:0:0:0:
328,184,62771,1,0,0:0:0:0:
328,184,62958,1,8,0:0:0:0:
328,184,63146,1,0,0:0:0:0:
328,184,63239,1,8,0:0:0:0:
328,184,63427,1,8,0:0:0:0:
328,184,63521,1,0,0:0:0:0:
272,120,63708,1,0,0:0:0:0:
296,144,63771,1,8,0:0:0:0:
288,168,63833,1,8,0:0:0:0:
312,160,63896,1,0,0:0:0:0:
248,152,64083,1,8,0:0:0:0:
248,152,64177,1,0,0:0:0:0:
248,152,64364,1,0,0:0:0:0:
248,152,64458,1,8,0:0:0:0:
248,152,64552,1,8,0:0:0:0:
248,152,64646,1,0,0:0:0:0:
312,208,64739,1,0,0:0:0:0:
312,208,64833,1,8,0:0:0:0:
248,152,64927,1,0,0:0:0:0:
248,152,65114,1,8,0:0:0:0:
248,152,65208,1,8,0:0:0:0:
248,152,65302,1,8,0:0:0:0:
248,152,65396,1,0,0:0:0:0:
320,184,65489,1,8,0:0:0:0:
320,184,65583,1,8,0:0:0:0:
312,208,65677,1,0,0:0:0:0:
272,152,65771,1,8,0:0:0:0:
264,128,65864,1,8,0:0:0:0:
376,216,65958,1,0,0:0:0:0:
312,208,66052,1,8,0:0:0:0:
336,240,66146,1,0,0:0:0:0:
376,112,66521,1,12,0:0:0:0:
384,248,66896,1,4,0:0:0:0:
360,304,67271,1,0,0:0:0:0:
344,256,67458,1,8,0:0:0:0:
344,256,67646,1,0,0:0:0:0:
344,256,67833,1,8,0:0:0:0:
344,256,67927,1,8,0:0:0:0:
344,256,68021,1,0,0:0:0:0:
344,256,68208,1,8,0:0:0:0:
424,256,68396,1,0,0:0:0:0:
376,256,68583,1,8,0:0:0:0:
376,256,68677,1,0,0:0:0:0:
320,216,68771,1,0,0:0:0:0:
384,256,68958,1,8,0:0:0:0:
376,200,69146,1,0,0:0:0:0:
368,176,69239,1,8,0:0:0:0:
368,176,69333,1,0,0:0:0:0:
368,176,69427,1,0,0:0:0:0:
368,176,69521,1,8,0:0:0:0:
368,176,69708,1,8,0:0:0:0:
336,136,69896,1,0,0:0:0:0:
248,96,70177,1,8,0:0:0:0:
280,104,70271,1,0,0:0:0:0:
336,136,70458,1,8,0:0:0:0:
336,136,70646,1,0,0:0:0:0:
336,136,70833,1,8,0:0:0:0:
336,136,70927,1,8,0:0:0:0:
336,152,71021,1,0,0:0:0:0:
344,224,71208,1,8,0:0:0:0:
368,168,71396,1,0,0:0:0:0:
352,200,71489,1,0,0:0:0:0:
288,176,71583,1,8,0:0:0:0:
288,176,71677,1,0,0:0:0:0:
288,176,71771,1,0,0:0:0:0:
352,144,71958,1,8,0:0:0:0:
368,168,72146,1,0,0:0:0:0:
368,168,72239,1,0,0:0:0:0:
368,168,72333,1,8,0:0:0:0:
368,168,72427,1,0,0:0:0:0:
368,168,72521,1,8,0:0:0:0:
352,144,72614,1,8,0:0:0:0:
368,168,72708,1,0,0:0:0:0:
320,168,72896,5,0,0:0:0:0:
360,304,73271,1,0,0:0:0:0:
344,256,73458,1,8,0:0:0:0:
344,256,73646,1,0,0:0:0:0:
344,256,73833,1,8,0:0:0:0:
344,256,73927,1,8,0:0:0:0:
344,256,74021,1,0,0:0:0:0:
344,256,74208,1,8,0:0:0:0:
424,256,74396,1,0,0:0:0:0:
376,256,74489,1,0,0:0:0:0:
376,256,74583,1,8,0:0:0:0:
360,240,74677,1,8,0:0:0:0:
320,216,74771,1,0,0:0:0:0:
360,160,74958,1,8,0:0:0:0:
400,112,75146,1,0,0:0:0:0:
384,128,75239,1,8,0:0:0:0:
384,128,75427,1,8,0:0:0:0:
384,128,75521,1,0,0:0:0:0:
384,128,75614,1,0,0:0:0:0:
384,128,75708,1,8,0:0:0:0:
384,128,75802,1,8,0:0:0:0:
384,128,75896,1,0,0:0:0:0:
384,128,76083,1,8,0:0:0:0:
384,128,76177,1,0,0:0:0:0:
384,128,76364,1,0,0:0:0:0:
384,128,76458,1,8,0:0:0:0:
384,128,76552,1,8,0:0:0:0:
384,128,76646,1,0,0:0:0:0:
384,128,76833,1,0,0:0:0:0:
384,128,76927,1,8,0:0:0:0:
384,128,77114,1,8,0:0:0:0:
384,128,77208,1,8,0:0:0:0:
384,128,77302,1,8,0:0:0:0:
352,112,77396,1,0,0:0:0:0:
288,80,77583,1,8,0:0:0:0:
288,80,77677,1,8,0:0:0:0:
288,80,77771,1,0,0:0:0:0:
288,80,77958,1,8,0:0:0:0:
288,80,78146,1,0,0:0:0:0:
288,80,78521,1,12,0:0:0:0:
312,200,78896,1,0,0:0:0:0:
200,376,79458,1,0,0:0:0:0:
240,312,79646,1,8,0:0:0:0:
280,192,79927,1,8,0:0:0:0:
280,192,80021,1,8,0:0:0:0:
352,192,80208,1,8,0:0:0:0:
248,120,80583,1,8,0:0:0:0:
376,192,80771,1,0,0:0:0:0:
408,296,81052,1,0,0:0:0:0:
376,192,81146,1,8,0:0:0:0:
400,248,81333,1,0,0:0:0:0:
400,248,81521,1,8,0:0:0:0:
312,200,81896,1,0,0:0:0:0:
184,144,82271,1,0,0:0:0:0:
200,376,82458,1,0,0:0:0:0:
240,312,82646,1,8,0:0:0:0:
280,192,83021,1,8,0:0:0:0:
352,192,83208,1,8,0:0:0:0:
368,264,83302,1,8,0:0:0:0:
368,264,83396,1,8,0:0:0:0:
248,120,83583,1,8,0:0:0:0:
376,192,83771,1,0,0:0:0:0:
408,296,84052,1,0,0:0:0:0:
376,192,84146,1,8,0:0:0:0:
400,248,84333,1,0,0:0:0:0:
400,248,84521,1,8,0:0:0:0:
376,192,84708,1,8,0:0:0:0:
312,200,84896,1,0,0:0:0:0:
200,376,85458,1,0,0:0:0:0:
240,312,85646,1,8,0:0:0:0:
280,192,85927,1,8,0:0:0:0:
280,192,86021,1,8,0:0:0:0:
352,192,86208,1,8,0:0:0:0:
248,120,86583,1,8,0:0:0:0:
376,192,86771,1,0,0:0:0:0:
408,296,87052,1,0,0:0:0:0:
376,192,87146,1,8,0:0:0:0:
400,248,87333,1,0,0:0:0:0:
400,248,87521,1,8,0:0:0:0:
344,216,87708,1,0,0:0:0:0:
312,200,87896,1,0,0:0:0:0:
240,312,88458,1,8,0:0:0:0:
200,376,88646,1,0,0:0:0:0:
280,192,89021,1,0,0:0:0:0:
352,192,89208,1,8,0:0:0:0:
312,120,89396,1,0,0:0:0:0:
296,216,89677,1,8,0:0:0:0:
312,200,89771,1,0,0:0:0:0:
312,200,89958,1,8,0:0:0:0:
312,200,90146,1,0,0:0:0:0:
208,184,90521,1,12,0:0:0:0:
320,304,90896,1,0,0:0:0:0:
392,192,91271,1,8,0:0:0:0:
320,184,91458,1,0,0:0:0:0:
256,176,91646,1,8,0:0:0:0:
352,280,92021,1,8,0:0:0:0:
320,184,92396,1,0,0:0:0:0:
320,184,92677,1,0,0:0:0:0:
320,184,92771,1,0,0:0:0:0:
320,184,92958,1,0,0:0:0:0:
376,200,93146,1,8,0:0:0:0:
376,200,93521,1,0,0:0:0:0:
376,200,93708,1,8,0:0:0:0:
376,200,93896,1,0,0:0:0:0:
464,256,94177,1,0,0:0:0:0:
464,256,94271,1,8,0:0:0:0:
464,256,94458,1,0,0:0:0:0:
464,256,94646,1,8,0:0:0:0:
464,256,95021,1,8,0:0:0:0:
464,256,95396,1,0,0:0:0:0:
464,256,95771,1,0,0:0:0:0:
464,256,95958,1,0,0:0:0:0:
464,256,96052,1,0,0:0:0:0:
464,256,96146,1,8,0:0:0:0:
464,256,96333,1,0,0:0:0:0:
464,256,96521,1,8,0:0:0:0:
464,256,96708,1,8,0:0:0:0:
320,304,96896,1,0,0:0:0:0:
392,192,97271,1,8,0:0:0:0:
320,184,97458,1,0,0:0:0:0:
256,176,97646,1,8,0:0:0:0:
352,280,98021,1,8,0:0:0:0:
320,184,98396,1,0,0:0:0:0:
320,184,98677,1,8,0:0:0:0:
320,184,98771,1,0,0:0:0:0:
320,184,98958,1,0,0:0:0:0:
376,200,99146,1,8,0:0:0:0:
376,200,99521,1,0,0:0:0:0:
376,200,99708,1,8,0:0:0:0:
376,200,99896,1,0,0:0:0:0:
464,256,100177,1,0,0:0:0:0:
464,256,100271,1,8,0:0:0:0:
464,256,100458,1,0,0:0:0:0:
464,256,100646,1,8,0:0:0:0:
376,240,100833,1,0,0:0:0:0:
344,224,100927,1,0,0:0:0:0:
464,256,101021,1,8,0:0:0:0:
400,224,101208,1,8,0:0:0:0:
368,208,101302,1,8,0:0:0:0:
464,256,101396,1,0,0:0:0:0:
464,256,101771,1,0,0:0:0:0:
464,256,101958,1,8,0:0:0:0:
464,256,102052,1,0,0:0:0:0:
464,256,102146,1,8,0:0:0:0:
464,256,102333,1,0,0:0:0:0:
464,256,102521,1,8,0:0:0:0:
432,240,102614,1,8,0:0:0:0:
464,256,102708,1,8,0:0:0:0:
256,192,102896,12,0,104396,0:0:0:0:
304,216,105146,5,12,0:0:0:0:
304,216,105521,1,12,0:0:0:0:
400,320,105896,1,4,0:0:0:0:
424,224,106177,1,8,0:0:0:0:
424,256,106271,1,0,0:0:0:0:
368,280,106458,1,8,0:0:0:0:
440,272,106646,1,0,0:0:0:0:
400,248,106833,1,8,0:0:0:0:
368,232,106927,1,0,0:0:0:0:
328,216,107021,1,8,0:0:0:0:
424,264,107114,1,8,0:0:0:0:
328,216,107208,1,0,0:0:0:0:
328,216,107396,1,0,0:0:0:0:
312,200,107489,1,8,0:0:0:0:
288,136,107677,1,8,0:0:0:0:
448,264,107771,1,0,0:0:0:0:
448,264,107864,1,0,0:0:0:0:
448,264,107958,1,8,0:0:0:0:
432,248,108052,1,8,0:0:0:0:
448,264,108146,1,0,0:0:0:0:
288,136,108239,1,8,0:0:0:0:
448,264,108427,1,8,0:0:0:0:
448,264,108521,1,0,0:0:0:0:
376,248,108708,1,8,0:0:0:0:
376,248,108802,1,8,0:0:0:0:
376,248,108896,1,0,0:0:0:0:
376,248,109177,1,8,0:0:0:0:
376,248,109271,1,0,0:0:0:0:
376,248,109458,1,8,0:0:0:0:
376,248,109646,1,0,0:0:0:0:
376,248,109833,1,8,0:0:0:0:
376,248,109927,1,0,0:0:0:0:
376,248,110021,1,8,0:0:0:0:
376,248,110114,1,8,0:0:0:0:
328,248,110208,1,0,0:0:0:0:
248,256,110396,1,0,0:0:0:0:
352,232,110489,1,0,0:0:0:0:
392,184,110677,1,8,0:0:0:0:
368,208,110771,1,0,0:0:0:0:
368,208,110864,1,0,0:0:0:0:
328,192,110958,1,8,0:0:0:0:
320,176,111052,1,0,0:0:0:0:
352,144,111146,1,8,0:0:0:0:
320,152,111239,1,8,0:0:0:0:
344,120,111333,1,0,0:0:0:0:
344,120,111427,1,0,0:0:0:0:
344,120,111521,1,8,0:0:0:0:
320,176,111708,1,8,0:0:0:0:
400,320,111896,1,4,0:0:0:0:
424,224,112177,1,8,0:0:0:0:
424,256,112271,1,0,0:0:0:0:
368,280,112458,1,8,0:0:0:0:
440,272,112646,1,0,0:0:0:0:
400,248,112833,1,8,0:0:0:0:
368,232,112927,1,0,0:0:0:0:
328,216,113021,1,8,0:0:0:0:
424,264,113114,1,8,0:0:0:0:
328,216,113208,1,0,0:0:0:0:
328,216,113396,1,0,0:0:0:0:
392,240,113489,1,8,0:0:0:0:
368,232,113677,1,8,0:0:0:0:
448,264,113771,1,0,0:0:0:0:
416,240,113864,1,0,0:0:0:0:
448,264,113958,1,8,0:0:0:0:
432,248,114052,1,8,0:0:0:0:
448,264,114146,1,0,0:0:0:0:
448,264,114239,1,8,0:0:0:0:
448,264,114427,1,8,0:0:0:0:
448,264,114521,1,0,0:0:0:0:
432,256,114614,1,0,0:0:0:0:
376,248,114708,1,8,0:0:0:0:
376,248,114802,1,0,0:0:0:0:
376,248,114896,1,0,0:0:0:0:
312,192,115083,1,8,0:0:0:0:
304,176,115177,1,0,0:0:0:0:
280,112,115364,1,0,0:0:0:0:
256,152,115458,1,8,0:0:0:0:
272,160,115552,1,8,0:0:0:0:
272,160,115646,1,0,0:0:0:0:
280,184,115739,1,0,0:0:0:0:
296,208,115833,1,8,0:0:0:0:
304,232,115927,1,0,0:0:0:0:
368,232,116114,1,8,0:0:0:0:
272,160,116208,1,8,0:0:0:0:
272,160,116302,1,8,0:0:0:0:
272,160,116396,1,0,0:0:0:0:
272,192,116489,1,8,0:0:0:0:
328,120,116583,1,8,0:0:0:0:
240,64,116677,1,0,0:0:0:0:
232,96,116771,1,8,0:0:0:0:
280,64,116864,1,8,0:0:0:0:
248,152,116958,1,0,0:0:0:0:
312,184,117052,1,0,0:0:0:0:
312,184,117146,1,8,0:0:0:0:
312,184,117333,1,8,0:0:0:0:
304,152,117427,1,0,0:0:0:0:
312,184,117521,1,8,0:0:0:0:
280,176,117614,1,8,0:0:0:0:
312,184,117708,1,0,0:0:0:0:
312,184,117771,1,8,0:0:0:0:
288,176,117833,1,8,0:0:0:0:
312,184,117896,1,0,0:0:0:0:
424,224,118177,1,8,0:0:0:0:
424,256,118271,1,0,0:0:0:0:
368,280,118458,1,8,0:0:0:0:
440,272,118646,1,0,0:0:0:0:
400,248,118833,1,8,0:0:0:0:
368,232,118927,1,0,0:0:0:0:
328,216,119021,1,8,0:0:0:0:
424,264,119114,1,8,0:0:0:0:
328,216,119208,1,0,0:0:0:0:
304,216,119302,1,0,0:0:0:0:
328,216,119396,1,0,0:0:0:0:
320,184,119489,1,8,0:0:0:0:
392,240,119677,1,8,0:0:0:0:
448,264,119771,1,0,0:0:0:0:
416,256,119864,1,8,0:0:0:0:
448,264,119958,1,8,0:0:0:0:
448,264,120052,1,8,0:0:0:0:
448,264,120146,1,0,0:0:0:0:
448,264,120239,1,0,0:0:0:0:
448,264,120427,1,0,0:0:0:0:
448,264,120521,1,8,0:0:0:0:
376,248,120614,1,8,0:0:0:0:
376,248,120708,1,0,0:0:0:0:
376,248,120896,1,0,0:0:0:0:
344,216,120989,1,8,0:0:0:0:
376,248,121177,1,8,0:0:0:0:
376,248,121271,1,0,0:0:0:0:
384,216,121364,1,0,0:0:0:0:
376,248,121458,1,8,0:0:0:0:
376,248,121646,1,0,0:0:0:0:
376,248,121833,1,8,0:0:0:0:
376,248,121927,1,0,0:0:0:0:
376,248,122021,1,8,0:0:0:0:
376,248,122114,1,8,0:0:0:0:
328,248,122208,1,0,0:0:0:0:
304,168,122302,1,8,0:0:0:0:
248,256,122396,1,0,0:0:0:0:
352,232,122489,1,0,0:0:0:0:
328,248,122677,1,8,0:0:0:0:
328,248,122771,1,0,0:0:0:0:
328,248,122864,1,0,0:0:0:0:
368,208,122958,1,8,0:0:0:0:
344,200,123052,1,0,0:0:0:0:
352,144,123146,1,0,0:0:0:0:
344,120,123239,1,8,0:0:0:0:
336,120,123333,1,8,0:0:0:0:
344,120,123427,1,8,0:0:0:0:
344,120,123521,1,0,0:0:0:0:
344,120,123614,1,0,0:0:0:0:
400,320,123708,1,8,0:0:0:0:
344,120,123896,1,4,0:0:0:0:
304,200,124177,1,8,0:0:0:0:
304,200,124271,1,8,0:0:0:0:
304,200,124458,1,8,0:0:0:0:
352,184,124646,1,4,0:0:0:0:
352,176,125021,1,8,0:0:0:0:
248,160,125396,1,4,0:0:0:0:
296,192,125583,1,0,0:0:0:0:
344,192,125677,1,8,0:0:0:0:
328,184,125771,1,0,0:0:0:0:
280,184,125864,1,0,0:0:0:0:
328,184,125958,1,8,0:0:0:0:
328,184,126146,1,0,0:0:0:0:
328,184,126239,1,8,0:0:0:0:
328,184,126427,1,8,0:0:0:0:
328,184,126521,1,0,0:0:0:0:
272,120,126708,1,8,0:0:0:0:
296,144,126771,1,8,0:0:0:0:
288,168,126833,1,8,0:0:0:0:
320,168,126896,1,0,0:0:0:0:
296,144,126989,1,0,0:0:0:0:
248,152,127083,1,8,0:0:0:0:
280,160,127177,1,0,0:0:0:0:
280,224,127364,1,0,0:0:0:0:
336,176,127458,1,8,0:0:0:0:
248,152,127552,1,0,0:0:0:0:
248,152,127646,1,0,0:0:0:0:
280,224,127739,1,0,0:0:0:0:
280,224,127833,1,8,0:0:0:0:
248,152,127927,1,8,0:0:0:0:
248,152,128114,1,8,0:0:0:0:
248,152,128208,1,8,0:0:0:0:
248,152,128302,1,8,0:0:0:0:
248,152,128396,1,0,0:0:0:0:
320,184,128489,1,8,0:0:0:0:
320,184,128583,1,8,0:0:0:0:
312,208,128677,1,0,0:0:0:0:
272,152,128771,1,8,0:0:0:0:
264,128,128864,1,8,0:0:0:0:
376,216,128958,1,0,0:0:0:0:
312,208,129052,1,8,0:0:0:0:
336,240,129146,1,0,0:0:0:0:
376,112,129521,1,12,0:0:0:0:
384,248,129896,1,4,0:0:0:0:
288,256,130177,1,0,0:0:0:0:
288,256,130271,1,8,0:0:0:0:
288,256,130458,1,0,0:0:0:0:
344,256,130646,1,0,0:0:0:0:
352,240,130739,1,0,0:0:0:0:
344,256,130833,1,8,0:0:0:0:
344,256,130927,1,8,0:0:0:0:
344,256,131021,1,0,0:0:0:0:
344,256,131208,1,8,0:0:0:0:
424,256,131396,1,0,0:0:0:0:
376,256,131583,1,8,0:0:0:0:
376,256,131677,1,0,0:0:0:0:
320,216,131771,1,0,0:0:0:0:
384,256,131958,1,8,0:0:0:0:
376,200,132146,1,0,0:0:0:0:
368,176,132239,1,8,0:0:0:0:
368,176,132333,1,0,0:0:0:0:
368,176,132427,1,0,0:0:0:0:
368,176,132521,1,8,0:0:0:0:
368,176,132708,1,8,0:0:0:0:
328,192,132802,1,8,0:0:0:0:
336,136,132896,1,0,0:0:0:0:
296,224,133177,1,0,0:0:0:0:
248,96,133271,1,8,0:0:0:0:
336,136,133458,1,8,0:0:0:0:
336,136,133646,1,0,0:0:0:0:
328,192,133739,1,8,0:0:0:0:
336,136,133833,1,8,0:0:0:0:
336,136,133927,1,8,0:0:0:0:
336,152,134021,1,0,0:0:0:0:
344,224,134208,1,8,0:0:0:0:
368,168,134396,1,0,0:0:0:0:
352,200,134489,1,0,0:0:0:0:
288,176,134583,1,8,0:0:0:0:
288,176,134677,1,0,0:0:0:0:
288,176,134771,1,0,0:0:0:0:
352,144,134958,1,8,0:0:0:0:
368,168,135146,1,0,0:0:0:0:
368,168,135239,1,0,0:0:0:0:
368,168,135333,1,8,0:0:0:0:
368,168,135427,1,0,0:0:0:0:
368,168,135521,1,8,0:0:0:0:
352,144,135614,1,8,0:0:0:0:
368,168,135708,1,0,0:0:0:0:
320,168,135896,5,0,0:0:0:0:
368,168,136177,1,0,0:0:0:0:
368,168,136271,1,8,0:0:0:0:
408,216,136458,1,0,0:0:0:0:
344,256,136646,1,0,0:0:0:0:
312,248,136739,1,0,0:0:0:0:
344,256,136833,1,8,0:0:0:0:
344,256,136927,1,8,0:0:0:0:
344,256,137021,1,0,0:0:0:0:
344,256,137208,1,8,0:0:0:0:
424,256,137396,1,0,0:0:0:0:
376,256,137489,1,0,0:0:0:0:
376,256,137583,1,8,0:0:0:0:
384,224,137677,1,0,0:0:0:0:
328,216,137771,1,0,0:0:0:0:
360,160,137958,1,8,0:0:0:0:
400,112,138146,1,0,0:0:0:0:
384,128,138239,1,8,0:0:0:0:
384,128,138427,1,8,0:0:0:0:
384,128,138521,1,0,0:0:0:0:
384,128,138614,1,0,0:0:0:0:
384,128,138708,1,8,0:0:0:0:
384,128,138802,1,8,0:0:0:0:
384,128,138896,1,0,0:0:0:0:
384,128,139083,1,8,0:0:0:0:
360,144,139177,1,0,0:0:0:0:
384,128,139364,1,0,0:0:0:0:
384,128,139458,1,8,0:0:0:0:
384,128,139552,1,8,0:0:0:0:
384,128,139646,1,0,0:0:0:0:
328,168,139833,1,0,0:0:0:0:
384,128,139927,1,8,0:0:0:0:
384,128,140114,1,8,0:0:0:0:
384,128,140208,1,8,0:0:0:0:
384,128,140302,1,8,0:0:0:0:
352,112,140396,1,0,0:0:0:0:
296,128,140489,1,0,0:0:0:0:
288,80,140583,1,8,0:0:0:0:
288,80,140677,1,8,0:0:0:0:
288,88,140771,1,0,0:0:0:0:
312,120,140864,1,0,0:0:0:0:
288,80,140958,1,8,0:0:0:0:
296,104,141052,1,0,0:0:0:0:
288,80,141146,1,0,0:0:0:0:
288,80,141521,1,12,0:0:0:0:
