osu file format v14

[General]
AudioFilename: audio.mp3
AudioLeadIn: 0
PreviewTime: 105802
Countdown: 0
SampleSet: Normal
StackLeniency: 0.7
Mode: 1
LetterboxInBreaks: 0
WidescreenStoryboard: 0

[Editor]
DistanceSpacing: 1
BeatDivisor: 1
GridSize: 8
TimelineZoom: 0.6000001

[Metadata]
Title:Nekomatsuri
TitleUnicode:猫祭り
Artist:Hakobe Naru(CV:M.A.O)
ArtistUnicode:箱部なる(CV:M・A・O)
Creator:komasy
Version:Kantan
Source:CHUNITHM AIR PLUS
Tags:チュウニズム イロドリミドリ CHUNITHM Irodorimidori ヒゲドライバー Hige Driver Tes. 市道真央 Ichimichi Mao SEGA セガ butter0414 tasuke912
BeatmapID:1397135
BeatmapSetID:659442

[Difficulty]
HPDrainRate:8
CircleSize:2
OverallDifficulty:3
ApproachRate:5
SliderMultiplier:1.4
SliderTickRate:1

[Events]
//Background and Video events
0,0,"BG.jpg",0,80
//Break Periods
//Storyboard Layer 0 (Background)
//Storyboard Layer 1 (Fail)
//Storyboard Layer 2 (Pass)
//Storyboard Layer 3 (Foreground)
//Storyboard Sound Samples

[TimingPoints]
896,375,4,1,0,20,1,0
3427,-100,4,1,0,90,0,0
3896,-100,4,1,0,100,0,1
15896,-100,4,1,0,90,0,0
27896,-100,4,1,0,80,0,0
40271,-100,4,1,0,70,0,0
40646,-100,4,1,0,40,0,0
41021,-100,4,1,0,20,0,0
41396,-100,4,1,0,20,0,0
42896,-100,4,1,0,100,0,1
60896,-100,4,1,0,100,0,0
62396,-100,4,1,0,100,0,1
66521,-100,4,1,0,100,0,0
66896,-100,4,1,0,100,0,1
78896,-100,4,1,0,90,0,0
103271,-100,4,1,0,70,0,0
103646,-100,4,1,0,45,0,0
104021,-100,4,1,0,20,0,0
105896,-100,4,1,0,100,0,1
123896,-100,4,1,0,100,0,0
125396,-100,4,1,0,100,0,1
129521,-100,4,1,0,100,0,0
129896,-100,4,1,0,100,0,1
141521,-100,4,1,0,100,0,0

[HitObjects]
336,200,3521,5,12,0:0:0:0:
320,160,3896,5,4,0:0:0:0:
312,128,4646,1,0,0:0:0:0:
312,128,5396,1,0,0:0:0:0:
312,128,5771,1,0,0:0:0:0:
312,128,6146,1,0,0:0:0:0:
312,128,6896,1,8,0:0:0:0:
312,128,7646,1,8,0:0:0:0:
312,128,8021,1,8,0:0:0:0:
312,128,8396,1,8,0:0:0:0:
448,376,9896,1,0,0:0:0:0:
272,136,10646,1,0,0:0:0:0:
288,24,11396,1,0,0:0:0:0:
288,24,11771,1,0,0:0:0:0:
288,24,12146,1,0,0:0:0:0:
496,272,12896,1,8,0:0:0:0:
272,80,13646,1,8,0:0:0:0:
160,136,14021,1,8,0:0:0:0:
272,80,14396,1,0,0:0:0:0:
296,136,15896,1,0,0:0:0:0:
288,224,16646,1,8,0:0:0:0:
288,224,17396,1,0,0:0:0:0:
288,224,17771,1,0,0:0:0:0:
288,224,18146,1,8,0:0:0:0:
288,224,18896,1,0,0:0:0:0:
288,224,19646,1,8,0:0:0:0:
288,224,20396,1,4,0:0:0:0:
288,224,21146,1,12,0:0:0:0:
336,120,21896,1,4,0:0:0:0:
272,184,23396,1,0,0:0:0:0:
272,184,24146,1,8,0:0:0:0:
384,112,24521,1,8,0:0:0:0:
272,184,24896,1,4,0:0:0:0:
480,328,25646,1,12,0:0:0:0:
248,168,26396,1,4,0:0:0:0:
112,168,26771,1,4,0:0:0:0:
256,176,27146,1,12,0:0:0:0:
512,128,27896,1,0,0:0:0:0:
320,240,29396,1,8,0:0:0:0:
320,240,30146,1,8,0:0:0:0:
120,32,30896,1,0,0:0:0:0:
240,144,32396,1,0,0:0:0:0:
240,144,32771,1,0,0:0:0:0:
240,144,33146,1,8,0:0:0:0:
240,144,33896,1,0,0:0:0:0:
248,120,35396,1,0,0:0:0:0:
248,120,36146,1,8,0:0:0:0:
248,120,36896,1,0,0:0:0:0:
248,120,38396,1,8,0:0:0:0:
112,160,38771,1,0,0:0:0:0:
248,120,39146,1,8,0:0:0:0:
256,192,39896,12,8,41771,0:0:0:0:
272,184,42896,5,4,0:0:0:0:
304,192,43646,1,8,0:0:0:0:
152,168,44021,1,8,0:0:0:0:
304,192,44396,1,0,0:0:0:0:
304,192,45146,1,8,0:0:0:0:
304,192,45896,1,0,0:0:0:0:
304,192,46646,1,0,0:0:0:0:
200,112,47021,1,8,0:0:0:0:
336,192,47396,1,0,0:0:0:0:
368,128,48896,1,0,0:0:0:0:
152,8,49646,1,8,0:0:0:0:
192,136,50021,1,8,0:0:0:0:
416,80,50396,1,0,0:0:0:0:
416,80,51146,1,8,0:0:0:0:
328,120,51896,1,0,0:0:0:0:
328,120,52646,1,8,0:0:0:0:
440,120,53021,1,0,0:0:0:0:
328,120,53396,1,8,0:0:0:0:
272,184,54896,5,4,0:0:0:0:
304,192,55646,1,8,0:0:0:0:
304,192,56021,1,8,0:0:0:0:
112,8,56396,1,0,0:0:0:0:
304,192,57146,1,8,0:0:0:0:
304,192,57896,1,0,0:0:0:0:
304,192,58646,1,0,0:0:0:0:
168,136,59021,1,8,0:0:0:0:
336,192,59396,1,0,0:0:0:0:
248,104,60896,1,0,0:0:0:0:
248,104,61646,1,8,0:0:0:0:
248,104,62396,1,0,0:0:0:0:
312,224,62771,1,8,0:0:0:0:
256,112,63146,1,8,0:0:0:0:
328,120,63896,1,0,0:0:0:0:
328,120,64646,1,8,0:0:0:0:
240,48,65021,1,0,0:0:0:0:
328,120,65396,1,8,0:0:0:0:
320,128,66896,1,4,0:0:0:0:
312,128,67646,1,0,0:0:0:0:
312,128,68396,1,0,0:0:0:0:
312,128,68771,1,0,0:0:0:0:
312,128,69146,1,0,0:0:0:0:
312,128,69896,1,8,0:0:0:0:
312,128,70646,1,8,0:0:0:0:
312,128,71021,1,8,0:0:0:0:
312,128,71396,1,8,0:0:0:0:
432,352,72896,1,0,0:0:0:0:
272,136,73646,1,0,0:0:0:0:
456,304,74396,1,0,0:0:0:0:
360,216,74771,1,0,0:0:0:0:
264,128,75146,1,0,0:0:0:0:
456,312,75896,1,8,0:0:0:0:
256,120,76646,1,8,0:0:0:0:
352,208,77021,1,8,0:0:0:0:
264,128,77396,1,0,0:0:0:0:
192,128,78896,1,0,0:0:0:0:
448,216,79646,1,8,0:0:0:0:
344,136,81146,1,8,0:0:0:0:
496,152,81896,1,0,0:0:0:0:
200,120,82646,1,8,0:0:0:0:
208,24,83771,1,8,0:0:0:0:
128,48,84521,1,8,0:0:0:0:
264,128,84896,1,0,0:0:0:0:
192,144,85646,1,8,0:0:0:0:
224,144,87146,1,8,0:0:0:0:
224,144,87896,1,0,0:0:0:0:
224,144,88646,1,8,0:0:0:0:
224,144,89396,1,4,0:0:0:0:
328,264,89771,1,4,0:0:0:0:
224,144,90146,1,12,0:0:0:0:
512,128,90896,1,0,0:0:0:0:
320,240,92396,1,0,0:0:0:0:
320,240,93146,1,8,0:0:0:0:
120,32,93896,1,0,0:0:0:0:
240,144,95396,1,0,0:0:0:0:
240,144,95771,1,0,0:0:0:0:
240,144,96146,1,8,0:0:0:0:
240,144,96896,1,0,0:0:0:0:
248,120,98396,1,0,0:0:0:0:
248,120,99146,1,8,0:0:0:0:
248,120,99896,1,0,0:0:0:0:
248,120,101396,1,8,0:0:0:0:
248,120,101771,1,0,0:0:0:0:
248,120,102146,1,8,0:0:0:0:
256,192,102896,12,8,104396,0:0:0:0:
272,184,105896,5,4,0:0:0:0:
304,192,106646,1,8,0:0:0:0:
304,192,107021,1,8,0:0:0:0:
304,192,107396,1,0,0:0:0:0:
304,192,108146,1,8,0:0:0:0:
304,192,108896,1,0,0:0:0:0:
304,192,109646,1,0,0:0:0:0:
200,112,110021,1,8,0:0:0:0:
336,192,110396,1,0,0:0:0:0:
368,128,111896,1,0,0:0:0:0:
152,8,112646,1,8,0:0:0:0:
192,136,113021,1,8,0:0:0:0:
416,80,113396,1,0,0:0:0:0:
416,80,114146,1,8,0:0:0:0:
328,120,114896,1,0,0:0:0:0:
328,120,115646,1,8,0:0:0:0:
440,120,116021,1,0,0:0:0:0:
328,120,116396,1,8,0:0:0:0:
272,184,117896,5,4,0:0:0:0:
304,192,118646,1,8,0:0:0:0:
304,192,119021,1,8,0:0:0:0:
112,8,119396,1,0,0:0:0:0:
304,192,120146,1,8,0:0:0:0:
304,192,120896,1,0,0:0:0:0:
304,192,121646,1,0,0:0:0:0:
168,136,122021,1,8,0:0:0:0:
336,192,122396,1,0,0:0:0:0:
248,104,123896,1,0,0:0:0:0:
248,104,124646,1,8,0:0:0:0:
248,104,125396,1,0,0:0:0:0:
360,144,125771,1,8,0:0:0:0:
256,112,126146,1,8,0:0:0:0:
328,120,126896,1,0,0:0:0:0:
328,120,127646,1,8,0:0:0:0:
240,48,128021,1,0,0:0:0:0:
328,120,128396,1,8,0:0:0:0:
320,128,129896,1,4,0:0:0:0:
312,128,130646,1,0,0:0:0:0:
312,128,131396,1,0,0:0:0:0:
312,128,131771,1,0,0:0:0:0:
312,128,132146,1,0,0:0:0:0:
312,128,132896,1,8,0:0:0:0:
312,128,133646,1,8,0:0:0:0:
312,128,134021,1,8,0:0:0:0:
312,128,134396,1,8,0:0:0:0:
432,352,135896,1,0,0:0:0:0:
272,136,136646,1,0,0:0:0:0:
456,304,137396,1,0,0:0:0:0:
360,216,137771,1,0,0:0:0:0:
264,128,138146,1,0,0:0:0:0:
456,312,138896,1,8,0:0:0:0:
256,120,139646,1,8,0:0:0:0:
352,208,140021,1,8,0:0:0:0:
264,128,140396,1,0,0:0:0:0:
320,160,141521,1,12,0:0:0:0:
