osu file format v14

[General]
AudioFilename: audio.mp3
AudioLeadIn: 0
PreviewTime: 230722
Countdown: 0
SampleSet: Normal
StackLeniency: 0.7
Mode: 0
LetterboxInBreaks: 0
WidescreenStoryboard: 0

[Editor]
Bookmarks: 39706,49602,168107,321415,345684,352107,352568,356261,405645,433338,468414,581030,614261,617953
DistanceSpacing: 1.4
BeatDivisor: 4
GridSize: 4
TimelineZoom: 2.599999

[Metadata]
Title:The Architect
TitleUnicode:The Architect
Artist:Haken
ArtistUnicode:Haken
Creator:Elirac
Version:Toxicity
Source:
Tags:affinity progressive rock metal marathon
BeatmapID:1294153
BeatmapSetID:613385

[Difficulty]
HPDrainRate:5
CircleSize:4.3
OverallDifficulty:9
ApproachRate:9.3
SliderMultiplier:1.5
SliderTickRate:1

[Events]
//Background and Video events
0,0,"1478451755887.jpg",0,0
//Break Periods
2,54751,58899
2,157461,162323
2,356460,368122
2,393845,395815
2,421538,432738
2,604614,617353
//Storyboard Layer 0 (Background)
//Storyboard Layer 1 (Fail)
//Storyboard Layer 2 (Pass)
//Storyboard Layer 3 (Foreground)
//Storyboard Sound Samples

[TimingPoints]
16001,461.538461538462,4,2,0,40,1,0
16925,-133.333333333333,4,2,0,40,0,0
17039,-133.333333333333,4,2,0,5,0,0
24955,461.538461538462,4,2,0,40,1,0
25878,461.538461538462,4,2,0,40,1,0
26801,-133.333333333333,4,2,0,40,0,0
26916,-133.333333333333,4,2,0,5,0,0
34775,461.538461538462,4,2,0,50,1,0
35685,705.882352941176,4,2,0,30,1,0
36567,697.674418604651,4,2,0,30,1,0
36667,-100,4,2,0,5,0,0
40633,618.556701030928,4,2,0,30,1,0
41715,-100,4,2,0,5,0,0
45581,-100,4,2,0,30,0,0
46663,-100,4,2,0,5,0,0
50375,-100,4,2,0,30,0,0
59499,307.692307692308,4,1,0,30,1,0
59499,-100,4,2,0,50,0,0
66883,-83.3333333333333,4,1,2,60,0,0
78268,-83.3333333333333,4,1,0,60,0,0
81652,-83.3333333333333,4,3,2,50,0,0
84883,-66.6666666666667,3,1,0,65,0,0
85499,-83.3333333333333,3,3,2,50,0,0
88575,-66.6666666666667,3,1,0,65,0,0
89037,-83.3333333333333,3,3,2,50,0,0
92268,-66.6666666666667,3,1,0,65,0,0
92883,-83.3333333333333,3,3,2,50,0,0
94883,-83.3333333333333,3,1,0,60,0,0
108422,-83.3333333333333,3,1,0,65,0,0
111191,-83.3333333333333,3,1,0,60,0,0
118575,307.692307692308,3,1,0,55,1,0
118575,-76.9230769230769,3,1,0,60,0,0
124113,-76.9230769230769,3,3,0,75,0,0
125959,-76.9230769230769,3,1,0,60,0,0
129190,-76.9230769230769,3,3,2,50,0,0
129651,-76.9230769230769,3,1,0,60,0,0
132421,-76.9230769230769,3,3,3,50,0,0
133344,-76.9230769230769,3,1,0,60,0,0
134267,307.692307692308,4,1,0,60,1,0
134267,-76.9230769230769,4,1,0,60,0,0
135497,307.692307692308,3,1,0,60,1,0
135497,-76.9230769230769,3,1,0,60,0,0
136881,-76.9230769230769,3,3,3,50,0,0
137343,-76.9230769230769,3,1,0,60,0,0
138266,307.692307692308,5,1,0,60,1,0
138266,-76.9230769230769,5,1,0,60,0,0
139804,307.692307692308,3,1,0,60,1,0
139804,-76.9230769230769,3,1,0,60,0,0
140727,-76.9230769230769,3,3,4,55,0,0
141650,-76.9230769230769,3,1,0,60,0,0
142573,307.692307692308,4,1,0,60,1,0
142573,-76.9230769230769,4,1,0,60,0,0
143803,307.692307692308,5,1,0,60,1,0
143803,-76.9230769230769,5,1,0,60,0,0
145033,-76.9230769230769,5,3,2,45,0,0
145341,307.692307692308,3,1,0,60,1,0
145341,-76.9230769230769,3,1,0,60,0,0
146264,307.692307692308,4,1,0,60,1,0
146264,-76.9230769230769,4,1,0,60,0,0
147494,307.692307692308,5,1,0,60,1,0
147494,-76.9230769230769,5,1,0,60,0,0
149032,307.692307692308,3,1,0,55,1,0
149032,-66.6666666666667,3,1,0,45,0,0
149955,307.692307692308,4,1,0,45,1,0
149955,-66.6666666666667,4,1,0,45,0,0
151185,307.692307692308,6,1,0,45,1,0
151185,-66.6666666666667,6,1,0,45,0,0
153031,307.692307692308,3,1,0,45,1,0
153031,-66.6666666666667,3,1,0,45,0,0
153954,307.692307692308,4,1,0,45,1,0
153954,-66.6666666666667,4,1,0,45,0,0
156261,-66.6666666666667,4,3,2,50,0,0
162877,307.692307692308,4,1,0,55,1,0
162877,-200,4,1,0,35,0,0
162953,-200,4,1,0,5,0,0
168415,461.538461538462,4,1,0,55,1,0
168415,-100,4,2,0,50,0,0
181338,-90.9090909090909,4,3,5,55,0,0
184799,-90.9090909090909,4,3,5,45,0,0
185030,-90.9090909090909,4,3,5,35,0,0
185261,-90.9090909090909,4,3,5,55,0,0
197491,-90.9090909090909,4,3,5,45,0,0
197722,-90.9090909090909,4,3,5,35,0,0
197953,-90.9090909090909,4,3,5,55,0,0
207184,-76.9230769230769,4,1,0,55,0,0
230722,-66.6666666666667,4,1,3,50,0,1
260261,-66.6666666666667,4,3,2,50,0,0
289338,-76.9230769230769,4,1,0,55,0,0
292107,-62.5,4,1,0,55,0,0
293953,-76.9230769230769,4,1,0,55,0,0
294415,-62.5,4,1,0,55,0,0
296030,-76.9230769230769,4,1,0,55,0,0
298107,-62.5,4,1,0,55,0,0
299261,-76.9230769230769,4,1,0,55,0,0
299953,-62.5,4,1,0,55,0,0
301799,-76.9230769230769,4,1,0,55,0,0
305030,-62.5,4,1,0,55,0,0
308722,-76.9230769230769,4,1,0,55,0,0
311722,-62.5,4,1,0,55,0,0
315184,-76.9230769230769,4,1,0,55,0,0
317030,-66.6666666666667,4,1,3,50,0,1
346568,-66.6666666666667,4,1,0,55,0,0
348415,-133.333333333333,4,1,0,45,0,0
348530,-133.333333333333,4,1,0,5,0,0
349799,-133.333333333333,4,1,0,45,0,0
349915,-133.333333333333,4,1,0,5,0,0
350722,-133.333333333333,4,1,0,45,0,0
350838,-133.333333333333,4,1,0,5,0,0
352568,-200,4,1,0,30,0,0
352684,-200,4,1,0,5,0,0
396415,-133.333333333333,4,1,0,25,0,0
396472,-133.333333333333,4,1,0,25,0,0
397684,-133.333333333333,4,1,0,25,0,0
398318,-133.333333333333,4,1,0,25,0,0
399818,-133.333333333333,4,1,0,25,0,0
433338,923.076923076923,4,3,0,35,1,0
433338,-50,4,1,0,35,0,0
470261,307.692307692308,3,1,0,35,1,0
587030,-76.9230769230769,3,1,0,50,0,0
593337,-90.9090909090909,3,1,0,50,0,0
594261,-111.111111111111,3,1,0,50,0,0
594876,-142.857142857143,3,1,0,50,0,0
596107,-76.9230769230769,3,1,0,50,0,0
617953,-90.9090909090909,3,1,0,50,0,0
618876,-76.9230769230769,3,1,0,50,0,0
619799,-71.4285714285714,3,1,0,50,0,0
620722,-58.8235294117647,3,1,0,50,0,0
621337,-56.1797752808989,3,1,0,50,0,0
622261,-76.9230769230769,3,1,0,50,0,0
622876,-66.6666666666667,3,1,0,50,0,0
623184,-83.3333333333333,3,1,0,50,0,0
624107,-71.4285714285714,3,1,0,50,0,0
624722,-76.9230769230769,3,1,0,50,0,0
626261,-55.5555555555556,3,1,0,50,0,0
626568,-83.3333333333333,3,1,0,50,0,0
627799,-62.5,3,1,0,50,0,0
629030,-62.5,3,1,0,65,0,0
631799,-76.9230769230769,3,1,0,50,0,0
635799,-66.6666666666667,3,1,0,50,0,0
636722,-76.9230769230769,3,1,0,50,0,0
639184,-66.6666666666667,3,1,0,50,0,0
640414,-76.9230769230769,3,1,0,50,0,0
641030,-66.6666666666667,3,1,0,50,0,0
641722,-50,3,1,0,50,0,0
641953,-76.9230769230769,3,1,0,50,0,0
642876,-90.9090909090909,3,1,0,50,0,0
645645,-76.9230769230769,3,1,0,60,0,1
646568,-66.6666666666667,3,1,0,60,0,1
657645,-66.6666666666667,3,3,2,40,0,1
659491,-66.6666666666667,3,1,0,60,0,1
671722,-66.6666666666667,3,3,2,45,0,1
673337,-66.6666666666667,3,1,0,50,0,1
677030,-66.6666666666667,3,3,2,50,0,1
677337,-66.6666666666667,3,1,0,50,0,1
680568,-83.3333333333333,3,1,0,50,0,0
681491,-58.8235294117647,3,1,0,60,0,0
689645,307.692307692308,3,1,0,50,1,0
689645,-71.4285714285714,3,1,0,50,0,0
690568,307.692307692308,4,1,0,50,1,0
690568,-71.4285714285714,4,1,6,50,0,0
691798,307.692307692308,5,1,0,50,1,0
691798,-71.4285714285714,5,1,0,50,0,0
693336,307.692307692308,3,1,0,50,1,0
693336,-71.4285714285714,3,1,0,50,0,0
694259,307.692307692308,4,1,0,50,1,0
694259,-71.4285714285714,4,1,0,50,0,0
695489,307.692307692308,5,1,0,50,1,0
695489,-71.4285714285714,5,1,0,50,0,0
696873,307.692307692308,4,1,0,50,1,0
696873,-100,4,3,2,50,0,0
697026,-100,4,1,0,50,0,0
705796,307.692307692308,3,1,0,60,1,0
705796,-86.9565217391305,3,1,0,60,0,0
706719,307.692307692308,4,1,0,60,1,0
706719,-86.9565217391305,4,1,0,60,0,0
707949,307.692307692308,5,1,0,60,1,0
707949,-86.9565217391305,5,1,0,60,0,0
709488,307.692307692308,3,1,0,60,1,0
709488,-86.9565217391305,3,1,0,60,0,0
710411,307.692307692308,4,1,0,60,1,0
710411,-86.9565217391305,4,1,0,60,0,0
711641,307.692307692308,5,1,0,60,1,0
711641,-86.9565217391305,5,1,0,60,0,0
713180,-100,3,3,2,50,0,0
713641,307.692307692308,3,1,0,45,1,0
713641,-100,3,1,0,45,0,0
714564,307.692307692308,4,1,0,45,1,0
715794,307.692307692308,5,1,0,45,1,0
717332,307.692307692308,3,1,0,45,1,0
718255,307.692307692308,4,1,0,45,1,0
719485,307.692307692308,5,1,0,45,1,0
721488,307.692307692308,3,1,0,50,1,0
721488,-83.3333333333333,3,1,0,50,0,0
722411,307.692307692308,4,1,0,50,1,0
722411,-83.3333333333333,4,1,0,50,0,0
723641,307.692307692308,5,1,0,50,1,0
723641,-83.3333333333333,5,1,0,50,0,0
725179,307.692307692308,3,1,0,50,1,0
725179,-83.3333333333333,3,1,0,50,0,0
726102,307.692307692308,4,1,0,50,1,0
726102,-83.3333333333333,4,1,0,50,0,0
727332,307.692307692308,5,1,0,50,1,0
727332,-83.3333333333333,5,1,0,50,0,0
728255,-83.3333333333333,5,1,2,50,0,0
728870,307.692307692308,3,1,0,50,1,0
728870,-83.3333333333333,3,1,0,50,0,0
729331,307.692307692308,3,1,0,50,1,0
729331,-83.3333333333333,3,1,0,50,0,0
730254,307.692307692308,4,1,0,50,1,0
730254,-83.3333333333333,4,1,0,50,0,0
731484,307.692307692308,5,1,0,50,1,0
731484,-83.3333333333333,5,1,0,50,0,0
733022,307.692307692308,3,1,0,60,1,0
733022,-71.4285714285714,3,1,0,60,0,0
733945,307.692307692308,4,1,0,60,1,0
733945,-71.4285714285714,4,1,0,60,0,0
735175,307.692307692308,5,1,0,60,1,0
735175,-71.4285714285714,5,1,0,60,0,0
736713,307.692307692308,3,1,0,50,1,0
736713,-71.4285714285714,3,3,2,50,0,0
737636,-71.4285714285714,3,1,2,50,0,0
738559,307.692307692308,4,1,0,50,1,0
738559,-83.3333333333333,4,1,0,50,0,0
782866,-76.9230769230769,4,1,2,60,0,0
795712,-76.9230769230769,4,1,0,65,0,0
797635,307.692307692308,3,1,0,50,1,0
797635,-58.8235294117647,3,1,0,50,0,1
834558,-153.846153846154,3,1,0,50,0,0
836019,-153.846153846154,3,1,0,5,0,0
836404,-153.846153846154,3,1,0,50,0,0
836942,-153.846153846154,3,1,0,5,0,0
837327,-153.846153846154,3,1,0,50,0,0
837865,-153.846153846154,3,1,0,5,0,0
838250,-153.846153846154,3,1,0,50,0,0
839711,-153.846153846154,3,1,0,5,0,0
840096,-153.846153846154,3,1,0,50,0,0
840635,-153.846153846154,3,1,0,5,0,0
841019,-153.846153846154,3,1,0,50,0,0
841558,-153.846153846154,3,1,0,5,0,0
841942,-153.846153846154,3,1,0,50,0,0
843558,-153.846153846154,3,1,0,5,0,0
843788,-153.846153846154,3,1,0,50,0,0
845404,-153.846153846154,3,1,0,5,0,0
845635,-153.846153846154,3,1,0,50,0,0
846788,-153.846153846154,3,1,0,5,0,0
847019,-153.846153846154,3,1,0,50,0,0
847327,-153.846153846154,3,1,0,5,0,0
847481,-153.846153846154,3,1,0,50,0,0
848635,-153.846153846154,3,1,0,5,0,0
848865,-153.846153846154,3,1,0,50,0,0
850788,-153.846153846154,3,1,0,5,0,0
851173,-153.846153846154,3,1,0,50,0,0
851711,-153.846153846154,3,1,0,5,0,0
852096,-153.846153846154,3,1,0,50,0,0
852635,-153.846153846154,3,1,0,5,0,0
853019,-153.846153846154,3,1,0,50,0,0
854481,-153.846153846154,3,1,0,5,0,0
854865,-153.846153846154,3,1,0,50,0,0
855404,-153.846153846154,3,1,0,5,0,0
855788,-153.846153846154,3,1,0,50,0,0
856327,-153.846153846154,3,1,0,5,0,0
856711,-153.846153846154,3,1,0,50,0,0
860019,-153.846153846154,3,1,0,5,0,0
860404,-153.846153846154,3,1,0,50,0,0
864096,461.538461538462,4,1,0,50,1,0
864096,-71.4285714285714,4,1,0,50,0,1
923172,-50,4,1,0,50,0,0

[Colours]
Combo1 : 96,112,119
Combo2 : 251,174,70
Combo3 : 166,164,113
Combo4 : 142,167,69

[HitObjects]
147,287,16001,5,0,0:0:0:0:
177,308,16232,2,0,P|224:328|323:284,1,150
311,197,16925,2,0,B|213:212|159:169|159:169|190:105|190:105|270:137|350:103|350:103|338:52|338:52|305:24|229:14|186:15|152:27|114:51|114:51|58:168,1,787.500030040742
256,192,20616,12,0,24308,0:0:0:0:
256,192,24955,5,0,2:0:0:0:
222,333,25878,5,0,0:0:0:0:
270,347,26108,2,0,P|317:352|400:290,1,150
272,169,26801,2,0,B|265:257|147:297|80:249|80:249|90:194|90:194|111:188|111:188|167:209|213:187|208:112|198:90|198:90|199:62|225:37|263:48|263:48|304:60|350:56|396:32|396:32|447:71,1,787.500030040742
256,192,30493,12,0,34185,0:0:0:0:
256,192,34775,5,0,0:0:0:0:
208,119,35685,6,0,L|275:124,1,37.5
328,41,36037,2,0,L|248:36,1,75
161,35,36567,2,0,B|132:73|132:73|67:78|67:78|91:114|87:169|49:197|49:197|110:272|110:272|143:240|143:240|162:190|230:183|274:218|274:218|256:275|256:275|354:261|354:261,1,675
232,328,40633,6,0,L|284:324,1,37.5
348,248,40943,2,0,L|224:252,1,112.5
96,260,41561,2,0,B|36:208|64:124|64:124|100:104|100:104|128:116|128:116|140:172|200:180|200:180|336:116|340:76|312:36|272:24|228:40|200:68|196:112|338:179|338:179|356:176|356:176,1,750
69,196,45582,6,0,L|81:148,1,37.5
161,72,45891,2,0,L|181:196,1,112.5
205,277,46510,2,0,B|265:253|285:205|269:153|269:153|281:108|253:67|253:67|284:43|284:43|316:71|345:25|395:43|395:43|431:57|437:102|415:158|415:158|372:150|356:197|356:197|414:247|414:247|398:277|388:311,1,750
256,192,50376,12,0,54551,0:0:0:0:
407,254,59499,5,0,0:0:0:0:
386,262,59652,1,0,0:0:0:0:
363,264,59806,1,0,0:0:0:0:
325,176,59960,1,0,0:0:0:0:
302,171,60114,1,0,0:0:0:0:
279,174,60268,1,0,0:0:0:0:
246,268,60422,5,0,0:0:0:0:
223,271,60575,1,0,0:0:0:0:
200,266,60729,1,0,0:0:0:0:
164,176,60883,1,0,0:0:0:0:
141,173,61037,1,0,0:0:0:0:
118,176,61191,1,0,0:0:0:0:
54,270,61345,5,0,0:0:0:0:
75,300,61499,1,0,0:0:0:0:
110,311,61652,1,0,0:0:0:0:
226,269,61806,5,0,0:0:0:0:
237,233,61960,1,0,0:0:0:0:
225,197,62114,1,0,0:0:0:0:
167,101,62268,1,0,0:0:0:0:
158,64,62422,1,0,0:0:0:0:
166,27,62575,1,0,0:0:0:0:
318,41,62729,5,0,0:0:0:0:
324,77,62883,1,0,0:0:0:0:
312,112,63037,2,0,P|319:164|344:181,1,75
421,252,63345,5,0,0:0:0:0:
424,289,63499,1,0,0:0:0:0:
413,325,63652,1,0,0:0:0:0:
309,341,63806,5,0,0:0:0:0:
296,305,63960,1,0,0:0:0:0:
314,205,64114,1,0,0:0:0:0:
296,171,64268,1,0,0:0:0:0:
251,73,64422,6,0,B|210:80|211:80|211:80|186:109,1,75
169,138,64729,1,0,0:0:0:0:
150,170,64883,1,0,0:0:0:0:
103,264,65037,2,0,B|145:280|145:280|180:273,1,75
210,264,65345,1,0,0:0:0:0:
246,255,65499,1,0,0:0:0:0:
234,143,65652,5,0,0:0:0:0:
270,150,65806,1,0,0:0:0:0:
359,80,65960,5,0,0:0:0:0:
378,112,66114,1,0,0:0:0:0:
384,148,66268,1,0,0:0:0:0:
315,254,66422,1,0,0:0:0:0:
328,289,66575,1,0,0:0:0:0:
361,306,66729,1,0,0:0:0:0:
187,265,66883,6,0,P|175:214|187:171,1,89.9999972534181,6|0,0:3|3:0,0:0:0:0:
253,35,67191,1,0,0:0:0:0:
384,148,67345,1,0,0:0:0:0:
328,289,67499,1,8,0:2:0:0:
384,148,67652,2,0,P|333:159|278:143,1,89.9999972534181
452,44,67960,1,0,0:0:0:0:
503,209,68114,6,0,P|455:227|395:218,1,89.9999972534181,4|0,0:3|0:0,0:0:0:0:
338,74,68422,1,0,0:0:0:0:
231,189,68575,1,0,0:0:0:0:
417,226,68729,1,8,0:2:0:0:
252,270,68883,1,0,0:0:0:0:
438,322,69037,1,0,0:0:0:0:
321,346,69191,1,0,0:0:0:0:
143,341,69345,6,0,P|119:295|125:242,1,89.9999972534181,4|0,0:3|3:0,0:0:0:0:
322,161,69652,1,0,0:0:0:0:
274,264,69806,1,0,0:0:0:0:
136,130,69960,2,0,P|187:147|222:141,1,89.9999972534181,8|0,0:2|3:0,0:0:0:0:
385,33,70268,1,0,0:0:0:0:
426,123,70422,1,0,0:0:0:0:
273,263,70575,6,0,P|315:279|358:268,1,89.9999972534181,4|0,0:3|3:0,0:0:0:0:
294,69,70883,1,4,0:3:0:0:
197,142,71037,1,0,0:0:0:0:
349,158,71191,1,8,0:2:0:0:
197,142,71345,1,4,0:3:0:0:
82,289,71499,2,0,P|128:306|177:290,1,89.9999972534181,0|0,0:0|3:0,0:0:0:0:
124,100,71806,6,0,P|175:113|199:150,1,89.9999972534181,4|0,0:3|3:0,0:0:0:0:
12,177,72114,1,0,0:0:0:0:
170,212,72268,1,0,0:0:0:0:
33,334,72422,2,0,P|103:347|142:327,1,89.9999972534181,8|0,0:2|3:0,0:0:0:0:
170,212,72729,2,0,P|240:225|279:205,1,89.9999972534181,0|0,0:0|3:0,0:0:0:0:
368,64,73037,5,4,0:3:0:0:
236,68,73191,1,0,0:0:0:0:
170,212,73345,2,0,P|174:276|206:308,1,89.9999972534181,4|0,0:3|3:0,0:0:0:0:
384,256,73652,1,8,0:2:0:0:
224,152,73806,1,4,0:3:0:0:
292,336,73960,1,4,0:3:0:0:
320,188,74114,1,0,0:0:0:0:
242,48,74268,6,0,P|185:46|145:69,1,89.9999972534181,6|0,0:3|3:0,0:0:0:0:
140,212,74575,1,0,0:0:0:0:
259,141,74729,1,0,0:0:0:0:
85,134,74883,1,8,0:2:0:0:
259,141,75037,1,0,0:0:0:0:
303,307,75191,2,0,P|242:314|211:285,1,89.9999972534181,0|0,0:0|3:0,0:0:0:0:
259,141,75499,5,4,0:3:0:0:
441,128,75652,2,0,P|431:178|394:202,1,89.9999972534181,0|0,0:0|3:0,0:0:0:0:
323,85,75960,1,0,0:0:0:0:
207,229,76114,1,8,0:2:0:0:
140,53,76268,1,0,0:0:0:0:
36,157,76422,2,0,P|88:170|136:152,1,89.9999972534181,0|4,0:0|3:3,0:0:0:0:
248,38,76729,5,0,0:0:0:0:
211,150,76883,1,4,0:3:0:0:
336,96,77037,1,4,0:3:0:0:
168,76,77191,1,4,0:3:0:0:
324,219,77345,1,8,0:2:0:0:
223,320,77499,2,0,P|159:302|138:273,1,89.9999972534181,0|0,0:0|3:0,0:0:0:0:
184,159,77806,1,4,0:3:0:0:
299,292,77960,5,8,0:2:0:0:
184,159,78114,1,8,0:2:0:0:
347,28,78268,1,0,3:0:0:0:
375,62,78344,1,0,3:0:0:0:
390,104,78421,1,0,3:0:0:0:
391,149,78498,1,0,3:0:0:0:
381,196,78575,1,8,0:2:0:0:
243,119,78729,1,8,0:2:0:0:
381,196,78883,1,0,0:0:0:0:
236,306,79037,1,0,0:0:0:0:
54,142,79191,6,0,P|119:125|152:138,1,89.9999972534181,0|0,0:0|3:0,0:0:0:0:
141,281,79499,1,0,0:0:0:0:
30,239,79652,1,0,0:0:0:0:
201,66,79806,2,0,P|228:117|212:174,1,89.9999972534181,8|0,0:2|0:0,0:0:0:0:
141,281,80114,1,0,0:0:0:0:
266,246,80268,1,0,3:0:0:0:
266,246,80345,1,0,3:0:0:0:
266,246,80422,5,0,3:0:0:0:
188,343,80575,1,0,0:0:0:0:
358,323,80729,1,0,3:0:0:0:
372,300,80805,1,0,3:0:0:0:
383,275,80882,1,0,3:0:0:0:
388,249,80959,1,0,3:0:0:0:
397,229,81037,1,8,0:2:0:0:
186,129,81191,1,8,0:2:0:0:
397,229,81346,1,8,0:2:0:0:
186,129,81499,1,8,0:2:0:0:
395,228,81653,6,0,P|393:174|367:122,1,89.9999972534181,0|0,1:0|1:0,1:0:0:0:
311,63,81960,1,0,0:0:0:0:
311,63,82114,1,0,0:0:0:0:
150,108,82268,1,8,0:2:0:0:
291,179,82422,1,0,0:0:0:0:
291,179,82575,1,0,0:0:0:0:
244,312,82729,6,0,P|183:316|153:295,1,89.9999972534181,0|0,1:0|1:0,1:0:0:0:
89,233,83037,1,0,0:0:0:0:
89,233,83191,1,0,0:0:0:0:
246,198,83345,1,8,0:2:0:0:
108,142,83499,1,0,0:3:0:0:
108,142,83652,1,0,0:3:0:0:
307,72,83806,6,0,P|331:111|327:156,1,89.9999972534181,0|0,1:0|1:0,1:0:0:0:
300,245,84114,1,0,0:0:0:0:
300,245,84268,1,0,0:0:0:0:
183,151,84422,1,8,0:2:0:0:
161,307,84575,1,0,0:3:0:0:
161,307,84729,1,0,0:3:0:0:
383,342,84883,6,2,L|431:228,1,112.500004291535,10|2,0:2|0:2,0:2:0:0:
310,64,85191,2,2,L|266:167,1,112.500004291535,10|2,0:2|0:2,0:2:0:0:
227,256,85499,5,0,0:0:0:0:
117,287,85652,1,0,0:0:0:0:
117,287,85806,1,0,0:0:0:0:
115,125,85960,1,8,0:2:0:0:
225,176,86114,1,4,3:0:0:0:
225,176,86191,1,4,3:0:0:0:
225,176,86268,1,4,3:0:0:0:
225,176,86345,1,4,3:0:0:0:
225,176,86422,6,0,P|276:182|316:155,1,89.9999972534181,0|0,1:0|1:0,1:0:0:0:
386,98,86729,1,0,0:0:0:0:
386,98,86883,1,0,0:0:0:0:
480,221,87037,1,8,0:2:0:0:
329,245,87191,1,4,3:0:0:0:
329,245,87268,1,4,3:0:0:0:
329,245,87345,1,4,3:0:0:0:
329,245,87422,1,4,3:0:0:0:
329,245,87499,6,0,P|293:280|241:284,1,89.9999972534181,0|0,1:0|1:0,1:0:0:0:
159,286,87806,1,0,0:0:0:0:
159,286,87960,1,0,0:0:0:0:
192,133,88114,1,8,0:2:0:0:
282,178,88268,1,0,0:3:0:0:
174,209,88422,1,0,0:3:0:0:
57,58,88575,6,2,L|190:55,1,112.500004291535,10|2,0:2|0:2,0:2:0:0:
390,55,88883,1,8,0:2:0:0:
282,178,89037,6,0,P|312:218|364:230,1,89.9999972534181,0|0,1:0|1:0,1:0:0:0:
440,240,89345,1,0,0:0:0:0:
440,240,89499,1,0,0:0:0:0:
339,351,89652,1,8,0:2:0:0:
214,269,89806,1,0,0:3:0:0:
214,269,89960,1,0,0:3:0:0:
318,77,90114,6,0,P|276:63|219:75,1,89.9999972534181,0|0,1:0|1:0,1:0:0:0:
149,109,90422,1,0,0:0:0:0:
149,109,90575,1,0,0:0:0:0:
210,250,90729,1,8,0:2:0:0:
75,320,90883,1,0,3:0:0:0:
75,320,91037,1,0,3:0:0:0:
8,151,91191,6,0,P|68:139|103:152,1,89.9999972534181,0|0,1:0|1:0,1:0:0:0:
175,189,91499,1,0,0:0:0:0:
175,189,91652,1,0,0:0:0:0:
147,337,91806,1,8,0:2:0:0:
57,213,91960,1,0,0:0:0:0:
57,213,92114,1,0,0:0:0:0:
188,77,92268,6,2,L|173:197,1,112.500004291535,10|2,0:2|0:2,0:2:0:0:
272,328,92575,2,2,L|386:280,1,112.500004291535,10|2,0:2|0:2,0:2:0:0:
397,181,92883,5,0,0:0:0:0:
355,86,93037,1,0,0:0:0:0:
355,86,93191,1,0,0:0:0:0:
188,77,93345,1,8,0:2:0:0:
296,192,93499,1,0,0:0:0:0:
296,192,93652,1,0,0:0:0:0:
179,332,93806,6,0,P|130:324|102:291,1,89.9999972534181,0|0,1:0|1:0,1:0:0:0:
74,212,94114,1,0,0:0:0:0:
74,212,94268,1,0,0:0:0:0:
230,220,94422,1,8,0:2:0:0:
200,68,94575,1,0,0:0:0:0:
200,68,94729,1,0,0:0:0:0:
74,212,94883,5,8,0:2:0:0:
310,222,95037,1,8,0:2:0:0:
200,68,95191,2,0,P|149:137|161:238,1,179.999994506836,8|0,0:2|3:2,0:2:0:0:
288,311,95960,5,0,2:0:0:0:
310,222,96114,1,0,2:0:0:0:
283,131,96268,1,0,2:0:0:0:
73,202,96422,6,0,P|133:229|170:221,1,89.9999972534181,12|0,0:0|0:0,0:0:0:0:
223,84,96729,2,0,P|170:77|124:99,1,89.9999972534181
232,216,97037,1,8,0:3:0:0:
297,171,97191,1,0,0:0:0:0:
310,87,97345,2,0,P|264:77|203:92,1,89.9999972534181
155,226,97652,6,0,P|189:240|235:208,1,89.9999972534181,4|0,0:0|0:0,0:0:0:0:
266,147,97960,2,0,P|313:169|328:203,1,89.9999972534181
254,355,98268,1,8,0:3:0:0:
146,303,98422,1,0,0:0:0:0:
148,203,98575,2,0,P|197:183|237:198,1,89.9999972534181
365,306,98883,6,0,P|402:268|399:220,1,89.9999972534181,4|0,0:0|0:0,0:0:0:0:
377,138,99191,2,0,P|321:123|271:133,1,89.9999972534181
112,180,99499,1,8,0:3:0:0:
230,193,99652,1,0,0:0:0:0:
289,126,99806,2,0,P|240:106|187:115,1,89.9999972534181
121,266,100114,6,0,P|177:273|219:258,1,89.9999972534181,4|0,0:0|0:0,0:0:0:0:
407,274,100422,2,0,P|356:302|314:298,1,89.9999972534181,8|0,0:3|0:0,0:0:0:0:
163,192,100729,1,8,0:3:0:0:
358,121,100883,1,0,0:0:0:0:
344,227,101037,2,0,P|295:219|269:185,1,89.9999972534181
389,41,101345,6,0,P|340:37|295:63,1,89.9999972534181,4|0,0:0|0:0,0:0:0:0:
246,112,101652,1,0,0:0:0:0:
270,189,101806,1,0,0:0:0:0:
154,319,101960,1,8,0:3:0:0:
47,281,102114,2,0,P|42:211|63:187,1,89.9999972534181
203,169,102422,1,8,0:3:0:0:
259,305,102575,6,0,P|309:288|333:248,1,89.9999972534181,4|0,0:0|0:0,0:0:0:0:
370,102,102883,2,0,P|320:87|276:90,1,89.9999972534181,8|0,0:3|0:0,0:0:0:0:
131,230,103191,1,8,0:3:0:0:
195,295,103345,1,0,0:0:0:0:
237,196,103499,2,0,P|218:147|182:120,1,89.9999972534181
51,197,103806,6,0,P|95:227|140:228,1,89.9999972534181,12|0,0:0|0:0,0:0:0:0:
351,165,104114,1,8,0:3:0:0:
280,113,104268,1,0,0:0:0:0:
207,321,104422,1,8,0:3:0:0:
350,276,104575,1,8,0:3:0:0:
177,213,104729,2,0,P|152:171|163:116,1,89.9999972534181,8|0,0:3|0:0,0:0:0:0:
319,81,105037,6,0,P|299:128|255:142,1,89.9999972534181,4|0,0:0|0:0,0:0:0:0:
95,197,105345,2,0,P|147:221|187:205,1,89.9999972534181,8|0,0:3|0:0,0:0:0:0:
367,132,105652,1,8,0:3:0:0:
333,282,105806,1,0,0:0:0:0:
179,128,105960,2,0,P|140:109|83:112,1,89.9999972534181,8|0,0:3|0:0,0:0:0:0:
49,273,106268,6,0,P|109:280|146:262,1,89.9999972534181,4|0,0:0|0:0,0:0:0:0:
323,166,106575,1,8,0:3:0:0:
333,282,106729,1,0,0:0:0:0:
197,328,106883,2,0,P|155:305|133:258,1,89.9999972534181,8|0,0:3|0:0,0:0:0:0:
189,62,107191,1,8,0:3:0:0:
254,115,107345,1,0,0:0:0:0:
333,282,107499,6,0,P|275:287|239:270,1,89.9999972534181,4|0,0:0|0:0,0:0:0:0:
102,168,107806,2,0,P|155:152|196:167,1,89.9999972534181,8|0,0:3|0:0,0:0:0:0:
348,214,108114,2,0,P|396:218|440:200,1,89.9999972534181
314,64,108422,5,0,3:0:0:0:
281,48,108498,1,0,3:0:0:0:
246,40,108575,1,0,3:0:0:0:
210,38,108652,1,0,3:0:0:0:
175,42,108729,1,0,3:0:0:0:
140,52,108806,1,0,3:0:0:0:
107,67,108883,1,0,3:0:0:0:
78,88,108960,1,0,3:0:0:0:
54,115,109037,1,0,3:0:0:0:
77,141,109113,1,0,3:0:0:0:
94,173,109190,1,0,3:0:0:0:
101,208,109267,1,0,3:0:0:0:
100,245,109345,1,0,3:0:0:0:
134,233,109421,1,0,3:0:0:0:
169,226,109498,1,0,3:0:0:0:
205,225,109575,1,0,3:0:0:0:
241,229,109652,1,0,3:0:0:0:
275,241,109729,1,0,3:0:0:0:
305,259,109806,1,0,3:0:0:0:
332,284,109883,1,0,3:0:0:0:
353,314,109960,5,0,3:0:0:0:
365,280,110037,1,0,3:0:0:0:
374,245,110114,1,0,3:0:0:0:
377,209,110191,1,0,3:0:0:0:
375,173,110268,1,0,3:0:0:0:
369,138,110345,1,0,3:0:0:0:
357,104,110422,1,0,3:0:0:0:
341,71,110499,1,0,3:0:0:0:
321,42,110575,1,0,3:0:0:0:
290,60,110651,1,0,3:0:0:0:
267,88,110728,1,0,3:0:0:0:
253,121,110805,1,0,3:0:0:0:
250,156,110882,1,4,1:0:0:0:
459,106,111037,1,4,0:0:0:0:
502,185,111191,5,2,2:0:0:0:
443,250,111345,1,0,2:0:0:0:
362,213,111499,1,0,2:0:0:0:
372,124,111652,1,0,2:0:0:0:
459,106,111806,1,0,2:0:0:0:
429,175,111960,1,0,2:0:0:0:
362,213,112114,5,2,2:0:0:0:
273,228,112268,1,0,2:0:0:0:
233,148,112422,1,0,2:0:0:0:
295,86,112575,1,0,2:0:0:0:
372,124,112729,1,0,2:0:0:0:
308,158,112883,1,0,2:0:0:0:
233,148,113037,5,2,2:0:0:0:
144,163,113191,1,0,2:0:0:0:
130,252,113345,1,0,2:0:0:0:
210,292,113499,1,0,2:0:0:0:
273,228,113652,1,0,2:0:0:0:
200,220,113806,1,0,2:0:0:0:
130,252,113960,5,2,2:0:0:0:
39,258,114114,1,0,2:0:0:0:
4,176,114268,1,0,2:0:0:0:
70,119,114421,1,0,2:0:0:0:
144,163,114575,1,0,2:0:0:0:
256,192,114729,12,0,118268,0:0:0:0:
152,284,118575,6,0,P|200:292|255:263,1,97.4999955368044,8|0,0:2|0:0,0:0:0:0:
391,99,118882,1,0,0:0:0:0:
167,99,119036,1,8,0:2:0:0:
414,231,119190,2,0,P|346:250|313:240,1,97.4999955368044
31,169,119498,6,0,P|84:154|135:169,1,97.4999955368044,8|0,0:2|0:0,0:0:0:0:
302,327,119805,1,0,0:0:0:0:
64,317,119959,1,8,0:2:0:0:
329,164,120113,2,0,P|374:140|389:81,1,97.4999955368044
85,88,120421,6,0,P|90:142|132:163,1,97.4999955368044,8|0,0:2|0:0,0:0:0:0:
318,37,120728,1,0,0:0:0:0:
278,271,120882,1,8,0:2:0:0:
478,125,121036,2,0,P|413:95|374:104,1,97.4999955368044
132,227,121344,6,0,P|204:236|239:221,1,97.4999955368044,8|0,0:2|0:0,0:0:0:0:
305,56,121651,1,0,0:0:0:0:
70,152,121805,1,8,0:2:0:0:
321,187,121959,1,0,0:0:0:0:
192,101,122113,1,0,0:0:0:0:
172,329,122267,6,0,P|248:339|281:324,1,97.4999955368044,8|0,0:2|0:0,0:0:0:0:
262,116,122575,1,0,0:0:0:0:
352,293,122728,1,8,0:2:0:0:
192,192,122882,1,0,0:0:0:0:
357,207,123036,1,0,0:0:0:0:
101,324,123190,6,0,P|73:275|87:220,1,97.4999955368044,8|0,0:2|0:0,0:0:0:0:
342,123,123498,1,0,0:0:0:0:
111,163,123651,1,8,0:2:0:0:
357,207,123805,1,0,0:0:0:0:
196,262,123959,1,0,0:0:0:0:
254,32,124113,5,8,0:3:0:0:
306,342,124267,1,8,0:3:0:0:
433,161,124575,5,8,0:3:0:0:
123,213,124729,1,8,0:3:0:0:
345,49,125036,5,8,0:3:0:0:
177,343,125190,1,8,0:3:0:0:
167,49,125498,5,8,0:3:0:0:
335,343,125652,1,8,0:3:0:0:
52,205,125959,6,0,P|102:178|145:178,1,97.4999955368044,8|0,0:2|0:0,0:0:0:0:
369,241,126267,1,0,0:0:0:0:
180,348,126421,1,8,0:2:0:0:
162,96,126575,2,0,P|217:89|264:101,1,97.4999955368044
353,322,126882,6,0,P|293:329|259:314,1,97.4999955368044,8|0,0:2|0:0,0:0:0:0:
141,177,127190,1,0,0:0:0:0:
259,24,127344,1,8,0:2:0:0:
378,172,127498,2,0,P|336:207|274:200,1,97.4999955368044
47,66,127805,6,0,P|100:72|137:102,1,97.4999955368044,8|0,0:2|0:0,0:0:0:0:
72,331,128113,1,0,0:0:0:0:
179,167,128267,1,8,0:2:0:0:
35,256,128421,1,0,0:0:0:0:
173,252,128575,1,0,0:0:0:0:
372,340,128728,6,0,P|396:285|380:237,1,97.4999955368044,8|0,0:2|0:0,0:0:0:0:
192,111,129036,1,0,0:0:0:0:
104,263,129190,1,4,3:3:0:0:
127,305,129266,1,4,3:3:0:0:
169,329,129343,1,4,3:3:0:0:
217,331,129420,1,4,3:3:0:0:
262,314,129497,1,4,3:3:0:0:
295,279,129574,1,4,3:3:0:0:
313,234,129651,6,0,P|306:186|278:147,1,97.4999955368044,8|0,0:2|0:0,0:0:0:0:
104,263,129959,1,0,0:0:0:0:
295,279,130113,1,8,0:2:0:0:
138,151,130267,1,0,0:0:0:0:
200,271,130421,1,0,0:0:0:0:
226,72,130575,6,0,P|268:106|274:163,1,97.4999955368044,8|0,0:2|0:0,0:0:0:0:
104,263,130882,1,0,0:0:0:0:
282,353,131036,1,8,0:2:0:0:
202,147,131190,2,0,P|191:214|213:246,1,97.4999955368044
403,293,131498,6,0,P|417:222|399:184,1,97.4999955368044,8|0,0:2|0:0,0:0:0:0:
216,68,131805,1,0,0:0:0:0:
418,46,131959,1,8,0:2:0:0:
261,191,132113,1,0,0:0:0:0:
409,200,132267,1,0,0:0:0:0:
310,336,132421,5,4,3:3:0:0:
258,347,132497,1,4,3:3:0:0:
205,339,132574,1,4,3:3:0:0:
159,312,132651,1,4,3:3:0:0:
127,270,132728,1,4,3:3:0:0:
112,219,132805,1,4,3:3:0:0:
159,241,132882,5,4,3:3:0:0:
140,191,132958,1,4,3:3:0:0:
141,137,133035,1,4,3:3:0:0:
161,88,133112,1,4,3:3:0:0:
198,50,133189,1,4,3:3:0:0:
247,28,133266,1,4,3:3:0:0:
302,27,133344,6,0,P|317:81|301:129,1,97.4999955368044,8|0,0:2|0:0,0:0:0:0:
208,250,133651,1,0,0:0:0:0:
42,129,133805,1,8,0:2:0:0:
256,178,133959,2,0,P|302:197|349:184,1,97.4999955368044
198,50,134267,6,0,P|165:108|174:154,1,97.4999955368044,8|0,0:2|0:0,0:0:0:0:
327,287,134574,1,0,0:0:0:0:
324,86,134728,1,8,0:2:0:0:
200,289,134882,1,0,0:0:0:0:
324,86,135036,1,8,0:2:0:0:
200,289,135190,1,0,0:0:0:0:
64,252,135343,1,0,0:0:0:0:
31,76,135497,6,0,P|89:54|140:68,1,97.4999955368044,8|0,0:2|0:0,0:0:0:0:
275,159,135804,1,0,0:0:0:0:
133,214,135958,1,8,0:2:0:0:
269,64,136112,2,0,P|282:117|269:170,1,97.4999955368044
165,338,136420,6,0,P|216:338|264:304,1,97.4999955368044,8|0,0:2|0:0,0:0:0:0:
188,125,136727,1,0,0:0:0:0:
13,214,136881,1,4,3:3:0:0:
65,239,136957,1,4,3:3:0:0:
122,254,137034,1,4,3:3:0:0:
180,258,137111,1,4,3:3:0:0:
238,251,137188,1,4,3:3:0:0:
293,233,137265,1,4,3:3:0:0:
345,205,137343,6,0,P|355:151|322:91,1,97.4999955368044,8|0,0:2|0:0,0:0:0:0:
116,77,137650,1,0,0:0:0:0:
238,251,137804,1,8,0:2:0:0:
275,60,137958,2,0,P|224:82|204:130,1,97.4999955368044
334,297,138266,6,0,P|352:243|337:191,1,97.4999955368044,8|0,0:2|0:0,0:0:0:0:
127,201,138573,1,0,0:0:0:0:
264,344,138727,1,8,0:2:0:0:
33,315,138881,1,0,0:0:0:0:
187,335,139035,1,8,0:2:0:0:
3,191,139189,1,0,0:0:0:0:
110,324,139342,1,8,0:2:0:0:
98,108,139496,1,0,0:0:0:0:
127,201,139650,1,0,0:0:0:0:
305,64,139804,6,0,P|321:136|300:168,1,97.4999955368044,8|0,0:2|0:0,0:0:0:0:
156,294,140111,1,0,0:0:0:0:
213,118,140265,1,8,0:2:0:0:
369,262,140419,2,0,P|317:280|264:265,1,97.4999955368044
94,145,140727,1,4,3:3:0:0:
126,90,140803,1,4,3:3:0:0:
174,50,140880,1,4,3:3:0:0:
233,28,140957,1,4,3:3:0:0:
296,26,141034,1,4,3:3:0:0:
356,45,141111,1,4,3:3:0:0:
434,102,141188,5,4,3:3:0:0:
402,157,141265,1,4,3:3:0:0:
354,197,141342,1,4,3:3:0:0:
295,219,141419,1,4,3:3:0:0:
232,221,141496,1,4,3:3:0:0:
172,202,141573,1,4,3:3:0:0:
131,154,141650,6,0,P|163:109|207:83,1,97.4999955368044,8|0,0:2|0:0,0:0:0:0:
434,102,141957,1,0,0:0:0:0:
351,328,142111,1,8,0:2:0:0:
133,320,142265,2,0,P|112:261|119:207,1,97.4999955368044
311,94,142573,6,0,P|307:171|289:202,1,97.4999955368044,8|0,0:2|0:0,0:0:0:0:
55,169,142880,1,0,0:0:0:0:
197,46,143034,1,8,0:2:0:0:
240,286,143188,1,0,0:0:0:0:
197,46,143342,1,8,0:2:0:0:
240,286,143496,1,0,0:0:0:0:
382,256,143649,1,0,0:0:0:0:
203,131,143803,6,0,P|177:182|196:225,1,97.4999955368044,8|0,0:2|0:0,0:0:0:0:
339,322,144110,1,0,0:0:0:0:
396,133,144264,1,8,0:2:0:0:
162,56,144418,1,0,0:0:0:0:
319,108,144572,1,8,0:2:0:0:
74,141,144726,1,0,0:0:0:0:
239,81,144879,1,8,0:2:0:0:
33,218,145033,1,0,3:0:0:0:
53,245,145109,1,0,3:0:0:0:
81,264,145186,1,0,3:0:0:0:
113,273,145263,1,0,3:0:0:0:
147,271,145341,6,0,P|192:262|231:216,1,97.4999955368044,12|0,0:2|0:0,0:0:0:0:
162,56,145648,1,0,0:0:0:0:
316,3,145802,1,0,0:0:0:0:
316,201,145956,2,0,P|267:227|217:223,1,97.4999955368044
69,338,146264,6,0,P|112:349|167:328,1,97.4999955368044,8|0,0:2|0:0,0:0:0:0:
212,146,146571,1,0,0:0:0:0:
70,222,146725,1,0,0:0:0:0:
295,278,146879,1,0,0:0:0:0:
70,222,147033,1,0,0:0:0:0:
295,278,147187,1,0,0:0:0:0:
339,164,147340,1,0,0:0:0:0:
108,68,147494,6,0,P|109:124|140:163,1,97.4999955368044,8|0,0:2|0:0,0:0:0:0:
318,221,147801,1,0,0:0:0:0:
246,72,147955,1,0,0:0:0:0:
219,321,148109,1,0,0:0:0:0:
237,156,148263,1,0,0:0:0:0:
356,374,148417,1,0,0:0:0:0:
228,237,148570,1,0,0:0:0:0:
450,347,148724,1,0,0:0:0:0:
415,218,148878,1,0,0:0:0:0:
300,311,149032,6,0,L|153:318,1,112.500004291535,8|0,0:0|0:0,0:0:0:0:
103,317,149339,1,0,3:0:0:0:
34,125,149493,2,0,L|146:119,1,112.500004291535,8|0,0:0|0:0,0:0:0:0:
233,114,149801,1,0,3:0:0:0:
416,123,149955,6,0,L|320:191,1,112.500004291535,8|0,0:0|0:0,0:0:0:0:
250,239,150262,1,0,3:0:0:0:
78,249,150416,2,0,L|169:183,1,112.500004291535,8|0,0:0|0:0,0:0:0:0:
412,249,150724,2,0,L|320:314,1,112.500004291535,8|0,0:0|0:0,0:0:0:0:
237,368,151031,1,0,3:0:0:0:
78,249,151185,6,0,L|203:272,1,112.500004291535,8|0,0:0|0:0,0:0:0:0:
286,287,151493,1,0,3:0:0:0:
437,203,151647,2,0,L|326:182,1,112.500004291535,8|0,0:0|0:0,0:0:0:0:
182,61,151955,2,0,L|292:81,1,112.500004291535,8|0,0:0|0:0,0:0:0:0:
321,268,152262,2,0,L|210:247,1,112.500004291535,8|0,0:0|0:0,0:0:0:0:
112,228,152570,1,0,3:0:0:0:
236,135,152724,1,2,3:2:0:0:
100,139,152878,1,2,3:2:0:0:
340,46,153031,6,0,L|306:157,1,112.500004291535,8|0,0:0|0:0,0:0:0:0:
276,240,153338,1,0,3:0:0:0:
443,349,153492,2,0,L|475:241,1,112.500004291535,8|0,0:0|0:0,0:0:0:0:
504,149,153800,1,0,3:0:0:0:
340,46,153954,6,0,L|211:74,1,112.500004291535,8|0,0:0|0:0,0:0:0:0:
64,214,154261,2,0,L|173:190,1,112.500004291535,8|0,0:0|0:0,0:0:0:0:
272,166,154569,1,0,3:0:0:0:
475,241,154723,2,0,L|365:264,1,112.500004291535,8|0,0:0|0:0,0:0:0:0:
271,282,155031,1,0,3:0:0:0:
64,214,155184,6,0,L|113:95,1,112.500004291535,8|0,0:0|0:0,0:0:0:0:
314,61,155492,2,0,L|271:165,1,112.500004291535,8|0,0:0|0:0,0:0:0:0:
322,368,155800,2,0,L|371:249,1,112.500004291535,8|0,0:0|0:0,0:0:0:0:
400,177,156107,1,0,3:0:0:0:
240,45,156261,5,0,0:0:0:0:
240,45,156338,1,0,0:0:0:0:
240,45,156415,1,4,0:0:0:0:
200,66,156491,1,4,0:0:0:0:
170,99,156568,1,4,0:0:0:0:
152,140,156645,1,4,0:0:0:0:
147,185,156722,1,4,0:0:0:0:
157,229,156799,1,4,0:0:0:0:
240,279,156877,5,4,0:0:0:0:
283,290,156953,1,4,0:0:0:0:
328,290,157030,1,4,0:0:0:0:
370,275,157107,1,4,0:0:0:0:
405,247,157184,1,4,0:0:0:0:
430,210,157261,1,4,0:0:0:0:
86,290,162877,6,0,B|191:246|234:132|159:47|22:86|25:208|102:281|227:308|227:308|316:326|377:277|342:188|342:188|314:137|313:80|346:40|446:31|478:102|474:183|420:244|253:229|222:75,1,1275
85,150,168415,5,4,1:3:0:0:
149,226,168646,1,0,0:0:0:0:
252,225,168877,1,0,0:0:0:0:
271,121,169107,5,0,0:0:0:0:
394,139,169338,2,0,P|393:183|368:218,1,75,2|0,0:0|0:0,0:0:0:0:
304,277,169799,1,0,0:0:0:0:
203,297,170030,2,0,P|158:293|129:275,2,75,2|0|0,0:0|0:0|0:0,0:0:0:0:
304,277,170722,5,0,0:0:0:0:
282,161,170953,2,0,P|236:152|196:159,1,75,2|0,0:0|0:0,0:0:0:0:
109,184,171415,1,0,0:0:0:0:
136,286,171645,2,0,P|188:298|225:285,2,75,2|0|0,0:0|0:0|0:0,0:0:0:0:
51,237,172338,5,0,0:0:0:0:
83,121,172568,2,0,P|134:103|166:107,1,75,2|0,0:0|0:0,0:0:0:0:
259,124,173030,1,0,0:0:0:0:
321,210,173261,2,0,P|373:219|401:210,2,75,2|0|0,0:0|0:0|0:0,0:0:0:0:
225,183,173953,5,0,0:0:0:0:
165,269,174184,2,0,P|216:288|244:281,1,75,2|0,0:0|0:0,0:0:0:0:
321,210,174645,1,0,0:0:0:0:
282,117,174876,2,0,P|245:101|196:106,2,75,2|0|0,0:0|0:0|0:0,0:0:0:0:
371,159,175568,5,0,0:0:0:0:
429,249,175799,2,0,P|417:290|388:318,1,75,2|0,0:0|0:0,0:0:0:0:
303,340,176261,1,0,0:0:0:0:
202,306,176491,2,0,P|152:305|118:319,2,75,2|0|0,0:0|0:0|0:0,0:0:0:0:
303,340,177184,5,0,0:0:0:0:
327,245,177415,2,0,P|320:205|292:174,1,75,2|0,0:0|0:0,0:0:0:0:
226,113,177876,1,0,0:0:0:0:
125,114,178107,2,0,P|103:157|107:196,2,75,2|0|0,0:0|0:0|0:0,0:0:0:0:
192,42,178799,5,0,0:0:0:0:
299,40,179030,2,0,P|335:47|368:78,1,75,2|0,0:0|0:0,0:0:0:0:
422,160,179491,1,0,0:0:0:0:
370,243,179722,2,0,P|360:283|363:318,2,75,2|0|0,0:0|0:0|0:0,0:0:0:0:
422,160,180415,5,0,0:0:0:0:
333,110,180645,2,0,P|289:102|251:110,1,75,2|0,0:0|0:0,0:0:0:0:
157,139,181107,1,0,0:0:0:0:
57,278,181338,6,0,P|124:304|232:277,1,165.000005035401,10|0,0:0|3:0,0:0:0:0:
319,233,182030,1,0,3:0:0:0:
123,63,182261,2,8,P|202:46|279:73,1,165.000005035401,8|2,0:0|3:0,0:0:0:0:
380,146,182953,2,0,P|323:170|226:146,1,165.000005035401,2|0,0:0|3:0,0:0:0:0:
123,63,183645,5,0,0:0:0:0:
53,135,183876,2,0,P|83:226|152:250,1,165.000005035401,2|2,0:0|3:0,0:0:0:0:
396,202,184568,1,10,0:0:0:0:
304,127,184799,1,8,3:0:0:0:
223,126,185030,5,8,3:0:0:0:
141,249,185261,1,0,0:0:0:0:
75,39,185491,2,0,P|128:28|172:41,1,82.5000025177003,10|0,0:0|3:0,0:0:0:0:
261,61,185953,1,2,0:0:0:0:
207,285,186184,2,0,P|201:184|225:122,1,165.000005035401,10|0,0:0|3:0,0:0:0:0:
319,245,186876,5,2,0:0:0:0:
207,285,187107,2,0,P|147:285|58:222,1,165.000005035401,2|2,0:0|3:0,0:0:0:0:
222,125,187799,2,0,P|266:111|307:118,2,82.5000025177003,10|0|0,0:0|3:0|3:0,0:0:0:0:
135,202,188491,1,0,0:0:0:0:
347,218,188722,6,0,P|328:272|292:285,1,82.5000025177003,10|0,0:0|3:0,0:0:0:0:
177,288,189184,1,2,0:0:0:0:
222,125,189415,2,0,P|321:112|390:144,1,165.000005035401,2|0,0:0|3:0,0:0:0:0:
259,309,190107,2,0,P|211:304|173:273,1,82.5000025177003,0|2,0:0|3:0,0:0:0:0:
124,228,190568,2,0,P|76:223|38:192,1,82.5000025177003,0|2,3:0|3:0,3:0:0:0:
132,68,191030,5,10,0:0:0:0:
223,152,191261,2,0,P|281:166|321:142,1,82.5000025177003
174,0,191722,1,0,0:0:0:0:
90,136,191953,2,0,P|85:220|139:275,1,165.000005035401,10|2,0:0|3:0,0:0:0:0:
253,292,192645,2,0,P|310:280|330:252,2,82.5000025177003,2|0|0,0:0|3:0|3:0,0:0:0:0:
205,123,193338,5,0,0:0:0:0:
323,145,193568,2,0,P|289:191|256:199,1,82.5000025177003,2|0,0:0|3:0,0:0:0:0:
114,216,194030,1,2,0:0:0:0:
205,42,194261,2,0,P|251:55|276:79,1,82.5000025177003,10|0,0:0|3:0,0:0:0:0:
323,145,194722,5,0,0:0:0:0:
327,217,194953,1,0,0:0:0:0:
151,251,195184,2,0,P|224:292|317:271,1,165.000005035401,10|2,0:0|0:0,0:0:0:0:
377,186,195876,2,0,P|387:139|372:85,2,82.5000025177003,2|0|0,0:0|3:0|3:0,0:0:0:0:
301,280,196568,1,0,0:0:0:0:
208,282,196799,6,0,P|172:241|175:191,1,82.5000025177003,2|0,3:0|3:0,3:0:0:0:
175,126,197261,1,2,3:0:0:0:
46,50,197491,1,8,0:0:0:0:
42,154,197722,1,8,0:0:0:0:
56,238,197953,6,0,P|107:243|152:218,1,82.5000025177003,0|0,3:0|3:0,3:0:0:0:
277,132,198415,2,0,P|190:123|113:153,1,165.000005035401,10|2,0:0|3:0,0:0:0:0:
44,309,199107,2,0,P|111:347|216:324,1,165.000005035401,2|0,0:0|3:0,0:0:0:0:
349,244,199799,2,0,P|305:215|263:213,1,82.5000025177003,0|2,0:0|3:0,0:0:0:0:
185,193,200261,2,0,P|138:171|110:132,1,82.5000025177003,0|2,3:0|3:0,3:0:0:0:
226,61,200722,5,10,0:0:0:0:
312,84,200953,2,0,P|295:120|243:149,1,82.5000025177003,0|0,3:0|3:0,3:0:0:0:
156,204,201415,1,0,0:0:0:0:
327,325,201645,2,0,P|239:341|156:303,1,165.000005035401,10|2,0:0|0:0,0:0:0:0:
156,204,202338,6,0,P|246:180|316:208,1,165.000005035401,2|0,0:0|0:0,0:0:0:0:
385,292,203030,1,0,0:0:0:0:
293,321,203261,2,0,P|242:320|210:294,1,82.5000025177003,2|0,0:0|3:0,0:0:0:0:
190,222,203722,1,2,0:0:0:0:
297,111,203953,5,0,0:0:0:0:
368,177,204184,2,0,P|361:232|336:260,1,82.5000025177003
150,285,204645,1,0,0:0:0:0:
196,112,204876,2,0,P|296:88|370:118,1,165.000005035401,10|2,0:0|0:0,0:0:0:0:
275,213,205568,6,0,P|272:257|292:300,2,82.5000025177003,2|0|0,0:0|0:0|0:0,0:0:0:0:
352,106,206261,1,0,0:0:0:0:
268,63,206491,2,0,P|224:52|178:63,1,82.5000025177003,2|0,0:0|0:0,0:0:0:0:
107,92,206953,1,0,0:0:0:0:
109,279,207184,5,8,0:3:0:0:
300,265,207415,1,8,0:3:0:0:
109,279,207645,1,8,0:3:0:0:
300,265,207876,1,8,0:3:0:0:
204,285,208338,5,8,0:3:0:0:
33,198,208568,1,8,0:3:0:0:
118,241,209030,5,8,0:3:0:0:
16,79,209261,1,8,0:3:0:0:
118,241,209491,1,8,0:3:0:0:
67,160,209953,5,8,0:3:0:0:
229,58,210184,1,8,0:3:0:0:
190,216,210415,1,8,0:3:0:0:
352,114,210646,1,8,0:3:0:0:
313,272,210876,1,8,0:3:0:0:
475,170,211107,1,8,0:3:0:0:
394,221,211569,5,8,0:3:0:0:
203,225,211799,1,8,0:3:0:0:
299,223,212261,5,8,0:3:0:0:
133,128,212491,1,8,0:3:0:0:
299,223,212722,1,8,0:3:0:0:
352,114,212953,2,0,P|296:98|240:118,1,97.4999955368044,8|0,0:3|0:0,0:0:0:0:
128,234,213415,2,0,P|184:250|240:230,1,97.4999955368044
352,114,214107,5,8,0:3:0:0:
167,164,214337,1,8,0:3:0:0:
328,296,214799,5,8,0:3:0:0:
260,139,215030,1,8,0:3:0:0:
328,296,215261,2,0,P|265:310|220:293,1,97.4999955368044,8|0,0:3|0:0,0:0:0:0:
78,81,215722,5,8,0:3:0:0:
260,139,215952,1,8,0:3:0:0:
78,81,216184,1,8,0:3:0:0:
260,139,216414,1,8,0:3:0:0:
78,81,216645,1,8,0:3:0:0:
260,139,216875,1,8,0:3:0:0:
169,110,217338,5,8,0:3:0:0:
295,253,217568,1,8,0:3:0:0:
232,181,218030,5,8,0:3:0:0:
266,368,218260,1,8,0:3:0:0:
53,236,218491,2,0,P|80:176|123:161,1,97.4999955368044,8|0,0:3|0:0,0:0:0:0:
390,233,218953,6,0,P|350:254|282:238,1,97.4999955368044,0|0,0:2|3:0,0:0:0:0:
208,57,219415,1,0,0:0:0:0:
397,140,219645,2,0,P|401:211|370:251,1,97.4999955368044,8|0,0:2|3:0,0:0:0:0:
199,320,220107,1,0,0:0:0:0:
50,208,220338,2,0,P|107:183|151:192,1,97.4999955368044,8|0,0:2|3:0,0:0:0:0:
294,276,220799,6,0,P|317:211|306:163,1,97.4999955368044,0|0,0:0|3:0,0:0:0:0:
163,49,221261,1,8,0:2:0:0:
140,187,221491,2,0,P|209:199|257:184,1,97.4999955368044,0|0,0:0|3:0,0:0:0:0:
372,145,221953,1,0,0:0:0:0:
258,46,222184,2,0,P|197:39|137:64,1,97.4999955368044,0|0,0:0|3:0,0:0:0:0:
61,194,222645,5,0,0:0:0:0:
229,329,222876,2,0,P|263:276|257:223,1,97.4999955368044,8|0,0:2|3:0,0:0:0:0:
224,137,223338,1,0,0:0:0:0:
224,137,223568,2,0,P|287:105|325:113,1,97.4999955368044,0|0,0:0|3:0,0:0:0:0:
434,260,224030,1,8,0:2:0:0:
323,324,224261,1,0,0:0:0:0:
323,324,224491,1,0,0:0:0:0:
118,329,224722,6,0,P|97:273|105:217,1,97.4999955368044,0|0,0:0|3:0,0:0:0:0:
151,98,225184,1,0,0:0:0:0:
311,143,225415,2,0,P|294:196|230:229,1,97.4999955368044,8|0,0:2|3:0,0:0:0:0:
72,158,225876,1,0,0:0:0:0:
218,37,226107,2,0,P|288:21|328:43,1,97.4999955368044,0|0,0:0|3:0,0:0:0:0:
350,250,226568,5,8,0:2:0:0:
202,300,226799,1,0,0:0:0:0:
234,141,227030,1,0,0:0:0:0:
153,220,227261,2,0,P|91:198|73:163,1,97.4999955368044,0|0,0:0|3:0,0:0:0:0:
125,79,227722,2,0,P|199:58|236:76,2,97.4999955368044,0|0|0,0:0|3:0|3:0,0:0:0:0:
75,173,228415,5,0,0:0:0:0:
165,326,228645,1,8,0:2:0:0:
275,311,228876,2,0,P|298:263|292:205,1,97.4999955368044,0|0,3:0|3:0,3:0:0:0:
213,125,229338,2,0,P|193:183|221:241,1,97.4999955368044,0|0,0:0|3:0,0:0:0:0:
368,322,229799,1,8,0:2:0:0:
201,216,230030,1,0,0:0:0:0:
403,236,230261,2,2,L|359:216,1,48.7499977684022,2|2,0:3|3:3,0:3:0:0:
280,128,230491,2,2,L|347:149,1,48.7499977684022,2|2,0:3|3:3,0:3:0:0:
478,193,230722,5,10,3:2:0:0:
460,268,230837,1,0,3:0:0:0:
412,328,230952,1,0,3:0:0:0:
342,361,231068,1,0,3:0:0:0:
264,359,231183,1,0,3:0:0:0:
196,323,231298,1,0,3:0:0:0:
150,261,231414,1,0,3:0:0:0:
326,142,231645,6,0,P|262:96|162:105,1,168.750006437302,8|0,0:2|3:0,0:0:0:0:
70,165,232107,1,0,3:2:0:0:
73,241,232222,1,0,3:0:0:0:
122,302,232337,1,0,3:0:0:0:
196,323,232453,1,0,3:0:0:0:
269,297,232568,1,0,3:0:0:0:
313,233,232683,1,0,3:0:0:0:
326,142,232799,2,0,P|385:131|432:163,1,112.500004291535,0|0,3:0|3:0,3:0:0:0:
417,334,233261,5,0,3:0:0:0:
339,342,233376,1,0,3:0:0:0:
265,316,233491,2,0,P|174:320|92:288,1,168.750006437302,8|0,0:2|3:0,0:0:0:0:
22,228,233953,1,0,3:0:0:0:
49,166,234068,1,0,3:0:0:0:
91,113,234183,1,0,3:0:0:0:
144,73,234299,1,0,3:0:0:0:
207,47,234414,1,0,3:0:0:0:
273,38,234529,1,0,3:0:0:0:
340,47,234645,1,0,3:0:0:0:
374,117,234760,1,0,3:0:0:0:
383,194,234875,1,0,3:0:0:0:
365,271,234991,1,0,3:0:0:0:
321,336,235106,1,0,3:0:0:0:
122,288,235338,6,0,P|174:245|242:254,1,112.500004291535,8|0,0:2|3:0,0:0:0:0:
427,288,235799,1,0,3:0:0:0:
460,212,235914,1,0,3:0:0:0:
441,136,236029,1,0,3:0:0:0:
395,74,236145,1,0,3:0:0:0:
321,50,236260,1,0,3:0:0:0:
243,59,236375,1,0,3:0:0:0:
180,104,236491,2,2,P|190:211|243:241,1,168.750006437302,2|2,3:2|3:2,3:2:0:0:
235,239,236953,1,0,3:0:0:0:
235,239,237068,1,0,3:0:0:0:
354,267,237184,5,14,3:3:0:0:
293,316,237299,1,4,3:3:0:0:
219,341,237414,1,4,3:3:0:0:
140,337,237530,1,4,3:3:0:0:
69,304,237645,1,4,3:3:0:0:
95,230,237760,1,4,3:3:0:0:
149,173,237875,1,4,3:3:0:0:
220,140,237991,1,4,3:3:0:0:
298,138,238107,6,2,P|295:200|258:237,1,112.500004291535,10|2,0:2|3:2,0:2:0:0:
184,250,238453,1,0,3:0:0:0:
118,219,238568,1,0,3:0:0:0:
81,157,238683,1,0,3:0:0:0:
85,85,238799,1,0,3:0:0:0:
431,48,239030,6,0,P|429:128|372:217,1,168.750006437302,8|0,0:2|0:0,0:0:0:0:
312,264,239491,1,0,0:0:0:0:
240,279,239606,1,0,3:0:0:0:
168,275,239721,1,0,3:0:0:0:
99,251,239837,1,0,3:0:0:0:
39,209,239953,1,0,3:0:0:0:
82,151,240068,1,0,3:0:0:0:
149,122,240184,2,0,P|209:167|309:166,1,168.750006437302,0|0,0:0|3:0,0:0:0:0:
391,98,240645,5,4,3:3:0:0:
323,58,240760,1,4,3:3:0:0:
247,37,240875,1,4,3:3:0:0:
169,35,240991,1,4,3:3:0:0:
92,54,241106,1,4,3:3:0:0:
23,90,241222,1,4,3:3:0:0:
16,167,241337,1,4,3:3:0:0:
39,242,241452,1,4,3:3:0:0:
90,302,241568,1,4,3:3:0:0:
159,338,241683,1,4,3:3:0:0:
237,345,241799,6,0,P|279:303|279:228,1,112.500004291535,0|0,0:0|3:0,0:0:0:0:
265,82,242261,1,0,0:0:0:0:
429,195,242491,1,0,0:0:0:0:
222,229,242722,1,8,0:2:0:0:
360,148,242953,1,0,0:0:0:0:
222,229,243184,5,0,0:0:0:0:
192,71,243415,1,0,0:0:0:0:
222,229,243645,1,0,0:0:0:0:
63,203,243876,1,0,0:0:0:0:
222,229,244107,1,0,0:0:0:0:
172,333,244338,5,0,3:0:0:0:
241,330,244453,1,0,3:0:0:0:
300,295,244568,1,0,3:0:0:0:
320,227,244684,1,0,3:0:0:0:
308,158,244799,1,8,3:2:0:0:
143,216,245030,1,0,0:0:0:0:
308,158,245261,1,0,0:0:0:0:
115,34,245491,5,10,3:2:0:0:
74,94,245606,1,0,3:0:0:0:
59,165,245721,1,0,3:0:0:0:
73,236,245837,1,0,3:0:0:0:
112,297,245952,1,0,3:0:0:0:
172,339,246067,1,0,3:0:0:0:
243,355,246183,1,0,3:0:0:0:
315,343,246298,1,0,3:0:0:0:
376,304,246415,6,0,P|412:218|392:147,1,168.750006437302,8|0,0:2|0:0,0:0:0:0:
342,74,246876,1,0,3:0:0:0:
292,119,246991,1,0,3:0:0:0:
232,148,247106,1,0,3:0:0:0:
165,157,247222,1,0,3:0:0:0:
99,144,247337,1,0,3:0:0:0:
40,112,247452,1,0,3:0:0:0:
25,45,247568,2,0,P|97:27|145:41,1,112.500004291535,0|0,0:0|3:0,0:0:0:0:
292,119,248030,5,0,3:0:0:0:
321,198,248145,1,0,3:0:0:0:
317,283,248261,2,0,P|263:308|203:303,1,112.500004291535,8|0,3:2|3:0,3:0:0:0:
131,280,248607,1,0,0:0:0:0:
74,234,248722,1,0,3:0:0:0:
43,169,248837,1,0,3:0:0:0:
43,96,248953,1,0,3:0:0:0:
74,31,249068,1,0,3:0:0:0:
143,52,249183,1,0,3:0:0:0:
198,99,249298,1,0,3:0:0:0:
231,164,249414,1,0,3:0:0:0:
236,236,249529,1,0,3:0:0:0:
211,305,249645,6,0,P|159:319|100:309,1,112.500004291535,0|0,0:0|3:0,0:0:0:0:
0,161,250107,2,0,P|52:147|111:157,1,112.500004291535,8|0,0:2|3:0,0:0:0:0:
216,205,250568,1,0,3:0:0:0:
288,216,250683,1,0,3:0:0:0:
360,207,250798,1,0,3:0:0:0:
427,178,250914,1,0,3:0:0:0:
483,132,251030,1,0,3:0:0:0:
422,90,251145,1,0,3:0:0:0:
353,80,251261,2,2,P|301:117|294:230,1,168.750006437302,2|2,3:2|3:2,3:2:0:0:
287,215,251722,1,0,3:3:0:0:
287,215,251838,1,0,3:3:0:0:
294,327,251952,5,14,3:3:0:0:
221,338,252068,1,4,3:3:0:0:
149,324,252183,1,4,3:3:0:0:
86,286,252298,1,4,3:3:0:0:
40,227,252415,1,4,3:3:0:0:
95,178,252530,1,4,3:3:0:0:
162,149,252645,1,4,3:3:0:0:
234,138,252761,1,4,3:3:0:0:
306,145,252876,6,2,P|363:157|426:132,1,112.500004291535,10|2,0:2|3:2,0:2:0:0:
443,53,253222,1,0,0:0:0:0:
370,44,253337,1,0,3:0:0:0:
297,45,253452,1,0,3:0:0:0:
224,54,253568,1,0,3:0:0:0:
153,71,253683,1,0,3:0:0:0:
88,104,253799,6,0,P|71:201|125:270,1,168.750006437302,8|0,0:2|3:0,0:0:0:0:
176,315,254261,1,0,0:0:0:0:
241,345,254376,1,0,3:0:0:0:
314,344,254491,1,0,3:0:0:0:
379,312,254607,1,0,3:0:0:0:
425,256,254722,1,0,3:0:0:0:
441,185,254837,1,0,3:0:0:0:
426,114,254953,2,0,P|333:63|272:63,1,168.750006437302,0|0,3:0|3:0,3:0:0:0:
193,88,255415,5,4,3:3:0:0:
171,151,255530,1,4,3:3:0:0:
172,218,255645,1,4,3:3:0:0:
200,279,255760,1,4,3:3:0:0:
249,325,255876,1,4,3:3:0:0:
311,349,255991,1,4,3:3:0:0:
378,347,256107,1,4,3:3:0:0:
414,277,256222,1,4,3:3:0:0:
426,200,256337,1,4,3:3:0:0:
412,123,256453,1,4,3:3:0:0:
373,54,256568,6,0,P|321:34|253:46,1,112.500004291535
86,105,257030,1,0,0:0:0:0:
259,154,257261,1,0,0:0:0:0:
72,313,257491,1,8,0:2:0:0:
134,180,257722,1,0,0:0:0:0:
267,272,257953,6,0,P|210:291|141:259,1,112.500004291535
73,129,258415,2,0,P|136:105|184:122,1,112.500004291535,8|0,0:2|0:0,0:0:0:0:
213,214,258876,1,0,0:0:0:0:
341,146,259107,1,0,0:3:0:0:
331,114,259222,1,0,0:3:0:0:
315,85,259338,1,0,0:3:0:0:
292,60,259453,1,0,0:3:0:0:
264,41,259568,1,0,0:3:0:0:
232,29,259684,1,0,0:3:0:0:
199,25,259799,1,0,0:3:0:0:
165,28,259915,1,0,0:3:0:0:
133,39,260030,1,0,0:3:0:0:
105,57,260145,1,0,0:3:0:0:
71,123,260261,5,0,0:0:0:0:
149,129,260376,1,0,0:0:0:0:
227,135,260491,1,0,0:0:0:0:
306,142,260607,1,0,0:0:0:0:
384,148,260722,1,0,0:0:0:0:
463,155,260837,1,0,0:0:0:0:
447,325,261184,5,0,0:0:0:0:
369,313,261299,1,0,0:0:0:0:
291,301,261414,1,0,0:0:0:0:
213,289,261530,1,0,0:0:0:0:
135,277,261645,1,0,0:0:0:0:
57,265,261760,1,0,0:0:0:0:
30,190,261876,1,0,0:0:0:0:
108,202,261991,1,0,0:0:0:0:
186,214,262106,1,0,0:0:0:0:
264,226,262222,1,0,0:0:0:0:
342,238,262337,1,0,0:0:0:0:
420,250,262452,1,0,0:0:0:0:
128,67,263491,5,0,0:0:0:0:
155,135,263606,1,0,0:0:0:0:
199,194,263721,1,0,0:0:0:0:
260,233,263837,1,0,0:0:0:0:
332,248,263952,1,0,0:0:0:0:
406,242,264067,1,0,0:0:0:0:
295,141,264415,6,0,L|216:136,3,56.2500021457673
184,207,264877,2,0,L|116:231,3,56.2500021457673
259,241,265339,2,0,L|325:267,3,56.2500021457673
390,65,266030,5,0,0:0:0:0:
316,65,266145,1,0,0:0:0:0:
246,89,266260,1,0,0:0:0:0:
186,132,266376,1,0,0:0:0:0:
142,192,266491,1,0,0:0:0:0:
119,263,266606,1,0,0:0:0:0:
167,327,266722,1,0,0:0:0:0:
241,327,266837,1,0,0:0:0:0:
311,303,266952,1,0,0:0:0:0:
371,260,267068,1,0,0:0:0:0:
415,200,267183,1,0,0:0:0:0:
438,129,267298,1,0,0:0:0:0:
365,71,267645,6,0,L|286:66,3,56.2500021457673
243,122,268107,2,0,L|173:91,3,56.2500021457673
134,173,268569,2,0,L|145:233,3,56.2500021457673
277,187,269261,5,0,0:0:0:0:
217,227,269376,1,0,0:0:0:0:
145,229,269491,1,0,0:0:0:0:
82,193,269607,1,0,0:0:0:0:
48,130,269722,1,0,0:0:0:0:
50,58,269837,1,0,0:0:0:0:
112,21,269953,1,0,0:0:0:0:
145,85,270068,1,0,0:0:0:0:
156,157,270183,1,0,0:0:0:0:
145,229,270299,1,0,0:0:0:0:
112,294,270414,1,0,0:0:0:0:
60,345,270529,1,0,0:0:0:0:
381,217,270876,5,0,0:0:0:0:
318,178,270991,1,0,0:0:0:0:
250,154,271106,1,0,0:0:0:0:
177,143,271222,1,0,0:0:0:0:
105,148,271337,1,0,0:0:0:0:
34,167,271452,1,0,0:0:0:0:
34,267,271568,1,0,0:0:0:0:
105,286,271683,1,0,0:0:0:0:
177,291,271798,1,0,0:0:0:0:
250,280,271914,1,0,0:0:0:0:
318,256,272029,1,0,0:0:0:0:
381,217,272144,1,0,0:0:0:0:
301,107,272491,6,0,L|242:163,3,56.2500021457673
188,188,272953,2,0,L|124:178,3,56.2500021457673
52,214,273415,2,0,L|33:267,3,56.2500021457673
192,347,274107,5,0,0:0:0:0:
239,292,274222,1,0,0:0:0:0:
271,226,274337,1,0,0:0:0:0:
283,154,274453,1,0,0:0:0:0:
276,81,274568,1,0,0:0:0:0:
250,13,274683,1,0,0:0:0:0:
166,15,274799,1,0,0:0:0:0:
139,82,274914,1,0,0:0:0:0:
132,155,275029,1,0,0:0:0:0:
145,227,275145,1,0,0:0:0:0:
176,293,275260,1,0,0:0:0:0:
224,348,275375,1,0,0:0:0:0:
393,264,275722,5,0,0:0:0:0:
339,90,275953,1,2,0:0:0:0:
312,103,276029,1,2,0:0:0:0:
289,123,276106,1,2,0:0:0:0:
274,148,276183,1,2,0:0:0:0:
265,177,276260,1,2,0:0:0:0:
265,207,276337,1,2,0:0:0:0:
274,236,276415,1,2,0:0:0:0:
223,287,276530,1,0,0:0:0:0:
152,303,276645,1,0,0:0:0:0:
84,280,276761,1,0,0:0:0:0:
38,225,276876,1,0,0:0:0:0:
28,153,276991,1,0,0:0:0:0:
129,76,277338,6,0,L|199:71,3,56.2500021457673
197,150,277800,2,0,L|265:157,3,56.2500021457673
273,243,278262,2,0,L|252:296,3,56.2500021457673
432,188,278953,5,0,0:0:0:0:
418,116,279068,1,0,0:0:0:0:
377,55,279184,1,0,0:0:0:0:
316,15,279299,1,0,0:0:0:0:
244,0,279415,1,0,0:0:0:0:
173,15,279530,1,0,0:0:0:0:
112,55,279645,1,0,0:0:0:0:
71,116,279761,1,0,0:0:0:0:
57,188,279876,1,0,0:0:0:0:
71,260,279991,1,0,0:0:0:0:
112,320,280107,1,0,0:0:0:0:
173,361,280222,1,0,0:0:0:0:
71,116,280568,5,0,0:0:0:0:
112,55,280684,1,0,0:0:0:0:
173,15,280799,1,0,0:0:0:0:
244,0,280914,1,0,0:0:0:0:
316,15,281030,1,0,0:0:0:0:
377,55,281145,1,0,0:0:0:0:
418,116,281261,1,0,0:0:0:0:
432,188,281376,1,0,0:0:0:0:
418,260,281491,1,0,0:0:0:0:
377,320,281607,1,0,0:0:0:0:
316,361,281722,1,0,0:0:0:0:
244,375,281837,1,0,0:0:0:0:
113,258,282184,6,0,L|73:197,3,56.2500021457673
89,130,282646,2,0,L|158:118,3,56.2500021457673
225,87,283107,2,0,L|256:28,3,56.2500021457673
446,69,283799,5,0,0:0:0:0:
451,141,283914,1,0,0:0:0:0:
432,211,284029,1,0,0:0:0:0:
392,272,284145,1,0,0:0:0:0:
334,316,284260,1,0,0:0:0:0:
265,339,284375,1,0,0:0:0:0:
192,339,284491,1,0,0:0:0:0:
123,315,284606,1,0,0:0:0:0:
66,270,284722,1,0,0:0:0:0:
26,209,284837,1,0,0:0:0:0:
8,139,284952,1,0,0:0:0:0:
14,66,285068,1,0,0:0:0:0:
213,55,285415,6,0,L|263:96,3,56.2500021457673
260,172,285877,2,0,L|226:219,3,56.2500021457673
240,298,286339,2,0,L|282:334,3,56.2500021457673
447,299,287030,5,0,0:0:0:0:
452,226,287145,1,0,0:0:0:0:
434,156,287260,1,0,0:0:0:0:
393,95,287376,1,0,0:0:0:0:
335,51,287491,1,0,0:0:0:0:
266,28,287606,1,0,0:0:0:0:
194,28,287722,1,0,0:0:0:0:
125,52,287837,1,0,0:0:0:0:
67,97,287953,1,0,0:0:0:0:
28,158,288068,1,0,0:0:0:0:
10,228,288183,1,0,0:0:0:0:
16,301,288299,1,0,0:0:0:0:
75,344,288415,1,0,0:0:0:0:
145,366,288530,1,0,0:0:0:0:
218,366,288645,1,0,0:0:0:0:
287,344,288761,1,0,0:0:0:0:
347,302,288876,1,0,0:0:0:0:
391,245,288991,1,0,0:0:0:0:
416,176,289107,1,0,0:0:0:0:
420,103,289222,1,0,0:0:0:0:
401,33,289338,6,0,P|331:24|246:66,1,146.249993305207,4|0,0:3|3:0,0:0:0:0:
189,144,289799,2,0,P|141:157|69:134,1,97.4999955368044
170,7,290261,1,8,0:2:0:0:
319,127,290491,1,0,0:0:0:0:
180,307,290722,2,0,P|262:316|325:279,1,146.249993305207,0|0,0:0|3:0,0:0:0:0:
233,183,291184,1,0,0:0:0:0:
87,275,291415,2,0,L|189:310,1,97.4999955368044
316,287,291876,5,0,0:0:0:0:
260,58,292107,2,0,L|155:166,1,120,8|0,0:2|3:1,0:1:0:0:
232,373,292568,2,0,L|315:286,1,120,0|0,0:1|3:1,0:1:0:0:
136,224,293030,1,0,0:0:0:0:
378,224,293261,2,0,L|387:91,1,120,0|0,0:0|3:0,0:0:0:0:
254,79,293722,5,0,0:0:0:0:
225,282,293953,2,0,P|177:304|127:293,1,97.4999955368044,8|0,0:2|0:0,0:0:0:0:
42,79,294415,2,0,L|175:100,1,120
343,300,294876,2,0,L|224:281,1,120
323,66,295338,1,8,0:2:0:0:
424,232,295568,1,8,0:2:0:0:
159,197,295799,1,0,0:0:0:0:
302,143,296030,6,0,P|319:192|272:280,1,146.249993305207,0|0,0:0|3:0,0:0:0:0:
183,322,296491,1,0,0:0:0:0:
63,244,296722,2,0,P|71:165|144:123,1,146.249993305207,0|0,0:0|3:0,0:0:0:0:
242,174,297184,1,0,0:0:0:0:
183,322,297415,2,0,P|152:276|161:231,1,97.4999955368044,0|0,0:0|3:0,0:0:0:0:
316,132,297876,1,8,0:2:0:0:
262,295,298107,2,0,L|138:226,1,120,0|0,0:0|3:0,0:0:0:0:
192,71,298568,5,0,0:0:0:0:
241,203,298799,1,0,0:0:0:0:
413,73,299030,1,8,0:2:0:0:
281,114,299261,2,0,L|163:156,1,97.4999955368044,0|0,0:0|3:0,0:0:0:0:
167,310,299722,1,0,0:0:0:0:
312,327,299953,2,0,L|375:208,1,120,0|0,0:0|3:0,0:0:0:0:
176,27,300415,6,0,L|190:163,1,120,0|0,0:0|3:0,0:0:0:0:
368,221,300876,1,8,0:2:0:0:
188,146,301107,2,0,L|202:282,1,120,0|0,0:0|3:0,0:0:0:0:
303,131,301568,1,0,0:0:0:0:
221,51,301799,2,0,P|156:36|108:54,1,97.4999955368044,0|8,0:0|1:2,0:0:0:0:
69,224,302261,1,0,0:0:0:0:
214,306,302491,2,0,P|238:263|231:195,1,97.4999955368044,0|0,0:0|3:0,0:0:0:0:
221,51,302953,6,0,P|300:34|361:69,1,146.249993305207,0|0,0:0|3:0,0:0:0:0:
337,167,303415,1,0,0:0:0:0:
167,285,303645,1,8,0:2:0:0:
186,158,303876,1,0,0:0:0:0:
315,265,304107,1,0,0:0:0:0:
384,133,304338,2,0,P|319:107|226:133,1,146.249993305207,0|0,0:0|3:0,0:0:0:0:
206,226,304799,1,0,0:0:0:0:
406,250,305030,2,0,L|382:124,1,120,8|0,0:2|3:0,0:0:0:0:
192,54,305491,5,0,0:0:0:0:
94,181,305722,2,0,L|238:238,1,120
383,132,306184,2,0,L|271:87,1,120,0|8,0:0|1:2,0:0:0:0:
285,250,306645,1,0,0:0:0:0:
163,83,306876,2,0,L|89:187,1,120,0|0,0:0|3:0,0:0:0:0:
210,336,307338,6,0,L|179:193,1,120,0|0,0:0|3:0,0:0:0:0:
320,88,307799,1,8,0:2:0:0:
285,250,308030,2,0,L|254:107,1,120,0|0,0:0|3:0,0:0:0:0:
447,165,308491,1,0,0:0:0:0:
421,323,308722,2,0,P|363:344|310:327,1,97.4999955368044,0|0,0:0|3:0,0:0:0:0:
332,138,309184,1,8,0:2:0:0:
489,259,309415,1,8,0:2:0:0:
345,219,309645,6,0,P|264:213|195:249,1,146.249993305207,0|0,0:0|3:0,0:0:0:0:
161,336,310107,2,0,P|91:337|50:303,1,97.4999955368044
16,141,310568,1,8,0:2:0:0:
124,245,310799,1,0,0:0:0:0:
286,144,311030,2,0,P|255:93|152:77,1,146.249993305207,0|0,0:0|3:0,0:0:0:0:
104,159,311491,1,0,0:0:0:0:
196,319,311722,6,0,L|254:194,1,120
175,70,312184,1,0,0:0:0:0:
44,188,312415,2,0,L|186:200,1,120,0|0,0:0|3:0,0:0:0:0:
315,329,312876,2,0,L|195:318,1,120,0|0,0:0|3:0,0:0:0:0:
200,139,313338,1,8,0:2:0:0:
365,193,313568,2,0,L|228:212,1,120,0|0,0:0|3:0,0:0:0:0:
44,188,314030,6,0,L|126:91,1,120,0|0,0:0|3:0,0:0:0:0:
317,115,314491,1,8,0:2:0:0:
120,209,314722,2,0,L|202:112,1,120,0|0,0:0|3:0,0:0:0:0:
392,119,315184,1,8,0:2:0:0:
419,262,315415,2,0,L|322:291,2,97.4999955368044,0|0|0,0:0|3:0|3:0,0:0:0:0:
310,186,316107,2,0,P|248:170|206:195,1,97.4999955368044,0|0,0:0|3:0,0:0:0:0:
86,282,316568,2,2,L|149:289,1,48.7499977684022,2|2,0:3|3:3,0:3:0:0:
261,254,316799,2,2,L|198:247,1,48.7499977684022,2|2,0:3|3:3,0:3:0:0:
79,213,317030,5,10,3:2:0:0:
103,139,317145,1,0,3:0:0:0:
151,78,317260,1,0,3:0:0:0:
217,37,317376,1,0,3:0:0:0:
293,21,317491,1,0,3:0:0:0:
370,31,317606,1,0,3:0:0:0:
439,66,317722,1,0,3:0:0:0:
454,260,317953,6,0,P|377:278|292:240,1,168.750006437302,8|0,0:2|3:0,0:0:0:0:
203,171,318415,1,0,3:2:0:0:
140,135,318530,1,0,3:0:0:0:
68,143,318645,1,0,3:0:0:0:
13,189,318761,1,0,3:0:0:0:
0,259,318876,1,0,3:0:0:0:
21,327,318991,1,0,3:0:0:0:
117,347,319107,2,0,P|177:315|182:260,1,112.500004291535,0|0,3:0|3:0,3:0:0:0:
140,135,319568,5,0,3:0:0:0:
212,101,319684,1,0,3:0:0:0:
291,100,319799,2,0,P|357:145|366:236,1,168.750006437302,8|0,0:2|0:0,0:0:0:0:
336,301,320261,1,0,3:0:0:0:
281,337,320376,1,0,3:0:0:0:
218,353,320491,1,0,3:0:0:0:
153,348,320607,1,0,3:0:0:0:
93,322,320722,1,0,3:0:0:0:
45,278,320837,1,0,3:0:0:0:
13,220,320953,1,0,3:0:0:0:
68,164,321068,1,0,3:0:0:0:
138,128,321183,1,0,3:0:0:0:
215,113,321299,1,0,3:0:0:0:
293,122,321414,1,0,3:0:0:0:
336,301,321645,6,0,P|377:266|383:210,1,112.500004291535,8|0,0:2|3:0,0:0:0:0:
309,39,322107,1,0,3:0:0:0:
238,22,322222,1,0,3:0:0:0:
166,35,322337,1,0,3:0:0:0:
105,74,322453,1,0,3:0:0:0:
64,134,322568,1,0,3:0:0:0:
49,205,322683,1,0,3:0:0:0:
62,277,322799,2,2,P|143:306|232:270,1,168.750006437302,2|2,3:2|3:2,3:2:0:0:
218,281,323261,1,0,3:0:0:0:
218,281,323376,1,0,3:0:0:0:
138,209,323491,5,14,3:3:0:0:
157,139,323606,1,4,3:3:0:0:
204,83,323721,1,4,3:3:0:0:
269,52,323837,1,4,3:3:0:0:
342,51,323952,1,4,3:3:0:0:
408,80,324067,1,4,3:3:0:0:
457,134,324183,1,4,3:3:0:0:
478,203,324298,1,4,3:3:0:0:
459,294,324415,6,2,P|406:311|345:289,1,112.500004291535,10|2,0:2|3:2,0:2:0:0:
282,237,324761,1,0,3:0:0:0:
224,192,324876,1,0,3:0:0:0:
154,174,324991,1,0,3:0:0:0:
82,184,325107,1,0,3:0:0:0:
64,329,325338,6,0,P|144:337|230:285,1,168.750006437302,8|0,0:2|3:0,0:0:0:0:
282,237,325799,1,0,3:0:0:0:
313,171,325914,1,0,3:0:0:0:
317,99,326029,1,0,3:0:0:0:
292,30,326145,1,0,3:0:0:0:
224,54,326260,1,0,3:0:0:0:
187,116,326375,1,0,3:0:0:0:
195,187,326491,2,0,P|239:273|217:364,1,168.750006437302,0|0,0:0|3:0,0:0:0:0:
72,324,326953,5,4,3:3:0:0:
62,246,327068,1,4,3:3:0:0:
83,170,327183,1,4,3:3:0:0:
130,108,327299,1,4,3:3:0:0:
197,67,327414,1,4,3:3:0:0:
274,54,327529,1,4,3:3:0:0:
350,71,327645,1,4,3:3:0:0:
405,125,327760,1,4,3:3:0:0:
438,197,327875,1,4,3:3:0:0:
443,275,327991,1,4,3:3:0:0:
419,350,328107,6,0,P|363:365|296:340,1,112.500004291535
200,232,328568,1,0,0:0:0:0:
335,239,328799,1,0,0:0:0:0:
164,343,329030,1,8,0:2:0:0:
125,200,329261,1,0,0:0:0:0:
260,266,329491,5,0,0:0:0:0:
247,100,329722,1,0,0:0:0:0:
54,155,329953,1,0,0:0:0:0:
160,255,330184,1,0,0:0:0:0:
209,37,330415,1,0,0:0:0:0:
380,64,330645,5,0,3:0:0:0:
393,129,330760,1,0,3:0:0:0:
386,196,330875,1,0,3:0:0:0:
359,257,330991,1,0,3:0:0:0:
314,307,331106,1,8,3:2:0:0:
237,157,331338,1,0,0:0:0:0:
314,307,331568,1,0,0:0:0:0:
112,321,331799,5,8,3:2:0:0:
87,252,331914,1,0,3:0:0:0:
90,179,332029,1,0,3:0:0:0:
120,113,332145,1,0,3:0:0:0:
172,62,332260,1,0,3:0:0:0:
239,34,332375,1,0,3:0:0:0:
311,34,332491,1,0,3:0:0:0:
379,60,332606,1,0,3:0:0:0:
432,109,332722,6,0,P|365:167|288:158,1,168.750006437302,8|0,0:2|3:0,0:0:0:0:
204,105,333184,1,0,3:0:0:0:
155,158,333299,1,0,3:0:0:0:
137,228,333414,1,0,3:0:0:0:
156,298,333530,1,0,3:0:0:0:
206,350,333645,1,0,3:0:0:0:
276,371,333760,1,0,3:0:0:0:
346,357,333876,2,0,P|373:303|352:230,1,112.500004291535
242,106,334338,5,0,3:0:0:0:
191,163,334453,1,0,3:0:0:0:
199,239,334568,2,0,P|265:272|315:257,1,112.500004291535,8|0,0:2|0:0,0:0:0:0:
396,209,334915,1,0,3:0:0:0:
347,155,335030,1,0,3:0:0:0:
284,117,335145,1,0,3:0:0:0:
213,99,335261,1,0,3:0:0:0:
141,103,335376,1,0,3:0:0:0:
72,127,335491,1,0,3:0:0:0:
13,170,335607,1,0,3:0:0:0:
52,230,335722,1,0,3:0:0:0:
116,265,335837,1,0,3:0:0:0:
188,267,335953,6,0,P|211:223|201:153,1,112.500004291535
89,22,336415,2,0,P|66:66|76:136,1,112.500004291535,8|0,0:2|0:0,0:0:0:0:
300,117,336876,1,0,0:0:0:0:
369,124,336991,1,0,0:0:0:0:
423,170,337106,1,0,0:0:0:0:
440,238,337222,1,0,0:0:0:0:
415,304,337337,1,0,0:0:0:0:
357,344,337452,1,0,0:0:0:0:
289,364,337568,2,2,P|194:363|122:318,1,168.750006437302,2|2,3:2|3:2,3:2:0:0:
131,327,338030,1,0,3:0:0:0:
131,327,338145,1,0,3:0:0:0:
62,236,338261,5,14,3:3:0:0:
77,166,338376,1,4,3:3:0:0:
116,106,338491,1,4,3:3:0:0:
172,63,338607,1,4,3:3:0:0:
240,41,338722,1,4,3:3:0:0:
311,44,338837,1,4,3:3:0:0:
377,70,338953,1,4,3:3:0:0:
430,117,339068,1,4,3:3:0:0:
445,232,339184,6,2,P|382:256|326:234,1,112.500004291535,10|2,0:2|0:2,0:2:0:0:
221,190,339530,1,0,3:0:0:0:
150,179,339645,1,0,3:0:0:0:
90,218,339760,1,0,3:0:0:0:
71,287,339876,1,0,3:0:0:0:
104,351,339991,1,0,3:0:0:0:
170,377,340107,6,0,P|241:329|248:247,1,168.750006437302,8|0,0:2|0:0,0:0:0:0:
217,174,340568,1,0,3:0:0:0:
221,102,340683,1,0,3:0:0:0:
265,44,340798,1,0,3:0:0:0:
333,20,340914,1,0,3:0:0:0:
403,38,341029,1,0,3:0:0:0:
451,92,341144,1,0,3:0:0:0:
462,163,341261,2,0,P|384:198|301:176,1,168.750006437302
235,149,341722,5,4,3:3:0:0:
169,138,341837,1,4,3:3:0:0:
105,159,341952,1,4,3:3:0:0:
58,207,342068,1,4,3:3:0:0:
39,270,342183,1,4,3:3:0:0:
53,338,342299,1,4,3:3:0:0:
129,356,342414,1,4,3:3:0:0:
207,350,342529,1,4,3:3:0:0:
280,321,342645,1,4,3:3:0:0:
340,271,342760,1,4,3:3:0:0:
341,161,342876,6,0,P|284:140|211:163,1,112.500004291535
162,279,343338,1,0,0:0:0:0:
280,321,343568,1,0,0:0:0:0:
408,259,343799,2,0,P|422:193|395:140,1,112.500004291535,8|0,0:2|0:0,0:0:0:0:
214,44,344261,6,0,P|211:108|249:162,1,112.500004291535
280,321,344722,2,0,P|210:331|162:309,2,112.500004291535,8|0|0,0:2|0:0|0:0,0:0:0:0:
402,236,345415,1,0,3:0:0:0:
366,204,345491,1,0,3:0:0:0:
322,183,345568,2,0,L|264:181,1,56.2500021457673,0|0,3:0|3:0,3:0:0:0:
63,190,345934,1,0,0:0:0:0:
172,316,346261,1,0,0:0:0:0:
366,204,346568,1,0,0:0:0:0:
306,260,348415,6,0,P|262:255|228:186,2,112.500004291535,0|0|0,2:0|2:0|2:0,2:0:0:0:
326,87,349799,2,0,P|290:56|214:60,1,112.500004291535,0|0,2:0|2:0,2:0:0:0:
89,128,350722,2,0,B|85:194|85:194|111:242|167:253|206:217|206:217|244:245|254:301|227:358,1,337.500012874604,0|0,2:0|2:0,2:0:0:0:
407,301,352568,2,0,B|436:247|431:182|380:143|380:143|422:126|437:82|431:42|390:16|358:8|307:28|299:75|299:75|230:36|190:121|132:75,1,600,0|0,2:0|2:0,2:0:0:0:
256,192,368722,12,0,375184,0:0:0:0:
256,192,377953,12,0,384415,0:0:0:0:
256,192,387184,12,0,393645,0:0:0:0:
109,286,396415,6,0,P|234:297|302:218,1,225.000008583069,0|0,0:0|3:0,0:0:0:0:
273,138,397684,6,0,P|237:125|209:132,1,56.2500021457673
135,154,398261,2,0,P|148:194|267:200,1,168.750006437302
362,113,399818,6,0,P|387:119|415:113,2,42.1875016093255
152,186,401068,1,0,0:0:0:0:
219,303,401665,2,0,L|268:314,2,42.1875016093255
138,201,403030,6,0,L|174:193,1,37.5000014305115
302,169,403645,2,0,L|312:129,1,37.5000014305115
229,57,404261,5,0,0:0:0:0:
161,95,404414,1,0,0:0:0:0:
120,161,404568,1,0,0:0:0:0:
118,239,404722,1,0,0:0:0:0:
154,308,404876,1,0,0:0:0:0:
220,351,405030,1,0,0:0:0:0:
297,355,405184,1,0,0:0:0:0:
367,321,405337,1,0,0:0:0:0:
412,257,405491,1,0,0:0:0:0:
419,179,405645,2,0,B|381:199|345:187|345:187|315:189|315:189|305:178|305:178|283:193|283:193|260:212|229:221|186:196,1,225.000008583069
132,209,406722,5,0,0:0:0:0:
107,134,406876,1,0,0:0:0:0:
146,65,407030,1,0,0:0:0:0:
224,57,407184,1,0,0:0:0:0:
287,104,407338,1,0,0:0:0:0:
365,97,407491,1,0,0:0:0:0:
429,142,407645,1,0,0:0:0:0:
400,297,407953,5,0,0:0:0:0:
322,313,408107,1,0,0:0:0:0:
245,294,408261,1,0,0:0:0:0:
199,229,408415,1,0,0:0:0:0:
123,210,408568,1,0,0:0:0:0:
52,245,408722,1,0,0:0:0:0:
32,321,408876,1,0,0:0:0:0:
82,381,409030,1,0,0:0:0:0:
176,260,409491,5,0,0:0:0:0:
228,201,409645,1,0,0:0:0:0:
306,201,409799,2,0,P|357:172|370:117,1,112.500004291535
337,67,410415,1,0,0:0:0:0:
276,48,410568,1,0,0:0:0:0:
213,60,410722,1,0,0:0:0:0:
181,115,410876,1,0,0:0:0:0:
215,237,411184,1,0,0:0:0:0:
190,313,411337,1,0,0:0:0:0:
125,262,413338,5,0,0:0:0:0:
249,301,413645,1,0,0:0:0:0:
315,260,413799,1,0,0:0:0:0:
370,130,414338,2,0,P|322:143|271:125,1,93.7500035762788
170,81,414876,2,0,B|151:126|171:159|171:159|160:166|160:166|163:184|163:184|172:190|172:190|155:197|155:197|171:217|163:250|128:277,1,225.000008583069
150,347,416107,1,0,0:0:0:0:
228,340,416261,1,0,0:0:0:0:
288,289,416415,1,0,0:0:0:0:
318,216,416568,1,0,0:0:0:0:
332,138,416722,1,0,0:0:0:0:
295,68,416876,1,0,0:0:0:0:
256,192,417184,12,0,421338,0:0:0:0:
210,293,433338,6,0,P|262:309|313:287,1,100
258,227,433953,1,0,0:0:0:0:
210,293,434261,2,0,P|262:309|313:287,1,100
258,227,434876,1,0,0:0:0:0:
355,237,435184,6,0,P|371:185|349:134,1,100
289,189,435799,1,0,0:0:0:0:
355,237,436107,2,0,P|371:185|349:134,1,100
289,189,436722,1,0,0:0:0:0:
300,92,437030,6,0,P|248:76|197:98,1,100
252,158,437645,1,0,0:0:0:0:
300,92,437953,2,0,P|248:76|197:98,1,100
252,158,438568,1,0,0:0:0:0:
155,147,438876,6,0,P|139:199|161:250,1,100
221,195,439491,1,0,0:0:0:0:
155,147,439799,2,0,P|139:199|161:250,1,100
221,195,440414,1,0,0:0:0:0:
296,233,440722,5,0,0:0:0:0:
371,271,441030,1,0,0:0:0:0:
446,233,441338,1,0,0:0:0:0:
371,195,441645,1,0,0:0:0:0:
296,157,441953,1,0,0:0:0:0:
221,195,442261,1,0,0:0:0:0:
221,271,442568,5,0,0:0:0:0:
296,309,442876,1,0,0:0:0:0:
371,271,443184,1,0,0:0:0:0:
296,233,443491,1,0,0:0:0:0:
221,195,443799,1,0,0:0:0:0:
146,233,444107,1,0,0:0:0:0:
221,195,444414,5,0,0:0:0:0:
296,233,444722,1,0,0:0:0:0:
371,195,445030,1,0,0:0:0:0:
296,157,445337,1,0,0:0:0:0:
221,119,445645,1,0,0:0:0:0:
146,157,445953,1,0,0:0:0:0:
146,233,446261,5,0,0:0:0:0:
221,271,446569,1,0,0:0:0:0:
296,233,446877,1,0,0:0:0:0:
221,195,447184,1,0,0:0:0:0:
146,157,447492,1,0,0:0:0:0:
71,195,447800,1,0,0:0:0:0:
71,119,448107,6,0,P|85:72|128:44,1,100
219,27,448722,1,0,0:0:0:0:
297,78,449030,2,0,P|267:38|217:27,1,100
126,45,449645,1,0,0:0:0:0:
111,130,449953,6,0,P|125:176|168:204,1,100
259,221,450568,1,0,0:0:0:0:
337,171,450876,2,0,P|307:210|257:221,1,100
166,204,451491,1,0,0:0:0:0:
185,111,451799,6,0,P|209:68|257:51,1,100
349,54,452414,1,0,0:0:0:0:
414,121,452722,2,0,P|393:76|347:54,1,100
255,51,453337,1,0,0:0:0:0:
231,134,453645,6,0,P|245:180|288:208,1,100
379,225,454260,1,0,0:0:0:0:
457,175,454568,2,0,P|427:214|377:225,1,100
286,208,455183,1,0,0:0:0:0:
197,235,455491,5,0,0:0:0:0:
160,335,455799,1,0,0:0:0:0:
197,235,456107,1,0,0:0:0:0:
134,142,456414,1,0,0:0:0:0:
171,42,456722,1,0,0:0:0:0:
134,142,457030,1,0,0:0:0:0:
209,157,457338,5,0,0:0:0:0:
309,194,457646,1,0,0:0:0:0:
209,157,457954,1,0,0:0:0:0:
116,220,458261,1,0,0:0:0:0:
16,183,458569,1,0,0:0:0:0:
116,220,458877,1,0,0:0:0:0:
213,256,459184,5,0,0:0:0:0:
116,300,459492,1,0,0:0:0:0:
213,256,459800,1,0,0:0:0:0:
234,145,460107,1,0,0:0:0:0:
331,101,460415,1,0,0:0:0:0:
234,145,460723,1,0,0:0:0:0:
276,209,461031,5,0,0:0:0:0:
321,306,461339,1,0,0:0:0:0:
276,209,461645,1,0,0:0:0:0:
166,188,461954,1,0,0:0:0:0:
121,91,462262,1,0,0:0:0:0:
166,188,462568,1,0,0:0:0:0:
276,185,462876,6,0,P|334:188|384:159,1,100
447,111,463491,1,0,0:0:0:0:
276,185,463799,2,0,P|307:136|307:78,1,100
297,0,464414,1,0,0:0:0:0:
276,185,464722,6,0,P|249:133|199:104,1,100
126,73,465337,1,0,0:0:0:0:
276,185,465645,2,0,P|217:182|167:211,1,100
105,259,466260,1,0,0:0:0:0:
276,185,466568,6,0,P|244:233|244:291,1,100
254,370,467183,1,0,0:0:0:0:
276,185,467491,2,0,P|302:236|352:265,1,100
425,295,468106,1,0,0:0:0:0:
452,168,468414,5,0,0:0:0:0:
361,95,468722,2,0,L|380:74,2,25,0|0|0,3:0|3:0|3:0,3:0:0:0:
308,154,469030,1,2,3:3:0:0:
266,176,469184,1,2,3:3:0:0:
219,168,469338,1,2,3:3:0:0:
124,107,469645,1,4,0:0:0:0:
35,226,469953,1,4,3:3:0:0:
97,264,470107,1,4,3:3:0:0:
168,246,470261,5,4,3:3:0:0:
310,191,470568,1,0,0:0:0:0:
204,100,470876,1,0,0:2:0:0:
420,62,471184,1,8,0:3:0:0:
396,214,471491,1,0,3:0:0:0:
346,271,471645,1,0,3:0:0:0:
272,286,471799,1,0,3:0:0:0:
204,100,472107,5,0,0:0:0:0:
154,302,472414,1,0,0:0:0:0:
258,190,472722,1,0,3:0:0:0:
175,172,472876,1,2,3:3:0:0:
92,190,473030,1,2,3:3:0:0:
53,320,473337,2,0,P|115:341|197:312,1,150
258,190,473953,5,0,0:0:0:0:
184,63,474261,1,0,0:0:0:0:
92,190,474568,1,0,0:0:0:0:
287,102,474876,1,0,0:0:0:0:
410,225,475184,1,0,3:0:0:0:
363,283,475337,1,0,3:0:0:0:
294,312,475491,1,0,3:0:0:0:
191,100,475799,5,0,0:0:0:0:
323,179,476107,1,0,0:0:0:0:
179,296,476414,1,0,3:3:0:0:
97,320,476568,1,2,3:3:0:0:
16,293,476722,1,2,3:3:0:0:
56,117,477030,1,0,0:0:0:0:
146,222,477184,2,4,P|191:206|218:170,1,75,4|4,3:3|3:3,3:3:0:0:
228,6,477491,1,4,3:3:0:0:
124,151,477645,5,4,3:3:0:0:
326,103,477953,1,0,0:0:0:0:
146,222,478261,1,0,3:0:0:0:
224,247,478414,1,2,3:3:0:0:
305,229,478568,1,2,3:3:0:0:
151,45,478876,1,0,0:0:0:0:
79,285,479184,1,0,3:0:0:0:
161,307,479337,1,2,3:3:0:0:
243,284,479491,5,0,3:0:0:0:
175,108,479799,1,0,0:0:0:0:
318,47,480107,1,0,0:0:0:0:
274,211,480414,1,2,0:3:0:0:
91,200,480722,1,0,3:0:0:0:
69,127,480876,1,0,3:0:0:0:
83,52,481030,1,0,3:0:0:0:
318,47,481337,5,0,0:0:0:0:
463,164,481645,1,0,0:0:0:0:
274,211,481953,1,2,0:3:0:0:
416,73,482261,1,0,0:0:0:0:
379,231,482568,1,0,0:0:0:0:
228,101,482876,1,0,0:0:0:0:
333,310,483184,5,0,0:0:0:0:
171,255,483491,1,0,0:0:0:0:
300,143,483799,1,0,0:0:0:0:
138,88,484107,1,0,0:0:0:0:
171,255,484414,1,0,0:0:0:0:
319,247,484722,1,0,3:0:0:0:
377,164,484876,1,4,3:0:0:0:
360,64,485030,5,2,3:0:0:0:
161,35,485337,1,0,0:0:0:0:
124,118,485491,2,0,L|136:170,1,37.5,0|0,3:0|3:0,3:0:0:0:
146,203,485645,1,0,3:0:0:0:
203,255,485799,2,0,P|259:261|292:241,1,75
351,130,486107,1,0,0:0:0:0:
267,73,486261,1,0,0:0:0:0:
238,195,486414,1,4,0:3:0:0:
327,338,486568,1,2,0:3:0:0:
433,157,486722,1,4,0:3:0:0:
394,58,486876,5,4,0:3:0:0:
267,73,487184,2,0,L|261:27,4,37.5
284,166,487645,1,0,0:0:0:0:
237,250,487799,1,0,0:0:0:0:
159,102,487953,1,0,0:0:0:0:
114,280,488107,1,0,0:0:0:0:
334,346,488414,2,0,P|358:312|364:253,1,100
345,149,488722,5,4,0:0:0:0:
212,179,489030,1,0,3:0:0:0:
144,200,489184,1,0,3:0:0:0:
76,180,489337,1,0,3:0:0:0:
47,75,489491,2,0,L|38:41,4,25,0|0|0|0|0,3:0|3:0|3:0|3:0|3:0,3:0:0:0:
226,86,489953,1,0,3:0:0:0:
305,60,490107,1,0,3:0:0:0:
385,83,490261,1,0,3:0:0:0:
447,271,490568,5,0,0:0:0:0:
323,140,490876,1,0,0:0:0:0:
179,184,491184,1,0,3:0:0:0:
165,269,491337,1,2,3:3:0:0:
191,352,491491,1,2,3:3:0:0:
292,212,491799,1,0,0:0:0:0:
178,79,492107,1,0,0:0:0:0:
165,269,492414,5,0,0:0:0:0:
291,309,492722,1,0,0:0:0:0:
401,233,493030,1,0,3:0:0:0:
419,147,493184,1,0,3:0:0:0:
395,63,493337,1,2,3:3:0:0:
271,132,493645,1,0,3:0:0:0:
197,154,493799,1,0,3:0:0:0:
121,138,493953,1,0,3:0:0:0:
243,38,494261,5,0,0:0:0:0:
300,212,494568,1,0,0:0:0:0:
208,342,494876,1,0,3:0:0:0:
121,349,495030,1,2,3:3:0:0:
47,303,495184,1,2,3:3:0:0:
77,98,495491,1,0,0:0:0:0:
287,98,495799,1,0,0:0:0:0:
160,223,496107,5,0,0:0:0:0:
352,316,496414,2,0,L|378:234,1,75,0|0,3:0|3:0,3:0:0:0:
358,155,496722,1,0,3:0:0:0:
287,98,496876,1,2,3:3:0:0:
197,108,497030,1,2,3:3:0:0:
71,215,497337,1,0,3:0:0:0:
148,275,497491,1,2,3:3:0:0:
282,264,497645,1,10,3:3:0:0:
436,155,497953,5,0,3:0:0:0:
453,224,498107,1,0,3:0:0:0:
440,294,498261,1,0,3:0:0:0:
250,192,498568,1,0,0:0:0:0:
85,331,498876,1,0,0:0:0:0:
32,154,499184,1,0,3:0:0:0:
102,189,499337,1,0,3:0:0:0:
181,183,499491,1,0,3:0:0:0:
327,65,499799,6,0,P|341:141|303:225,1,150
177,236,500414,1,2,0:3:0:0:
188,94,500722,1,0,0:0:0:0:
327,65,501030,1,0,0:0:0:0:
316,207,501337,1,0,0:0:0:0:
177,236,501645,5,0,0:0:0:0:
283,332,501953,1,0,0:0:0:0:
428,283,502261,1,0,3:0:0:0:
450,217,502414,1,0,3:0:0:0:
438,148,502568,1,0,3:0:0:0:
296,67,502876,1,0,0:0:0:0:
149,85,503184,1,0,3:0:0:0:
107,169,503337,1,2,3:3:0:0:
119,263,503491,5,2,3:3:0:0:
228,330,503799,1,0,0:0:0:0:
275,255,503953,2,0,L|270:198,1,37.5,0|0,3:0|3:0,3:0:0:0:
265,154,504107,1,4,3:3:0:0:
119,263,504414,1,0,0:0:0:0:
15,102,504722,1,0,0:0:0:0:
108,17,504876,2,0,P|112:60|135:98,1,75,0|2,0:0|0:3,0:0:0:0:
300,162,505184,1,4,0:3:0:0:
242,72,505337,5,0,0:0:0:0:
13,272,505645,2,0,P|31:307|66:326,1,75,4|0,0:0|0:3,0:0:0:0:
191,339,505953,1,2,0:3:0:0:
300,274,506107,2,0,P|324:244|323:193,1,75,4|0,0:0|0:0,0:0:0:0:
311,100,506414,2,0,P|286:78|226:73,1,75
150,105,506722,2,2,L|136:159,1,37.5,2|2,3:2|3:2,3:2:0:0:
128,189,506876,1,2,3:2:0:0:
147,269,507030,1,0,0:0:0:0:
221,304,507184,5,0,0:0:0:0:
294,152,507491,1,0,0:0:0:0:
128,189,507799,1,0,0:0:0:0:
294,152,508107,1,2,0:3:0:0:
223,306,508414,1,0,3:0:0:0:
150,328,508568,1,0,3:0:0:0:
76,307,508722,1,0,3:0:0:0:
107,121,509030,5,0,0:0:0:0:
220,245,509337,1,0,0:0:0:0:
372,134,509645,1,0,3:0:0:0:
302,82,509799,1,2,3:3:0:0:
215,78,509953,1,2,3:3:0:0:
80,219,510261,2,0,P|155:254|244:230,1,150
372,134,510876,5,0,0:0:0:0:
328,276,511184,1,0,0:0:0:0:
254,157,511491,1,0,0:0:0:0:
89,122,511799,1,2,0:3:0:0:
59,270,512107,1,0,3:0:0:0:
93,339,512261,1,0,3:0:0:0:
168,354,512414,1,0,3:0:0:0:
303,216,512722,5,0,0:0:0:0:
397,319,513030,1,0,0:0:0:0:
239,278,513337,1,0,3:0:0:0:
303,216,513491,1,2,3:3:0:0:
368,155,513645,1,2,3:3:0:0:
254,21,513953,1,0,0:0:0:0:
114,135,514261,1,0,0:0:0:0:
195,271,514568,6,0,P|233:198|220:120,1,150
94,226,515184,1,0,0:0:0:0:
69,303,515337,2,0,L|122:324,1,37.5,0|0,3:0|3:0,3:0:0:0:
160,336,515491,1,2,3:3:0:0:
323,320,515799,1,0,0:0:0:0:
366,157,516107,1,0,3:0:0:0:
292,126,516261,1,0,3:0:0:0:
213,137,516414,5,0,3:0:0:0:
196,277,516722,1,0,0:0:0:0:
53,264,517030,1,0,3:0:0:0:
29,174,517184,1,2,3:3:0:0:
51,84,517337,1,2,3:3:0:0:
207,28,517645,1,0,0:0:0:0:
172,204,517953,1,0,0:0:0:0:
129,56,518261,5,0,0:0:0:0:
271,72,518568,1,0,0:0:0:0:
172,204,518876,1,0,3:0:0:0:
220,263,519030,1,0,3:0:0:0:
295,274,519184,1,0,3:0:0:0:
388,158,519491,1,0,3:0:0:0:
342,98,519645,1,0,3:0:0:0:
271,72,519799,1,0,3:0:0:0:
119,141,520107,5,0,0:0:0:0:
62,308,520414,1,0,0:0:0:0:
236,362,520722,1,0,3:0:0:0:
325,341,520876,1,2,3:3:0:0:
390,276,521030,1,2,3:3:0:0:
205,231,521337,1,0,0:0:0:0:
278,18,521645,1,0,0:0:0:0:
459,134,521953,5,0,3:0:0:0:
451,218,522107,1,0,3:0:0:0:
390,276,522261,1,0,3:0:0:0:
277,165,522568,1,0,3:0:0:0:
186,140,522722,1,2,3:3:0:0:
97,172,522876,1,2,3:3:0:0:
123,318,523184,1,0,0:0:0:0:
261,281,523491,1,0,0:0:0:0:
390,342,523799,6,0,P|419:256|397:185,1,150
339,90,524414,1,0,3:0:0:0:
246,142,524568,1,0,3:0:0:0:
143,115,524722,1,4,3:0:0:0:
59,263,525030,1,0,3:0:0:0:
143,336,525184,1,4,3:3:0:0:
265,218,525414,1,4,3:3:0:0:
199,49,525645,5,4,3:3:0:0:
46,110,525953,1,0,0:0:0:0:
196,149,526261,1,0,0:0:0:0:
437,54,526568,1,0,0:0:0:0:
395,222,526876,1,0,0:0:0:0:
235,269,527184,1,0,0:0:0:0:
221,66,527491,6,0,P|147:79|108:151,1,150
120,312,528107,1,0,0:0:0:0:
334,239,528414,1,2,0:3:0:0:
162,201,528722,1,0,0:0:0:0:
323,131,529030,1,0,0:0:0:0:
412,249,529235,1,0,3:0:0:0:
412,249,529337,5,0,3:0:0:0:
284,312,529645,1,0,0:0:0:0:
155,264,529953,1,0,0:0:0:0:
274,113,530261,1,2,0:3:0:0:
107,100,530568,1,0,0:0:0:0:
43,250,530876,1,0,0:0:0:0:
254,312,531184,5,0,0:0:0:0:
323,169,531491,1,0,0:0:0:0:
232,45,531799,1,0,0:0:0:0:
78,198,532107,1,2,0:3:0:0:
228,248,532414,1,0,0:0:0:0:
382,221,532722,1,0,0:0:0:0:
225,143,532927,1,0,3:0:0:0:
225,143,533030,5,0,3:0:0:0:
148,291,533337,1,0,0:0:0:0:
317,262,533645,1,0,0:0:0:0:
107,67,533953,1,0,0:0:0:0:
279,26,534261,1,0,0:0:0:0:
292,168,534568,1,0,0:0:0:0:
113,237,534876,5,0,0:0:0:0:
237,340,535184,2,0,P|279:316|287:271,1,75
292,168,535491,1,0,0:0:0:0:
66,97,535799,1,2,0:3:0:0:
224,48,536107,2,0,P|190:89|192:121,1,75
226,239,536414,1,0,0:0:0:0:
370,163,536645,1,0,3:0:0:0:
370,163,536722,5,0,3:0:0:0:
224,48,537030,1,0,0:0:0:0:
53,192,537337,1,0,3:0:0:0:
56,279,537491,1,0,3:0:0:0:
115,343,537645,1,2,3:3:0:0:
276,291,537953,1,0,0:0:0:0:
133,230,538261,1,0,0:0:0:0:
231,51,538568,5,0,0:0:0:0:
407,112,538876,1,0,0:0:0:0:
394,210,539030,2,0,P|344:229|311:222,1,75
148,126,539491,1,0,0:0:0:0:
190,303,539799,1,0,0:0:0:0:
374,310,540107,1,0,0:0:0:0:
322,77,540414,5,0,0:0:0:0:
140,220,540722,1,0,0:0:0:0:
349,191,541030,1,0,0:0:0:0:
237,323,541337,2,0,P|152:334|99:285,1,150
58,178,541799,1,4,3:3:0:0:
182,131,541953,1,4,3:3:0:0:
106,228,542107,1,4,3:3:0:0:
73,107,542261,5,4,3:3:0:0:
272,60,542568,1,2,3:3:0:0:
371,103,542722,1,2,3:3:0:0:
381,139,542799,1,2,3:3:0:0:
374,176,542876,1,6,3:3:0:0:
269,243,543030,1,2,3:3:0:0:
308,143,543184,1,2,3:3:0:0:
153,114,543491,1,0,0:0:0:0:
119,209,543645,2,0,P|119:255|145:289,1,75
248,317,543953,1,0,0:0:0:0:
357,267,544107,5,0,0:0:0:0:
293,128,544414,2,0,P|232:100|144:118,1,150
109,181,544876,1,0,3:0:0:0:
99,261,545030,1,0,3:0:0:0:
233,343,545337,1,0,3:0:0:0:
275,272,545491,1,0,3:0:0:0:
267,190,545645,1,0,3:0:0:0:
107,73,545953,5,0,0:0:0:0:
280,66,546261,1,0,0:0:0:0:
411,193,546568,1,0,3:0:0:0:
371,277,546722,1,2,3:3:0:0:
282,303,546876,1,2,3:3:0:0:
212,138,547184,1,0,0:0:0:0:
336,22,547491,1,0,0:0:0:0:
320,197,547799,6,0,P|242:237|156:219,1,150
88,91,548414,1,0,0:0:0:0:
305,60,548722,2,0,P|337:116|309:208,1,150
171,270,549337,1,0,3:0:0:0:
239,317,549491,1,0,3:0:0:0:
322,315,549645,5,0,3:0:0:0:
420,140,549953,1,0,0:0:0:0:
217,44,550261,1,0,3:0:0:0:
201,133,550414,1,2,3:3:0:0:
225,221,550568,1,2,3:3:0:0:
353,58,550876,1,0,0:0:0:0:
468,210,551184,1,0,0:0:0:0:
366,335,551491,6,0,P|281:351|224:305,1,150
201,133,552107,1,0,0:0:0:0:
382,124,552414,1,0,0:0:0:0:
269,273,552722,1,0,0:0:0:0:
183,287,552876,1,0,0:0:0:0:
101,258,553030,1,0,0:0:0:0:
71,68,553337,5,0,0:0:0:0:
154,174,553645,1,0,0:0:0:0:
300,96,553953,1,2,3:3:0:0:
320,181,554107,1,0,3:0:0:0:
308,267,554261,1,0,3:0:0:0:
154,174,554568,1,0,3:0:0:0:
129,245,554722,1,0,3:0:0:0:
156,315,554876,1,0,3:0:0:0:
343,339,555184,5,0,0:0:0:0:
442,206,555491,1,0,0:0:0:0:
356,73,555799,1,0,3:0:0:0:
270,44,555953,1,2,3:3:0:0:
182,65,556107,1,2,3:3:0:0:
260,258,556414,1,0,0:0:0:0:
267,123,556722,1,0,0:0:0:0:
83,222,557030,5,0,0:0:0:0:
214,329,557337,1,0,0:0:0:0:
381,248,557645,1,0,3:0:0:0:
384,168,557799,1,0,3:0:0:0:
348,96,557953,1,0,3:0:0:0:
259,211,558261,1,0,3:0:0:0:
186,234,558414,1,0,3:0:0:0:
110,220,558568,1,0,3:0:0:0:
219,61,558876,5,0,0:0:0:0:
408,62,559184,1,0,0:0:0:0:
420,243,559491,1,0,3:0:0:0:
340,291,559645,1,2,3:3:0:0:
247,288,559799,1,2,3:3:0:0:
168,120,560107,1,0,0:0:0:0:
342,147,560414,1,0,0:0:0:0:
165,319,560722,6,0,P|114:247|143:173,1,150
309,74,561337,1,0,3:0:0:0:
342,147,561491,1,0,3:0:0:0:
345,227,561645,1,0,3:0:0:0:
179,336,561876,1,4,3:3:0:0:
243,176,562107,1,4,3:3:0:0:
145,41,562337,1,4,3:3:0:0:
32,230,562568,5,14,3:3:0:0:
146,236,562722,1,14,3:3:0:0:
243,176,562876,1,14,3:3:0:0:
138,121,563030,1,4,3:3:0:0:
227,267,563261,1,4,3:3:0:0:
397,252,563491,1,14,3:3:0:0:
430,107,563799,2,0,P|372:61|272:60,1,150
138,121,564414,5,0,0:0:0:0:
244,243,564722,2,0,P|161:269|88:232,1,150
212,92,565337,1,2,0:3:0:0:
385,147,565645,1,0,0:0:0:0:
244,243,565953,1,0,0:0:0:0:
424,327,566261,5,0,0:0:0:0:
385,147,566568,1,0,0:0:0:0:
212,92,566876,1,0,0:0:0:0:
137,242,567184,1,0,0:0:0:0:
312,240,567491,1,0,3:0:0:0:
320,162,567645,1,0,3:0:0:0:
289,90,567799,1,0,3:0:0:0:
68,184,568107,5,0,0:0:0:0:
209,297,568414,1,0,0:0:0:0:
223,110,568722,1,0,3:0:0:0:
144,88,568876,1,2,3:3:0:0:
65,106,569030,1,2,3:3:0:0:
42,293,569337,1,0,3:0:0:0:
149,334,569491,2,0,P|207:323|227:291,1,75,4|0,3:3|3:0,3:0:0:0:
264,190,569799,1,4,3:3:0:0:
251,87,569953,5,0,3:0:0:0:
153,231,570261,1,0,0:0:0:0:
338,279,570568,1,2,3:3:0:0:
357,199,570722,1,2,3:3:0:0:
336,119,570876,1,2,3:3:0:0:
181,146,571184,1,0,0:0:0:0:
45,56,571491,2,0,L|106:68,1,37.5,14|0,3:3|3:0,3:0:0:0:
140,76,571645,1,14,3:3:0:0:
246,98,571799,5,0,0:0:0:0:
58,175,572107,2,0,P|85:247|163:279,1,150
309,145,572722,1,2,0:3:0:0:
140,76,573030,1,0,0:0:0:0:
237,272,573337,1,0,0:0:0:0:
357,207,573645,5,0,0:0:0:0:
249,41,573953,1,0,0:0:0:0:
163,238,574261,1,0,0:0:0:0:
391,296,574568,1,2,0:3:0:0:
389,79,574876,1,0,0:0:0:0:
263,184,575184,1,0,0:0:0:0:
412,384,575491,5,0,0:0:0:0:
293,267,575799,2,0,P|193:253|137:274,1,150
311,352,576414,1,2,0:3:0:0:
250,108,576722,1,0,0:0:0:0:
116,191,577030,1,0,0:0:0:0:
143,51,577337,5,0,0:0:0:0:
263,272,577645,1,0,0:0:0:0:
400,70,577953,1,0,0:0:0:0:
171,169,578261,2,0,P|230:182|320:146,1,150,2|0,0:3|0:0,0:0:0:0:
230,40,578876,1,0,0:0:0:0:
89,310,579184,5,0,0:0:0:0:
418,324,579491,1,0,0:0:0:0:
113,74,579799,1,0,3:0:0:0:
82,154,579953,1,0,3:0:0:0:
98,238,580107,1,0,3:0:0:0:
227,283,580261,1,14,3:3:0:0:
205,149,580414,1,14,3:3:0:0:
262,82,580568,1,0,3:0:0:0:
348,66,580722,1,0,3:0:0:0:
431,92,580876,1,0,3:0:0:0:
256,192,581030,12,0,586568,0:0:0:0:
89,271,587030,5,0,0:0:0:0:
122,286,587107,1,0,0:0:0:0:
159,288,587184,2,2,P|238:263|278:161,1,194.999991073609,2|2,0:2|0:2,0:2:0:0:
287,76,587568,5,0,0:0:0:0:
308,44,587645,1,0,0:0:0:0:
343,33,587722,1,0,0:0:0:0:
379,41,587799,1,0,0:0:0:0:
410,61,587876,2,2,P|447:136|394:256,1,211.249990329743,2|2,0:2|0:2,0:2:0:0:
346,292,588312,5,0,0:0:0:0:
278,313,588414,1,0,0:0:0:0:
206,302,588517,1,0,0:0:0:0:
156,250,588619,1,0,0:0:0:0:
142,179,588722,2,2,P|79:95|16:157,1,194.999991073609,2|2,0:2|0:2,0:2:0:0:
11,171,589107,5,0,0:0:0:0:
11,210,589184,2,0,L|25:263,1,48.7499977684022
36,294,589337,1,4,0:3:0:0:
66,320,589414,1,0,0:0:0:0:
105,323,589491,1,0,0:0:0:0:
256,192,589850,12,0,592414,0:0:0:0:
378,301,592876,5,0,0:0:0:0:
338,149,593030,1,0,0:0:0:0:
202,71,593184,1,0,0:0:0:0:
56,202,593337,2,2,P|182:267|429:155,1,412.500012588501,2|2,0:2|0:2,0:2:0:0:
202,71,594261,6,2,P|203:173|295:184,1,202.499993820191,2|2,0:2|0:2,0:2:0:0:
258,120,594876,6,2,P|204:180|334:341,1,314.999990386963,2|2,0:2|0:2,0:2:0:0:
447,121,596107,5,0,0:0:0:0:
389,79,596209,1,0,0:0:0:0:
317,81,596312,1,0,0:0:0:0:
258,120,596414,2,2,P|178:152|109:121,1,146.249993305207,2|2,0:2|0:2,0:2:0:0:
75,55,596722,5,0,0:0:0:0:
103,29,596798,1,0,0:0:0:0:
140,16,596875,1,0,0:0:0:0:
177,19,596953,2,2,P|237:46|255:128,1,146.249993305207,2|2,0:2|0:2,0:2:0:0:
266,190,597286,5,0,0:0:0:0:
297,254,597389,1,0,0:0:0:0:
360,286,597491,2,0,P|389:281|408:253,1,48.7499977684022
426,236,597645,1,0,0:0:0:0:
431,197,597721,1,0,0:0:0:0:
424,159,597798,1,0,0:0:0:0:
405,125,597875,1,0,0:0:0:0:
376,99,597952,1,8,0:3:0:0:
244,313,598235,6,0,P|176:322|105:265,1,146.249993305207
97,245,598542,1,0,0:0:0:0:
88,211,598618,1,0,0:0:0:0:
88,177,598695,1,0,0:0:0:0:
95,144,598772,1,0,0:0:0:0:
160,90,598850,1,0,0:0:0:0:
183,121,598927,1,0,0:0:0:0:
187,160,599004,1,0,0:0:0:0:
182,198,599081,1,0,0:0:0:0:
163,281,599157,1,0,0:0:0:0:
202,285,599234,1,0,0:0:0:0:
239,274,599311,1,0,0:0:0:0:
272,253,599388,1,0,0:0:0:0:
295,221,599465,6,2,P|332:152|239:135,1,194.999991073609,2|2,0:2|0:2,0:2:0:0:
256,192,600107,12,0,604414,0:0:0:0:
90,198,617953,6,0,P|243:236|402:150,1,330.000010070801,4|0,0:2|0:0,0:0:0:0:
227,94,618722,1,0,0:0:0:0:
178,165,618876,2,0,P|201:257|384:141,1,389.999982147218,8|0,0:2|0:0,0:0:0:0:
227,94,619799,6,0,P|180:217|319:291,1,314.999990386963
473,41,620568,1,0,0:0:0:0:
479,184,620722,2,0,P|334:251|236:62,1,382.500007295609,8|0,0:2|0:0,0:0:0:0:
473,41,621337,6,0,P|346:253|233:68,1,534.00000040741
360,115,622107,1,0,0:0:0:0:
362,253,622261,2,0,P|230:307|114:207,1,292.499986610413,8|0,0:2|0:0,0:0:0:0:
226,92,622876,6,2,P|251:137|239:216,1,112.500004291535,2|2,0:2|0:2,0:2:0:0:
120,225,623184,2,2,P|252:308|392:179,1,359.999989013672,2|2,0:2|0:2,0:2:0:0:
108,123,624107,6,0,P|103:172|122:229,1,104.999996795654
276,136,624414,2,0,P|281:87|262:30,1,104.999996795654
108,123,624722,2,0,P|115:215|345:191,1,389.999982147218
247,88,625491,1,0,0:0:0:0:
108,123,625645,2,0,P|127:234|289:267,1,292.499986610413
359,107,626261,6,2,B|329:86|329:86|297:100|297:100|269:75|269:75|238:92,1,134.999995880127,2|2,0:2|0:2,0:2:0:0:
108,123,626568,2,0,P|27:236|130:341,1,269.999991760254
284,269,627337,1,0,0:0:0:0:
108,123,627491,2,0,P|178:147|254:129,1,134.999995880127
342,95,627799,6,0,P|376:157|354:290,1,180,4|0,0:2|0:0,0:0:0:0:
344,312,628107,1,0,0:0:0:0:
297,339,628183,1,0,0:0:0:0:
245,349,628260,1,0,0:0:0:0:
192,339,628337,1,0,0:0:0:0:
146,311,628414,2,0,P|91:227|103:135,1,180
140,61,628722,2,0,P|230:52|277:127,1,180
293,171,629030,5,0,0:0:0:0:
297,224,629106,1,0,0:0:0:0:
281,275,629183,1,0,0:0:0:0:
247,317,629260,1,0,0:0:0:0:
200,342,629337,1,0,0:0:0:0:
147,348,629414,1,0,0:0:0:0:
95,334,629491,1,0,0:0:0:0:
53,301,629568,1,0,0:0:0:0:
39,249,629645,1,0,0:0:0:0:
78,212,629721,1,0,0:0:0:0:
97,162,629798,1,0,0:0:0:0:
94,109,629875,1,0,0:0:0:0:
68,62,629953,1,0,0:0:0:0:
119,76,630029,1,0,0:0:0:0:
173,75,630106,1,0,0:0:0:0:
224,59,630183,1,0,0:0:0:0:
298,29,630261,6,0,L|336:88,1,60,8|0,3:3|3:0,3:0:0:0:
266,131,630414,2,0,L|236:200,1,60,8|0,3:3|3:0,3:0:0:0:
320,216,630568,2,0,L|358:275,1,60,8|0,3:3|3:0,3:0:0:0:
288,318,630722,2,0,L|258:387,1,60,0|0,3:3|3:0,3:0:0:0:
196,383,630876,5,0,0:0:0:0:
143,375,630952,1,0,0:0:0:0:
98,345,631029,1,0,0:0:0:0:
71,299,631106,1,0,0:0:0:0:
67,245,631184,1,0,0:0:0:0:
118,261,631260,1,0,0:0:0:0:
172,264,631337,1,0,0:0:0:0:
224,254,631414,1,0,0:0:0:0:
273,231,631491,1,0,0:0:0:0:
315,197,631568,1,0,0:0:0:0:
346,153,631645,1,0,0:0:0:0:
366,103,631722,1,0,0:0:0:0:
366,26,631799,6,0,P|199:41|140:238,1,389.999982147218
346,153,632722,2,0,P|306:279|42:285,1,389.999982147218,8|0,0:2|0:0,0:0:0:0:
193,189,633645,2,0,P|321:236|471:50,1,389.999982147218
213,71,634568,6,0,P|193:187|294:346,1,292.499986610413,8|0,0:2|0:0,0:0:0:0:
392,87,635184,2,0,P|264:49|189:89,1,194.999991073609
70,273,635799,2,0,L|204:309,1,112.500004291535
405,234,636107,2,0,P|312:179|205:260,1,225.000008583069,8|0,0:2|0:0,0:0:0:0:
374,326,636722,6,0,L|411:214,1,97.4999955368044
280,45,637030,2,0,L|211:249,1,194.999991073609
90,35,637568,6,0,P|43:117|73:228,1,194.999991073609,4|0,0:2|0:0,0:0:0:0:
85,254,637953,1,0,0:0:0:0:
112,293,638029,1,0,0:0:0:0:
149,325,638106,1,0,0:0:0:0:
192,348,638183,1,0,0:0:0:0:
240,359,638260,1,0,0:0:0:0:
288,359,638337,1,0,0:0:0:0:
335,348,638414,1,0,0:0:0:0:
379,325,638491,1,0,0:0:0:0:
415,293,638568,6,0,P|437:131|352:51,1,292.499986610413
318,208,639184,2,0,L|192:228,1,112.500004291535
8,83,639491,2,0,P|129:67|182:174,1,225.000008583069,8|0,0:2|0:0,0:0:0:0:
206,225,639953,1,0,0:0:0:0:
288,307,640107,2,0,P|340:323|391:297,1,112.500004291535
450,170,640414,6,0,P|349:113|162:155,1,292.499986610413
123,301,641030,2,0,L|221:211,1,112.500004291535
460,272,641337,2,0,P|349:330|259:271,1,225.000008583069
205,224,641722,2,2,P|202:158|152:200,1,150,2|2,0:2|0:2,0:2:0:0:
134,262,641953,2,0,P|79:193|123:106,1,194.999991073609
454,125,642568,6,0,L|392:230,1,97.4999955368044
188,46,642876,2,0,P|196:176|385:259,1,330.000010070801,8|0,0:2|0:0,0:0:0:0:
454,125,643799,2,0,P|377:141|317:131,1,123.75000377655
257,102,644107,5,8,0:3:0:0:
148,118,644261,1,8,0:3:0:0:
241,254,644414,1,8,0:3:0:0:
99,274,644568,1,8,0:3:0:0:
64,98,644722,5,8,0:3:0:0:
231,178,644876,1,8,0:3:0:0:
179,1,645030,1,8,0:3:0:0:
323,70,645184,1,8,0:3:0:0:
120,173,645337,1,8,0:3:0:0:
317,281,645491,1,8,0:3:0:0:
323,70,645645,6,0,P|217:63|134:113,1,194.999991073609
226,308,646107,1,8,0:3:0:0:
312,161,646261,1,8,0:3:0:0:
106,243,646414,1,8,0:3:0:0:
326,340,646568,2,0,P|345:309|340:229,1,112.500004291535,8|0,0:3|0:0,0:0:0:0:
211,103,646876,1,8,0:3:0:0:
152,302,647030,1,8,0:3:0:0:
427,259,647184,2,0,P|433:204|401:152,1,112.500004291535
226,222,647491,6,0,P|201:159|302:33,1,225.000008583069
426,81,647953,1,0,0:0:0:0:
364,222,648107,1,8,0:3:0:0:
280,38,648261,1,8,0:3:0:0:
111,188,648414,1,0,0:0:0:0:
322,130,648568,1,8,0:3:0:0:
143,264,648722,2,0,P|219:274|258:246,1,112.500004291535,8|0,0:3|0:0,0:0:0:0:
221,43,649030,6,0,P|100:40|43:118,1,225.000008583069
74,286,649491,1,0,0:0:0:0:
160,149,649645,1,8,0:3:0:0:
172,354,649799,1,0,0:0:0:0:
280,144,649953,2,0,P|288:212|240:265,1,112.500004291535
43,116,650261,6,0,L|180:64,1,112.500004291535
371,207,650568,2,0,L|265:246,1,112.500004291535
202,135,650876,2,0,P|231:82|294:69,1,112.500004291535,8|0,0:3|0:0,0:0:0:0:
442,144,651184,1,0,0:3:0:0:
280,144,651337,1,0,0:0:0:0:
464,31,651491,1,8,0:3:0:0:
419,256,651645,1,0,0:0:0:0:
277,66,651799,2,0,P|213:49|162:75,1,112.500004291535
67,178,652107,2,0,P|124:200|184:181,1,112.500004291535
343,27,652414,6,0,P|381:74|383:143,1,112.500004291535
330,308,652722,2,0,P|268:319|206:286,1,112.500004291535
67,178,653030,1,0,0:0:0:0:
253,104,653184,1,0,0:0:0:0:
224,302,653337,2,0,P|154:311|100:285,1,112.500004291535,8|0,0:3|0:0,0:0:0:0:
160,141,653645,1,0,0:0:0:0:
385,225,653799,1,0,0:0:0:0:
224,302,653953,2,0,P|212:251|237:186,1,112.500004291535
361,43,654261,6,0,P|366:114|337:175,1,112.500004291535
200,131,654568,1,0,0:0:0:0:
296,6,654722,1,0,0:0:0:0:
292,271,654876,2,0,P|215:279|172:250,1,112.500004291535,8|0,0:3|0:0,0:0:0:0:
55,92,655184,2,0,L|177:61,1,112.500004291535
298,159,655491,2,0,P|359:174|423:153,1,112.500004291535
252,34,655799,6,0,P|226:97|248:167,1,112.500004291535
388,267,656107,1,0,0:0:0:0:
406,162,656261,1,0,0:0:0:0:
206,235,656414,1,8,0:3:0:0:
370,372,656568,1,8,0:3:0:0:
406,162,656722,2,0,P|395:110|339:72,1,112.500004291535,8|0,0:3|0:0,0:0:0:0:
275,258,657030,1,0,0:0:0:0:
482,247,657184,1,8,0:3:0:0:
455,81,657337,2,0,P|395:61|339:81,1,112.500004291535
202,216,657645,5,0,0:0:0:0:
164,225,657721,1,0,0:0:0:0:
125,218,657798,1,0,0:0:0:0:
93,196,657875,1,0,0:0:0:0:
72,163,657952,1,0,0:0:0:0:
67,124,658029,1,0,0:0:0:0:
78,87,658106,1,0,0:0:0:0:
103,57,658183,1,0,0:0:0:0:
139,40,658261,1,0,0:0:0:0:
177,47,658337,1,0,0:0:0:0:
216,55,658414,1,0,0:0:0:0:
254,62,658491,1,0,0:0:0:0:
293,70,658568,5,0,0:0:0:0:
343,68,658644,1,0,0:0:0:0:
391,84,658721,1,0,0:0:0:0:
430,115,658798,1,0,0:0:0:0:
455,158,658875,1,0,0:0:0:0:
464,208,658952,1,0,0:0:0:0:
455,258,659029,1,0,0:0:0:0:
430,301,659106,1,0,0:0:0:0:
390,332,659183,1,0,0:0:0:0:
342,348,659260,1,0,0:0:0:0:
292,346,659337,1,0,0:0:0:0:
246,326,659414,1,0,0:0:0:0:
209,292,659491,6,0,P|185:251|190:178,1,112.500004291535
343,68,659799,1,0,0:0:0:0:
358,260,659953,1,0,0:0:0:0:
179,118,660107,2,0,P|241:92|283:105,1,112.500004291535
246,326,660414,1,8,0:3:0:0:
118,173,660568,1,0,0:0:0:0:
319,184,660722,1,0,0:0:0:0:
119,295,660876,1,0,0:0:0:0:
44,70,661030,6,0,P|106:44|158:55,1,112.500004291535
242,257,661337,1,0,0:0:0:0:
22,189,661491,1,0,0:0:0:0:
248,89,661645,1,0,0:0:0:0:
119,295,661799,1,0,0:0:0:0:
346,323,661953,2,0,P|398:283|406:219,1,112.500004291535
248,89,662261,1,8,0:3:0:0:
253,320,662414,1,0,0:0:0:0:
80,134,662568,1,0,0:0:0:0:
85,365,662721,1,0,0:0:0:0:
296,228,662876,6,0,P|249:190|189:196,1,112.500004291535
33,296,663184,2,0,L|155:288,1,112.500004291535
311,184,663491,2,0,L|198:191,1,112.500004291535
58,69,663799,1,8,0:3:0:0:
243,30,663953,1,0,0:0:0:0:
136,139,664107,6,0,P|117:199|157:262,1,112.500004291535
329,280,664414,1,0,0:0:0:0:
278,137,664568,1,0,0:0:0:0:
192,285,664722,1,0,0:0:0:0:
340,194,664876,1,0,0:0:0:0:
144,33,665030,6,0,P|124:78|143:149,1,112.500004291535
397,134,665337,1,8,0:3:0:0:
178,216,665491,1,8,0:3:0:0:
414,278,665645,1,8,0:3:0:0:
195,360,665799,1,0,0:0:0:0:
309,246,665953,2,0,L|273:119,1,112.500004291535
138,32,666261,6,0,P|120:86|141:146,1,112.500004291535
363,173,666568,1,0,0:0:0:0:
243,51,666722,1,0,0:0:0:0:
93,242,666876,2,0,L|226:219,1,112.500004291535
399,90,667184,2,0,L|288:109,1,112.500004291535,8|0,0:3|0:0,0:0:0:0:
60,141,667491,6,0,P|60:194|94:243,1,112.500004291535
329,319,667799,1,0,0:0:0:0:
350,144,667953,1,0,0:0:0:0:
150,177,668107,2,0,P|123:128|141:76,1,112.500004291535
350,144,668414,5,0,0:0:0:0:
209,280,668568,1,0,0:0:0:0:
218,73,668722,1,0,0:0:0:0:
325,268,668876,1,0,0:0:0:0:
86,332,669030,2,0,P|52:275|68:218,1,112.500004291535,8|0,0:3|0:0,0:0:0:0:
139,77,669337,2,0,P|170:142|158:198,1,112.500004291535
30,106,669645,5,0,0:0:0:0:
214,34,669799,1,0,0:0:0:0:
373,161,669953,2,0,P|302:184|234:167,1,112.500004291535
69,26,670261,1,0,0:0:0:0:
143,290,670414,1,0,0:0:0:0:
228,117,670568,2,0,P|171:114|118:157,1,112.500004291535,8|0,0:3|0:0,0:0:0:0:
263,328,670876,2,0,L|336:223,1,112.500004291535
296,60,671184,1,0,0:0:0:0:
164,209,671337,1,0,0:0:0:0:
402,303,671491,6,0,P|438:255|431:190,1,112.500004291535
430,171,671722,1,0,0:0:0:0:
419,139,671798,1,0,0:0:0:0:
402,110,671875,1,0,0:0:0:0:
379,84,671952,1,0,0:0:0:0:
353,64,672029,1,0,0:0:0:0:
322,49,672106,1,0,0:0:0:0:
290,40,672183,1,0,0:0:0:0:
256,38,672260,1,0,0:0:0:0:
223,42,672337,1,0,0:0:0:0:
148,76,672414,5,0,0:0:0:0:
115,107,672490,1,0,0:0:0:0:
97,148,672567,1,0,0:0:0:0:
97,192,672644,1,0,0:0:0:0:
127,271,672722,1,0,0:0:0:0:
167,289,672798,1,0,0:0:0:0:
212,293,672875,1,0,0:0:0:0:
255,283,672952,1,0,0:0:0:0:
296,210,673030,1,0,0:0:0:0:
301,160,673106,1,0,0:0:0:0:
271,121,673183,1,0,0:0:0:0:
222,113,673260,1,0,0:0:0:0:
181,140,673337,6,0,L|103:231,1,112.500004291535,8|0,0:0|0:0,0:0:0:0:
42,304,673645,1,0,3:0:0:0:
214,347,673799,2,0,L|287:261,1,112.500004291535,8|0,0:0|0:0,0:0:0:0:
354,184,674107,1,0,0:3:0:0:
231,53,674261,6,0,L|264:176,1,112.500004291535,8|0,0:0|0:0,0:0:0:0:
287,261,674568,1,0,3:0:0:0:
464,334,674722,2,0,L|434:225,1,112.500004291535,8|0,0:0|0:0,0:0:0:0:
324,75,675030,2,0,L|357:198,1,112.500004291535,8|0,0:0|0:0,0:0:0:0:
380,283,675337,1,0,3:0:0:0:
436,85,675491,6,0,L|309:73,1,112.500004291535,8|0,0:0|0:0,0:0:0:0:
223,64,675799,1,0,3:0:0:0:
84,150,675953,2,0,L|196:160,1,112.500004291535,8|0,0:0|0:0,0:0:0:0:
309,276,676261,2,0,L|182:264,1,112.500004291535,8|0,0:0|0:0,0:0:0:0:
37,338,676568,2,0,L|149:348,1,112.500004291535,8|0,0:0|0:0,0:0:0:0:
251,355,676876,1,0,3:0:0:0:
378,207,677030,5,0,0:0:0:0:
230,80,677184,1,0,0:3:0:0:
103,228,677337,2,0,L|241:198,1,112.500004291535,8|0,0:0|0:0,0:0:0:0:
313,182,677645,1,0,3:0:0:0:
439,32,677799,2,0,L|329:55,1,112.500004291535,8|0,0:0|0:0,0:0:0:0:
230,80,678107,1,0,3:0:0:0:
103,228,678261,6,0,L|181:345,1,112.500004291535,8|0,0:0|0:0,0:0:0:0:
375,275,678568,2,0,L|312:181,1,112.500004291535,8|0,0:0|0:0,0:0:0:0:
259,94,678876,1,0,3:0:0:0:
89,60,679030,2,0,L|167:177,1,112.500004291535,8|0,0:0|0:0,0:0:0:0:
215,232,679337,1,0,3:0:0:0:
424,170,679491,6,0,L|302:182,1,112.500004291535,8|0,0:0|0:0,0:0:0:0:
200,330,679799,2,0,L|311:318,1,112.500004291535,8|0,0:0|0:0,0:0:0:0:
200,192,680107,2,0,L|78:204,1,112.500004291535,8|0,0:0|0:0,0:0:0:0:
14,133,680414,1,0,3:0:0:0:
171,33,680568,6,2,P|215:90|190:203,1,179.999994506836,2|2,0:2|0:2,0:2:0:0:
49,331,681030,1,4,3:3:0:0:
99,122,681184,1,4,0:3:0:0:
190,329,681337,1,4,0:3:0:0:
385,198,681491,6,0,L|230:194,1,127.50000243187,8|0,0:0|0:0,0:0:0:0:
420,109,681799,1,0,3:0:0:0:
317,332,681953,2,0,L|162:328,1,127.50000243187,8|0,0:0|0:0,0:0:0:0:
50,219,682261,1,0,3:0:0:0:
212,75,682414,6,0,L|258:197,1,127.50000243187,8|0,0:0|0:0,0:0:0:0:
115,117,682722,1,0,3:0:0:0:
340,126,682876,2,0,L|386:248,1,127.50000243187,8|0,0:0|0:0,0:0:0:0:
144,209,683184,2,0,L|190:331,1,127.50000243187,8|0,0:0|0:0,0:0:0:0:
256,194,683491,1,0,3:0:0:0:
164,52,683645,6,0,L|34:97,1,127.50000243187,8|0,0:0|0:0,0:0:0:0:
88,274,683953,1,0,3:0:0:0:
309,286,684107,2,0,L|179:331,1,127.50000243187,8|0,0:0|0:0,0:0:0:0:
296,142,684414,2,0,L|166:187,1,127.50000243187,8|0,0:0|0:0,0:0:0:0:
284,10,684722,2,0,L|154:55,1,127.50000243187,8|0,0:0|0:0,0:0:0:0:
71,154,685030,1,0,3:0:0:0:
325,208,685184,5,0,3:0:0:0:
82,339,685337,1,4,3:3:0:0:
175,183,685491,2,0,L|284:271,1,127.50000243187,8|0,0:0|0:0,0:0:0:0:
243,88,685799,1,0,3:0:0:0:
132,278,685953,2,0,L|241:366,1,127.50000243187,8|0,0:0|0:0,0:0:0:0:
406,305,686261,1,0,3:0:0:0:
412,114,686414,6,0,L|307:226,1,127.50000243187,8|0,0:0|0:0,0:0:0:0:
151,107,686722,2,0,L|46:219,1,127.50000243187,8|0,0:0|0:0,0:0:0:0:
237,157,687030,1,0,3:0:0:0:
138,0,687184,2,0,L|33:112,1,127.50000243187,8|0,0:0|0:0,0:0:0:0:
17,261,687491,1,0,3:0:0:0:
163,334,687645,6,0,L|305:279,1,127.50000243187,8|0,0:0|0:0,0:0:0:0:
156,197,687953,2,0,L|298:142,1,127.50000243187,8|0,0:0|0:0,0:0:0:0:
149,60,688261,2,0,L|291:5,1,127.50000243187,8|0,0:0|0:0,0:0:0:0:
395,112,688568,1,0,3:0:0:0:
281,287,688722,2,0,L|162:333,1,127.50000243187,8|0,0:0|0:0,0:0:0:0:
50,271,689030,5,0,3:0:0:0:
41,137,689184,1,2,3:3:0:0:
97,106,689261,1,2,3:3:0:0:
159,116,689337,1,2,3:3:0:0:
82,367,689491,1,0,0:0:0:0:
109,181,689645,6,0,P|166:197|219:165,1,104.999996795654,4|0,0:3|0:0,0:0:0:0:
335,56,689953,1,8,0:2:0:0:
129,38,690107,1,4,0:1:0:0:
35,206,690261,2,0,P|34:274|62:305,1,104.999996795654,4|0,0:1|0:0,0:0:0:0:
283,338,690568,6,0,P|341:330|362:272,1,104.999996795654,12|0,0:2|0:0,0:0:0:0:
232,134,690876,1,0,0:0:0:0:
180,340,691030,1,4,0:3:0:0:
331,191,691184,1,0,0:0:0:0:
180,340,691337,1,4,0:1:0:0:
331,191,691491,1,12,0:2:0:0:
239,49,691645,1,0,0:0:0:0:
50,185,691799,6,0,P|104:209|169:194,1,104.999996795654,4|0,0:3|0:0,0:0:0:0:
344,80,692106,1,8,0:2:0:0:
90,52,692260,1,4,0:3:0:0:
311,161,692414,1,0,0:0:0:0:
164,89,692568,1,4,0:3:0:0:
307,290,692722,1,0,0:0:0:0:
236,124,692875,1,4,0:1:0:0:
268,368,693029,1,4,0:1:0:0:
146,303,693183,1,0,0:0:0:0:
311,161,693336,6,0,P|285:207|230:226,1,104.999996795654,8|0,0:2|0:0,0:0:0:0:
121,62,693643,1,4,0:3:0:0:
304,81,693797,1,0,0:0:0:0:
136,202,693951,1,8,0:2:0:0:
220,36,694105,1,4,0:1:0:0:
391,127,694259,6,0,P|396:183|371:224,1,104.999996795654,4|0,0:1|0:0,0:0:0:0:
190,313,694566,1,4,0:3:0:0:
168,97,694720,1,0,0:0:0:0:
310,266,694874,1,4,0:3:0:0:
168,97,695028,1,0,0:0:0:0:
310,266,695182,1,8,0:2:0:0:
168,221,695335,1,4,0:1:0:0:
50,320,695489,6,0,P|135:336|160:325,1,104.999996795654,4|0,0:1|0:0,0:0:0:0:
241,169,695796,1,4,0:3:0:0:
35,206,695950,1,0,0:0:0:0:
216,29,696104,1,4,0:3:0:0:
96,147,696258,1,0,0:0:0:0:
342,88,696412,1,4,0:1:0:0:
155,88,696565,1,4,0:1:0:0:
396,164,696719,1,4,0:1:0:0:
263,215,696873,1,4,0:0:0:0:
225,251,696950,1,4,0:0:0:0:
216,301,697027,6,0,P|298:338|360:320,1,150,8|0,0:2|0:0,0:0:0:0:
427,226,697488,1,0,0:0:0:0:
311,74,697642,2,0,P|292:118|300:167,1,75
436,105,697950,1,0,0:0:0:0:
252,27,698103,1,8,0:2:0:0:
174,188,698257,2,0,P|224:218|264:210,1,75
210,88,698565,2,0,P|173:78|132:88,1,75
60,239,698873,2,0,P|121:291|202:279,1,150
292,144,699334,6,0,P|334:116|440:150,1,150,8|0,0:2|0:0,0:0:0:0:
426,300,699796,2,0,P|376:317|336:299,1,75
177,212,700103,2,0,P|163:258|177:294,1,75
292,144,700411,2,0,P|306:98|292:62,1,75
88,6,700719,1,8,0:2:0:0:
43,215,700873,2,2,L|179:135,1,150,2|2,0:3|0:3,0:3:0:0:
299,73,701334,1,0,0:0:0:0:
411,198,701488,6,0,P|396:288|332:311,1,150
204,297,701950,1,0,0:0:0:0:
321,162,702103,2,0,P|285:138|225:145,1,75,8|0,0:2|0:0,0:0:0:0:
133,207,702411,2,0,P|197:229|218:218,1,75
104,95,702719,2,0,P|80:119|77:164,1,75
120,321,703027,1,8,0:2:0:0:
234,292,703180,1,0,0:0:0:0:
183,142,703334,6,0,P|228:128|269:144,1,75
375,237,703642,2,0,P|328:245|291:224,1,75
316,67,703950,2,0,P|338:97|345:143,1,75,8|0,0:2|0:0,0:0:0:0:
231,211,704257,2,0,P|183:148|212:68,1,150
287,169,704719,1,0,0:0:0:0:
184,315,704873,1,10,0:2:0:0:
41,177,705026,1,2,0:2:0:0:
231,211,705180,1,2,0:2:0:0:
32,286,705334,1,2,0:2:0:0:
49,68,705488,1,4,0:3:0:0:
162,242,705642,1,4,0:3:0:0:
272,82,705796,6,0,L|97:135,1,172.500003290176,4|0,0:3|0:0,0:0:0:0:
117,318,706257,1,0,0:0:0:0:
311,289,706411,2,0,L|292:195,1,86.2500016450882,8|0,0:2|0:0,0:0:0:0:
106,132,706719,6,0,L|244:262,1,172.500003290176,4|0,0:3|0:0,0:0:0:0:
334,96,707180,2,0,L|233:112,1,86.2500016450882
151,291,707488,1,0,0:0:0:0:
344,328,707642,2,0,L|426:266,1,86.2500016450882,8|0,0:2|0:0,0:0:0:0:
334,96,707949,6,0,L|299:276,1,172.500003290176,4|0,0:3|0:0,0:0:0:0:
487,211,708411,1,0,0:0:0:0:
344,328,708565,2,0,L|251:343,1,86.2500016450882,8|0,0:2|0:0,0:0:0:0:
182,164,708872,2,0,L|251:223,1,86.2500016450882
124,359,709180,2,0,L|147:259,1,86.2500016450882,8|0,0:2|0:0,0:0:0:0:
301,265,709488,6,0,L|440:156,1,172.500003290176,4|0,0:3|0:0,0:0:0:0:
250,111,709949,1,0,0:0:0:0:
143,274,710103,2,0,L|251:267,1,86.2500016450882,8|0,0:2|0:0,0:0:0:0:
149,87,710411,6,0,L|23:224,1,172.500003290176,4|0,0:3|0:0,0:0:0:0:
229,268,710872,2,0,L|203:185,1,86.2500016450882
87,318,711180,1,0,0:0:0:0:
279,341,711334,2,0,L|371:288,1,86.2500016450882,8|0,0:2|0:0,0:0:0:0:
203,185,711642,6,0,L|28:215,1,172.500003290176,4|0,0:3|0:0,0:0:0:0:
184,339,712103,2,0,L|225:244,1,86.2500016450882,0|8,0:0|0:2,0:0:0:0:
32,214,712411,2,0,L|90:298,1,86.2500016450882
203,185,712719,1,0,0:0:0:0:
13,85,712872,1,8,0:2:0:0:
234,55,713026,1,8,0:2:0:0:
284,215,713180,5,0,0:0:0:0:
76,187,713334,1,4,0:0:0:0:
276,123,713488,1,4,0:0:0:0:
365,257,713642,6,0,P|336:292|299:304,1,75,4|0,0:3|0:0,0:0:0:0:
193,294,713949,1,0,0:0:0:0:
327,177,714103,1,0,0:0:0:0:
114,115,714257,1,8,0:2:0:0:
199,209,714411,1,0,0:0:0:0:
306,57,714565,6,0,P|258:37|220:44,1,75,4|0,0:3|0:0,0:0:0:0:
187,138,714872,1,0,0:0:0:0:
279,297,715026,1,0,0:0:0:0:
346,204,715180,1,0,0:0:0:0:
160,295,715334,1,0,0:0:0:0:
227,202,715487,1,8,0:2:0:0:
114,215,715642,1,0,0:0:0:0:
82,60,715796,6,0,P|129:36|176:50,1,75,4|0,0:3|0:0,0:0:0:0:
251,72,716103,1,0,0:0:0:0:
228,275,716257,1,0,0:0:0:0:
164,169,716411,1,0,0:0:0:0:
314,300,716565,1,0,0:0:0:0:
324,176,716719,1,8,0:2:0:0:
374,369,716872,1,0,0:0:0:0:
454,274,717026,1,0,0:0:0:0:
465,55,717180,1,8,0:2:0:0:
295,39,717334,6,0,P|273:79|277:121,1,75,4|0,0:3|0:0,0:0:0:0:
381,93,717642,1,0,0:0:0:0:
213,36,717796,1,0,0:0:0:0:
255,253,717949,1,8,0:2:0:0:
368,242,718103,1,0,0:0:0:0:
196,132,718257,6,0,P|160:143|145:189,1,75,4|0,0:3|0:0,0:0:0:0:
153,286,718565,1,0,0:0:0:0:
315,189,718719,1,0,0:0:0:0:
310,302,718872,1,0,0:0:0:0:
412,139,719026,1,0,0:0:0:0:
407,252,719179,1,8,0:2:0:0:
279,244,719334,1,0,0:0:0:0:
333,67,719488,6,0,P|279:57|244:75,1,75,4|0,0:3|0:0,0:0:0:0:
170,125,719796,1,0,0:0:0:0:
358,167,719949,1,0,0:0:0:0:
247,146,720103,1,8,0:2:0:0:
320,285,720257,1,0,0:0:0:0:
229,217,720411,1,0,0:0:0:0:
231,373,720565,1,0,0:0:0:0:
179,271,720719,1,8,0:2:0:0:
340,225,720872,1,8,0:2:0:0:
433,334,721026,6,2,L|371:329,1,37.5,2|2,0:2|0:2,0:2:0:0:
314,317,721180,2,2,L|278:277,1,37.5,2|2,0:2|0:2,0:2:0:0:
250,216,721334,2,2,L|252:159,1,37.5,2|2,0:2|0:2,0:2:0:0:
266,58,721488,6,0,P|322:56|356:84,1,89.9999972534181,4|0,0:3|0:0,0:0:0:0:
426,240,721796,1,0,0:0:0:0:
251,178,721949,1,4,0:3:0:0:
429,51,722103,2,0,P|458:98|441:153,1,89.9999972534181,8|0,0:2|0:0,0:0:0:0:
347,287,722411,6,0,P|294:302|251:287,1,89.9999972534181,4|0,0:3|0:0,0:0:0:0:
145,196,722718,1,0,0:0:0:0:
335,192,722872,1,4,0:3:0:0:
172,51,723026,1,0,0:0:0:0:
335,192,723180,1,4,0:3:0:0:
172,51,723334,1,8,0:2:0:0:
312,37,723488,1,0,0:0:0:0:
228,215,723641,6,0,P|184:217|129:175,1,89.9999972534181,4|0,0:3|0:0,0:0:0:0:
254,83,723949,1,0,0:0:0:0:
448,140,724103,1,4,0:3:0:0:
319,349,724257,1,0,0:0:0:0:
406,210,724410,1,4,0:3:0:0:
193,333,724564,1,8,0:2:0:0:
356,275,724718,1,0,0:0:0:0:
110,283,724872,1,8,0:2:0:0:
235,201,725026,1,0,0:0:0:0:
488,237,725179,6,0,P|474:287|443:313,1,89.9999972534181,4|0,0:3|0:0,0:0:0:0:
325,173,725486,1,4,0:3:0:0:
478,54,725640,1,0,0:0:0:0:
390,252,725794,1,8,0:2:0:0:
259,94,725948,1,0,0:0:0:0:
66,130,726103,6,0,P|59:176|86:213,1,89.9999972534181,4|0,0:3|0:0,0:0:0:0:
258,261,726409,1,4,0:3:0:0:
154,96,726563,1,0,0:0:0:0:
365,147,726717,1,4,0:3:0:0:
154,96,726871,1,0,0:0:0:0:
365,147,727025,1,8,0:2:0:0:
239,178,727178,1,0,0:0:0:0:
404,273,727332,6,0,P|380:322|324:338,1,89.9999972534181,4|0,0:3|0:0,0:0:0:0:
180,302,727640,1,4,0:3:0:0:
365,193,727794,1,0,0:0:0:0:
155,72,727948,1,4,0:3:0:0:
295,153,728102,1,0,0:0:0:0:
53,174,728256,1,4,0:3:0:0:
225,112,728409,1,4,0:3:0:0:
38,268,728563,1,4,0:3:0:0:
173,281,728717,1,4,0:3:0:0:
97,123,728870,6,0,P|117:79|164:75,1,89.9999972534181,4|0,0:3|0:0,0:0:0:0:
323,161,729178,1,4,0:3:0:0:
111,254,729332,6,0,P|131:210|178:206,1,89.9999972534181,4|0,0:3|0:0,0:0:0:0:
337,292,729638,1,0,0:0:0:0:
139,343,729793,1,0,0:0:0:0:
0,198,729947,2,0,P|23:174|87:170,1,89.9999972534181,4|0,0:3|0:0,0:0:0:0:
273,220,730255,6,0,P|324:211|352:165,1,89.9999972534181,8|0,0:2|0:0,0:0:0:0:
233,32,730562,1,0,0:0:0:0:
127,225,730716,1,4,0:3:0:0:
270,118,730870,1,0,0:0:0:0:
127,225,731024,1,0,0:0:0:0:
270,118,731178,1,4,0:3:0:0:
150,89,731330,1,0,0:0:0:0:
394,63,731485,6,0,P|413:109|392:165,1,89.9999972534181,4|0,0:3|0:0,0:0:0:0:
319,281,731791,1,0,0:0:0:0:
127,225,731945,1,4,0:3:0:0:
266,29,732099,1,8,0:2:0:0:
174,160,732253,1,0,0:0:0:0:
394,63,732407,1,0,0:0:0:0:
219,94,732560,1,0,0:0:0:0:
457,124,732714,1,4,0:3:0:0:
365,215,732868,1,0,0:0:0:0:
114,60,733022,6,0,P|89:110|106:168,1,104.999996795654,4|0,0:3|0:0,0:0:0:0:
295,284,733329,1,8,0:2:0:0:
294,56,733483,1,0,0:0:0:0:
154,238,733637,1,8,0:2:0:0:
294,170,733791,1,0,0:0:0:0:
37,203,733945,6,0,P|59:273|92:286,1,104.999996795654,8|0,0:2|0:0,0:0:0:0:
295,284,734252,1,8,0:2:0:0:
209,106,734406,1,0,0:0:0:0:
178,347,734560,1,8,0:2:0:0:
209,106,734714,1,0,0:0:0:0:
178,347,734868,1,8,0:2:0:0:
340,347,735022,1,0,0:0:0:0:
462,135,735175,6,0,P|423:90|363:81,1,104.999996795654,8|0,0:2|0:0,0:0:0:0:
256,185,735482,1,8,0:2:0:0:
438,275,735636,1,0,0:0:0:0:
175,269,735790,1,8,0:2:0:0:
351,273,735944,1,0,0:0:0:0:
133,124,736098,1,8,0:2:0:0:
262,271,736251,1,8,0:2:0:0:
160,27,736405,1,0,0:0:0:0:
300,106,736559,1,0,0:0:0:0:
183,303,736713,5,0,0:0:0:0:
132,291,736789,1,0,0:0:0:0:
88,262,736866,1,0,0:0:0:0:
56,221,736943,1,0,0:0:0:0:
41,171,737020,1,0,0:0:0:0:
43,119,737097,1,0,0:0:0:0:
63,70,737175,1,0,0:0:0:0:
92,80,737251,1,0,0:0:0:0:
123,85,737328,1,0,0:0:0:0:
155,86,737405,1,0,0:0:0:0:
186,80,737482,1,0,0:0:0:0:
215,70,737559,1,0,0:0:0:0:
243,55,737636,6,2,L|282:112,1,52.4999983978272,2|2,0:2|0:2,0:2:0:0:
235,176,737790,2,2,L|196:232,1,52.4999983978272,2|2,0:2|0:2,0:2:0:0:
262,284,737944,2,2,L|300:340,1,52.4999983978272,2|2,0:2|0:2,0:2:0:0:
359,121,738559,6,0,L|244:90,1,89.9999972534181
192,157,738866,2,0,L|77:126,1,89.9999972534181
268,177,739174,1,0,0:0:0:0:
146,309,739328,2,0,L|283:159,1,179.999994506836,4|0,0:3|0:0,0:0:0:0:
292,35,739789,5,8,0:2:0:0:
149,28,739943,2,0,L|116:139,1,89.9999972534181
171,222,740251,2,0,L|138:333,1,89.9999972534181
171,222,740559,2,0,L|196:135,1,89.9999972534181
292,35,740866,2,0,L|259:146,1,89.9999972534181
314,229,741174,2,0,L|281:340,1,89.9999972534181
345,135,741482,1,0,0:0:0:0:
226,50,741636,2,0,L|140:322,1,269.999991760254,4|0,0:3|0:0,0:0:0:0:
314,229,742251,6,0,L|413:285,1,89.9999972534181,8|0,0:2|0:0,0:0:0:0:
345,135,742559,2,0,L|444:191,1,89.9999972534181
345,135,742866,2,0,L|266:90,1,89.9999972534181
127,110,743174,2,0,L|226:166,1,89.9999972534181
180,249,743482,2,0,L|279:305,1,89.9999972534181
180,249,743789,2,0,L|101:204,1,89.9999972534181
48,65,744097,2,0,L|147:121,1,89.9999972534181
188,46,744405,2,0,L|287:102,1,89.9999972534181
112,2,744712,1,8,0:2:0:0:
101,204,744866,2,0,L|376:146,1,269.999991760254,4|0,0:3|0:0,0:0:0:0:
464,349,745482,6,0,L|415:260,1,89.9999972534181
465,162,745789,2,0,L|416:73,1,89.9999972534181
465,162,746097,2,0,L|508:240,1,89.9999972534181
346,264,746405,2,0,L|297:175,1,89.9999972534181
164,158,746712,2,0,L|115:69,1,89.9999972534181
204,234,747020,1,0,0:0:0:0:
88,346,747174,2,0,L|348:263,1,269.999991760254,8|0,0:2|0:0,0:0:0:0:
280,101,747789,6,0,L|185:72,1,89.9999972534181
94,142,748097,2,0,L|-1:113,1,89.9999972534181
94,142,748405,2,0,L|180:168,1,89.9999972534181
366,127,748712,2,0,L|271:98,1,89.9999972534181
389,230,749020,2,0,L|294:201,1,89.9999972534181
389,230,749328,2,0,L|475:256,1,89.9999972534181
359,328,749635,2,0,L|264:299,1,89.9999972534181,8|0,0:2|0:0,0:0:0:0:
146,347,749943,2,0,L|51:318,1,89.9999972534181
232,373,750251,1,0,0:0:0:0:
389,230,750405,2,0,L|194:33,1,269.999991760254,4|0,0:3|0:0,0:0:0:0:
82,145,751020,6,0,L|47:241,1,89.9999972534181
176,262,751328,2,0,L|141:358,1,89.9999972534181
176,262,751635,2,0,L|206:177,1,89.9999972534181
348,96,751943,1,0,0:0:0:0:
286,264,752097,1,8,0:2:0:0:
442,213,752251,2,0,L|407:309,1,89.9999972534181
479,125,752559,1,0,0:0:0:0:
224,57,752712,2,0,L|215:348,1,269.999991760254,4|0,0:3|0:0,0:0:0:0:
126,237,753328,6,0,L|38:284,1,89.9999972534181
144,99,753635,2,0,L|56:146,1,89.9999972534181
144,99,753943,2,0,L|223:56,1,89.9999972534181
384,62,754251,2,0,L|296:109,1,89.9999972534181
263,222,754559,2,0,L|175:269,1,89.9999972534181,8|0,0:2|0:0,0:0:0:0:
263,222,754866,2,0,L|342:179,1,89.9999972534181
175,193,755174,2,0,L|87:240,1,89.9999972534181
238,313,755482,2,0,L|150:360,1,89.9999972534181
325,266,755789,1,0,0:0:0:0:
376,117,755943,2,0,L|471:394,1,269.999991760254,4|0,0:3|0:0,0:0:0:0:
477,191,756559,6,0,L|507:92,1,89.9999972534181
332,201,756866,1,0,0:0:0:0:
385,29,757020,1,8,0:2:0:0:
332,201,757174,2,0,L|305:287,1,89.9999972534181
192,220,757482,2,0,L|222:121,1,89.9999972534181
67,168,757789,2,0,L|97:69,1,89.9999972534181
37,264,758097,1,0,0:0:0:0:
208,326,758251,2,0,L|88:71,1,269.999991760254,4|0,0:3|0:0,0:0:0:0:
245,184,758866,6,0,L|335:227,1,89.9999972534181
380,103,759174,2,0,L|470:146,1,89.9999972534181
380,103,759482,2,0,L|298:64,1,89.9999972534181
160,68,759789,2,0,L|250:111,1,89.9999972534181
171,228,760097,2,0,L|261:271,1,89.9999972534181
171,228,760405,2,0,L|89:189,1,89.9999972534181
78,29,760712,2,0,L|168:72,1,89.9999972534181
298,64,761020,2,0,L|388:107,1,89.9999972534181
215,21,761328,1,0,0:0:0:0:
166,143,761482,1,4,0:3:0:0:
252,266,761635,2,0,L|447:233,1,179.999994506836,8|0,0:2|0:0,0:0:0:0:
298,64,762097,6,0,L|339:164,1,89.9999972534181
252,266,762405,2,0,L|293:366,1,89.9999972534181
252,266,762712,2,0,L|217:182,1,89.9999972534181
62,268,763020,2,0,L|103:368,1,89.9999972534181
110,134,763328,1,0,0:0:0:0:
178,300,763482,1,8,0:2:0:0:
79,52,763635,1,0,0:0:0:0:
308,38,763789,2,0,L|114:245,1,269.999991760254,4|0,0:3|0:0,0:0:0:0:
329,302,764405,6,0,L|235:274,1,89.9999972534181
391,179,764712,2,0,L|297:151,1,89.9999972534181
391,179,765020,2,0,L|477:204,1,89.9999972534181
341,73,765328,2,0,L|247:45,1,89.9999972534181,8|0,0:2|0:0,0:0:0:0:
143,136,765635,2,0,L|49:108,1,89.9999972534181
143,136,765943,2,0,L|229:161,1,89.9999972534181
314,283,766251,2,0,L|220:255,1,89.9999972534181
135,323,766559,2,0,L|41:295,1,89.9999972534181
221,348,766866,1,0,0:0:0:0:
326,208,767020,1,4,0:3:0:0:
68,204,767174,2,0,L|226:108,1,179.999994506836,8|0,0:2|0:0,0:0:0:0:
403,123,767635,6,0,L|382:32,1,89.9999972534181
326,208,767943,2,0,L|305:117,1,89.9999972534181
326,208,768251,2,0,L|346:295,1,89.9999972534181
223,348,768559,2,0,L|202:257,1,89.9999972534181
79,290,768866,1,0,0:0:0:0:
38,114,769020,1,8,0:2:0:0:
146,325,769174,1,0,0:0:0:0:
322,148,769328,2,0,L|47:205,1,269.999991760254,4|0,0:3|0:0,0:0:0:0:
224,310,769943,6,0,L|345:334,1,89.9999972534181
424,249,770251,2,0,L|545:273,1,89.9999972534181
424,249,770559,2,0,L|335:231,1,89.9999972534181
259,63,770866,2,0,L|380:87,1,89.9999972534181,8|0,0:2|0:0,0:0:0:0:
196,159,771174,2,0,L|317:183,1,89.9999972534181
196,159,771482,2,0,L|107:141,1,89.9999972534181
147,264,771789,2,0,L|268:288,1,89.9999972534181
365,249,772097,2,0,L|486:273,1,89.9999972534181
276,229,772405,1,0,0:0:0:0:
332,20,772559,1,4,0:3:0:0:
337,177,772712,2,0,L|209:35,1,179.999994506836,8|0,0:2|0:0,0:0:0:0:
107,141,773174,6,0,L|93:248,1,89.9999972534181
209,255,773482,2,0,L|195:362,1,89.9999972534181
209,255,773789,2,0,L|220:165,1,89.9999972534181
348,87,774097,2,0,L|334:194,1,89.9999972534181
479,164,774405,1,0,0:0:0:0:
455,342,774559,1,8,0:2:0:0:
490,80,774712,1,0,0:0:0:0:
336,176,774866,2,4,L|79:69,1,269.999991760254,4|4,0:3|0:3,0:3:0:0:
64,269,775482,6,0,L|166:247,1,89.9999972534181
270,302,775789,2,0,L|372:280,1,89.9999972534181
270,302,776097,2,0,L|182:320,1,89.9999972534181
82,170,776405,2,0,L|184:148,1,89.9999972534181,8|0,0:2|0:0,0:0:0:0:
215,47,776712,2,0,L|317:25,1,89.9999972534181
215,47,777020,2,0,L|127:65,1,89.9999972534181
253,162,777328,2,0,L|355:140,1,89.9999972534181
357,283,777635,2,0,L|459:261,1,89.9999972534181
270,302,777943,1,0,0:0:0:0:
129,228,778097,1,4,0:3:0:0:
236,46,778251,2,0,L|216:243,1,179.999994506836,8|0,0:2|0:0,0:0:0:0:
419,186,778712,6,0,L|319:130,1,89.9999972534181
296,269,779020,2,0,L|196:213,1,89.9999972534181
296,269,779328,2,0,L|374:312,1,89.9999972534181
246,366,779635,2,0,L|146:310,1,89.9999972534181
145,184,779943,1,0,0:0:0:0:
27,118,780097,1,8,0:2:0:0:
217,225,780251,1,0,0:0:0:0:
356,44,780405,2,0,L|79:130,1,269.999991760254,4|0,0:3|0:0,0:0:0:0:
109,328,781020,6,0,L|148:229,1,89.9999972534181
310,230,781328,2,0,L|349:131,1,89.9999972534181,8|0,0:2|0:0,0:0:0:0:
310,230,781635,2,0,L|277:313,1,89.9999972534181
174,161,781943,2,0,L|213:62,1,89.9999972534181,8|0,0:2|0:0,0:0:0:0:
388,32,782251,5,6,0:3:0:0:
342,146,782405,1,6,0:3:0:0:
109,328,782559,1,6,0:3:0:0:
174,161,782713,1,6,0:3:0:0:
276,313,782866,6,0,P|219:325|167:309,1,97.4999955368044,4|0,0:3|0:0,0:0:0:0:
40,232,783174,1,0,0:0:0:0:
326,208,783328,2,0,P|269:220|217:204,1,97.4999955368044
90,127,783636,1,0,3:0:0:0:
90,127,783712,1,0,3:0:0:0:
90,127,783789,2,0,P|145:143|195:126,1,97.4999955368044,8|0,0:2|0:0,0:0:0:0:
335,51,784097,5,0,0:0:0:0:
152,243,784251,2,0,P|207:259|257:242,1,97.4999955368044
397,167,784559,1,0,0:0:0:0:
275,350,784712,1,4,0:3:0:0:
238,154,784866,1,0,0:0:0:0:
43,344,785020,1,4,0:3:0:0:
6,148,785174,1,0,0:0:0:0:
117,39,785328,6,0,P|175:32|222:56,1,97.4999955368044
340,200,785635,1,8,0:2:0:0:
159,261,785789,1,0,0:0:0:0:
364,42,785943,2,0,P|402:76|409:134,1,97.4999955368044,8|0,0:2|0:0,0:0:0:0:
337,300,786251,1,0,0:0:0:0:
238,154,786405,1,0,0:0:0:0:
28,232,786559,6,0,P|75:254|139:231,1,97.4999955368044
201,63,786866,2,0,P|154:41|90:64,1,97.4999955368044
210,297,787174,2,0,L|310:226,1,97.4999955368044
388,76,787482,2,0,P|328:62|279:87,1,97.4999955368044,8|0,0:2|0:0,0:0:0:0:
424,249,787789,6,0,P|453:191|443:156,1,97.4999955368044
234,104,788097,2,0,P|267:161|320:168,1,97.4999955368044
453,31,788405,1,4,0:3:0:0:
237,1,788559,1,0,0:0:0:0:
133,221,788712,2,0,P|190:235|247:205,1,97.4999955368044
388,76,789020,5,0,0:0:0:0:
275,295,789174,1,4,0:3:0:0:
51,138,789328,2,0,L|171:128,1,97.4999955368044,8|0,0:2|0:0,0:0:0:0:
434,238,789635,1,8,0:2:0:0:
225,223,789789,1,0,0:0:0:0:
404,43,789943,1,8,0:2:0:0:
329,325,790097,1,8,0:2:0:0:
106,297,790251,6,0,P|68:244|77:198,1,97.4999955368044
122,49,790559,1,0,0:0:0:0:
238,248,790712,2,0,P|200:195|209:149,1,97.4999955368044
254,0,791020,1,0,0:0:0:0:
434,94,791174,2,0,P|382:153|354:155,1,97.4999955368044,8|0,0:2|0:0,0:0:0:0:
202,165,791482,6,0,P|149:171|111:214,1,97.4999955368044,4|0,0:3|0:0,0:0:0:0:
308,325,791789,1,0,0:2:0:0:
289,181,791943,1,0,0:0:0:0:
85,328,792097,1,8,0:2:0:0:
246,267,792251,1,0,0:0:0:0:
111,43,792405,2,0,P|85:117|108:171,1,97.4999955368044,0|0,0:2|0:0,0:0:0:0:
347,250,792712,6,0,P|373:176|350:122,1,97.4999955368044,8|0,0:2|0:0,0:0:0:0:
107,213,793020,1,0,0:2:0:0:
217,337,793174,1,0,0:0:0:0:
271,60,793328,1,8,0:2:0:0:
111,43,793482,1,0,0:0:0:0:
179,251,793635,2,0,P|250:260|286:237,1,97.4999955368044,0|0,0:2|0:0,0:0:0:0:
195,44,793943,6,0,P|178:104|203:154,1,97.4999955368044,8|0,0:2|0:0,0:0:0:0:
447,156,794251,1,0,0:0:0:0:
290,24,794405,1,0,0:0:0:0:
361,256,794559,2,0,P|321:268|268:247,1,97.4999955368044,8|0,0:2|0:0,0:0:0:0:
97,128,794866,2,0,P|137:116|190:137,1,97.4999955368044
332,342,795174,5,8,0:2:0:0:
395,136,795328,1,0,0:0:0:0:
179,235,795482,2,0,P|229:256|291:234,1,97.4999955368044
297,237,795712,1,0,3:0:0:0:
311,211,795788,1,0,3:0:0:0:
321,184,795865,1,0,3:0:0:0:
327,155,795942,1,0,3:0:0:0:
328,126,796019,1,0,3:0:0:0:
324,97,796096,1,0,3:0:0:0:
316,69,796173,1,0,3:0:0:0:
304,42,796251,1,0,3:0:0:0:
265,50,796327,1,0,3:0:0:0:
227,58,796404,5,0,3:0:0:0:
189,65,796481,1,0,3:0:0:0:
151,73,796558,1,0,3:0:0:0:
112,81,796635,1,0,3:0:0:0:
74,88,796712,1,0,3:0:0:0:
57,123,796788,1,0,3:0:0:0:
48,161,796865,1,0,3:0:0:0:
48,200,796942,1,0,3:0:0:0:
57,238,797019,1,0,3:0:0:0:
75,272,797096,1,0,3:0:0:0:
100,302,797173,1,0,3:0:0:0:
131,325,797250,1,0,3:0:0:0:
167,340,797328,1,0,3:0:0:0:
216,335,797404,1,0,3:0:0:0:
264,330,797481,1,0,3:0:0:0:
313,325,797558,1,0,3:0:0:0:
361,320,797635,5,0,3:0:0:0:
457,88,797789,1,0,0:0:0:0:
170,229,797943,2,0,P|233:248|298:209,1,127.50000243187
361,38,798251,2,0,P|298:19|233:58,1,127.50000243187
216,335,798559,1,0,0:0:0:0:
466,328,798712,2,0,P|493:265|473:202,1,127.50000243187
170,229,799020,1,0,0:0:0:0:
377,104,799174,2,0,P|424:149|388:203,1,127.50000243187
79,266,799482,5,0,0:0:0:0:
210,32,799635,1,0,0:0:0:0:
412,264,799789,2,0,P|351:288|292:264,1,127.50000243187
317,52,800097,2,0,P|378:28|437:52,1,127.50000243187
253,204,800405,1,0,0:0:0:0:
480,105,800559,2,0,P|493:168|472:244,1,127.50000243187
249,113,800866,1,0,0:0:0:0:
79,266,801020,2,0,P|85:324|162:307,1,127.50000243187
327,151,801328,5,0,0:0:0:0:
104,55,801482,1,0,0:0:0:0:
239,281,801635,2,0,P|305:293|363:258,1,127.50000243187
182,60,801943,2,0,P|170:126|205:184,1,127.50000243187
453,254,802251,1,0,0:0:0:0:
347,25,802405,1,0,0:0:0:0:
254,107,802559,1,0,0:0:0:0:
512,121,802712,1,0,0:0:0:0:
385,308,802866,2,0,P|317:329|302:272,1,127.50000243187
347,25,803174,5,0,0:0:0:0:
507,199,803328,1,0,0:0:0:0:
229,342,803482,2,0,P|162:300|154:245,1,127.50000243187
219,24,803789,2,0,P|275:50|295:109,1,127.50000243187
58,295,804097,1,0,0:0:0:0:
34,40,804251,2,0,P|100:23|162:58,1,127.50000243187
223,271,804559,1,0,0:0:0:0:
434,140,804712,2,0,P|402:72|349:84,1,127.50000243187
220,348,805019,5,0,0:0:0:0:
467,272,805173,1,0,0:0:0:0:
263,112,805327,2,0,P|195:107|147:159,1,127.50000243187
220,348,805635,2,0,P|288:353|336:301,1,127.50000243187
359,76,805942,1,0,0:0:0:0:
156,254,806096,1,0,0:0:0:0:
361,230,806250,1,0,0:0:0:0:
194,33,806404,1,0,0:0:0:0:
258,239,806558,2,0,P|203:278|155:253,1,127.50000243187
291,18,806865,5,0,0:0:0:0:
450,236,807019,1,0,0:0:0:0:
155,253,807173,2,0,P|126:197|152:112,1,127.50000243187
406,43,807481,2,0,P|435:99|409:184,1,127.50000243187
170,57,807788,1,0,0:0:0:0:
373,229,807942,2,0,P|304:251|245:231,1,127.50000243187
291,18,808250,1,0,0:0:0:0:
45,71,808404,2,0,P|45:138|116:129,1,127.50000243187
363,89,808711,5,0,0:0:0:0:
101,14,808865,1,0,0:0:0:0:
60,270,809019,2,0,P|74:315|145:352,1,127.50000243187
260,92,809327,2,0,P|215:106|178:177,1,127.50000243187
384,324,809635,1,0,0:0:0:0:
482,102,809788,2,0,P|416:76|354:94,1,127.50000243187
232,315,810096,1,0,0:0:0:0:
68,95,810250,2,0,P|116:47|173:92,1,127.50000243187
216,243,810558,5,0,0:0:0:0:
34,378,810711,1,0,0:0:0:0:
91,171,810865,2,0,P|159:152|213:180,1,127.50000243187
348,319,811173,2,0,P|280:338|226:310,1,127.50000243187
239,41,811481,1,0,0:0:0:0:
461,128,811635,2,0,P|454:214|422:251,1,127.50000243187
177,253,811942,1,0,0:0:0:0:
177,253,812096,2,0,P|248:263|264:201,1,127.50000243187
138,103,812404,5,0,0:0:0:0:
43,343,812558,1,0,0:0:0:0:
304,347,812711,2,0,P|326:283|309:228,1,127.50000243187
78,154,813019,2,0,P|56:218|73:273,1,127.50000243187
306,110,813327,1,0,0:0:0:0:
61,35,813481,2,0,P|50:86|86:162,1,127.50000243187
257,285,813788,1,0,0:0:0:0:
406,64,813942,2,0,P|460:115|419:155,1,127.50000243187
155,227,814250,5,0,0:0:0:0:
289,13,814404,1,0,0:0:0:0:
375,274,814558,2,0,P|301:299|241:273,1,127.50000243187
66,96,814865,2,0,P|140:71|200:97,1,127.50000243187
190,347,815173,1,0,0:0:0:0:
3,244,815327,2,0,P|36:180|112:176,1,127.50000243187
312,229,815635,1,0,0:0:0:0:
274,51,815788,2,0,P|198:47|184:90,1,127.50000243187
256,336,816096,5,0,0:0:0:0:
463,180,816250,1,0,0:0:0:0:
202,159,816404,2,0,P|231:228|295:240,1,127.50000243187
388,34,816711,2,0,P|319:63|307:127,1,127.50000243187
401,352,817019,1,0,0:0:0:0:
437,99,817173,1,0,0:0:0:0:
202,159,817327,1,0,0:0:0:0:
446,249,817481,1,0,0:0:0:0:
231,327,817635,2,0,P|159:320|166:260,1,127.50000243187
319,49,817942,5,0,0:0:0:0:
378,280,818096,1,0,0:0:0:0:
109,224,818250,2,0,P|89:154|112:86,1,127.50000243187
319,49,818558,2,0,P|339:119|316:187,1,127.50000243187
122,340,818865,1,0,0:0:0:0:
217,114,819019,2,0,P|236:187|213:240,1,127.50000243187
100,22,819327,1,0,0:0:0:0:
351,62,819481,2,0,P|290:31|276:74,1,127.50000243187
336,328,819788,5,0,0:0:0:0:
453,136,819942,1,0,0:0:0:0:
217,114,820096,2,0,P|156:129|127:189,1,127.50000243187
277,280,820404,2,0,P|262:219|202:190,1,127.50000243187
3,321,820711,2,0,P|81:355|207:254,1,255.000004863739
77,47,821173,1,0,0:0:0:0:
317,86,821327,2,0,P|341:138|282:184,1,127.50000243187
127,182,821635,6,0,P|131:117|196:76,1,127.50000243187
297,183,821942,2,0,P|362:187|403:252,1,127.50000243187
205,262,822250,2,0,P|201:327|136:368,1,127.50000243187
44,231,822558,1,0,0:0:0:0:
45,85,822711,2,0,P|99:38|166:43,1,127.50000243187
317,95,823019,1,0,0:0:0:0:
122,217,823173,2,0,P|169:277|218:235,1,127.50000243187
223,47,823481,5,0,0:0:0:0:
55,170,823635,1,0,0:0:0:0:
170,370,823788,2,0,P|214:299|188:241,1,127.50000243187
155,32,824096,2,0,P|111:103|137:161,1,127.50000243187
289,240,824404,1,0,0:0:0:0:
435,87,824558,2,0,P|370:71|311:99,1,127.50000243187
126,229,824865,1,0,0:0:0:0:
357,287,825019,2,0,P|334:353|267:325,1,127.50000243187
201,113,825327,5,0,0:0:0:0:
400,195,825481,1,0,0:0:0:0:
174,333,825635,2,0,P|124:278|138:205,1,127.50000243187
236,27,825942,2,0,P|286:82|272:155,1,127.50000243187
51,218,826250,1,0,0:0:0:0:
140,54,826404,1,0,0:0:0:0:
252,254,826558,1,0,0:0:0:0:
40,101,826711,1,0,0:0:0:0:
60,327,826865,2,0,P|127:354|186:317,1,127.50000243187
252,254,827173,6,0,P|246:213|223:189,1,63.7500012159348
322,209,827327,2,0,P|328:168|351:144,1,63.7500012159348
262,122,827481,2,0,P|256:81|233:57,1,63.7500012159348
339,66,827635,2,0,P|345:25|368:1,1,63.7500012159348
424,64,827788,2,0,P|418:105|395:129,1,63.7500012159348
435,199,827942,2,0,P|417:225|415:256,1,63.7500012159348
347,286,828096,6,0,P|341:327|318:351,1,63.7500012159348
265,291,828250,2,0,P|224:285|200:262,1,63.7500012159348
157,335,828404,2,0,P|130:317|99:315,1,63.7500012159348
89,236,828558,2,0,P|48:230|24:207,1,63.7500012159348
88,149,828711,1,0,0:0:0:0:
267,201,828865,1,0,0:0:0:0:
424,64,829019,6,0,P|397:46|366:44,1,63.7500012159348
318,109,829173,2,0,P|286:106|260:88,1,63.7500012159348
205,34,829327,2,0,P|178:53|166:81,1,63.7500012159348
211,149,829481,2,0,P|197:177|172:196,1,63.7500012159348
105,235,829635,2,0,P|114:266|136:287,1,63.7500012159348
215,268,829789,2,0,P|237:290|246:320,1,63.7500012159348
313,362,829942,6,0,P|321:331|344:309,1,63.7500012159348
407,353,830096,2,0,P|429:330|437:300,1,63.7500012159348
380,247,830250,2,0,P|388:216|411:194,1,63.7500012159348
474,238,830404,2,0,P|496:215|504:185,1,63.7500012159348
502,101,830558,1,0,0:0:0:0:
298,158,830711,1,0,0:0:0:0:
118,62,830865,6,0,P|127:93|149:114,1,63.7500012159348
225,127,831019,2,0,P|216:158|194:179,1,63.7500012159348
165,252,831173,2,0,P|174:283|196:304,1,63.7500012159348
269,267,831327,2,0,P|299:278|329:273,1,63.7500012159348
355,196,831481,2,0,P|382:178|396:151,1,63.7500012159348
338,94,831635,2,0,P|340:61|327:34,1,63.7500012159348
248,3,831788,6,0,P|245:35|258:62,1,63.7500012159348
260,139,831942,2,0,P|273:167|270:198,1,63.7500012159348
193,179,832096,2,0,P|190:211|203:238,1,63.7500012159348
254,295,832250,2,0,P|228:313|196:315,1,63.7500012159348
113,313,832404,1,0,0:0:0:0:
46,137,832558,1,0,0:0:0:0:
188,38,832711,5,0,0:0:0:0:
217,61,832787,1,0,0:0:0:0:
252,78,832864,1,0,0:0:0:0:
289,87,832941,1,0,0:0:0:0:
327,87,833018,1,0,0:0:0:0:
364,78,833095,1,0,0:0:0:0:
398,61,833173,1,0,0:0:0:0:
414,122,833249,1,0,0:0:0:0:
431,183,833326,1,0,0:0:0:0:
448,245,833404,1,0,0:0:0:0:
430,305,833480,1,0,0:0:0:0:
386,351,833557,1,0,0:0:0:0:
326,371,833634,5,0,0:0:0:0:
110,99,833788,1,0,0:0:0:0:
36,348,833942,1,0,0:0:0:0:
252,76,834096,1,0,0:0:0:0:
430,305,834250,1,0,0:0:0:0:
174,54,834404,1,0,0:0:0:0:
190,349,834558,6,0,B|264:346|285:289|238:223|238:223|273:210|285:175|285:175|339:222|445:227|456:143|456:143|425:107,1,487.499977684022
85,57,836404,6,0,P|132:147|234:147,1,194.999991073609
263,333,837327,6,0,P|353:286|353:184,1,194.999991073609
204,31,838250,6,0,B|257:109|219:164|139:149|139:149|107:175|107:175|182:246|4:250|91:349|91:349|143:325,1,487.499977684022
343,219,840096,6,0,P|378:136|318:50,1,194.999991073609
204,256,841019,6,0,P|121:221|35:281,1,194.999991073609
338,344,841942,6,0,B|384:312|384:312|396:264|396:264|402:214|360:183|300:201|300:201|256:129|304:83|367:79|367:79|303:26|303:26|251:29,1,552.499974708558
132,52,843788,6,0,B|166:112|114:172|53:153|53:153|5:217|63:255|63:255|129:238|160:276|159:336|159:336|205:348|205:348|268:305,1,552.499974708558
201,189,845635,6,0,B|235:244|330:269|369:175|369:175|284:144|289:64|367:41|367:41,1,389.999982147218
432,19,846968,2,0,P|466:72|457:152,1,129.999994049073
415,287,847481,6,0,B|378:355|302:369|254:319|254:319|251:347|251:347|214:322|214:322|169:357|117:351|98:314,1,389.999982147218
55,189,848865,1,0,0:0:0:0:
192,216,849019,1,0,0:0:0:0:
252,164,849122,1,0,0:0:0:0:
266,88,849224,1,0,0:0:0:0:
246,15,849327,6,0,B|202:8|202:8|139:24|112:99|168:149|168:149|110:166|98:262|176:288|176:288|192:318|213:333|248:329,1,487.499977684022
345,203,851173,6,0,P|325:128|205:93,1,194.999991073609
195,215,852096,2,0,P|120:235|85:355,1,194.999991073609
237,340,853019,6,0,B|279:289|340:290|400:338|400:338|454:305|460:250|403:197|403:197|455:172|455:172|470:150|477:114|458:84,1,487.499977684022
300,132,854865,6,0,P|219:126|195:21,1,194.999991073609
228,229,855788,2,0,P|222:310|117:334,1,194.999991073609
53,180,856711,6,0,B|140:171|140:171|87:117|117:88|79:33|79:33|158:50|158:50|185:87|233:90|279:64,1,438.74997991562
427,53,858327,1,0,0:0:0:0:
294,148,858558,6,0,B|251:134|212:156|202:203|202:203|233:250|232:283|185:308|185:308|266:333|266:333|291:292|291:292|318:306|359:313|393:262|393:262,1,487.499977684022
397,47,860404,5,0,0:0:0:0:
386,79,860480,1,0,0:0:0:0:
376,112,860557,1,0,0:0:0:0:
366,144,860634,1,0,0:0:0:0:
356,177,860711,1,0,0:0:0:0:
346,209,860788,1,0,0:0:0:0:
336,241,860865,5,0,0:0:0:0:
308,260,860941,1,0,0:0:0:0:
275,271,861018,1,0,0:0:0:0:
241,273,861095,1,0,0:0:0:0:
208,265,861172,1,0,0:0:0:0:
179,248,861249,1,0,0:0:0:0:
163,218,861327,5,0,0:0:0:0:
189,196,861403,1,0,0:0:0:0:
208,168,861480,1,0,0:0:0:0:
217,135,861557,1,0,0:0:0:0:
217,101,861634,1,0,0:0:0:0:
206,69,861711,1,0,0:0:0:0:
187,41,861788,5,0,0:0:0:0:
154,33,861864,1,0,0:0:0:0:
120,35,861941,1,0,0:0:0:0:
88,46,862018,1,0,0:0:0:0:
61,67,862095,1,0,0:0:0:0:
42,96,862172,1,0,0:0:0:0:
29,159,862250,5,0,0:0:0:0:
52,181,862326,1,0,0:0:0:0:
71,207,862403,1,0,0:0:0:0:
84,236,862480,1,0,0:0:0:0:
92,266,862557,1,0,0:0:0:0:
94,298,862634,1,0,0:0:0:0:
101,360,862711,5,0,0:0:0:0:
132,347,862787,1,0,0:0:0:0:
165,339,862864,1,0,0:0:0:0:
199,338,862941,1,0,0:0:0:0:
233,344,863018,1,0,0:0:0:0:
265,355,863095,1,0,0:0:0:0:
323,381,863173,5,0,0:0:0:0:
356,383,863249,1,0,0:0:0:0:
387,369,863326,1,0,0:0:0:0:
407,342,863403,1,0,0:0:0:0:
413,309,863480,1,0,0:0:0:0:
402,277,863557,1,0,0:0:0:0:
364,225,863635,5,0,0:0:0:0:
332,238,863711,1,0,0:0:0:0:
298,244,863788,1,0,0:0:0:0:
264,243,863865,1,0,0:0:0:0:
231,235,863942,1,0,0:0:0:0:
200,221,864019,1,0,0:0:0:0:
173,201,864096,5,0,0:0:0:0:
173,56,864326,1,0,0:0:0:0:
244,29,864442,1,0,0:0:0:0:
320,36,864557,1,0,0:0:0:0:
386,74,864672,1,0,0:0:0:0:
145,326,865019,6,0,P|81:274|75:186,1,157.499995193482
77,122,865481,1,0,0:0:0:0:
124,64,865596,1,0,0:0:0:0:
198,48,865711,1,0,0:0:0:0:
277,265,865942,5,0,0:0:0:0:
348,263,866057,1,0,0:0:0:0:
406,220,866172,1,0,0:0:0:0:
428,152,866288,2,0,L|418:86,1,52.4999983978272
407,30,866519,1,0,0:0:0:0:
306,45,866634,5,0,0:0:0:0:
306,45,866749,1,0,0:0:0:0:
232,27,866865,1,0,0:0:0:0:
159,43,866980,1,0,0:0:0:0:
100,91,867096,1,0,0:0:0:0:
70,160,867211,1,0,0:0:0:0:
74,236,867326,1,0,0:0:0:0:
256,192,867557,1,0,0:0:0:0:
258,261,867672,1,0,0:0:0:0:
226,325,867788,2,0,L|173:354,1,52.4999983978272
152,147,868249,6,0,P|242:79|348:125,1,209.999993591309
381,148,868826,1,0,0:0:0:0:
409,211,868942,1,0,0:0:0:0:
273,331,869172,1,0,0:0:0:0:
201,354,869287,1,0,0:0:0:0:
126,341,869402,1,0,0:0:0:0:
66,296,869519,2,0,L|41:244,1,52.4999983978272
16,186,869749,1,0,0:0:0:0:
29,86,869865,6,0,P|83:102|100:95,1,52.4999983978272
138,29,870095,1,0,0:0:0:0:
208,62,870210,1,0,0:0:0:0:
245,126,870325,1,0,0:0:0:0:
230,197,870441,1,0,0:0:0:0:
248,268,870557,2,0,P|277:311|348:313,1,104.999996795654
396,296,870903,1,0,0:0:0:0:
439,239,871018,1,0,0:0:0:0:
429,168,871134,2,0,L|413:84,1,52.4999983978272
230,197,871480,6,0,P|139:231|45:145,1,209.999993591309
33,104,872057,1,0,0:0:0:0:
36,35,872172,1,0,0:0:0:0:
271,40,872403,1,0,0:0:0:0:
306,103,872518,1,0,0:0:0:0:
314,176,872633,1,0,0:0:0:0:
294,246,872749,2,0,P|280:280|253:304,1,52.4999983978272
221,343,872980,1,0,0:0:0:0:
133,355,873096,5,0,0:0:0:0:
66,325,873211,1,0,0:0:0:0:
128,260,873326,1,0,0:0:0:0:
73,212,873441,1,0,0:0:0:0:
45,144,873556,1,0,0:0:0:0:
51,71,873672,1,0,0:0:0:0:
89,9,873787,1,0,0:0:0:0:
263,43,874019,1,0,0:0:0:0:
298,106,874134,1,0,0:0:0:0:
301,178,874249,2,0,L|290:241,1,52.4999983978272
66,325,874711,6,0,P|135:346|178:317,1,104.999996795654
216,284,875057,1,0,0:0:0:0:
221,211,875172,1,0,0:0:0:0:
66,239,875403,1,0,0:0:0:0:
66,166,875518,1,0,0:0:0:0:
96,99,875633,1,0,0:0:0:0:
150,49,875749,1,0,0:0:0:0:
219,25,875864,1,0,0:0:0:0:
292,30,875979,1,0,0:0:0:0:
356,64,876095,1,0,0:0:0:0:
152,165,876326,1,0,0:0:0:0:
384,214,876557,5,0,0:0:0:0:
358,276,876672,1,0,0:0:0:0:
305,331,876787,1,0,0:0:0:0:
234,359,876903,1,0,0:0:0:0:
158,358,877018,1,0,0:0:0:0:
88,327,877133,1,0,0:0:0:0:
36,272,877249,2,0,P|55:239|62:207,1,52.4999983978272
72,148,877480,1,0,0:0:0:0:
144,170,877595,1,0,0:0:0:0:
220,172,877710,1,0,0:0:0:0:
294,154,877826,1,0,0:0:0:0:
378,135,877942,5,0,0:0:0:0:
378,135,878057,1,0,0:0:0:0:
378,135,878173,1,0,0:0:0:0:
378,135,878288,1,0,0:0:0:0:
378,135,878404,1,0,0:0:0:0:
378,135,878519,1,0,0:0:0:0:
421,188,878634,1,0,0:0:0:0:
440,254,878749,1,0,0:0:0:0:
430,322,878865,6,0,P|390:342|326:336,1,104.999996795654
265,306,879211,1,0,0:0:0:0:
198,276,879326,1,0,0:0:0:0:
125,277,879441,1,0,0:0:0:0:
47,104,879788,2,0,P|142:161|236:131,1,209.999993591309
292,96,880365,1,0,0:0:0:0:
363,90,880480,1,0,0:0:0:0:
260,248,880711,5,0,0:0:0:0:
288,314,880826,1,0,0:0:0:0:
352,346,880941,1,0,0:0:0:0:
422,330,881057,2,0,L|456:271,1,52.4999983978272
482,221,881288,1,0,0:0:0:0:
442,129,881403,6,0,P|416:145|377:146,1,52.4999983978272
310,81,881634,1,0,0:0:0:0:
282,150,881749,1,0,0:0:0:0:
221,194,881864,1,0,0:0:0:0:
146,198,881980,1,0,0:0:0:0:
81,160,882095,1,0,0:0:0:0:
64,328,882326,1,0,0:0:0:0:
129,300,882442,1,0,0:0:0:0:
199,306,882557,2,0,L|252:329,1,52.4999983978272
445,267,883019,6,0,P|473:195|404:57,1,209.999993591309
371,30,883596,1,0,0:0:0:0:
300,14,883711,1,0,0:0:0:0:
336,205,883942,1,0,0:0:0:0:
274,238,884057,1,0,0:0:0:0:
204,246,884172,1,0,0:0:0:0:
136,228,884288,2,0,L|66:186,1,52.4999983978272
52,143,884519,1,0,0:0:0:0:
103,50,884634,5,0,0:0:0:0:
103,50,884749,1,0,0:0:0:0:
168,92,884865,1,0,0:0:0:0:
235,126,884980,1,0,0:0:0:0:
310,131,885095,1,0,0:0:0:0:
382,107,885211,1,0,0:0:0:0:
438,57,885326,1,0,0:0:0:0:
482,228,885557,1,0,0:0:0:0:
465,297,885672,1,0,0:0:0:0:
408,341,885788,2,0,L|338:365,1,52.4999983978272
154,153,886249,6,0,P|167:241|310:279,1,209.999993591309
337,275,886826,1,0,0:0:0:0:
382,221,886942,1,0,0:0:0:0:
231,38,887172,1,0,0:0:0:0:
181,88,887287,1,0,0:0:0:0:
154,153,887402,1,0,0:0:0:0:
153,223,887519,2,0,L|179:302,1,52.4999983978272
193,338,887749,1,0,0:0:0:0:
293,325,887865,5,0,0:0:0:0:
297,252,887980,1,0,0:0:0:0:
387,291,888096,1,0,0:0:0:0:
438,232,888211,1,0,0:0:0:0:
449,155,888326,1,0,0:0:0:0:
417,85,888442,1,0,0:0:0:0:
352,43,888557,1,0,0:0:0:0:
218,152,888788,1,0,0:0:0:0:
149,171,888903,1,0,0:0:0:0:
77,163,889019,2,0,L|23:136,1,52.4999983978272
218,152,889480,6,0,P|236:212|220:273,1,104.999996795654
183,308,889826,1,0,0:0:0:0:
115,331,889942,2,0,P|56:313|23:250,1,104.999996795654
20,207,890288,1,0,0:0:0:0:
31,134,890403,1,0,0:0:0:0:
72,74,890518,1,0,0:0:0:0:
135,38,890634,1,0,0:0:0:0:
208,32,890749,1,0,0:0:0:0:
276,58,890864,1,0,0:0:0:0:
348,220,891096,1,0,0:0:0:0:
148,170,891326,5,0,0:0:0:0:
151,247,891441,1,0,0:0:0:0:
192,314,891556,1,0,0:0:0:0:
259,353,891672,1,0,0:0:0:0:
337,356,891787,1,0,0:0:0:0:
407,322,891902,1,0,0:0:0:0:
452,258,892019,2,0,P|440:224|442:193,1,52.4999983978272
453,127,892249,1,0,0:0:0:0:
377,139,892364,1,0,0:0:0:0:
301,137,892479,1,0,0:0:0:0:
227,121,892595,1,0,0:0:0:0:
175,110,892711,5,0,0:0:0:0:
175,110,892827,1,0,0:0:0:0:
175,110,892942,1,0,0:0:0:0:
175,110,893058,1,0,0:0:0:0:
175,110,893173,1,0,0:0:0:0:
175,110,893288,1,0,0:0:0:0:
36,275,893634,5,0,0:0:0:0:
107,307,893749,1,0,0:0:0:0:
185,313,893864,1,0,0:0:0:0:
260,291,893980,1,0,0:0:0:0:
324,245,894095,1,0,0:0:0:0:
367,180,894211,2,0,P|376:126|366:77,1,104.999996795654
275,37,894557,5,0,0:0:0:0:
242,107,894672,1,0,0:0:0:0:
177,149,894787,1,0,0:0:0:0:
99,149,894903,1,0,0:0:0:0:
36,110,895019,1,0,0:0:0:0:
99,66,895134,1,0,0:0:0:0:
177,65,895249,1,0,0:0:0:0:
242,107,895365,1,0,0:0:0:0:
272,179,895480,5,0,0:0:0:0:
257,255,895595,1,0,0:0:0:0:
211,318,895711,1,0,0:0:0:0:
139,348,895826,2,0,P|69:336|44:277,1,104.999996795654
22,245,896172,1,0,0:0:0:0:
17,176,896287,1,0,0:0:0:0:
36,110,896403,6,0,L|81:52,1,52.4999983978272
153,39,896634,1,0,0:0:0:0:
227,64,896749,1,0,0:0:0:0:
305,71,896864,1,0,0:0:0:0:
382,58,896980,1,0,0:0:0:0:
454,86,897095,1,0,0:0:0:0:
494,152,897210,1,0,0:0:0:0:
413,162,897326,5,0,0:0:0:0:
430,261,897442,2,0,P|348:254|281:284,1,157.499995193482
215,330,897903,1,0,0:0:0:0:
144,348,898018,1,0,0:0:0:0:
75,326,898133,1,0,0:0:0:0:
28,271,898249,5,0,0:0:0:0:
14,200,898364,1,0,0:0:0:0:
42,133,898479,1,0,0:0:0:0:
103,94,898595,1,0,0:0:0:0:
175,97,898711,1,0,0:0:0:0:
228,146,898826,1,0,0:0:0:0:
223,216,898941,1,0,0:0:0:0:
164,257,899057,1,0,0:0:0:0:
96,237,899172,6,0,P|122:173|154:162,1,104.999996795654
228,146,899519,1,0,0:0:0:0:
300,150,899634,1,0,0:0:0:0:
365,184,899749,1,0,0:0:0:0:
393,250,899864,1,0,0:0:0:0:
369,317,899979,1,0,0:0:0:0:
284,351,900095,5,0,0:0:0:0:
214,334,900212,1,0,0:0:0:0:
146,309,900327,1,0,0:0:0:0:
72,307,900442,1,0,0:0:0:0:
2,328,900558,1,0,0:0:0:0:
17,257,900672,2,0,P|44:197|46:143,1,104.999996795654
35,79,901019,5,0,0:0:0:0:
101,38,901134,1,0,0:0:0:0:
178,22,901249,1,0,0:0:0:0:
256,33,901365,1,0,0:0:0:0:
325,70,901480,1,0,0:0:0:0:
377,129,901595,1,0,0:0:0:0:
406,202,901711,1,0,0:0:0:0:
413,280,901826,1,0,0:0:0:0:
383,354,901942,5,0,0:0:0:0:
308,333,902057,1,0,0:0:0:0:
230,335,902172,1,0,0:0:0:0:
152,350,902288,2,0,P|123:308|141:254,1,104.999996795654
178,198,902634,1,0,0:0:0:0:
207,127,902749,1,0,0:0:0:0:
180,55,902864,5,0,0:0:0:0:
110,23,902980,1,0,0:0:0:0:
38,47,903095,1,0,0:0:0:0:
3,116,903210,1,0,0:0:0:0:
25,189,903326,1,0,0:0:0:0:
81,235,903441,1,0,0:0:0:0:
150,260,903556,1,0,0:0:0:0:
223,259,903672,1,0,0:0:0:0:
291,233,903787,5,0,0:0:0:0:
358,162,903903,2,0,P|327:109|332:47,1,104.999996795654
269,15,904249,1,0,0:0:0:0:
234,78,904364,1,0,0:0:0:0:
170,113,904479,1,0,0:0:0:0:
98,109,904595,1,0,0:0:0:0:
39,67,904711,5,0,0:0:0:0:
46,140,904826,1,0,0:0:0:0:
53,213,904941,1,0,0:0:0:0:
61,286,905057,1,0,0:0:0:0:
68,359,905172,1,0,0:0:0:0:
135,349,905287,1,0,0:0:0:0:
203,338,905402,1,0,0:0:0:0:
270,327,905518,1,0,0:0:0:0:
359,291,905634,6,0,P|315:263|317:211,1,104.999996795654
331,143,905980,1,0,0:0:0:0:
289,77,906095,1,0,0:0:0:0:
219,42,906210,1,0,0:0:0:0:
142,48,906326,1,0,0:0:0:0:
78,93,906441,1,0,0:0:0:0:
47,165,906557,5,0,0:0:0:0:
62,240,906672,1,0,0:0:0:0:
125,284,906787,1,0,0:0:0:0:
201,274,906903,1,0,0:0:0:0:
250,214,907018,1,0,0:0:0:0:
245,137,907134,2,0,P|179:119|143:157,1,104.999996795654
118,207,907480,5,0,0:0:0:0:
125,284,907595,1,0,0:0:0:0:
173,345,907710,1,0,0:0:0:0:
247,370,907826,1,0,0:0:0:0:
322,351,907941,1,0,0:0:0:0:
375,294,908057,2,0,P|399:238|388:181,1,104.999996795654
375,102,908403,5,0,0:0:0:0:
304,122,908518,1,0,0:0:0:0:
249,170,908633,1,0,0:0:0:0:
219,238,908749,1,0,0:0:0:0:
151,264,908864,1,0,0:0:0:0:
47,256,908980,2,0,P|69:209|54:137,1,104.999996795654
52,83,909325,5,0,0:0:0:0:
121,52,909441,1,0,0:0:0:0:
195,69,909557,1,0,0:0:0:0:
261,104,909672,1,0,0:0:0:0:
337,109,909788,1,0,0:0:0:0:
278,152,909903,1,0,0:0:0:0:
253,220,910018,1,0,0:0:0:0:
272,290,910134,1,0,0:0:0:0:
326,338,910249,5,0,0:0:0:0:
394,313,910364,1,0,0:0:0:0:
430,249,910479,1,0,0:0:0:0:
371,173,910596,2,0,P|320:180|278:152,1,104.999996795654
232,87,910942,1,0,0:0:0:0:
167,43,911057,1,0,0:0:0:0:
90,44,911172,5,0,0:0:0:0:
26,88,911288,1,0,0:0:0:0:
0,161,911403,1,0,0:0:0:0:
16,236,911518,1,0,0:0:0:0:
74,288,911634,1,0,0:0:0:0:
142,323,911749,1,0,0:0:0:0:
213,296,911864,1,0,0:0:0:0:
239,224,911980,1,0,0:0:0:0:
204,157,912095,5,0,0:0:0:0:
115,107,912211,2,0,P|83:155|110:215,1,104.999996795654
144,255,912557,1,0,0:0:0:0:
213,296,912672,1,0,0:0:0:0:
282,317,912787,1,0,0:0:0:0:
352,300,912902,1,0,0:0:0:0:
403,248,913018,5,0,0:0:0:0:
419,177,913133,1,0,0:0:0:0:
396,108,913248,1,0,0:0:0:0:
340,62,913364,1,0,0:0:0:0:
269,46,913480,1,0,0:0:0:0:
197,58,913595,1,0,0:0:0:0:
142,105,913710,1,0,0:0:0:0:
119,174,913826,6,0,P|166:233|219:232,1,104.999996795654
271,227,914172,1,0,0:0:0:0:
342,199,914287,1,0,0:0:0:0:
409,234,914402,1,0,0:0:0:0:
427,309,914519,1,0,0:0:0:0:
374,357,914634,1,0,0:0:0:0:
302,358,914749,1,0,0:0:0:0:
243,307,914865,5,0,0:0:0:0:
222,231,914980,1,0,0:0:0:0:
171,173,915095,1,0,0:0:0:0:
98,143,915211,1,0,0:0:0:0:
21,150,915326,1,0,0:0:0:0:
80,231,915442,2,0,P|91:288|69:340,1,104.999996795654
172,309,915788,5,0,0:0:0:0:
235,273,915903,1,0,0:0:0:0:
308,264,916018,1,0,0:0:0:0:
378,282,916134,1,0,0:0:0:0:
437,326,916249,1,0,0:0:0:0:
472,261,916364,1,0,0:0:0:0:
487,190,916479,1,0,0:0:0:0:
480,117,916595,1,0,0:0:0:0:
452,49,916711,5,0,0:0:0:0:
374,59,916826,1,0,0:0:0:0:
302,29,916941,1,0,0:0:0:0:
241,117,917057,2,0,P|178:103|120:128,1,104.999996795654
78,163,917403,1,0,0:0:0:0:
43,232,917518,1,0,0:0:0:0:
59,307,917633,5,0,0:0:0:0:
118,357,917749,1,0,0:0:0:0:
195,359,917864,1,0,0:0:0:0:
257,312,917980,1,0,0:0:0:0:
301,249,918095,1,0,0:0:0:0:
376,233,918210,1,0,0:0:0:0:
442,273,918326,1,0,0:0:0:0:
462,347,918441,1,0,0:0:0:0:
360,330,918557,5,0,0:0:0:0:
257,312,918672,2,0,P|272:252|235:192,1,104.999996795654
225,140,919019,1,0,0:0:0:0:
179,77,919134,1,0,0:0:0:0:
104,64,919249,1,0,0:0:0:0:
40,107,919365,1,0,0:0:0:0:
23,182,919480,5,0,0:0:0:0:
84,239,919595,1,0,0:0:0:0:
160,274,919710,1,0,0:0:0:0:
243,283,919826,1,0,0:0:0:0:
325,266,919942,1,0,0:0:0:0:
393,219,920057,1,0,0:0:0:0:
416,140,920172,1,0,0:0:0:0:
382,65,920288,1,0,0:0:0:0:
309,28,920403,5,0,0:0:0:0:
243,283,920634,1,0,0:0:0:0:
181,337,920749,1,0,0:0:0:0:
98,341,920864,1,0,0:0:0:0:
31,293,920980,1,0,0:0:0:0:
9,213,921095,1,0,0:0:0:0:
40,137,921210,1,0,0:0:0:0:
112,97,921326,5,0,0:0:0:0:
138,175,921441,1,0,0:0:0:0:
201,228,921556,1,0,0:0:0:0:
284,240,921672,1,0,0:0:0:0:
359,206,921787,1,0,0:0:0:0:
405,137,921903,2,0,P|402:72|363:30,1,104.999996795654
297,10,922249,5,0,0:0:0:0:
297,10,922307,1,0,0:0:0:0:
297,10,922365,1,0,0:0:0:0:
277,88,922480,1,0,0:0:0:0:
197,123,922595,1,0,0:0:0:0:
111,118,922710,1,0,0:0:0:0:
36,74,922826,2,0,P|32:155|2:200,1,104.999996795654
44,275,923172,5,0,0:0:0:0:
261,315,923403,1,0,0:0:0:0:
204,260,923519,1,0,0:0:0:0:
314,212,923634,1,0,0:0:0:0:
257,157,923750,1,0,0:0:0:0:
257,157,924096,6,0,P|140:87|22:177,1,300
16,279,924672,1,0,0:0:0:0:
110,232,924788,1,0,0:0:0:0:
329,58,925019,5,0,0:0:0:0:
372,128,925134,1,0,0:0:0:0:
257,157,925249,1,0,0:0:0:0:
300,227,925364,1,0,0:0:0:0:
185,334,925596,5,0,0:0:0:0:
110,232,925711,1,0,0:0:0:0:
198,232,925827,1,0,0:0:0:0:
123,130,925942,1,0,0:0:0:0:
56,173,926057,1,0,0:0:0:0:
37,36,926172,2,0,L|121:51,1,75
217,69,926403,1,0,0:0:0:0:
195,343,926634,5,0,0:0:0:0:
274,327,926749,1,0,0:0:0:0:
198,232,926865,1,0,0:0:0:0:
277,216,926980,1,0,0:0:0:0:
277,216,927326,6,0,P|209:121|58:177,1,300
48,282,927903,1,0,0:0:0:0:
144,239,928019,1,0,0:0:0:0:
271,361,928249,5,0,0:0:0:0:
215,302,928365,1,0,0:0:0:0:
333,275,928480,1,0,0:0:0:0:
277,216,928596,1,0,0:0:0:0:
144,239,928826,5,0,0:0:0:0:
46,171,928942,1,0,0:0:0:0:
127,140,929057,1,0,0:0:0:0:
29,72,929173,1,0,0:0:0:0:
111,44,929288,1,0,0:0:0:0:
234,57,929403,2,0,L|223:142,1,75
212,229,929634,1,0,0:0:0:0:
426,109,929865,5,0,0:0:0:0:
475,175,929980,1,0,0:0:0:0:
358,196,930096,1,0,0:0:0:0:
407,262,930211,1,0,0:0:0:0:
407,262,930557,6,0,P|304:332|120:308,1,300
76,228,931134,1,0,0:0:0:0:
182,221,931249,1,0,0:0:0:0:
358,196,931480,5,0,0:0:0:0:
286,158,931596,1,0,0:0:0:0:
328,41,931711,1,0,0:0:0:0:
256,3,931827,1,0,0:0:0:0:
58,111,932057,5,0,0:0:0:0:
76,228,932172,1,0,0:0:0:0:
142,175,932288,1,0,0:0:0:0:
160,292,932403,1,0,0:0:0:0:
237,318,932519,1,0,0:0:0:0:
356,270,932634,2,0,L|358:171,1,75
360,90,932865,1,0,0:0:0:0:
142,175,933096,5,0,0:0:0:0:
220,203,933211,1,0,0:0:0:0:
237,318,933326,1,0,0:0:0:0:
315,346,933441,1,0,0:0:0:0:
315,346,933788,6,0,P|381:280|364:81,1,300
261,49,934365,1,0,0:0:0:0:
203,115,934480,1,0,0:0:0:0:
116,126,934595,1,0,0:0:0:0:
45,75,934711,1,0,0:0:0:0:
90,160,934826,1,0,0:0:0:0:
83,256,934941,1,0,0:0:0:0:
35,342,935057,1,0,0:0:0:0:
35,342,935172,1,0,0:0:0:0:
35,342,935288,1,0,0:0:0:0:
200,327,935403,5,0,0:0:0:0:
312,214,935519,1,0,0:0:0:0:
148,211,935634,1,0,0:0:0:0:
260,98,935750,1,0,0:0:0:0:
