osu file format v14

[General]
AudioFilename: audio.mp3
AudioLeadIn: 0
PreviewTime: 96737
Countdown: 1
SampleSet: Soft
StackLeniency: 0.2
Mode: 0
LetterboxInBreaks: 0
WidescreenStoryboard: 0

[Editor]
Bookmarks: 280008,325008,482508
DistanceSpacing: 0.4
BeatDivisor: 4
GridSize: 4
TimelineZoom: 1.5

[Metadata]
Title:Pareidolia
TitleUnicode:Pareidolia
Artist:Haken
ArtistUnicode:Haken
Creator:transcendental
Version:Imaginary
Source:
Tags:
BeatmapID:926701
BeatmapSetID:429499

[Difficulty]
HPDrainRate:5
CircleSize:4.2
OverallDifficulty:7
ApproachRate:9
SliderMultiplier:1.2
SliderTickRate:2

[Events]
//Background and Video events
0,0,"moon girl.jpg",0,0
//Break Periods
2,37866,43317
//Storyboard Layer 0 (Background)
//Storyboard Layer 1 (Fail)
//Storyboard Layer 2 (Pass)
//Storyboard Layer 3 (Foreground)
//Storyboard Sound Samples

[TimingPoints]
167.32705694295,312.5,5,2,0,60,1,0
12667,-200,5,2,0,60,0,0
25167,-83.3333333333333,5,2,0,80,0,0
43917,-100,5,2,0,60,0,0
68917,-90.9090909090909,5,2,0,60,0,0
75167,-83.3333333333333,5,2,0,60,0,0
81417,-76.9230769230769,5,2,0,60,0,0
87667,-71.4285714285714,5,2,0,60,0,0
97042,-55.5555555555556,5,2,0,60,0,1
122042,-55.5555555555556,5,2,0,60,0,0
125011,312.5,5,2,0,60,1,0
125011,-55.5555555555556,5,2,0,60,0,0
127979,312.5,5,2,0,60,1,0
130947,312.5,5,2,0,60,1,0
133915,312.5,5,2,0,60,1,0
133915,-55.5555555555556,5,2,0,60,0,0
187040,-100,5,2,0,60,0,1
212040,-100,5,2,0,60,0,0
215008,312.5,5,2,0,60,1,0
217976,312.5,5,2,0,60,1,0
220944,312.5,5,2,0,60,1,0
223912,312.5,7,2,0,60,1,0
225943,312.5,7,2,0,60,1,0
230161,312.5,7,2,0,60,1,0
234379,312.5,7,2,0,60,1,0
238597,312.5,7,2,0,60,1,0
242815,312.5,7,2,0,60,1,0
247033,312.5,7,2,0,60,1,0
251251,312.5,7,2,0,60,1,0
255469,312.5,7,2,0,60,1,0
257500,312.5,9,2,0,60,1,0
482500,312.5,5,2,0,60,1,0
538750,-100,5,2,0,60,0,1
588750,-100,5,2,0,60,0,0

[Colours]
Combo1 : 245,158,245
Combo2 : 149,163,255
Combo3 : 85,106,255
Combo4 : 21,51,255
Combo5 : 236,40,236
Combo6 : 241,99,241

[HitObjects]
95,140,167,6,0,P|159:148|201:108,1,120
288,220,636,2,0,P|234:241|181:217,1,120
76,67,1104,2,0,P|106:65|134:77,1,60
198,113,1339,1,0,0:0:0:0:
209,114,1417,2,0,L|241:177,1,60
128,324,1729,6,0,L|181:216,1,120
95,140,2198,2,0,P|52:196|66:249,1,120
254,222,2667,2,0,P|250:192|235:167,1,60
181,216,2901,1,0,0:0:0:0:
177,227,2979,2,0,L|121:205,1,60
94,68,3292,6,0,P|147:89|166:145,1,120
60,240,3761,2,0,P|55:182|95:140,1,120
235,167,4229,2,0,L|311:148,1,60
316,84,4464,1,0,0:0:0:0:
320,72,4542,2,0,L|396:53,1,60
468,171,4854,6,0,P|395:175|358:122,1,120
244,97,5323,2,0,P|221:134|252:213,1,120
429,110,5792,2,0,P|457:99|487:102,1,60
468,171,6026,1,0,0:0:0:0:
466,182,6104,2,0,P|484:225|480:252,1,60
329,294,6417,6,0,P|355:242|411:228,1,120
494,361,6886,2,0,B|438:345|438:345|400:296,1,120
300,195,7354,2,0,L|240:203,1,60
177,243,7589,1,0,0:0:0:0:
165,238,7667,2,0,P|116:228|97:236,1,60
172,362,7979,6,0,B|254:274,1,120
128,301,8448,2,0,P|74:296|37:233,1,120
30,123,8917,2,0,L|74:184,1,60
107,230,9151,1,0,0:0:0:0:
117,224,9229,2,0,P|158:227|182:210,1,60
214,82,9542,6,0,P|159:101|138:155,1,120
235,257,10011,2,0,P|244:199|196:148,1,120
30,123,10479,2,0,L|86:73,1,60
145,68,10714,1,0,0:0:0:0:
156,73,10792,2,0,P|194:84|224:78,1,60
416,22,11104,6,0,P|448:70|435:127,1,120
266,125,11573,2,0,B|288:106|319:104|319:104|352:102|375:82,1,120
262,25,12042,2,0,P|228:10|183:18,1,60
213,82,12276,1,0,0:0:0:0:
216,93,12354,2,0,L|281:135,1,60
424,21,12667,6,0,B|399:13|374:17|346:33|332:58|330:84|334:111|334:111|338:131|336:154|324:177|306:193|279:200|257:197|245:193|245:193|253:218|248:241|228:257|205:261|205:261|184:265|164:275|151:295|148:320|156:340|174:360|197:369|219:366|240:353|253:335|256:319|256:319|271:333|290:343|312:347|339:342|361:325|370:302|372:280|371:258|371:258|369:234|371:214|382:192|404:172|443:171|443:171|405:91|405:91|421:95|444:95|463:87|478:73|485:55,1,1080
266,125,18604,5,0,0:0:0:0:
245,120,18682,1,0,0:0:0:0:
224,122,18760,1,0,0:0:0:0:
205,130,18838,1,0,0:0:0:0:
189,144,18916,1,0,0:0:0:0:
47,206,19386,6,0,B|65:189|89:180|112:182|133:191|150:203|150:203|167:214|186:217|207:216|227:207|242:189|242:189|261:196|285:195|306:183|319:169|319:169|342:180|366:180|393:169|408:146|408:146|421:124|451:104|481:106|507:117|507:117|491:103|479:75|480:37|480:37|451:38|419:45|394:60|394:60|375:75|352:83|326:80|303:66|292:44|292:44|277:56|255:65|232:63|213:54|213:54|195:43|177:41|159:50|147:64|143:85|150:101|165:115|165:115|184:122|191:137|189:152,1,1050
234,342,25167,6,0,B|165:327|165:327|112:276,1,143.999995605469
149,78,25636,2,0,P|219:73|266:125,1,143.999995605469
383,359,26026,1,0,0:0:0:0:
371,367,26104,2,0,L|288:349,1,71.9999978027344
65,331,26339,1,0,0:0:0:0:
77,339,26417,2,0,P|112:348|161:326,1,71.9999978027344
189,143,26729,6,0,P|214:68|291:53,1,143.999995605469
381,211,27198,2,0,L|252:114,1,143.999995605469
101,265,27589,1,0,0:0:0:0:
111,275,27667,2,0,L|183:266,1,71.9999978027344
270,48,27901,1,0,0:0:0:0:
276,34,27979,2,0,B|312:26|312:26|362:33,1,71.9999978027344
452,240,28292,6,0,P|416:280|321:263,1,143.999995605469
270,48,28761,2,0,B|228:62|228:62|168:164,1,143.999995605469
380,211,29151,1,0,0:0:0:0:
386,198,29229,2,0,L|302:199,1,71.9999978027344
60,236,29464,1,0,0:0:0:0:
54,250,29542,2,0,L|137:248,1,71.9999978027344
249,102,29854,6,0,P|192:68|120:107,1,143.999995605469
257,245,30323,2,0,B|275:268|297:273|319:273|319:273|338:272|364:281|390:311,1,143.999995605469
99,317,30714,1,0,0:0:0:0:
85,310,30792,2,0,P|59:285|53:250,1,71.9999978027344
317,127,31026,1,0,0:0:0:0:
331,128,31104,2,0,L|310:206,1,71.9999978027344
156,368,31417,6,0,L|196:198,1,143.999995605469
443,200,31886,2,0,P|442:269|382:303,1,143.999995605469
129,209,32276,1,0,0:0:0:0:
124,195,32354,2,0,L|196:230,1,71.9999978027344
363,241,32589,1,0,0:0:0:0:
376,235,32667,2,0,L|301:202,1,71.9999978027344
108,118,32979,6,0,P|64:143|51:232,1,143.999995605469
246,358,33448,2,0,B|299:346|299:346|325:323|325:323|378:312,1,143.999995605469
354,151,33839,1,0,0:0:0:0:
343,141,33917,2,0,P|307:131|272:140,1,71.9999978027344
50,229,34151,1,0,0:0:0:0:
43,242,34229,2,0,L|83:308,1,71.9999978027344
246,358,34542,6,0,L|271:201,1,143.999995605469
71,60,35011,2,0,B|73:109|73:109|155:173,1,143.999995605469
337,189,35401,1,0,0:0:0:0:
331,175,35479,2,0,P|307:147|273:138,1,71.9999978027344
81,303,35792,1,0,0:0:0:0:
325,353,35948,1,0,0:0:0:0:
205,110,36104,5,0,0:0:0:0:
227,82,36182,1,0,0:0:0:0:
260,67,36260,1,0,0:0:0:0:
295,69,36338,1,0,0:0:0:0:
326,87,36416,1,0,0:0:0:0:
344,117,36494,1,0,0:0:0:0:
337,189,36573,5,0,0:0:0:0:
370,200,36651,1,0,0:0:0:0:
406,200,36729,1,0,0:0:0:0:
442,201,36807,1,0,0:0:0:0:
474,217,36885,1,0,0:0:0:0:
493,247,36963,1,0,0:0:0:0:
424,271,37042,5,0,0:0:0:0:
408,290,37120,1,0,0:0:0:0:
399,313,37198,1,0,0:0:0:0:
398,338,37276,1,0,0:0:0:0:
472,328,37354,5,0,0:0:0:0:
399,313,37432,1,0,0:0:0:0:
327,311,37510,1,0,0:0:0:0:
255,319,37588,1,0,0:0:0:0:
187,337,37666,1,0,0:0:0:0:
193,59,43917,5,0,0:0:0:0:
111,36,44073,1,0,0:0:0:0:
91,58,44151,1,0,0:0:0:0:
71,81,44229,1,0,0:0:0:0:
53,105,44307,1,0,0:0:0:0:
45,134,44385,1,0,0:0:0:0:
107,291,44542,1,0,0:0:0:0:
121,140,44698,1,0,0:0:0:0:
25,225,44854,2,0,L|93:209,1,60
180,327,45167,2,0,P|209:315|246:319,1,60
415,304,45479,5,0,0:0:0:0:
445,368,45636,1,0,0:0:0:0:
373,363,45792,1,0,0:0:0:0:
206,170,45948,1,0,0:0:0:0:
174,233,46105,1,0,0:0:0:0:
246,226,46261,1,0,0:0:0:0:
297,101,46417,2,0,L|238:107,1,60
237,316,46729,2,0,P|274:313|308:290,1,60
437,126,47042,5,0,0:0:0:0:
433,155,47120,1,0,0:0:0:0:
429,185,47198,1,0,0:0:0:0:
426,215,47276,1,0,0:0:0:0:
422,245,47354,1,0,0:0:0:0:
418,274,47432,1,0,0:0:0:0:
415,304,47510,1,0,0:0:0:0:
246,226,47667,1,0,0:0:0:0:
356,157,47823,1,0,0:0:0:0:
336,345,47979,2,0,L|283:291,1,60
217,150,48292,2,0,P|246:144|275:150,1,60
469,256,48604,5,0,0:0:0:0:
483,326,48761,1,0,0:0:0:0:
415,304,48917,1,0,0:0:0:0:
223,295,49073,1,0,0:0:0:0:
250,359,49230,1,0,0:0:0:0:
293,302,49386,1,0,0:0:0:0:
415,148,49542,2,0,L|340:159,1,60
156,193,49854,2,0,P|188:219|225:217,1,60
315,38,50167,5,0,0:0:0:0:
285,35,50245,1,0,0:0:0:0:
257,37,50323,1,0,0:0:0:0:
247,65,50401,1,0,0:0:0:0:
237,94,50479,1,0,0:0:0:0:
227,122,50557,1,0,0:0:0:0:
217,150,50635,1,0,0:0:0:0:
305,107,50792,1,0,0:0:0:0:
148,120,50948,1,0,0:0:0:0:
265,270,51104,2,0,P|278:242|280:213,1,60
295,35,51417,2,0,P|267:43|247:65,1,60
135,209,51729,5,0,0:0:0:0:
159,276,51886,1,0,0:0:0:0:
205,221,52042,1,0,0:0:0:0:
25,94,52198,1,0,0:0:0:0:
9,162,52355,1,0,0:0:0:0:
77,140,52511,1,0,0:0:0:0:
145,43,52667,2,0,L|76:81,1,60
61,208,52979,2,0,L|12:267,1,60
131,346,53292,5,0,0:0:0:0:
160,350,53370,1,0,0:0:0:0:
189,344,53448,1,0,0:0:0:0:
213,326,53526,1,0,0:0:0:0:
233,304,53604,1,0,0:0:0:0:
254,282,53682,1,0,0:0:0:0:
274,260,53760,1,0,0:0:0:0:
159,276,53917,1,0,0:0:0:0:
296,349,54073,1,0,0:0:0:0:
270,178,54229,2,0,P|228:190|209:218,1,60
131,346,54542,2,0,P|169:355|189:347,1,60
332,217,54854,5,0,0:0:0:0:
274,260,55011,1,0,0:0:0:0:
337,288,55167,1,0,0:0:0:0:
180,143,55323,1,0,0:0:0:0:
149,208,55480,1,0,0:0:0:0:
217,201,55636,1,0,0:0:0:0:
403,181,55792,2,0,P|412:225|404:249,1,60
266,319,56104,2,0,L|275:246,1,60
324,35,56417,5,0,0:0:0:0:
352,45,56495,1,0,0:0:0:0:
380,55,56573,1,0,0:0:0:0:
408,65,56651,1,0,0:0:0:0:
436,76,56729,1,0,0:0:0:0:
464,86,56807,1,0,0:0:0:0:
493,96,56885,1,0,0:0:0:0:
408,238,57042,1,0,0:0:0:0:
370,133,57198,1,0,0:0:0:0:
503,200,57354,2,0,L|477:278,1,60
331,205,57667,2,0,L|282:239,1,60
390,369,57979,5,0,0:0:0:0:
435,313,58136,1,0,0:0:0:0:
365,301,58292,1,0,0:0:0:0:
158,225,58448,1,0,0:0:0:0:
213,268,58605,1,0,0:0:0:0:
222,196,58761,1,0,0:0:0:0:
88,193,58917,2,0,P|81:245|86:256,1,60
282,239,59229,2,0,L|331:205,1,60
157,148,59542,5,0,0:0:0:0:
145,287,59698,1,0,0:0:0:0:
164,264,59776,1,0,0:0:0:0:
183,241,59854,1,0,0:0:0:0:
202,218,59932,1,0,0:0:0:0:
222,195,60010,1,0,0:0:0:0:
83,250,60167,1,0,0:0:0:0:
282,239,60323,1,0,0:0:0:0:
94,172,60479,2,0,P|63:172|34:184,1,60
296,318,60792,2,0,P|323:307|345:286,1,60
252,119,61104,5,0,0:0:0:0:
240,119,61182,1,0,0:0:0:0:
227,120,61261,1,0,0:0:0:0:
282,239,61417,1,0,0:0:0:0:
308,63,61573,1,0,0:0:0:0:
297,57,61651,1,0,0:0:0:0:
285,51,61730,1,0,0:0:0:0:
282,239,61886,1,0,0:0:0:0:
390,52,62042,2,0,P|377:18|361:2,1,60
282,239,62355,1,0,0:0:0:0:
479,152,62511,1,0,0:0:0:0:
252,119,62667,5,0,0:0:0:0:
269,142,62745,1,0,0:0:0:0:
294,157,62823,1,0,0:0:0:0:
323,168,62901,1,0,0:0:0:0:
345,186,62979,1,0,0:0:0:0:
360,213,63057,1,0,0:0:0:0:
367,242,63135,1,0,0:0:0:0:
167,289,63292,1,0,0:0:0:0:
321,85,63448,1,0,0:0:0:0:
282,238,63604,2,0,L|222:230,1,60
198,63,63917,2,0,P|223:46|253:42,1,60
367,242,64229,5,0,0:0:0:0:
435,266,64385,1,0,0:0:0:0:
423,195,64542,1,0,0:0:0:0:
149,275,64698,1,0,0:0:0:0:
158,282,64776,1,0,0:0:0:0:
167,289,64854,1,0,0:0:0:0:
379,313,65011,1,0,0:0:0:0:
265,160,65167,1,0,0:0:0:0:
180,365,65323,1,0,0:0:0:0:
191,362,65401,1,0,0:0:0:0:
203,360,65479,1,0,0:0:0:0:
367,242,65636,1,0,0:0:0:0:
169,158,65792,5,0,0:0:0:0:
265,276,65948,1,0,0:0:0:0:
269,264,66026,1,0,0:0:0:0:
273,253,66104,1,0,0:0:0:0:
233,76,66261,1,0,0:0:0:0:
155,273,66417,1,0,0:0:0:0:
265,160,66573,1,0,0:0:0:0:
180,365,66729,1,0,0:0:0:0:
173,355,66807,1,0,0:0:0:0:
167,345,66885,1,0,0:0:0:0:
77,186,67042,1,0,0:0:0:0:
35,366,67198,1,0,0:0:0:0:
187,208,67354,5,0,0:0:0:0:
155,273,67511,1,0,0:0:0:0:
226,267,67667,1,0,0:0:0:0:
91,117,67823,1,0,0:0:0:0:
22,141,67980,1,0,0:0:0:0:
77,186,68136,1,0,0:0:0:0:
276,121,68292,1,0,0:0:0:0:
36,72,68448,1,0,0:0:0:0:
155,273,68604,1,0,0:0:0:0:
187,33,68761,1,0,0:0:0:0:
77,186,68917,5,0,0:0:0:0:
104,204,68995,1,0,0:0:0:0:
135,205,69073,1,0,0:0:0:0:
168,201,69151,1,0,0:0:0:0:
201,197,69229,1,0,0:0:0:0:
234,193,69307,1,0,0:0:0:0:
266,189,69385,1,0,0:0:0:0:
253,331,69542,1,0,0:0:0:0:
128,129,69698,1,0,0:0:0:0:
98,306,69854,2,0,L|155:273,1,66.0000020141602
154,57,70167,2,0,P|115:53|85:66,1,66.0000020141602
17,238,70479,5,0,0:0:0:0:
77,186,70636,1,0,0:0:0:0:
3,159,70792,1,0,0:0:0:0:
170,353,70948,1,0,0:0:0:0:
229,301,71105,1,0,0:0:0:0:
155,273,71261,1,0,0:0:0:0:
333,361,71417,2,0,L|298:292,1,66.0000020141602
85,265,71729,2,0,P|91:308|117:331,1,66.0000020141602
378,286,72042,5,0,0:0:0:0:
410,283,72120,1,0,0:0:0:0:
441,293,72198,1,0,0:0:0:0:
466,315,72276,1,0,0:0:0:0:
481,344,72354,1,0,0:0:0:0:
490,313,72432,1,0,0:0:0:0:
503,282,72511,1,0,0:0:0:0:
324,220,72667,1,0,0:0:0:0:
402,361,72823,1,0,0:0:0:0:
339,136,72979,1,0,0:0:0:0:
378,286,73136,1,0,0:0:0:0:
386,81,73292,1,0,0:0:0:0:
356,65,73370,1,0,0:0:0:0:
324,64,73448,1,0,0:0:0:0:
294,78,73526,1,0,0:0:0:0:
272,103,73604,5,0,0:0:0:0:
302,295,73761,1,0,0:0:0:0:
339,136,73917,1,0,0:0:0:0:
180,192,74073,1,0,0:0:0:0:
378,286,74229,1,0,0:0:0:0:
370,328,74307,1,0,0:0:0:0:
342,359,74385,1,0,0:0:0:0:
301,371,74463,1,0,0:0:0:0:
247,351,74542,1,0,0:0:0:0:
196,354,74620,1,0,0:0:0:0:
146,358,74698,1,0,0:0:0:0:
96,362,74776,1,0,0:0:0:0:
73,306,74854,1,0,0:0:0:0:
41,257,74932,1,0,0:0:0:0:
27,202,75010,1,0,0:0:0:0:
32,145,75088,1,0,0:0:0:0:
55,92,75166,5,0,0:0:0:0:
236,248,75323,1,0,0:0:0:0:
132,56,75479,1,0,0:0:0:0:
41,257,75636,1,0,0:0:0:0:
188,112,75792,1,0,0:0:0:0:
139,290,75948,1,0,0:0:0:0:
132,56,76104,2,0,P|170:32|211:37,1,71.9999978027344
236,248,76417,2,0,L|166:184,1,71.9999978027344
100,367,76729,5,0,0:0:0:0:
139,290,76886,1,0,0:0:0:0:
53,292,77042,1,0,0:0:0:0:
255,335,77198,1,0,0:0:0:0:
317,275,77355,1,0,0:0:0:0:
236,248,77511,1,0,0:0:0:0:
398,265,77667,2,0,P|385:231|356:204,1,71.9999978027344
181,127,77979,2,0,L|182:199,1,71.9999978027344
429,174,78292,5,0,0:0:0:0:
462,160,78370,1,0,0:0:0:0:
487,135,78448,1,0,0:0:0:0:
500,102,78526,1,0,0:0:0:0:
498,66,78604,1,0,0:0:0:0:
483,34,78682,1,0,0:0:0:0:
456,10,78760,1,0,0:0:0:0:
270,68,78917,1,0,0:0:0:0:
398,265,79073,1,0,0:0:0:0:
415,90,79229,2,0,L|340:113,1,71.9999978027344
182,199,79542,2,0,L|257:222,1,71.9999978027344
346,25,79854,5,0,0:0:0:0:
270,68,80011,1,0,0:0:0:0:
346,111,80167,1,0,0:0:0:0:
483,246,80323,1,0,0:0:0:0:
460,329,80480,1,0,0:0:0:0:
398,265,80636,1,0,0:0:0:0:
229,149,80792,2,0,P|198:167|181:198,1,71.9999978027344
291,349,81104,2,0,P|310:318|312:283,1,71.9999978027344
20,359,81417,5,0,0:0:0:0:
48,332,81495,1,0,0:0:0:0:
81,311,81573,1,0,0:0:0:0:
117,296,81651,1,0,0:0:0:0:
155,288,81729,1,0,0:0:0:0:
194,287,81807,1,0,0:0:0:0:
232,293,81885,1,0,0:0:0:0:
362,378,82030,1,0,0:0:0:0:
483,246,82186,1,0,0:0:0:0:
260,224,82354,2,0,P|235:253|231:292,1,77.9999964294435
20,359,82667,2,0,P|32:315|21:264,1,77.9999964294435
36,28,82979,5,0,0:0:0:0:
3,116,83136,1,0,0:0:0:0:
96,99,83292,1,0,0:0:0:0:
214,361,83448,1,0,0:0:0:0:
154,288,83605,1,0,0:0:0:0:
122,376,83761,1,0,0:0:0:0:
317,265,83917,2,0,L|239:272,1,77.9999964294435
359,339,84229,2,0,P|387:311|401:275,1,77.9999964294435
301,55,84542,5,0,0:0:0:0:
273,81,84620,1,0,0:0:0:0:
260,117,84698,1,0,0:0:0:0:
254,156,84776,1,0,0:0:0:0:
249,194,84854,1,0,0:0:0:0:
244,233,84932,1,0,0:0:0:0:
239,272,85010,1,0,0:0:0:0:
336,125,85167,1,0,0:0:0:0:
162,245,85323,1,0,0:0:0:0:
400,275,85479,2,0,P|398:236|377:203,1,77.9999964294435
79,235,85792,2,0,P|84:280|115:315,1,77.9999964294435
317,265,86104,5,0,0:0:0:0:
236,218,86261,1,0,0:0:0:0:
237,313,86417,1,0,0:0:0:0:
388,108,86573,1,0,0:0:0:0:
406,202,86729,1,0,0:0:0:0:
316,170,86886,1,0,0:0:0:0:
226,138,87042,2,0,P|189:151|161:187,1,77.9999964294435
237,313,87354,2,0,L|346:346,1,77.9999964294435
236,218,87667,5,0,0:0:0:0:
200,238,87745,1,0,0:0:0:0:
165,259,87823,1,0,0:0:0:0:
130,280,87901,1,0,0:0:0:0:
94,301,87979,1,0,0:0:0:0:
59,321,88057,1,0,0:0:0:0:
24,342,88135,1,0,0:0:0:0:
237,313,88292,1,0,0:0:0:0:
80,147,88448,1,0,0:0:0:0:
138,338,88604,2,0,L|164:258,1,83.9999974365235
72,69,88917,2,0,P|25:88|3:138,1,83.9999974365235
236,205,89229,5,0,0:0:0:0:
220,166,89307,1,0,0:0:0:0:
204,127,89385,1,0,0:0:0:0:
188,88,89463,1,0,0:0:0:0:
172,49,89541,1,0,0:0:0:0:
146,20,89619,1,0,0:0:0:0:
107,4,89697,1,0,0:0:0:0:
80,147,89854,1,0,0:0:0:0:
266,49,90011,1,0,0:0:0:0:
165,247,90167,1,0,0:0:0:0:
151,207,90245,1,0,0:0:0:0:
161,167,90323,1,0,0:0:0:0:
175,127,90401,1,0,0:0:0:0:
188,87,90479,1,0,0:0:0:0:
236,205,90636,1,0,0:0:0:0:
100,71,90792,5,0,0:0:0:0:
58,71,90870,1,0,0:0:0:0:
23,93,90948,1,0,0:0:0:0:
3,129,91026,1,0,0:0:0:0:
5,171,91104,1,0,0:0:0:0:
27,205,91182,1,0,0:0:0:0:
64,224,91260,1,0,0:0:0:0:
283,106,91417,1,0,0:0:0:0:
80,147,91573,1,0,0:0:0:0:
235,206,91729,2,0,L|320:173,1,83.9999974365235
401,311,92042,2,0,L|486:344,1,83.9999974365235
478,53,92354,5,0,0:0:0:0:
439,68,92432,1,0,0:0:0:0:
410,98,92510,1,0,0:0:0:0:
397,138,92588,1,0,0:0:0:0:
393,179,92666,1,0,0:0:0:0:
378,218,92744,1,0,0:0:0:0:
346,246,92822,1,0,0:0:0:0:
311,61,92979,1,0,0:0:0:0:
487,140,93136,1,0,0:0:0:0:
308,172,93292,2,0,B|270:191|270:191|210:187,1,83.9999974365235
38,191,93604,2,0,B|76:172|76:172|136:176,1,83.9999974365235
346,246,93917,5,0,0:0:0:0:
60,264,94073,1,0,0:0:0:0:
74,255,94151,1,0,0:0:0:0:
90,247,94229,1,0,0:0:0:0:
252,112,94386,1,0,0:0:0:0:
244,308,94542,2,0,L|164:241,1,83.9999974365235
78,109,94854,2,0,P|131:98|175:126,1,83.9999974365235
266,211,95167,1,0,0:0:0:0:
117,174,95323,1,0,0:0:0:0:
337,153,95479,1,0,0:0:0:0:
8,142,95636,5,0,0:0:0:0:
3,92,95714,1,0,0:0:0:0:
29,50,95792,1,0,0:0:0:0:
75,33,95870,1,0,0:0:0:0:
122,48,95948,1,0,0:0:0:0:
138,42,96026,1,0,0:0:0:0:
153,35,96104,1,0,0:0:0:0:
211,58,96182,1,0,0:0:0:0:
273,67,96260,1,0,0:0:0:0:
336,61,96338,1,0,0:0:0:0:
395,40,96416,1,0,0:0:0:0:
257,370,96573,1,0,0:0:0:0:
78,109,96729,1,0,0:0:0:0:
473,174,96886,1,0,0:0:0:0:
100,304,97042,6,0,B|77:275|82:228|117:200|117:200|115:184|115:184|152:166|158:118,1,215.999993408203
469,351,97511,2,0,B|388:367|388:367|336:357|336:357|256:369,1,215.999993408203
160,262,97901,1,0,0:0:0:0:
178,251,97979,2,0,B|208:233|208:233|279:219,1,107.999996704102
480,278,98214,1,0,0:0:0:0:
460,282,98292,2,0,B|388:294|388:294|345:286,1,107.999996704102
116,184,98604,5,0,0:0:0:0:
181,337,98761,1,0,0:0:0:0:
153,35,98917,1,0,0:0:0:0:
58,248,99073,2,0,P|107:269|159:261,1,107.999996704102
389,142,99386,1,0,0:0:0:0:
368,134,99464,1,0,0:0:0:0:
348,125,99542,1,0,0:0:0:0:
116,184,99698,1,0,0:0:0:0:
497,328,99854,2,0,L|442:233,1,107.999996704102
293,45,100167,6,0,B|253:88|253:88|175:46|94:77,1,215.999993408203
23,288,100636,2,0,P|77:373|188:338,1,215.999993408203
430,110,101026,1,0,0:0:0:0:
408,110,101104,2,0,B|334:112|334:112|311:137,1,107.999996704102
98,162,101339,1,0,0:0:0:0:
116,151,101417,2,0,P|185:140|225:163,1,107.999996704102
331,355,101729,6,0,L|148:204,1,215.999993408203
111,294,102198,1,0,0:0:0:0:
252,79,102354,1,0,0:0:0:0:
438,318,102511,1,0,0:0:0:0:
451,334,102589,1,0,0:0:0:0:
463,351,102667,2,0,P|401:371|339:359,1,107.999996704102
98,162,102901,1,0,0:0:0:0:
116,151,102979,2,0,P|185:140|225:163,1,107.999996704102
477,255,103292,6,0,B|504:286|504:286|490:91,1,215.999993408203
163,221,103761,2,0,P|137:288|247:368,1,215.999993408203
423,202,104151,1,0,0:0:0:0:
420,180,104229,2,0,B|417:157|417:157|318:173,1,107.999996704102
223,285,104464,1,0,0:0:0:0:
243,291,104542,2,0,P|305:290|344:230,1,107.999996704102
491,111,104854,5,0,0:0:0:0:
150,186,105011,1,0,0:0:0:0:
477,255,105167,1,0,0:0:0:0:
271,118,105323,2,0,P|253:168|270:219,1,107.999996704102
408,380,105636,1,0,0:0:0:0:
412,358,105714,1,0,0:0:0:0:
417,336,105792,2,0,B|423:310|423:310|468:281|468:281|476:252,1,107.999996704102
163,213,106104,2,0,B|186:223|186:223|207:273|207:273|234:286,1,107.999996704102
463,150,106417,6,0,B|436:149|417:130|417:130|404:131|404:131|370:87|311:75|261:125,1,215.999993408203
134,283,106886,2,0,P|54:308|3:202,1,215.999993408203
114,27,107276,1,0,0:0:0:0:
127,10,107354,2,0,L|147:154,1,107.999996704102
387,289,107589,1,0,0:0:0:0:
405,298,107667,2,0,L|433:173,1,107.999996704102
460,44,107979,5,0,0:0:0:0:
110,184,108136,2,0,P|165:189|214:145,1,107.999996704102
392,128,108448,2,0,P|472:131|456:262,1,215.999993408203
141,116,108917,1,0,0:0:0:0:
109,109,108995,1,0,0:0:0:0:
78,117,109073,1,0,0:0:0:0:
52,136,109151,1,0,0:0:0:0:
37,165,109229,1,0,0:0:0:0:
25,113,109307,1,0,0:0:0:0:
38,61,109385,1,0,0:0:0:0:
72,20,109463,1,0,0:0:0:0:
122,0,109542,6,0,P|222:28|256:126,1,215.999993408203
143,380,110011,2,0,B|82:248|82:248|110:184,1,215.999993408203
318,26,110401,1,0,0:0:0:0:
338,18,110479,2,0,B|389:5|389:5|443:19,1,107.999996704102
326,178,110714,1,0,0:0:0:0:
309,191,110792,2,0,P|244:207|195:185,1,107.999996704102
389,80,111104,6,0,B|433:93|433:93|495:256,1,215.999993408203
255,126,111573,2,0,P|191:114|149:134,1,107.999996704102
143,380,111886,1,0,0:0:0:0:
152,360,111964,1,0,0:0:0:0:
163,340,112042,1,0,0:0:0:0:
307,55,112198,1,0,0:0:0:0:
276,314,112354,1,0,0:0:0:0:
150,6,112511,1,0,0:0:0:0:
8,353,112667,6,0,B|74:325|74:325|116:267|116:267|195:231,1,215.999993408203,0|0,0:0|0:3,0:0:0:0:
402,216,113136,2,0,P|376:313|275:313,1,215.999993408203
27,265,113526,1,0,0:0:0:0:
37,246,113604,2,0,B|70:202|70:202|136:175,1,107.999996704102
326,252,113839,1,0,0:0:0:0:
338,269,113917,2,0,P|390:297|454:279,1,107.999996704102
226,99,114229,6,0,B|230:90|181:238|181:238|117:266,1,215.999993408203
43,38,114698,1,0,0:0:0:0:
276,199,114854,1,0,0:0:0:0:
37,246,115011,1,0,0:0:0:0:
26,227,115089,1,0,0:0:0:0:
15,207,115167,2,0,B|57:206|57:206|119:181,1,107.999996704102
456,34,115479,1,0,0:0:0:0:
403,37,115557,1,0,0:0:0:0:
348,41,115635,1,0,0:0:0:0:
294,45,115713,1,0,0:0:0:0:
240,49,115792,6,0,L|20:142,1,215.999993408203
19,325,116261,2,0,B|81:331|111:281|111:281|121:283|121:283|171:253|226:292,1,215.999993408203
439,371,116651,1,0,0:0:0:0:
459,364,116729,2,0,P|481:315|457:247,1,107.999996704102
242,51,116964,1,0,0:0:0:0:
225,37,117042,2,0,P|185:79|187:153,1,107.999996704102
166,345,117354,5,0,0:0:0:0:
256,110,117511,1,0,0:0:0:0:
405,308,117667,1,0,0:0:0:0:
512,32,117823,2,0,B|461:2|461:2|287:71,1,215.999993408203
107,166,118214,1,0,0:0:0:0:
122,182,118292,2,0,P|173:205|231:189,1,107.999996704102
455,81,118604,1,0,0:0:0:0:
178,126,118761,1,0,0:0:0:0:
480,197,118917,6,0,L|314:59,1,215.999993408203
48,217,119386,2,0,P|152:279|273:254,1,215.999993408203
455,81,119776,1,0,0:0:0:0:
475,88,119854,2,0,L|480:196,1,107.999996704102
348,377,120167,1,0,0:0:0:0:
178,126,120323,1,0,0:0:0:0:
7,287,120479,5,0,0:0:0:0:
48,297,120557,1,0,0:0:0:0:
89,285,120635,1,0,0:0:0:0:
119,255,120713,1,0,0:0:0:0:
129,213,120791,1,0,0:0:0:0:
117,173,120869,1,0,0:0:0:0:
98,92,120948,5,0,0:0:0:0:
128,55,121026,1,0,0:0:0:0:
174,40,121104,1,0,0:0:0:0:
221,50,121182,1,0,0:0:0:0:
255,84,121260,1,0,0:0:0:0:
267,130,121338,1,0,0:0:0:0:
299,206,121417,5,0,0:0:0:0:
349,223,121495,1,0,0:0:0:0:
398,205,121573,1,0,0:0:0:0:
426,160,121651,1,0,0:0:0:0:
347,141,121729,5,0,0:0:0:0:
299,206,121807,1,0,0:0:0:0:
294,285,121886,1,0,0:0:0:0:
338,353,121964,1,0,0:0:0:0:
412,382,122042,5,0,0:0:0:0:
402,77,122198,1,0,0:0:0:0:
178,126,122354,1,0,0:0:0:0:
196,134,122432,1,0,0:0:0:0:
215,143,122511,1,0,0:0:0:0:
421,250,122667,1,0,0:0:0:0:
181,362,122823,1,0,0:0:0:0:
188,341,122901,1,0,0:0:0:0:
194,320,122979,1,0,0:0:0:0:
290,15,123136,1,0,0:0:0:0:
421,250,123292,1,0,0:0:0:0:
132,244,123448,1,0,0:0:0:0:
402,77,123604,5,0,0:0:0:0:
338,353,123761,1,0,0:0:0:0:
252,120,123917,1,0,0:0:0:0:
233,131,123995,1,0,0:0:0:0:
215,143,124073,1,0,0:0:0:0:
39,264,124229,1,0,0:0:0:0:
325,245,124386,1,0,0:0:0:0:
89,37,124542,1,0,0:0:0:0:
132,244,124698,1,0,0:0:0:0:
252,120,124854,1,0,0:0:0:0:
264,352,125011,5,0,0:0:0:0:
108,143,125167,1,0,0:0:0:0:
365,227,125323,1,0,0:0:0:0:
345,236,125401,1,0,0:0:0:0:
325,245,125479,1,0,0:0:0:0:
142,336,125636,1,0,0:0:0:0:
236,82,125792,1,0,0:0:0:0:
244,101,125870,1,0,0:0:0:0:
252,120,125948,1,0,0:0:0:0:
360,361,126104,1,0,0:0:0:0:
108,143,126261,1,0,0:0:0:0:
439,170,126417,1,0,0:0:0:0:
142,336,126573,5,0,0:0:0:0:
308,20,126729,1,0,0:0:0:0:
400,256,126886,1,0,0:0:0:0:
382,241,126964,1,0,0:0:0:0:
365,227,127042,1,0,0:0:0:0:
126,38,127198,1,0,0:0:0:0:
26,188,127354,1,0,0:0:0:0:
80,232,127458,1,0,0:0:0:0:
149,226,127562,1,0,0:0:0:0:
195,172,127667,1,0,0:0:0:0:
181,243,127771,1,0,0:0:0:0:
167,314,127875,1,0,0:0:0:0:
153,384,127979,5,0,0:0:0:0:
108,143,128135,1,0,0:0:0:0:
264,317,128291,1,0,0:0:0:0:
274,34,128447,1,0,0:0:0:0:
149,226,128604,1,0,0:0:0:0:
475,172,128760,1,0,0:0:0:0:
126,38,128916,1,0,0:0:0:0:
264,317,129072,1,0,0:0:0:0:
358,96,129229,1,0,0:0:0:0:
26,188,129385,1,0,0:0:0:0:
274,34,129541,5,0,0:0:0:0:
159,377,129697,1,0,0:0:0:0:
108,143,129854,1,0,0:0:0:0:
394,254,130010,1,0,0:0:0:0:
49,298,130166,1,0,0:0:0:0:
358,96,130322,1,0,0:0:0:0:
53,78,130479,1,0,0:0:0:0:
264,317,130635,1,0,0:0:0:0:
274,34,130791,1,0,0:0:0:0:
149,226,130947,5,0,0:0:0:0:
479,130,131103,1,0,0:0:0:0:
176,94,131259,1,0,0:0:0:0:
422,333,131415,1,0,0:0:0:0:
358,96,131572,1,0,0:0:0:0:
264,317,131728,1,0,0:0:0:0:
108,143,131884,1,0,0:0:0:0:
434,217,132040,1,0,0:0:0:0:
159,377,132197,1,0,0:0:0:0:
126,38,132353,1,0,0:0:0:0:
31,254,132509,5,0,0:0:0:0:
358,96,132665,1,0,0:0:0:0:
264,317,132822,1,0,0:0:0:0:
108,143,132978,1,0,0:0:0:0:
434,217,133134,1,0,0:0:0:0:
179,284,133290,1,0,0:0:0:0:
358,96,133447,1,0,0:0:0:0:
60,72,133603,1,0,0:0:0:0:
422,333,133759,1,0,0:0:0:0:
106,327,133915,6,0,P|100:252|218:205,1,215.999993408203
424,152,134383,2,0,P|445:85|338:14,1,215.999993408203
179,283,134852,2,0,P|232:288|278:262,1,107.999996704102
156,84,135165,2,0,P|110:59|59:71,1,107.999996704102
10,319,135477,6,0,B|54:291|54:291|101:134,1,215.999993408203
462,172,135946,2,0,B|428:221|428:221|256:267,1,215.999993408203
59,71,136415,2,0,P|110:59|156:84,1,107.999996704102
