osu file format v14

[General]
AudioFilename: proggresive.mp3
AudioLeadIn: 0
PreviewTime: 322411
Countdown: 0
SampleSet: Soft
StackLeniency: 0.6
Mode: 0
LetterboxInBreaks: 0
WidescreenStoryboard: 1

[Editor]
Bookmarks: 31411,62840,81697,91126,116269,143697,158126,181697,198411,223554,248697,276126,309983,316269,322554,328840,335126,346554,352840,359126,365411,371697,383126,408269,435751
DistanceSpacing: 1.3
BeatDivisor: 4
GridSize: 32
TimelineZoom: 2.4

[Metadata]
Title:Atlas Stone
TitleUnicode:Atlas Stone
Artist:Haken
ArtistUnicode:Haken
Creator:WashedUp Player
Version:Paralyzed
Source:
Tags:the mountain english progressive metal rock marathon inside out music ross jennings richard henshall raymond hearne charlie griffiths diego tejeida thomas maclean
BeatmapID:2501851
BeatmapSetID:1191597

[Difficulty]
HPDrainRate:5
CircleSize:4.2
OverallDifficulty:9
ApproachRate:9.5
SliderMultiplier:1.9
SliderTickRate:1

[Events]
//Background and Video events
0,0,"bill is slow.jpg",0,0
//Break Periods
2,276379,278226
2,279523,281369
2,285236,285940
2,287237,288940
2,293380,295083
//Storyboard Layer 0 (Background)
//Storyboard Layer 1 (Fail)
//Storyboard Layer 2 (Pass)
//Storyboard Layer 3 (Foreground)
//Storyboard Layer 4 (Overlay)
//Storyboard Sound Samples

[TimingPoints]
31466,571.428571428571,3,2,1,60,1,0
33037,571.428571428571,3,2,1,60,1,0
34608,571.428571428571,3,2,1,60,1,0
34608,-86.9565217391304,3,2,1,60,0,0
36180,571.428571428571,3,2,1,60,1,0
36180,-86.9565217391304,3,2,1,60,0,0
36894,-76.9230769230769,3,2,1,60,0,0
37751,571.428571428571,3,2,1,60,1,0
37752,-100,3,2,1,60,0,0
39323,571.428571428571,3,2,1,60,1,0
40894,571.428571428571,3,2,1,60,1,0
40894,-86.9565217391304,3,2,1,60,0,0
42465,571.428571428571,3,2,1,60,1,0
42465,-86.9565217391304,3,2,1,60,0,0
43179,-76.9230769230769,3,2,1,60,0,0
44037,571.428571428571,3,2,1,60,1,0
44038,-100,3,2,1,60,0,0
45608,571.428571428571,3,2,1,60,1,0
47180,571.428571428571,3,2,1,60,1,0
48751,571.428571428571,3,2,1,60,1,0
50323,571.428571428571,3,2,1,60,1,0
50323,-86.9565217391304,3,2,1,60,0,0
51894,571.428571428571,3,2,1,60,1,0
51894,-86.9565217391304,3,2,1,60,0,0
52608,-76.9230769230769,3,2,1,60,0,0
53465,571.428571428571,3,2,1,60,1,0
53465,-100,3,2,1,60,0,0
55037,571.428571428571,3,2,1,60,1,0
56608,571.428571428571,3,2,1,60,1,0
56608,-86.9565217391304,3,2,1,60,0,0
58180,571.428571428571,3,2,1,60,1,0
58180,-86.9565217391304,3,2,1,60,0,0
58895,-76.9230769230769,3,2,1,60,0,0
59751,571.428571428571,3,2,1,60,1,0
59752,-100,3,2,1,60,0,0
61323,571.428571428571,3,2,1,60,1,0
61323,-71.4285714285714,3,2,1,50,0,0
61608,-71.4285714285714,3,2,1,60,0,0
62894,571.428571428571,3,2,1,60,1,0
62894,-71.4285714285714,3,2,1,60,0,0
64465,571.428571428571,3,2,1,60,1,0
64465,-71.4285714285714,3,2,1,60,0,0
66037,571.428571428571,3,2,1,60,1,0
66037,-71.4285714285714,3,2,1,60,0,0
67608,571.428571428571,3,2,1,60,1,0
67608,-71.4285714285714,3,2,1,60,0,0
69180,571.428571428571,3,2,1,60,1,0
69180,-71.4285714285714,3,2,1,60,0,0
70751,571.428571428571,3,2,1,60,1,0
70751,-71.4285714285714,3,2,1,60,0,0
72323,571.428571428571,3,2,1,60,1,0
72323,-71.4285714285714,3,2,1,60,0,0
73894,571.428571428571,3,2,1,60,1,0
73894,-71.4285714285714,3,2,1,60,0,0
75465,571.428571428571,3,2,1,60,1,0
75465,-71.4285714285714,3,2,1,60,0,0
75893,-133.333333333333,3,2,1,60,0,0
76107,-133.333333333333,3,2,1,5,0,0
76179,-133.333333333333,3,2,1,60,0,0
76465,-66.6666666666667,3,2,1,60,0,0
76679,-66.6666666666667,3,2,1,5,0,0
76750,-66.6666666666667,3,2,1,60,0,0
77037,571.428571428571,3,2,1,60,1,0
77037,-66.6666666666667,3,2,1,60,0,0
77465,-133.333333333333,3,2,1,60,0,0
77679,-133.333333333333,3,2,1,5,0,0
77751,-133.333333333333,3,2,1,60,0,0
78037,-66.6666666666667,3,2,1,60,0,0
78251,-66.6666666666667,3,2,1,5,0,0
78322,-66.6666666666667,3,2,1,60,0,0
78608,571.428571428571,3,2,1,60,1,0
78608,-66.6666666666667,3,2,1,60,0,0
79036,-133.333333333333,3,2,1,60,0,0
79250,-133.333333333333,3,2,1,5,0,0
79322,-133.333333333333,3,2,1,60,0,0
79536,-133.333333333333,3,2,1,5,0,0
79608,-133.333333333333,3,2,1,60,0,0
79822,-133.333333333333,3,2,1,5,0,0
79893,-133.333333333333,3,2,1,60,0,0
80180,571.428571428571,3,2,1,60,1,0
80180,-133.333333333333,3,2,1,60,0,0
80822,-133.333333333333,3,2,1,5,0,0
80894,-133.333333333333,3,2,1,60,0,0
81108,-133.333333333333,3,2,1,5,0,0
81180,-133.333333333333,3,2,1,60,0,0
81751,571.428571428571,3,2,1,60,1,0
81752,-100,3,2,1,60,0,0
83323,571.428571428571,3,2,1,60,1,0
84894,571.428571428571,3,2,1,60,1,0
86465,571.428571428571,3,2,1,60,1,0
87465,-66.6666666666667,3,2,1,60,0,0
88037,571.428571428571,3,2,1,60,1,0
89608,571.428571428571,3,2,1,60,1,0
90465,-66.6666666666667,3,2,1,50,0,0
90536,-66.6666666666667,3,2,1,5,0,0
90608,-66.6666666666667,3,2,1,50,0,0
91180,571.428571428571,3,2,1,50,1,0
91180,-117.647058823529,3,2,1,50,0,0
91822,-117.647058823529,3,2,1,5,0,0
91894,-117.647058823529,3,2,1,50,0,0
92679,-117.647058823529,3,2,1,5,0,0
92751,571.428571428571,3,2,1,50,1,0
92751,-117.647058823529,3,2,1,50,0,0
93393,-117.647058823529,3,2,1,5,0,0
93465,-117.647058823529,3,2,1,50,0,0
94251,-117.647058823529,3,2,1,5,0,0
94323,571.428571428571,3,2,1,50,1,0
94323,-117.647058823529,3,2,1,50,0,0
95822,-117.647058823529,3,2,1,5,0,0
95894,571.428571428571,3,2,1,50,1,0
95894,-117.647058823529,3,2,1,50,0,0
97394,-117.647058823529,3,2,1,5,0,0
97465,571.428571428571,3,2,1,50,1,0
97465,-117.647058823529,3,2,1,50,0,0
97679,-117.647058823529,3,2,1,5,0,0
97750,-117.647058823529,3,2,1,50,0,0
98965,-117.647058823529,3,2,1,5,0,0
99037,571.428571428571,3,2,1,50,1,0
99037,-117.647058823529,3,2,1,50,0,0
100536,-117.647058823529,3,2,1,5,0,0
100608,571.428571428571,3,2,1,50,1,0
100608,-117.647058823529,3,2,1,50,0,0
101750,-74.074074074074,3,2,1,50,0,0
102108,-74.074074074074,3,2,1,5,0,0
102180,571.428571428571,3,2,1,50,1,0
102180,-117.647058823529,3,2,1,50,0,0
103751,571.428571428571,3,2,1,50,1,0
103751,-117.647058823529,3,2,1,50,0,0
105251,-117.647058823529,3,2,1,5,0,0
105323,571.428571428571,3,2,1,50,1,0
105323,-117.647058823529,3,2,1,50,0,0
106822,-117.647058823529,3,2,1,5,0,0
106894,571.428571428571,3,2,1,50,1,0
106894,-117.647058823529,3,2,1,50,0,0
108393,-117.647058823529,3,2,1,5,0,0
108465,571.428571428571,3,2,1,50,1,0
108465,-117.647058823529,3,2,1,50,0,0
110037,571.428571428571,3,2,1,50,1,0
110037,-117.647058823529,3,2,1,50,0,0
111537,-117.647058823529,3,2,1,5,0,0
111608,571.428571428571,3,2,1,50,1,0
111608,-117.647058823529,3,2,1,50,0,0
112893,-79.9999999999999,3,2,1,50,0,0
113108,-79.9999999999999,3,2,1,5,0,0
113180,571.428571428571,3,2,1,50,1,0
113180,-117.647058823529,3,2,1,50,0,0
114465,-66.6666666666667,3,2,1,50,0,0
114751,571.428571428571,3,2,1,60,1,0
116323,571.428571428571,3,2,1,60,1,0
116324,-100,3,2,1,60,0,0
128537,-100,3,2,1,5,0,0
128608,-100,3,2,1,60,0,0
136180,-80,3,2,1,60,0,0
136894,-100,3,2,1,60,0,0
143751,-125,3,2,1,60,0,0
145323,571.428571428571,3,2,1,60,1,0
145323,-200,3,2,1,60,0,0
145751,-125,3,2,1,60,0,0
146751,571.428571428571,3,2,1,60,1,0
146751,-200,3,2,1,60,0,0
147179,-125,3,2,1,60,0,0
148323,571.428571428571,3,2,1,60,1,0
148323,-250,3,2,1,60,0,0
148751,-125,3,2,1,60,0,0
149751,571.428571428571,3,2,1,60,1,0
149751,-66.6666666666667,3,2,1,60,0,0
150465,-125,3,2,1,60,0,0
150751,571.428571428571,3,2,1,60,1,0
150751,-52.6315789473684,3,2,1,60,0,0
151179,-100,3,2,1,60,0,0
152323,571.428571428571,3,2,1,60,1,0
153751,571.428571428571,3,2,1,60,1,0
153751,-200,3,2,1,60,0,0
154179,-100,3,2,1,60,0,0
155323,571.428571428571,3,2,1,60,1,0
155323,-200,3,2,1,60,0,0
155751,-100,3,2,1,60,0,0
156751,571.428571428571,3,2,1,60,1,0
156751,-50,3,2,1,60,0,0
157893,-153.846153846153,3,2,1,60,0,0
158180,571.428571428571,3,2,1,60,1,0
159751,571.428571428571,3,2,1,60,1,0
161180,571.428571428571,3,2,1,60,1,0
162751,571.428571428571,3,2,1,60,1,0
164180,571.428571428571,3,2,1,60,1,0
165751,571.428571428571,3,2,1,60,1,0
167180,571.428571428571,3,2,1,60,1,0
168751,571.428571428571,3,2,1,60,1,0
169751,-153.846153846153,3,2,1,60,0,0
170180,571.428571428571,3,2,1,60,1,0
171751,571.428571428571,3,2,1,60,1,0
172752,-100,3,2,1,60,0,0
172822,-100,3,2,1,5,0,0
172893,-100,3,2,1,60,0,0
172965,-100,3,2,1,5,0,0
173036,-66.6666666666667,3,2,1,60,0,0
173108,-66.6666666666667,3,2,1,5,0,0
173180,571.428571428571,3,2,1,60,1,0
173181,-153.846153846153,3,2,1,60,0,0
174751,571.428571428571,3,2,1,60,1,0
175751,-100,3,2,1,60,0,0
175822,-100,3,2,1,5,0,0
175893,-100,3,2,1,60,0,0
175965,-100,3,2,1,5,0,0
176036,-66.6666666666667,3,2,1,60,0,0
176108,-66.6666666666667,3,2,1,5,0,0
176180,571.428571428571,3,2,1,60,1,0
176180,-153.846153846153,3,2,1,60,0,0
177751,571.428571428571,3,2,1,60,1,0
179180,571.428571428571,3,2,1,60,1,0
180751,571.428571428571,3,2,1,60,1,0
181752,-100,3,2,1,60,0,0
181822,-100,3,2,1,5,0,0
181893,-100,3,2,1,60,0,0
182251,-100,3,2,1,5,0,0
182323,571.428571428571,3,2,1,60,1,0
183894,571.428571428571,3,2,1,60,1,0
185323,571.428571428571,3,2,1,60,1,0
185751,-66.6666666666667,3,2,1,60,0,0
186894,571.428571428571,3,2,1,60,1,0
186895,-100,3,2,1,60,0,0
188323,571.428571428571,3,2,1,60,1,0
188323,-45.4545454545455,3,2,1,60,0,0
188537,-45.4545454545455,3,2,1,5,0,0
188608,-45.4545454545455,3,2,1,60,0,0
188965,-45.4545454545455,3,2,1,5,0,0
189037,-45.4545454545455,3,2,1,60,0,0
189394,-45.4545454545455,3,2,1,5,0,0
189465,-45.4545454545455,3,2,1,60,0,0
189894,571.428571428571,3,2,1,60,1,0
190180,571.428571428571,3,2,1,60,1,0
190180,-80,3,2,1,60,0,0
190537,-80,3,2,1,5,0,0
190608,-80,3,2,1,60,0,0
191751,571.428571428571,3,2,1,60,1,0
191751,-80,3,2,1,60,0,0
192108,-80,3,2,1,5,0,0
192179,-80,3,2,1,60,0,0
192393,-80,3,2,1,5,0,0
192465,-80,3,2,1,60,0,0
192679,-80,3,2,1,5,0,0
192751,-80,3,2,1,60,0,0
193179,571.428571428571,3,2,1,60,1,0
193179,-80,3,2,1,60,0,0
193393,-80,3,2,1,5,0,0
193464,-80,3,2,1,60,0,0
194750,571.428571428571,3,2,1,60,1,0
194750,-80,3,2,1,60,0,0
196180,571.428571428571,3,2,1,60,1,0
196180,-58.8235294117647,3,2,1,60,0,0
196394,-58.8235294117647,3,2,1,5,0,0
196465,-58.8235294117647,3,2,1,60,0,0
196822,-58.8235294117647,3,2,1,5,0,0
196894,-58.8235294117647,3,2,1,60,0,0
197251,-58.8235294117647,3,2,1,5,0,0
197322,-58.8235294117647,3,2,1,60,0,0
197680,-58.8235294117647,3,2,1,5,0,0
197751,-58.8235294117647,3,2,1,60,0,0
198465,571.428571428571,3,2,1,45,1,0
198465,-133.333333333333,3,2,1,45,0,0
200037,571.428571428571,3,2,1,45,1,0
200037,-133.333333333333,3,2,1,45,0,0
201608,571.428571428571,3,2,1,45,1,0
201608,-133.333333333333,3,2,1,45,0,0
203180,571.428571428571,3,2,1,45,1,0
203180,-133.333333333333,3,2,1,45,0,0
204751,571.428571428571,3,2,1,45,1,0
204751,-133.333333333333,3,2,1,45,0,0
206323,571.428571428571,3,2,1,45,1,0
206323,-133.333333333333,3,2,1,45,0,0
207894,571.428571428571,3,2,1,45,1,0
207894,-133.333333333333,3,2,1,45,0,0
209465,571.428571428571,3,2,1,45,1,0
209465,-133.333333333333,3,2,1,45,0,0
211037,571.428571428571,3,2,1,45,1,0
211037,-133.333333333333,3,2,1,45,0,0
211752,-133.333333333333,3,2,1,45,0,0
212608,571.428571428571,3,2,1,45,1,0
212608,-133.333333333333,3,2,1,45,0,0
214179,571.428571428571,3,2,1,45,1,0
214179,-133.333333333333,3,2,1,45,0,0
215751,571.428571428571,3,2,1,45,1,0
215751,-133.333333333333,3,2,1,45,0,0
217323,571.428571428571,3,2,1,45,1,0
217323,-133.333333333333,3,2,1,45,0,0
218894,571.428571428571,3,2,1,45,1,0
218894,-133.333333333333,3,2,1,45,0,0
220465,571.428571428571,3,2,1,45,1,0
220465,-117.647058823529,3,2,1,45,0,0
222037,571.428571428571,3,2,1,45,1,0
222037,-105.263157894737,3,2,1,45,0,0
223608,571.428571428571,3,2,1,50,1,0
223608,-133.333333333333,3,2,1,50,0,0
225180,571.428571428571,3,2,1,50,1,0
225180,-133.333333333333,3,2,1,50,0,0
226751,571.428571428571,3,2,1,50,1,0
226751,-133.333333333333,3,2,1,50,0,0
228323,571.428571428571,3,2,1,50,1,0
228323,-133.333333333333,3,2,1,50,0,0
229894,571.428571428571,3,2,1,50,1,0
229894,-133.333333333333,3,2,1,50,0,0
231465,571.428571428571,3,2,1,50,1,0
231465,-133.333333333333,3,2,1,50,0,0
233037,571.428571428571,3,2,1,50,1,0
233037,-133.333333333333,3,2,1,50,0,0
234608,571.428571428571,3,2,1,50,1,0
234608,-133.333333333333,3,2,1,50,0,0
235608,-133.333333333333,3,2,1,60,0,0
236180,571.428571428571,3,2,1,60,1,0
236180,-133.333333333333,3,2,1,60,0,0
236465,-133.333333333333,3,2,1,50,0,0
237751,571.428571428571,3,2,1,50,1,0
237751,-133.333333333333,3,2,1,50,0,0
239323,571.428571428571,3,2,1,50,1,0
239323,-133.333333333333,3,2,1,50,0,0
240894,571.428571428571,3,2,1,50,1,0
240894,-133.333333333333,3,2,1,50,0,0
242465,571.428571428571,3,2,1,50,1,0
242465,-133.333333333333,3,2,1,50,0,0
244037,571.428571428571,3,2,1,50,1,0
244037,-133.333333333333,3,2,1,50,0,0
245037,-133.333333333333,3,2,1,60,0,0
245608,571.428571428571,3,2,1,60,1,0
245608,-133.333333333333,3,2,1,60,0,0
245893,-133.333333333333,3,2,1,50,0,0
247180,571.428571428571,3,2,1,50,1,0
247180,-133.333333333333,3,2,1,50,0,0
247895,-58.8235294117647,3,2,1,60,0,0
248751,571.428571428571,3,2,1,60,1,0
248751,-95.2380952380951,3,2,1,60,0,0
260965,-95.2380952380951,3,2,1,5,0,0
261036,-95.2380952380951,3,2,1,60,0,0
274822,-95.2380952380951,3,2,1,5,0,0
274893,-95.2380952380951,3,2,1,60,0,0
275108,-95.2380952380951,3,2,1,5,0,0
275179,-95.2380952380951,3,2,1,60,0,0
275751,-74.0740740740741,3,2,1,60,0,0
277751,571.428571428571,3,2,1,60,1,0
278751,-66.6666666666667,3,2,1,60,0,0
279251,-66.6666666666667,3,2,1,5,0,0
279323,571.428571428571,3,2,1,60,1,0
280894,571.428571428571,3,2,1,60,1,0
281894,-76.9230769230769,3,2,1,60,0,0
281965,-76.9230769230769,3,2,1,5,0,0
282036,-76.9230769230769,3,2,1,60,0,0
282323,571.428571428571,3,2,1,60,1,0
282324,-100,3,2,1,60,0,0
283251,-100,3,2,1,5,0,0
283323,-100,3,2,1,60,0,0
283608,-76.9230769230769,3,2,1,60,0,0
283680,-76.9230769230769,3,2,1,5,0,0
283894,571.428571428571,3,2,1,60,1,0
283894,-100,3,2,1,60,0,0
285036,-100,3,2,1,5,0,0
285465,571.428571428571,3,2,1,60,1,0
286465,-83.3333333333333,3,2,1,60,0,0
286965,-83.3333333333333,3,2,1,5,0,0
287037,571.428571428571,3,2,1,60,1,0
288608,571.428571428571,3,2,1,60,1,0
290037,571.428571428571,3,2,1,60,1,0
290038,-100,3,2,1,60,0,0
290966,-100,3,2,1,5,0,0
291037,-83.3333333333333,3,2,1,60,0,0
291538,-83.3333333333333,3,2,1,5,0,0
291608,571.428571428571,3,2,1,60,1,0
291608,-83.3333333333333,3,2,1,60,0,0
293180,571.428571428571,3,2,1,60,1,0
293466,-133.333333333333,3,2,1,60,0,0
294608,571.428571428571,3,2,1,60,1,0
294608,-133.333333333333,3,2,1,60,0,0
295824,-133.333333333333,3,2,1,5,0,0
295895,-133.333333333333,3,2,1,60,0,0
296180,571.428571428571,3,2,1,60,1,0
296180,-133.333333333333,3,2,1,60,0,0
297681,-133.333333333333,3,2,1,5,0,0
297751,571.428571428571,3,2,1,60,1,0
297752,-100,3,2,1,60,0,0
298179,-83.3333333333333,3,2,1,60,0,0
299323,571.428571428571,3,2,1,60,1,0
299323,-83.3333333333333,3,2,1,60,0,0
300751,571.428571428571,3,2,1,60,1,0
300751,-71.4285714285714,3,2,1,60,0,0
301465,-66.6666666666667,3,2,1,60,0,0
302608,-90.9090909090909,3,2,1,60,0,0
303323,571.428571428571,3,2,1,60,1,0
303465,-66.6666666666667,3,2,1,60,0,0
303894,-133.333333333333,3,2,1,60,0,0
304894,571.428571428571,3,2,1,60,1,0
305894,-133.333333333333,3,2,1,60,0,0
306465,571.428571428571,3,2,1,60,1,0
306893,-133.333333333333,3,2,1,60,0,0
307822,-133.333333333333,3,2,1,5,0,0
307894,571.428571428571,3,2,1,60,1,0
307894,-133.333333333333,3,2,1,60,0,0
309180,571.428571428571,3,2,1,60,1,0
309180,-105.263157894737,3,2,1,60,0,0
310037,571.428571428571,3,2,1,60,1,0
310037,-153.846153846153,3,2,1,40,0,0
311608,571.428571428571,3,2,1,40,1,0
311608,-153.846153846153,3,2,1,40,0,0
313180,571.428571428571,3,2,1,40,1,0
313180,-153.846153846153,3,2,1,40,0,0
314751,571.428571428571,3,2,1,40,1,0
314751,-153.846153846153,3,2,1,40,0,0
316323,571.428571428571,3,2,1,60,1,1
316323,-66.6666666666667,3,2,1,60,0,1
316751,-33.3333333333333,3,2,2,60,0,1
317894,571.428571428571,3,2,1,60,1,1
317894,-66.6666666666667,3,2,1,60,0,1
318322,-33.3333333333333,3,2,2,60,0,1
319465,571.428571428571,3,2,1,60,1,1
319465,-66.6666666666667,3,2,1,60,0,1
319893,-33.3333333333333,3,2,2,60,0,1
321037,571.428571428571,3,2,1,60,1,1
321037,-66.6666666666667,3,2,1,60,0,1
321465,-33.3333333333333,3,2,2,60,0,1
322608,571.428571428571,3,2,1,60,1,0
322609,-100,3,2,1,40,0,0
324180,571.428571428571,3,2,1,40,1,0
325751,571.428571428571,3,2,1,40,1,0
327323,571.428571428571,3,2,1,40,1,0
327752,-100,3,2,1,40,0,0
328894,571.428571428571,3,2,1,60,1,1
328894,-66.6666666666667,3,2,1,60,0,1
329322,-33.3333333333333,3,2,1,60,0,1
330465,571.428571428571,3,2,1,60,1,1
330465,-66.6666666666667,3,2,1,60,0,1
330893,-33.3333333333333,3,2,1,60,0,1
332037,571.428571428571,3,2,1,60,1,1
332037,-66.6666666666667,3,2,1,60,0,1
332465,-33.3333333333333,3,2,1,60,0,1
333608,571.428571428571,3,2,1,60,1,0
333609,-50,3,2,1,60,0,0
335180,571.428571428571,3,2,2,60,1,0
335180,-50,3,2,2,60,0,0
336751,571.428571428571,3,2,1,60,1,0
336751,-50,3,2,1,60,0,0
337036,-50,3,2,2,60,0,0
338037,571.428571428571,3,2,1,60,1,0
338037,-50,3,2,1,60,0,0
338322,-50,3,2,2,60,0,0
339608,571.428571428571,3,2,1,60,1,0
339608,-50,3,2,1,60,0,0
339893,-100,3,2,2,60,0,0
340036,-50,3,2,2,60,0,0
340894,571.428571428571,3,2,1,60,1,0
340894,-50,3,2,1,60,0,0
341179,-50,3,2,2,60,0,0
342465,571.428571428571,3,2,1,60,1,0
342465,-50,3,2,1,60,0,0
342750,-50,3,2,2,60,0,0
343751,571.428571428571,3,2,1,60,1,0
343751,-50,3,2,1,60,0,0
344036,-100,3,2,2,60,0,0
344179,-33.3333333333333,3,2,2,60,0,0
345038,-50,3,2,2,60,0,0
345322,571.428571428571,3,2,1,60,1,0
345322,-50,3,2,1,60,0,0
345607,-100,3,2,2,60,0,0
345750,-33.3333333333333,3,2,2,60,0,0
346608,571.428571428571,3,2,1,60,1,0
346608,-133.333333333333,3,2,1,40,0,0
348179,571.428571428571,3,2,1,40,1,0
348179,-133.333333333333,3,2,1,40,0,0
349750,571.428571428571,3,2,1,40,1,0
349751,-133.333333333333,3,2,1,40,0,0
351321,571.428571428571,3,2,1,40,1,0
351321,-133.333333333333,3,2,1,40,0,0
352894,571.428571428571,3,2,1,60,1,1
352894,-66.6666666666667,3,2,1,60,0,1
353322,-33.3333333333333,3,2,2,60,0,1
354465,571.428571428571,3,2,1,60,1,1
354465,-66.6666666666667,3,2,1,60,0,1
354893,-33.3333333333333,3,2,1,60,0,1
356037,571.428571428571,3,2,1,60,1,1
356037,-66.6666666666667,3,2,1,60,0,1
356465,-33.3333333333333,3,2,2,60,0,1
357608,571.428571428571,3,2,1,60,1,1
357608,-66.6666666666667,3,2,1,60,0,1
358036,-33.3333333333333,3,2,2,60,0,1
359180,571.428571428571,3,2,1,60,1,0
359180,-133.333333333333,3,2,1,40,0,0
360751,571.428571428571,3,2,1,40,1,0
360751,-133.333333333333,3,2,1,40,0,0
362252,-133.333333333333,3,2,1,5,0,0
362322,571.428571428571,3,2,1,40,1,0
362322,-133.333333333333,3,2,1,40,0,0
363538,-133.333333333333,3,2,1,5,0,0
363609,-133.333333333333,3,2,1,50,0,0
363893,571.428571428571,3,2,1,50,1,0
363893,-83.3333333333333,3,2,1,50,0,0
364109,-83.3333333333333,3,2,1,5,0,0
364181,-83.3333333333333,3,2,1,50,0,0
365395,-83.3333333333333,3,2,1,5,0,0
365465,571.428571428571,3,2,1,60,1,1
365465,-50,3,2,1,60,0,1
365893,-25,3,2,2,60,0,1
367037,571.428571428571,3,2,1,60,1,1
367037,-50,3,2,1,60,0,1
367465,-25,3,2,2,60,0,1
368608,571.428571428571,3,2,1,60,1,1
368608,-50,3,2,1,60,0,1
369036,-25,3,2,2,60,0,1
370180,571.428571428571,3,2,1,60,1,1
370180,-40,3,2,1,60,0,1
370465,-40,3,2,2,60,0,1
371037,-44.4444444444445,3,2,1,60,0,1
371751,571.428571428571,3,2,1,60,1,0
371751,-50,3,2,1,60,0,0
372179,-50,3,2,2,60,0,0
373323,571.428571428571,3,2,1,60,1,0
373323,-50,3,2,1,60,0,0
374037,-100,3,2,2,60,0,0
374608,571.428571428571,3,2,1,60,1,0
374608,-50,3,2,1,60,0,0
375322,-100,3,2,2,60,0,0
376180,571.428571428571,3,2,1,60,1,0
376180,-50,3,2,1,60,0,0
376608,-100,3,2,2,60,0,0
377465,571.428571428571,3,2,1,60,1,0
377465,-50,3,2,1,60,0,0
378179,-100,3,2,2,60,0,0
379037,571.428571428571,3,2,1,60,1,0
379037,-50,3,2,1,60,0,0
379465,-100,3,2,2,60,0,0
380322,571.428571428571,3,2,1,60,1,0
380322,-50,3,2,1,60,0,0
381036,-50,3,2,2,60,0,0
381893,571.428571428571,3,2,1,60,1,0
381894,-50,3,2,1,60,0,0
383180,571.428571428571,3,2,1,60,1,0
383180,-133.333333333333,3,2,1,60,0,0
386322,571.428571428571,3,2,1,60,1,0
386322,-133.333333333333,3,2,1,60,0,0
389465,571.428571428571,3,2,1,60,1,0
389465,-133.333333333333,3,2,1,60,0,0
392608,571.428571428571,3,2,1,60,1,0
392608,-133.333333333333,3,2,1,60,0,0
395609,-133.333333333333,3,2,1,5,0,0
395751,571.428571428571,3,2,1,60,1,0
395751,-133.333333333333,4,2,1,60,0,0
397323,571.428571428571,3,2,1,60,1,0
397323,-133.333333333333,4,2,1,60,0,0
398894,571.428571428571,3,2,1,60,1,0
398894,-133.333333333333,4,2,1,60,0,0
400036,-133.333333333333,4,2,1,5,0,0
400180,571.428571428571,3,2,1,60,1,0
400894,-40,4,2,1,60,0,0
402037,571.428571428571,3,2,1,60,1,0
402037,-117.647058823529,4,2,1,60,0,0
403608,571.428571428571,3,2,1,60,1,0
403608,-117.647058823529,4,2,1,60,0,0
405180,571.428571428571,3,2,1,60,1,0
405180,-117.647058823529,4,2,1,60,0,0
406751,571.428571428571,3,2,1,60,1,0
406752,-117.647058823529,4,2,1,60,0,0
407179,-40,3,2,1,60,0,0
407466,-117.647058823529,3,2,1,60,0,0
408323,571.428571428571,3,2,1,60,1,0
408323,-79.9999999999998,3,2,1,60,0,0
420323,-64.5161290322581,3,2,1,60,0,0
423751,-80,3,2,1,60,0,0
435751,-181.818181818181,3,2,1,60,0,0
437323,571.428571428571,3,2,1,60,1,0
438252,-181.818181818181,3,2,1,5,0,0
438323,-133.333333333333,3,2,1,50,0,0
438824,-133.333333333333,3,2,1,5,0,0
438894,571.428571428571,3,2,1,60,1,0
438894,-166.666666666667,3,2,1,50,0,0
440465,571.428571428571,3,2,1,60,1,0
441180,-166.666666666667,3,2,1,5,0,0
441252,-166.666666666667,3,2,1,50,0,0
442037,571.428571428571,3,2,1,50,1,0
443608,588.235294117647,3,2,1,50,1,0
443608,-166.666666666667,3,2,1,40,0,0
445225,588.235294117647,3,2,1,40,1,0
445225,-166.666666666667,3,2,1,30,0,0
446989,-166.666666666667,3,2,1,20,0,0
448754,-166.666666666667,3,2,1,10,0,0
452283,-166.666666666667,3,2,1,5,0,0

[Colours]
Combo1 : 128,128,128
Combo2 : 128,64,64
Combo3 : 192,192,192
Combo4 : 128,0,64

[HitObjects]
111,193,31466,6,0,L|211:188,1,95,4|8,3:1|0:1,0:0:0:0:
12,149,31894,1,0,3:0:0:0:
12,149,32180,2,0,L|6:255,1,95,8|0,0:1|3:2,0:0:0:0:
91,96,32608,1,0,3:2:0:0:
94,286,32751,1,8,0:1:0:0:
94,286,33037,6,0,L|-6:293,1,95,0|8,3:1|0:1,0:0:0:0:
181,319,33465,1,0,3:0:0:0:
181,319,33751,2,0,L|174:219,1,95,8|0,0:1|3:2,0:0:0:0:
108,375,34179,1,0,3:2:0:0:
267,193,34322,1,8,0:1:0:0:
267,193,34608,6,0,P|321:186|381:185,1,109.250002083778,4|8,3:1|0:1,0:0:0:0:
181,136,35036,1,0,3:0:0:0:
181,136,35322,2,0,P|175:198|174:277,1,109.250002083778,8|0,0:1|3:2,0:0:0:0:
265,97,35750,1,0,3:2:0:0:
303,291,35893,1,8,0:1:0:0:
303,291,36180,6,0,P|357:289|411:282,1,109.250002083778,0|8,3:1|0:1,0:0:0:0:
213,320,36608,1,0,3:0:0:0:
213,320,36894,2,0,B|205:264|205:264|214:246|214:246|207:199,1,123.499994346619,12|0,0:1|3:2,0:0:0:0:
131,369,37322,1,0,3:2:0:0:
303,291,37465,1,8,0:1:0:0:
129,226,37608,1,0,0:0:0:0:
339,372,37751,6,0,L|433:376,1,95,4|8,3:1|0:1,0:0:0:0:
303,291,38179,1,0,3:0:0:0:
303,291,38465,2,0,L|298:196,1,95,8|0,0:1|3:2,0:0:0:0:
250,362,38893,1,0,3:2:0:0:
479,310,39036,1,8,0:1:0:0:
479,310,39323,6,0,L|384:314,1,95,0|8,3:1|0:1,0:0:0:0:
512,234,39751,1,0,3:0:0:0:
512,234,40037,6,0,L|517:140,1,95,8|0,0:1|3:2,0:0:0:0:
479,309,40465,1,0,3:2:0:0:
450,99,40608,1,8,0:1:0:0:
450,99,40894,6,0,P|396:106|335:103,1,109.250002083778,4|8,3:1|0:1,0:0:0:0:
489,26,41322,1,0,3:0:0:0:
489,26,41608,2,0,P|496:80|493:140,1,109.250002083778,8|0,0:1|3:2,0:0:0:0:
399,0,42036,1,0,3:2:0:0:
431,186,42179,1,8,0:1:0:0:
431,186,42465,6,0,P|376:184|322:191,1,109.250002083778,0|8,3:1|0:1,0:0:0:0:
507,229,42893,1,0,3:0:0:0:
507,229,43179,2,0,B|510:198|510:198|522:162|522:162,1,61.7499971733095,8|0,0:1|3:2,0:0:0:0:
322,190,43465,1,0,3:0:0:0:
435,267,43607,1,0,3:2:0:0:
370,127,43750,1,8,0:1:0:0:
314,324,43893,1,8,0:1:0:0:
260,43,44037,6,0,L|255:137,1,95,4|8,3:1|0:1,0:0:0:0:
328,5,44465,1,0,3:0:0:0:
328,5,44751,2,0,L|234:0,1,95,8|0,0:1|3:2,0:0:0:0:
393,58,45179,1,0,3:2:0:0:
170,74,45322,1,8,0:1:0:0:
170,74,45608,6,0,L|175:168,1,95,0|8,3:1|0:1,0:0:0:0:
96,20,46036,1,0,3:0:0:0:
96,20,46322,2,0,L|190:25,1,95,8|0,0:1|3:2,0:0:0:0:
17,74,46750,1,0,3:2:0:0:
256,101,46893,1,8,0:1:0:0:
256,101,47180,6,0,L|261:7,1,95,4|8,3:1|0:1,0:0:0:0:
183,170,47608,1,0,3:0:0:0:
183,170,47894,2,0,L|277:175,1,95,8|0,0:1|3:2,0:0:0:0:
117,106,48322,1,0,3:2:0:0:
264,249,48465,1,8,0:1:0:0:
264,249,48751,6,0,L|259:343,1,95,0|8,3:1|0:1,0:0:0:0:
319,179,49179,1,0,3:0:0:0:
319,179,49465,2,0,L|225:174,1,95,8|0,0:1|3:2,0:0:0:0:
368,110,49893,1,0,3:2:0:0:
385,317,50036,1,8,0:1:0:0:
385,317,50323,6,0,P|439:309|493:311,1,109.250002083778,4|8,3:1|0:1,0:0:0:0:
315,384,50751,1,0,3:0:0:0:
315,384,51037,2,0,P|307:329|309:275,1,109.250002083778,8|0,0:1|3:2,0:0:0:0:
188,384,51465,1,0,3:2:0:0:
385,317,51608,1,8,0:1:0:0:
385,317,51894,6,0,P|330:315|276:323,1,109.250002083778,0|8,3:1|0:1,0:0:0:0:
429,239,52322,1,0,3:0:0:0:
429,239,52608,2,0,B|373:231|373:231|355:240|355:240|308:233,1,123.499994346619,12|0,0:1|3:2,0:0:0:0:
493,186,53036,1,0,3:2:0:0:
259,119,53179,1,8,3:3:0:0:
259,134,53251,1,8,3:3:0:0:
260,149,53322,1,8,3:3:0:0:
261,164,53394,1,8,3:3:0:0:
261,176,53465,6,0,L|167:181,1,95,12|8,1:1|0:1,0:0:0:0:
353,119,53893,1,0,3:0:0:0:
353,119,54179,2,0,L|358:213,1,95,8|0,0:1|3:2,0:0:0:0:
299,39,54607,1,0,3:2:0:0:
288,254,54750,1,8,0:1:0:0:
288,254,55037,6,0,L|382:259,1,95,0|8,3:1|0:1,0:0:0:0:
210,313,55465,1,0,3:0:0:0:
210,313,55751,2,0,L|116:318,1,95,8|0,0:1|3:2,0:0:0:0:
288,254,56179,1,0,3:2:0:0:
8,335,56322,1,8,0:1:0:0:
8,335,56608,6,0,P|15:276|14:219,1,109.250002083778,4|8,3:1|0:1,0:0:0:0:
71,378,57036,1,0,3:0:0:0:
71,378,57322,2,0,P|125:377|179:384,1,109.250002083778,8|0,0:1|3:2,0:0:0:0:
8,335,57750,1,0,3:2:0:0:
210,313,57893,1,8,0:1:0:0:
210,313,58180,6,0,P|155:306|101:306,1,109.250002083778,0|8,3:1|0:1,0:0:0:0:
288,254,58608,1,0,3:0:0:0:
288,254,58894,5,8,0:1:0:0:
406,193,59037,1,0,3:2:0:0:
345,75,59180,1,0,3:2:0:0:
316,164,59322,1,0,3:2:0:0:
435,104,59465,1,8,0:1:0:0:
197,231,59608,1,8,0:1:0:0:
259,343,59751,6,0,L|353:348,1,95,4|8,3:1|0:1,0:0:0:0:
179,383,60179,1,0,3:0:0:0:
179,383,60465,2,0,L|85:378,1,95,8|0,0:1|3:2,0:0:0:0:
259,343,60893,1,0,3:2:0:0:
42,308,61036,1,8,0:1:0:0:
42,308,61323,6,0,L|112:319,1,66.4999979705811,4|0,3:1|3:1,0:0:0:0:
103,214,61608,2,0,L|176:208,1,66.4999979705811,12|0,0:1|3:0,0:0:0:0:
123,105,61894,1,0,3:1:0:0:
397,170,62037,2,0,L|324:182,1,66.4999979705811,12|8,0:1|0:1,0:0:0:0:
280,98,62323,1,0,3:2:0:0:
447,65,62465,2,0,L|519:52,1,66.4999979705811,4|8,3:0|0:1,0:0:0:0:
442,267,62751,1,8,0:1:0:0:
512,320,62894,6,0,P|442:293|361:290,1,132.999995941162,0|0,3:0|3:0,0:0:0:0:
249,209,63322,2,0,P|323:201|402:219,3,132.999995941162,0|8|0|8,3:0|0:1|3:0|0:1,0:0:0:0:
206,275,64322,1,0,0:0:0:0:
37,159,64465,2,0,P|97:185|163:194,1,132.999995941162,0|0,3:0|3:0,0:0:0:0:
318,85,64893,2,0,P|251:80|187:94,3,132.999995941162,0|8|0|8,3:0|0:1|3:0|0:1,0:0:0:0:
164,266,65893,5,0,0:0:0:0:
398,235,66037,2,0,P|402:168|388:104,1,132.999995941162,0|0,3:0|3:0,0:0:0:0:
305,314,66465,2,0,P|369:327|435:323,3,132.999995941162,0|8|0|8,3:0|0:1|3:0|0:1,0:0:0:0:
236,367,67465,1,0,0:0:0:0:
92,277,67608,2,0,P|158:272|222:286,1,132.999995941162,0|0,3:0|3:0,0:0:0:0:
0,356,68036,2,0,P|-4:289|9:225,3,132.999995941162,0|8|0|8,3:0|0:1|3:0|0:1,0:0:0:0:
34,68,69036,5,0,0:0:0:0:
88,176,69180,2,0,P|152:189|218:185,1,132.999995941162,0|0,3:0|3:0,0:0:0:0:
403,136,69608,2,0,P|338:122|272:126,3,132.999995941162,0|8|0|8,3:0|0:1|3:0|0:1,0:0:0:0:
438,204,70608,1,0,0:0:0:0:
493,6,70751,2,0,P|479:70|483:136,1,132.999995941162,0|0,3:0|3:0,0:0:0:0:
512,309,71179,2,0,P|447:295|381:299,3,132.999995941162,0|8|0|8,3:0|0:1|3:0|0:1,0:0:0:0:
286,180,72179,5,0,0:0:0:0:
163,308,72323,2,0,P|229:312|293:298,1,132.999995941162,0|0,3:0|3:0,0:0:0:0:
62,237,72751,2,0,P|57:303|71:367,3,132.999995941162,0|8|0|8,3:0|0:1|3:0|0:1,0:0:0:0:
169,196,73751,1,0,0:0:0:0:
0,133,73894,2,0,P|62:111|128:108,1,132.999995941162,0|0,3:0|3:0,0:0:0:0:
351,116,74322,2,0,P|284:111|220:125,3,132.999995941162,0|8|0|8,3:0|0:1|3:0|0:1,0:0:0:0:
166,258,75322,1,0,0:0:0:0:
263,32,75465,2,0,P|197:42|137:70,1,132.999995941162,0|0,3:0|3:0,0:0:0:0:
58,177,75893,6,0,L|64:111,1,53.4375020384789,2|0,3:1|0:0,0:0:0:0:
64,110,76179,1,8,0:1:0:0:
452,384,76465,2,0,L|437:245,1,106.875004076958,2|0,3:1|0:0,0:0:0:0:
438,256,76750,1,8,0:1:0:0:
362,318,76893,1,0,0:0:0:0:
363,81,77037,2,0,L|346:238,1,142.500005435944,2|0,3:1|3:0,0:0:0:0:
444,107,77465,6,0,L|510:101,1,53.4375020384789,2|0,3:1|0:0,0:0:0:0:
511,101,77751,1,8,0:1:0:0:
153,362,78037,2,0,L|291:376,1,106.875004076958,2|0,3:1|0:0,0:0:0:0:
281,376,78322,1,8,0:1:0:0:
237,284,78465,1,0,0:0:0:0:
479,305,78608,2,0,L|317:288,1,142.500005435944,2|0,3:1|3:0,0:0:0:0:
65,195,79036,6,0,B|73:192|73:192|81:199|81:199|94:189|94:189|116:198|116:198,1,53.4375020384789,2|0,3:1|0:0,0:0:0:0:
138,209,79322,2,0,B|145:212|145:212|146:223|146:223|162:225|162:225|171:247|171:247,1,53.4375020384789,10|0,0:1|0:0,0:0:0:0:
179,270,79608,2,0,B|182:278|182:278|175:285|175:285|185:299|185:299|176:321|176:321,1,53.4375020384789,2|0,3:1|0:0,0:0:0:0:
164,342,79893,1,8,0:1:0:0:
234,171,80036,1,0,0:0:0:0:
0,108,80180,2,0,L|83:111,1,71.2500027179719,2|0,3:1|3:0,0:0:0:0:
227,75,80608,6,0,B|219:78|219:78|211:71|211:71|198:81|198:81|176:72|176:72,1,53.4375020384789,2|0,3:1|0:0,0:0:0:0:
154,61,80894,2,0,B|146:57|146:57|145:46|145:46|129:44|129:44|120:22|120:22,1,53.4375020384789,10|0,0:1|0:0,0:0:0:0:
113,0,81180,5,0,3:0:0:0:
71,110,81322,1,0,3:0:0:0:
192,262,81465,1,0,3:0:0:0:
150,152,81608,1,0,3:0:0:0:
125,380,81751,6,0,L|247:373,1,95,2|0,3:1|0:0,0:0:0:0:
326,294,82179,2,0,L|392:290,1,47.5,2|0,3:1|0:0,0:0:0:0:
247,218,82465,2,0,L|313:214,1,47.5,0|0,3:0|0:0,0:0:0:0:
168,142,82751,2,0,L|234:138,1,47.5,10|0,1:1|0:0,0:0:0:0:
89,66,83036,1,0,3:0:0:0:
314,367,83323,6,0,L|187:376,1,95,2|0,3:1|0:0,0:0:0:0:
76,303,83751,2,0,L|28:305,1,47.5,2|0,3:1|0:0,0:0:0:0:
169,220,84037,2,0,L|121:222,1,47.5,0|0,3:0|0:0,0:0:0:0:
262,136,84323,2,0,L|214:138,1,47.5,10|0,1:1|0:0,0:0:0:0:
356,53,84608,1,0,3:0:0:0:
76,303,84894,6,0,L|68:174,1,95,2|0,3:1|0:0,0:0:0:0:
129,138,85322,2,0,L|124:54,1,47.5,2|0,3:1|0:0,0:0:0:0:
237,218,85608,2,0,L|232:134,1,47.5,0|0,3:0|0:0,0:0:0:0:
345,298,85894,2,0,L|340:214,1,47.5,10|0,1:1|0:0,0:0:0:0:
453,378,86179,1,0,3:0:0:0:
511,73,86465,6,0,L|404:78,1,95,2|0,3:1|0:0,0:0:0:0:
311,125,86893,2,0,L|228:128,1,47.5,2|0,3:1|0:0,0:0:0:0:
397,217,87179,1,0,3:0:0:0:
311,236,87322,1,0,3:0:0:0:
445,305,87465,2,0,L|545:308,1,71.2500027179719,10|0,1:1|3:0,0:0:0:0:
272,382,87750,2,0,L|172:385,1,71.2500027179719,8|2,1:0|0:1,0:0:0:0:
44,56,90465,6,0,L|36:-1,1,35.625001358986,0|0,3:0|0:0,0:0:0:0:
37,6,90608,1,8,1:0:0:0:
5,139,90750,1,0,1:0:0:0:
38,245,90893,1,0,1:0:0:0:
63,207,91036,1,0,1:0:0:0:
49,189,91180,2,0,P|85:201|130:205,1,80.750001540184,4|8,0:3|1:0,0:0:0:0:
208,326,91608,2,0,P|171:338|136:344,1,60.562501155138,0|0,1:0|0:0,0:0:0:0:
134,341,91894,1,8,1:0:0:0:
504,291,92180,5,0,3:0:0:0:
504,291,92322,1,0,3:0:0:0:
439,198,92465,2,0,L|363:195,1,60.562501155138,8|0,1:0|0:0,0:0:0:0:
284,133,92751,2,0,P|318:134|372:119,1,80.750001540184,0|8,1:0|1:0,0:0:0:0:
217,68,93179,2,0,P|178:57|143:59,1,60.562501155138,0|0,1:0|0:0,0:0:0:0:
142,60,93465,1,8,1:0:0:0:
278,384,93751,5,0,3:0:0:0:
278,384,93893,1,0,3:0:0:0:
343,302,94036,2,0,L|355:374,1,60.562501155138,8|0,1:0|0:0,0:0:0:0:
272,258,94323,2,0,P|266:228|264:176,1,80.750001540184,0|8,1:0|1:0,0:0:0:0:
419,178,94751,2,0,P|424:148|427:96,1,80.750001540184,0|8,1:0|1:0,0:0:0:0:
0,306,95323,5,0,3:0:0:0:
0,306,95465,1,0,3:0:0:0:
78,213,95608,2,0,L|8:222,1,60.562501155138,8|0,1:0|0:0,0:0:0:0:
137,136,95894,2,0,P|168:139|221:150,1,80.750001540184,0|8,1:0|1:0,0:0:0:0:
210,310,96322,2,0,P|250:305|289:297,1,80.750001540184,0|8,1:0|1:0,0:0:0:0:
94,8,96894,5,0,3:0:0:0:
94,8,97036,1,0,3:0:0:0:
50,92,97179,2,0,L|44:163,1,60.562501155138,12|0,1:0|0:0,0:0:0:0:
78,239,97465,2,0,L|84:310,1,60.562501155138,4|0,1:0|0:0,0:0:0:0:
89,325,97750,1,8,1:0:0:0:
171,209,97893,2,0,L|164:123,1,80.750001540184,0|8,1:0|1:0,0:0:0:0:
374,384,98465,5,0,3:0:0:0:
374,384,98607,1,0,3:0:0:0:
437,298,98750,2,0,P|440:266|431:227,1,60.562501155138,8|0,1:0|0:0,0:0:0:0:
274,182,99037,2,0,P|306:194|353:195,1,80.750001540184,0|8,1:0|1:0,0:0:0:0:
413,97,99465,2,0,P|453:94|491:104,1,80.750001540184,0|8,1:0|1:0,0:0:0:0:
244,3,100037,5,0,3:0:0:0:
244,3,100179,1,0,3:0:0:0:
172,92,100322,2,0,L|162:28,1,60.562501155138,8|0,1:0|0:0,0:0:0:0:
117,167,100608,2,0,P|111:200|111:253,1,80.750001540184,0|8,3:0|1:0,0:0:0:0:
227,286,101036,2,0,P|224:319|210:370,1,80.750001540184,0|8,1:0|1:0,0:0:0:0:
488,125,101608,5,0,3:0:0:0:
488,125,101750,2,0,P|407:158|378:104,1,160.312500611544,0|0,3:0|0:0,0:0:0:0:
371,81,102180,2,0,L|363:174,1,80.750001540184,0|8,3:0|1:0,0:0:0:0:
274,258,102608,2,0,L|282:351,1,80.750001540184,0|12,1:0|1:0,0:0:0:0:
0,0,103180,5,0,3:0:0:0:
9,51,103322,1,0,3:0:0:0:
92,80,103465,1,8,1:0:0:0:
83,131,103608,1,0,0:0:0:0:
173,44,103751,2,0,L|258:41,1,80.750001540184,4|8,1:0|1:0,0:0:0:0:
344,179,104179,2,0,L|259:176,1,80.750001540184,0|8,1:0|1:0,0:0:0:0:
491,266,104751,5,0,3:0:0:0:
491,266,104893,1,0,3:0:0:0:
379,320,105036,2,0,L|443:325,1,60.562501155138,8|0,1:0|0:0,0:0:0:0:
330,254,105323,2,0,P|285:255|249:265,1,80.750001540184,0|8,1:0|1:0,0:0:0:0:
212,372,105751,2,0,P|171:371|132:361,1,80.750001540184,0|8,1:0|1:0,0:0:0:0:
437,33,106323,5,0,3:0:0:0:
437,33,106465,1,0,3:0:0:0:
328,95,106608,2,0,L|393:106,1,60.562501155138,8|0,1:0|0:0,0:0:0:0:
273,158,106894,2,0,P|223:155|184:143,1,80.750001540184,0|8,1:0|1:0,0:0:0:0:
95,76,107322,2,0,P|54:76|15:86,1,80.750001540184,0|8,1:0|1:0,0:0:0:0:
120,314,107894,5,0,3:0:0:0:
120,314,108036,1,0,3:0:0:0:
60,371,108179,2,0,L|-19:381,1,60.562501155138,8|0,1:0|0:0,0:0:0:0:
88,293,108465,2,0,P|118:285|169:282,1,80.750001540184,0|8,1:0|1:0,0:0:0:0:
240,384,108893,2,0,P|271:383|321:373,1,80.750001540184,0|8,1:0|1:0,0:0:0:0:
411,131,109465,5,0,3:0:0:0:
417,166,109607,1,0,3:0:0:0:
486,218,109750,1,8,1:0:0:0:
477,253,109893,1,0,3:0:0:0:
333,94,110037,2,0,P|337:58|372:7,1,80.750001540184,4|8,1:0|1:0,0:0:0:0:
487,61,110465,2,0,P|507:95|512:135,1,80.750001540184,0|8,1:0|1:0,0:0:0:0:
182,82,111037,5,0,3:0:0:0:
182,82,111179,1,0,3:0:0:0:
120,200,111322,2,0,L|122:130,1,60.562501155138,8|0,1:0|0:0,0:0:0:0:
33,236,111608,2,0,P|29:285|44:329,1,80.750001540184,0|8,1:0|1:0,0:0:0:0:
173,305,112036,2,0,P|177:354|162:398,1,80.750001540184,0|8,1:0|1:0,0:0:0:0:
0,82,112608,5,0,3:0:0:0:
0,82,112750,1,0,3:0:0:0:
45,147,112893,2,0,B|88:154|88:154|87:148|87:148|136:153,1,89.0625,8|0,1:0|0:0,0:0:0:0:
233,44,113180,2,0,P|208:44|151:54,1,80.750001540184,4|8,1:0|1:0,0:0:0:0:
319,114,113608,2,0,P|344:114|401:124,1,80.750001540184,0|8,1:0|1:0,0:0:0:0:
54,279,114180,5,0,3:0:0:0:
54,279,114322,1,0,3:0:0:0:
129,383,114465,2,0,L|129:303,1,71.2500027179719,8|0,1:0|0:0,0:0:0:0:
85,0,114751,5,0,3:0:0:0:
84,14,114822,1,0,3:0:0:0:
83,28,114893,1,0,3:0:0:0:
82,42,114965,1,0,3:0:0:0:
81,56,115036,1,0,3:0:0:0:
80,70,115108,1,0,3:0:0:0:
79,84,115179,1,0,1:0:0:0:
119,187,115322,1,0,1:0:0:0:
0,276,115465,5,0,3:0:0:0:
82,312,115608,1,0,3:0:0:0:
221,230,115751,1,0,3:0:0:0:
154,264,115893,1,0,3:0:0:0:
81,172,116036,1,0,3:0:0:0:
119,187,116179,1,0,3:0:0:0:
214,50,116323,6,0,P|264:39|320:34,1,95,10|0,0:1|0:0,0:0:0:0:
395,140,116751,2,0,P|364:132|331:115,1,47.5,0|2,3:0|0:1,0:0:0:0:
403,267,117037,2,0,P|386:239|375:204,1,47.5,0|0,3:0|0:0,0:0:0:0:
318,362,117323,1,0,3:0:0:0:
470,193,117465,2,0,P|477:144|473:83,1,95,10|0,1:0|3:0,0:0:0:0:
201,358,118037,6,0,P|196:315|178:248,1,95,2|0,3:1|0:0,0:0:0:0:
71,267,118465,2,0,P|80:245|92:225,1,47.5,0|2,3:0|0:1,0:0:0:0:
44,142,118751,2,0,P|66:133|89:127,1,47.5,0|0,3:0|0:0,0:0:0:0:
113,34,119037,2,0,P|134:43|188:102,1,95,8|0,1:0|0:0,0:0:0:0:
44,142,119465,2,0,P|15:155|-14:177,1,47.5,0|0,3:0|0:0,0:0:0:0:
322,283,119751,6,0,P|338:230|342:184,1,95,2|0,3:1|0:0,0:0:0:0:
211,160,120180,2,0,P|227:176|246:191,1,47.5,0|2,3:0|0:1,0:0:0:0:
278,50,120465,2,0,P|277:73|280:97,1,47.5,0|0,3:0|0:0,0:0:0:0:
406,23,120751,1,0,3:0:0:0:
230,281,120894,2,0,P|239:334|264:381,1,95,10|0,1:0|3:0,0:0:0:0:
512,151,121465,6,0,P|507:193|489:261,1,95,2|0,3:1|0:0,0:0:0:0:
381,242,121894,2,0,P|390:263|402:283,1,47.5,0|2,3:0|0:1,0:0:0:0:
354,366,122180,2,0,P|376:374|399:380,1,47.5,0|0,3:0|0:0,0:0:0:0:
432,176,122465,2,0,P|429:151|419:122,1,47.5,8|2,1:0|0:1,0:0:0:0:
252,384,122751,1,0,3:0:0:0:
252,384,122894,1,0,3:0:0:0:
21,177,123180,6,0,L|17:309,1,95,6|0,3:1|0:0,0:0:0:0:
102,166,123608,2,0,L|94:110,1,47.5,0|2,3:0|0:1,0:0:0:0:
187,117,123894,2,0,L|220:71,1,47.5,0|0,3:0|0:0,0:0:0:0:
281,142,124180,1,0,3:0:0:0:
31,47,124323,2,0,L|152:39,1,95,10|0,1:0|3:0,0:0:0:0:
0,350,124894,6,0,L|94:356,1,95,2|0,3:1|0:0,0:0:0:0:
173,282,125323,2,0,L|113:288,1,47.5,0|2,3:0|0:1,0:0:0:0:
108,211,125608,2,0,L|61:172,1,47.5,0|0,3:0|0:0,0:0:0:0:
112,114,125894,2,0,L|100:17,1,95,8|0,1:0|0:0,0:0:0:0:
197,149,126323,2,0,L|207:232,1,47.5,0|0,3:0|0:0,0:0:0:0:
369,384,126608,6,0,L|381:287,1,95,2|0,3:1|0:0,0:0:0:0:
455,253,127037,2,0,L|424:193,1,47.5,0|2,3:0|0:1,0:0:0:0:
489,137,127322,2,0,L|424:116,1,47.5,0|0,3:0|0:0,0:0:0:0:
431,31,127608,1,0,3:0:0:0:
458,347,127751,1,10,1:1:0:0:
458,347,128037,1,0,3:0:0:0:
194,325,128322,6,0,L|214:239,1,71.25,2|0,3:1|0:0,0:0:0:0:
215,233,128608,1,0,0:0:0:0:
142,194,128751,2,0,P|88:197|65:204,1,47.5,0|2,3:0|0:1,0:0:0:0:
36,300,129037,1,0,3:0:0:0:
319,98,129322,5,8,1:0:0:0:
280,278,129608,5,8,1:0:0:0:
331,83,129751,1,8,1:0:0:0:
314,363,130037,6,0,B|305:306|305:306|305:234,1,95,6|0,3:1|0:0,0:0:0:0:
394,219,130465,2,0,B|400:244|400:244|401:273,1,47.5,0|2,3:0|0:1,0:0:0:0:
329,154,130751,2,0,B|315:175|315:175|295:197,1,47.5,0|0,3:0|0:0,0:0:0:0:
329,62,131037,1,0,3:0:0:0:
385,346,131180,1,10,1:1:0:0:
385,346,131465,1,0,3:0:0:0:
224,113,131751,6,0,B|260:81|260:81|311:68,1,95,2|0,3:1|0:0,0:0:0:0:
161,186,132180,2,0,B|136:187|136:187|114:200,1,47.5,0|2,3:0|0:1,0:0:0:0:
185,267,132465,2,0,B|169:285|169:285|162:310,1,47.5,0|0,3:0|0:0,0:0:0:0:
259,297,132751,2,0,B|270:349|270:349|304:401,1,95,8|0,1:0|0:0,0:0:0:0:
320,235,133180,2,0,B|299:223|299:223|275:221,1,47.5,0|0,3:0|0:0,0:0:0:0:
42,384,133465,6,0,B|31:336|31:336|34:285,1,95,2|0,3:1|0:0,0:0:0:0:
149,223,133894,2,0,B|151:249|151:249|147:272,1,47.5,0|2,3:0|0:1,0:0:0:0:
115,144,134180,2,0,B|98:163|98:163|78:177,1,47.5,0|0,3:0|0:0,0:0:0:0:
146,64,134465,1,0,3:0:0:0:
115,354,134608,1,10,1:0:0:0:
115,354,134894,1,0,3:0:0:0:
283,87,135180,6,0,B|333:73|333:73|403:72,1,95,2|0,3:1|0:0,0:0:0:0:
508,152,135608,2,0,B|483:145|483:145|448:144,1,47.5,0|2,3:0|0:1,0:0:0:0:
460,250,135894,2,0,B|437:262|437:262|412:287,1,47.5,0|0,3:0|0:0,0:0:0:0:
498,326,136180,2,0,B|490:351|490:351|490:386,1,59.375,8|2,1:0|0:1,0:0:0:0:
0,85,136608,5,0,3:0:0:0:
110,356,136894,2,0,B|59:344|22:323,1,95,2|0,3:1|0:0,0:0:0:0:
178,260,137323,2,0,B|208:261|242:271,1,47.5,0|2,3:0|0:1,0:0:0:0:
155,139,137608,2,0,B|175:160|192:192,1,47.5,0|0,3:0|0:0,0:0:0:0:
224,37,137894,1,0,3:0:0:0:
193,346,138037,1,10,1:0:0:0:
193,346,138322,1,0,3:0:0:0:
497,186,138608,6,0,P|447:178|389:181,1,95,2|0,3:1|0:0,0:0:0:0:
314,287,139037,2,0,P|337:278|369:272,1,47.5,0|2,3:0|0:1,0:0:0:0:
215,265,139322,2,0,P|224:242|243:215,1,47.5,0|0,3:0|0:0,0:0:0:0:
129,319,139608,2,0,P|120:295|115:224,1,95,8|0,1:0|0:0,0:0:0:0:
17,364,140037,2,0,P|37:376|61:385,1,47.5,0|0,3:0|0:0,0:0:0:0:
168,143,140322,6,0,P|135:133|67:132,1,95,2|0,3:1|0:0,0:0:0:0:
237,223,140751,2,0,P|271:228|316:220,1,47.5,0|2,3:0|0:1,0:0:0:0:
296,146,141037,2,0,P|323:125|349:88,1,47.5,0|0,3:0|0:0,0:0:0:0:
283,49,141322,1,0,3:0:0:0:
280,309,141465,2,0,P|303:340|346:358,1,71.25,10|0,1:1|0:0,0:0:0:0:
351,355,141751,1,0,3:0:0:0:
12,62,142037,6,0,L|8:123,1,47.5,2|0,3:1|0:0,0:0:0:0:
32,234,142322,1,0,3:0:0:0:
91,287,142465,1,0,3:0:0:0:
88,31,142608,2,0,L|84:92,1,47.5,8|0,1:1|3:0,0:0:0:0:
91,287,142894,1,0,3:0:0:0:
164,0,143037,2,0,L|160:61,1,47.5,8|0,1:0|3:0,0:0:0:0:
91,287,143322,1,0,3:0:0:0:
328,113,143465,5,8,1:0:0:0:
422,233,143608,1,8,1:0:0:0:
192,155,143751,6,0,L|98:140,1,76,6|2,3:0|3:0,0:0:0:0:
231,271,144180,2,0,L|267:269,1,19,8|0,1:0|0:0,0:0:0:0:
44,338,144465,2,0,L|8:336,1,19,8|0,1:0|0:0,0:0:0:0:
179,384,144751,2,0,L|215:382,1,19,0|0,3:0|0:0,0:0:0:0:
266,346,144894,1,0,3:0:0:0:
94,247,145037,1,8,1:0:0:0:
94,247,145180,1,0,0:0:0:0:
314,224,145323,6,0,P|341:221|364:221,1,47.5,6|2,3:0|3:0,0:0:0:0:
253,153,145751,2,0,L|223:150,1,19,8|0,1:0|0:0,0:0:0:0:
390,76,146037,2,0,L|420:73,1,19,8|0,1:0|0:0,0:0:0:0:
145,47,146323,2,0,L|115:44,1,19,0|0,3:0|0:0,0:0:0:0:
75,115,146465,1,0,3:0:0:0:
264,50,146608,1,8,1:0:0:0:
123,216,146751,6,0,P|100:217|70:215,1,47.5,6|2,3:0|3:0,0:0:0:0:
184,283,147179,2,0,L|209:283,1,19,8|0,1:0|0:0,0:0:0:0:
33,317,147465,2,0,L|8:317,1,19,8|0,1:0|0:0,0:0:0:0:
244,364,147751,2,0,L|269:364,1,19,0|0,3:0|0:0,0:0:0:0:
316,306,147893,1,0,3:0:0:0:
222,205,148036,1,8,1:0:0:0:
222,205,148179,1,0,0:0:0:0:
125,72,148323,6,0,P|143:70|162:71,1,38,6|2,3:0|3:0,0:0:0:0:
28,149,148751,2,0,L|30:115,1,19,8|0,1:0|0:0,0:0:0:0:
76,270,149037,2,0,L|78:304,1,19,8|0,1:0|0:0,0:0:0:0:
123,90,149323,2,0,L|125:56,1,19,0|0,3:0|0:0,0:0:0:0:
68,17,149465,1,0,3:0:0:0:
59,37,149608,1,8,1:0:0:0:
204,228,149751,6,0,B|223:185|223:185|205:144|205:144|206:63,1,142.500005435944,6|2,3:0|3:0,0:0:0:0:
359,250,150179,1,8,1:0:0:0:
319,384,150322,1,8,1:0:0:0:
296,121,150465,2,0,L|355:119,1,57,4|0,3:0|0:0,0:0:0:0:
409,91,150751,6,0,L|207:98,1,180.49999518013,6|2,3:0|3:0,0:0:0:0:
433,281,151179,2,0,L|437:249,1,23.75,8|0,1:0|0:0,0:0:0:0:
370,336,151465,2,0,L|366:368,1,23.75,8|0,1:0|0:0,0:0:0:0:
505,233,151751,2,0,L|509:201,1,23.75,0|0,3:0|0:0,0:0:0:0:
425,184,151893,1,0,3:0:0:0:
370,251,152036,1,8,1:0:0:0:
370,336,152179,1,0,0:0:0:0:
243,138,152323,5,6,3:0:0:0:
159,105,152465,1,0,0:0:0:0:
70,124,152608,1,2,3:0:0:0:
224,247,152751,1,8,1:0:0:0:
310,273,152894,1,0,0:0:0:0:
224,247,153037,1,8,1:0:0:0:
138,275,153180,1,0,0:0:0:0:
370,336,153323,5,0,3:0:0:0:
386,209,153465,1,0,3:0:0:0:
403,81,153608,1,8,1:0:0:0:
417,96,153751,6,0,L|368:96,1,47.5,6|2,3:0|3:0,0:0:0:0:
217,178,154179,2,0,L|250:178,1,23.75,8|0,1:0|0:0,0:0:0:0:
113,140,154465,2,0,L|89:140,1,23.75,8|0,1:0|0:0,0:0:0:0:
285,86,154751,2,0,L|318:86,1,23.75,0|0,3:0|0:0,0:0:0:0:
323,166,154893,1,0,3:0:0:0:
172,58,155036,1,8,1:0:0:0:
172,58,155179,1,0,0:0:0:0:
150,267,155323,6,0,L|156:321,1,47.5,6|2,3:0|3:0,0:0:0:0:
66,220,155751,2,0,L|63:196,1,23.75,8|0,1:0|0:0,0:0:0:0:
18,307,156037,2,0,L|20:330,1,23.75,8|0,1:0|0:0,0:0:0:0:
2,142,156323,2,0,L|0:118,1,23.75,0|0,3:0|0:0,0:0:0:0:
56,62,156465,1,0,3:0:0:0:
148,172,156608,1,8,1:0:0:0:
386,78,156751,6,0,B|374:37|374:37|323:18|323:18|275:36|275:36|263:77,1,190,4|0,3:0|3:0,0:0:0:0:
420,270,157179,2,0,B|457:290|457:290|506:267|506:267|528:221|528:221|507:183,1,190,12|0,1:0|3:0,0:0:0:0:
245,230,157608,1,8,1:0:0:0:
368,351,157751,1,8,1:0:0:0:
128,307,157893,6,0,L|74:302,1,46.3124978799821,4|0,3:0|0:0,0:0:0:0:
196,314,158180,5,2,3:1:0:0:
128,307,158323,1,0,0:0:0:0:
60,300,158465,1,0,0:0:0:0:
32,120,158608,1,0,3:0:0:0:
32,120,158894,1,8,1:0:0:0:
32,120,159180,5,2,3:1:0:0:
110,147,159322,1,0,0:0:0:0:
164,209,159465,1,8,1:0:0:0:
245,228,159608,1,0,0:0:0:0:
100,49,159751,5,2,3:1:0:0:
171,45,159893,1,0,0:0:0:0:
242,41,160036,1,0,0:0:0:0:
62,216,160179,1,0,3:0:0:0:
62,216,160465,1,8,1:0:0:0:
62,216,160751,5,2,3:1:0:0:
145,218,160893,1,0,0:0:0:0:
203,277,161036,1,8,1:0:0:0:
409,187,161180,5,2,3:1:0:0:
337,169,161322,1,0,0:0:0:0:
265,152,161465,1,0,0:0:0:0:
465,289,161608,1,0,3:0:0:0:
465,289,161894,1,8,1:0:0:0:
465,289,162180,5,2,3:1:0:0:
482,207,162322,1,0,0:0:0:0:
468,125,162465,1,8,1:0:0:0:
485,43,162608,1,0,0:0:0:0:
343,166,162751,5,2,3:1:0:0:
345,244,162893,1,0,0:0:0:0:
346,321,163036,1,0,0:0:0:0:
251,125,163179,1,0,3:0:0:0:
251,125,163465,1,8,1:0:0:0:
251,125,163751,5,2,3:1:0:0:
318,75,163893,1,0,0:0:0:0:
356,0,164036,1,8,1:0:0:0:
129,79,164180,5,2,3:1:0:0:
140,145,164322,1,0,0:0:0:0:
151,211,164465,1,0,0:0:0:0:
2,317,164608,1,0,3:0:0:0:
2,317,164894,1,8,1:0:0:0:
2,317,165180,5,2,3:1:0:0:
77,352,165322,1,0,0:0:0:0:
159,341,165465,1,8,1:0:0:0:
236,371,165608,1,0,0:0:0:0:
396,258,165751,5,2,3:1:0:0:
332,251,165893,1,0,0:0:0:0:
268,244,166036,1,0,0:0:0:0:
370,362,166179,1,0,3:0:0:0:
370,362,166465,1,8,1:0:0:0:
370,362,166751,5,2,3:1:0:0:
415,292,166893,1,0,0:0:0:0:
396,210,167036,1,8,1:0:0:0:
487,73,167180,5,2,3:1:0:0:
498,147,167322,1,0,0:0:0:0:
511,222,167465,1,0,0:0:0:0:
356,43,167608,1,0,3:0:0:0:
356,43,167894,1,8,1:0:0:0:
356,43,168180,5,2,3:1:0:0:
318,117,168322,1,0,0:0:0:0:
316,199,168465,1,8,1:0:0:0:
288,277,168608,1,0,0:0:0:0:
210,87,168751,5,2,3:1:0:0:
139,74,168893,1,0,0:0:0:0:
68,61,169036,1,0,0:0:0:0:
1,204,169179,1,0,3:0:0:0:
1,204,169465,1,8,1:0:0:0:
1,204,169751,6,0,L|7:251,2,30.8749985866547,10|8|8,1:1|1:0|1:0,0:0:0:0:
92,384,170180,5,2,3:1:0:0:
111,305,170322,1,0,0:0:0:0:
130,226,170465,1,0,0:0:0:0:
288,309,170608,1,0,3:0:0:0:
288,309,170894,1,8,1:0:0:0:
288,309,171180,5,2,3:1:0:0:
362,346,171322,1,0,0:0:0:0:
441,321,171465,1,8,1:0:0:0:
510,367,171608,1,0,0:0:0:0:
397,197,171751,5,2,3:1:0:0:
401,115,171893,1,0,0:0:0:0:
406,34,172036,1,0,0:0:0:0:
299,238,172179,1,0,3:0:0:0:
299,238,172465,1,8,1:0:0:0:
299,238,172751,6,0,L|294:212,1,23.75,14|0,3:1|0:0,0:0:0:0:
237,293,172893,2,0,L|232:319,1,23.75,14|0,3:1|0:0,0:0:0:0:
192,199,173036,2,0,L|182:160,1,35.625001358986,8|0,1:0|0:0,0:0:0:0:
224,72,173180,5,2,3:1:0:0:
159,60,173322,1,0,0:0:0:0:
94,48,173465,1,0,0:0:0:0:
3,178,173608,1,0,3:0:0:0:
3,178,173894,1,8,1:0:0:0:
3,178,174180,5,2,3:1:0:0:
67,230,174322,1,0,0:0:0:0:
92,308,174465,1,8,1:0:0:0:
158,358,174608,1,0,0:0:0:0:
308,270,174751,5,2,3:1:0:0:
241,271,174893,1,0,0:0:0:0:
174,272,175036,1,0,0:0:0:0:
389,156,175179,1,0,3:0:0:0:
389,156,175465,1,8,1:0:0:0:
389,156,175751,6,0,L|394:182,1,23.75,14|0,3:1|0:0,0:0:0:0:
451,101,175893,2,0,L|456:75,1,23.75,14|0,3:1|0:0,0:0:0:0:
496,195,176036,2,0,L|506:234,1,35.625001358986,8|0,1:0|0:0,0:0:0:0:
362,72,176180,5,2,3:1:0:0:
283,53,176322,1,0,0:0:0:0:
203,32,176465,1,0,0:0:0:0:
94,160,176608,1,0,3:0:0:0:
94,160,176894,1,8,1:0:0:0:
94,160,177180,5,2,3:1:0:0:
149,222,177322,1,0,0:0:0:0:
163,303,177465,1,8,1:0:0:0:
218,365,177608,1,0,0:0:0:0:
390,222,177751,5,2,3:1:0:0:
308,235,177893,1,0,0:0:0:0:
224,246,178036,1,0,0:0:0:0:
424,310,178179,1,0,3:0:0:0:
424,310,178465,1,8,1:0:0:0:
424,310,178751,5,2,3:1:0:0:
454,232,178893,1,0,0:0:0:0:
439,149,179036,1,8,1:0:0:0:
512,34,179180,5,2,3:1:0:0:
446,38,179322,1,0,0:0:0:0:
380,42,179465,1,0,0:0:0:0:
265,154,179608,1,0,3:0:0:0:
265,154,179894,1,8,1:0:0:0:
265,154,180180,5,2,3:1:0:0:
284,235,180322,1,0,0:0:0:0:
347,288,180465,1,8,1:0:0:0:
376,366,180608,1,0,0:0:0:0:
215,322,180751,5,2,3:1:0:0:
149,318,180893,1,0,0:0:0:0:
83,314,181036,1,0,0:0:0:0:
11,186,181179,1,0,3:0:0:0:
11,186,181465,1,8,1:0:0:0:
11,186,181751,6,0,L|14:221,1,23.75,2|0,3:1|0:0,0:0:0:0:
8,289,181893,1,0,3:0:0:0:
129,66,182036,2,0,L|37:84,1,71.25,8|0,1:0|0:0,0:0:0:0:
134,148,182323,2,0,P|167:160|235:158,1,95,0|0,3:0|0:0,0:0:0:0:
367,90,182751,2,0,P|343:83|317:82,1,47.5,2|0,3:1|0:0,0:0:0:0:
466,201,183037,2,0,P|490:194|516:193,1,47.5,10|0,1:0|0:0,0:0:0:0:
333,358,183323,5,2,3:1:0:0:
355,348,183394,1,2,0:1:0:0:
375,361,183465,1,2,3:1:0:0:
235,314,183608,1,10,1:1:0:0:
215,327,183680,1,2,0:1:0:0:
193,317,183751,1,2,0:1:0:0:
367,252,183894,2,0,B|409:250|409:250|456:277|456:277,1,95,0|0,3:0|0:0,0:0:0:0:
151,185,184322,2,0,P|127:186|104:193,1,47.5,2|0,3:1|0:0,0:0:0:0:
231,82,184608,2,0,P|254:83|277:90,1,47.5,10|0,1:1|0:0,0:0:0:0:
33,225,184894,5,0,3:0:0:0:
68,132,185036,1,0,3:0:0:0:
45,34,185179,1,8,1:0:0:0:
56,323,185323,2,0,B|86:330|86:330|110:315|110:315|150:335,1,95,2|2,3:1|0:1,0:0:0:0:
288,283,185751,5,2,3:1:0:0:
177,238,185894,1,2,0:1:0:0:
276,191,186037,1,10,0:1:0:0:
270,195,186108,1,2,0:1:0:0:
263,199,186180,1,2,0:1:0:0:
257,203,186251,1,2,0:1:0:0:
250,207,186323,1,2,3:1:0:0:
406,188,186465,1,2,3:1:0:0:
450,341,186608,1,10,1:1:0:0:
377,384,186751,1,2,0:1:0:0:
484,227,186894,6,0,L|484:289,1,47.5,2|0,3:1|0:0,0:0:0:0:
354,84,187179,1,2,0:1:0:0:
393,195,187322,2,0,L|389:252,1,47.5,2|0,3:1|0:0,0:0:0:0:
339,75,187608,1,10,1:1:0:0:
302,163,187751,2,0,L|298:220,1,47.5,2|0,0:1|3:0,0:0:0:0:
324,66,188036,1,2,3:1:0:0:
211,131,188179,1,8,1:1:0:0:
512,282,188323,6,0,L|309:280,1,156.750004783631,8|0,1:0|0:0,0:0:0:0:
209,358,188608,1,0,3:0:0:0:
209,358,188680,1,0,3:0:0:0:
209,358,188751,2,0,L|412:356,1,156.750004783631,8|0,1:0|0:0,0:0:0:0:
319,216,189037,1,0,3:0:0:0:
319,216,189108,1,0,3:0:0:0:
319,216,189180,2,0,L|116:214,1,156.750004783631,8|0,1:0|0:0,0:0:0:0:
40,320,189465,1,0,3:0:0:0:
40,320,189537,1,0,3:0:0:0:
40,320,189608,5,10,1:1:0:0:
86,183,189751,1,10,1:1:0:0:
137,384,189894,1,14,1:1:0:0:
335,46,190180,6,0,B|260:43|260:43|168:51,1,148.4375,6|0,3:1|0:0,0:0:0:0:
284,128,190608,2,0,L|356:127,1,59.375,2|0,3:1|0:0,0:0:0:0:
168,178,190894,2,0,L|240:177,1,59.375,10|0,1:1|0:0,0:0:0:0:
87,274,191180,5,2,3:1:0:0:
86,298,191274,1,2,0:1:0:0:
94,336,191369,1,2,0:1:0:0:
179,291,191465,1,10,1:1:0:0:
188,236,191560,1,2,0:1:0:0:
168,178,191656,1,2,0:1:0:0:
69,145,191751,6,0,B|59:133|40:123|40:123|95:125|100:90|166:98,1,148.4375,2|0,3:1|0:0,0:0:0:0:
228,86,192179,2,0,P|188:66|118:48,1,89.0625,2|0,3:1|0:0,0:0:0:0:
128,33,192465,2,0,P|181:23|229:21,1,89.0625,10|0,1:1|0:0,0:0:0:0:
301,23,192751,5,0,3:0:0:0:
277,152,192893,1,0,3:0:0:0:
253,281,193036,1,8,1:0:0:0:
275,262,193179,6,0,L|166:259,1,89.0625,6|0,3:1|0:0,0:0:0:0:
109,318,193464,1,2,0:1:0:0:
195,183,193607,1,2,3:1:0:0:
277,152,193750,1,2,0:1:0:0:
364,168,193893,1,10,1:1:0:0:
204,94,194036,1,2,0:1:0:0:
122,63,194179,1,2,3:1:0:0:
204,94,194321,1,2,3:1:0:0:
277,152,194464,1,10,1:1:0:0:
291,239,194607,1,2,0:1:0:0:
399,64,194750,6,0,L|265:77,1,118.75,2|0,3:1|0:0,0:0:0:0:
416,164,195178,2,0,B|448:156|448:156|482:126,1,59.375,2|0,3:1|0:0,0:0:0:0:
291,239,195464,2,0,P|266:263|250:312,1,59.375,10|0,1:1|0:0,0:0:0:0:
279,151,195750,1,0,3:0:0:0:
287,235,195892,1,0,3:0:0:0:
303,327,196035,1,8,1:0:0:0:
106,286,196180,5,8,1:0:0:0:
106,286,196215,2,0,L|226:290,1,100.93750192523,8|0,1:0|0:0,0:0:0:0:
151,189,196465,1,0,3:0:0:0:
151,189,196537,1,0,3:0:0:0:
151,189,196608,2,0,L|19:193,1,121.125002310276,8|0,1:0|0:0,0:0:0:0:
99,97,196894,1,0,3:0:0:0:
99,97,196965,1,0,3:0:0:0:
99,97,197037,2,0,L|231:101,1,121.125002310276,8|0,1:0|0:0,0:0:0:0:
121,11,197322,1,0,3:0:0:0:
121,11,197394,1,0,3:0:0:0:
121,11,197465,2,0,L|-11:15,1,121.125002310276,8|0,1:0|0:0,0:0:0:0:
245,43,197751,5,0,3:0:0:0:
252,48,197822,1,0,3:3:0:0:
261,59,197894,1,10,3:1:0:0:
264,188,198037,1,10,1:1:0:0:
180,244,198180,1,6,3:1:0:0:
125,231,198322,1,2,3:1:0:0:
121,213,198465,6,0,P|137:186|188:172,1,71.2500027179719,4|0,3:0|3:0,0:0:0:0:
193,168,198893,1,0,3:0:0:0:
368,384,199179,6,0,L|378:320,1,35.625001358986,8|0,3:1|3:0,0:0:0:0:
331,222,199465,1,0,3:0:0:0:
344,252,199607,1,0,3:0:0:0:
320,290,199750,1,0,3:0:0:0:
297,289,199893,1,0,3:0:0:0:
296,281,200037,2,0,P|323:265|385:262,1,71.2500027179719,0|0,3:0|3:0,0:0:0:0:
204,382,200465,2,0,P|180:384|163:383,1,35.625001358986,0|0,3:0|3:0,0:0:0:0:
1,193,200751,6,0,P|12:168|34:138,1,35.625001358986,8|0,3:1|3:0,0:0:0:0:
112,32,201037,1,0,3:0:0:0:
142,93,201179,1,0,3:0:0:0:
123,133,201322,1,0,3:0:0:0:
101,130,201465,1,0,3:0:0:0:
201,34,201608,6,0,P|222:31|242:38,1,35.625001358986,0|0,3:0|3:0,0:0:0:0:
267,187,201893,1,0,3:0:0:0:
245,267,202036,1,0,3:0:0:0:
221,293,202179,1,0,3:0:0:0:
39,257,202322,5,8,3:1:0:0:
93,205,202465,1,0,3:0:0:0:
140,221,202608,1,0,3:0:0:0:
144,253,202750,1,0,3:0:0:0:
131,268,202893,1,0,3:0:0:0:
123,262,203036,1,0,3:0:0:0:
129,252,203180,6,0,P|153:246|191:245,1,35.625001358986,0|0,3:0|3:0,0:0:0:0:
341,295,203465,1,0,3:0:0:0:
327,307,203608,2,0,P|305:294|278:268,1,35.625001358986,0|0,3:0|3:0,0:0:0:0:
440,192,203894,2,0,P|451:219|447:282,1,71.2500027179719,8|0,3:1|3:0,0:0:0:0:
232,384,204322,5,0,3:0:0:0:
218,308,204465,1,0,3:0:0:0:
227,247,204608,1,0,3:0:0:0:
287,172,204751,2,0,P|294:128|292:73,1,71.2500027179719,0|0,3:0|3:0,0:0:0:0:
114,178,205179,5,0,3:0:0:0:
145,158,205322,1,0,3:0:0:0:
141,141,205465,2,0,P|116:126|79:112,1,35.625001358986,8|0,3:1|3:0,0:0:0:0:
158,271,205751,1,0,3:0:0:0:
160,285,205893,2,0,P|187:275|222:256,1,35.625001358986,0|0,3:0|3:0,0:0:0:0:
202,73,206179,1,0,3:0:0:0:
194,57,206323,2,0,P|171:41|107:34,1,71.2500027179719,0|0,3:0|3:0,0:0:0:0:
31,187,206751,2,0,P|26:206|24:232,1,35.625001358986,0|0,3:0|3:0,0:0:0:0:
132,376,207037,5,8,3:1:0:0:
201,332,207180,1,0,3:0:0:0:
214,268,207323,1,0,3:0:0:0:
195,231,207465,1,0,3:0:0:0:
171,229,207608,1,0,3:0:0:0:
165,248,207751,1,0,3:0:0:0:
207,348,207894,6,0,P|237:357|284:357,1,71.2500027179719,0|0,3:0|3:0,0:0:0:0:
401,283,208322,2,0,P|384:284|364:292,1,35.625001358986,0|0,3:0|3:0,0:0:0:0:
484,345,208608,1,8,3:1:0:0:
511,267,208751,1,0,3:0:0:0:
492,185,208894,1,0,3:0:0:0:
452,161,209036,1,0,3:0:0:0:
422,171,209179,1,0,3:0:0:0:
418,191,209322,1,0,3:0:0:0:
427,203,209465,2,0,P|441:169|445:147,1,35.625001358986,0|0,3:0|3:0,0:0:0:0:
326,93,209750,1,0,3:0:0:0:
321,102,209893,2,0,P|326:118|334:134,1,35.625001358986,0|0,3:0|3:0,0:0:0:0:
376,8,210179,6,0,L|279:-3,1,71.2500027179719,8|0,3:1|3:0,0:0:0:0:
98,72,210607,1,0,3:0:0:0:
85,118,210750,1,0,3:0:0:0:
107,155,210893,1,0,3:0:0:0:
196,145,211037,6,0,P|237:155|258:182,1,71.2500027179719,2|0,3:1|3:0,0:0:0:0:
166,296,211465,2,0,P|151:306|135:314,1,35.625001358986,0|0,3:1|3:0,0:0:0:0:
98,189,211751,2,0,P|107:153|107:139,1,35.625001358986,8|0,3:1|3:0,0:0:0:0:
1,270,212037,1,0,3:0:0:0:
0,301,212179,2,0,P|0:322|5:346,1,35.625001358986,0|0,3:0|3:0,0:0:0:0:
188,284,212465,1,0,3:0:0:0:
189,265,212608,2,0,P|185:244|176:221,1,35.625001358986,0|0,3:0|3:0,0:0:0:0:
134,377,212893,5,0,3:0:0:0:
204,383,213036,2,0,L|261:387,1,35.625001358986,0|0,3:0|3:0,0:0:0:0:
392,263,213322,2,0,L|335:267,1,35.625001358986,8|0,3:1|3:0,0:0:0:0:
445,345,213608,5,0,3:0:0:0:
485,275,213750,1,0,3:0:0:0:
473,216,213893,1,0,3:0:0:0:
444,185,214036,1,0,3:0:0:0:
278,274,214179,6,0,L|348:265,1,71.2500027179719,4|0,3:0|3:0,0:0:0:0:
299,120,214607,1,0,3:0:0:0:
257,83,214750,1,0,3:0:0:0:
226,74,214893,2,0,P|200:68|165:60,1,35.625001358986,8|0,3:1|3:0,0:0:0:0:
102,202,215179,1,0,3:0:0:0:
97,223,215321,2,0,P|111:245|130:275,1,35.625001358986,0|0,3:0|3:0,0:0:0:0:
120,109,215607,1,0,3:0:0:0:
118,104,215751,2,0,P|79:96|35:101,1,71.2500027179719,0|0,3:0|3:0,0:0:0:0:
177,34,216179,2,0,P|199:29|224:32,1,35.625001358986,0|0,3:0|3:0,0:0:0:0:
338,199,216465,1,8,3:1:0:0:
295,278,216608,1,0,3:0:0:0:
235,300,216751,1,0,3:0:0:0:
196,283,216893,1,0,3:0:0:0:
196,262,217036,1,0,3:0:0:0:
212,250,217179,1,0,3:0:0:0:
292,376,217323,6,0,P|263:382|209:384,1,71.2500027179719,0|0,3:0|3:0,0:0:0:0:
416,245,217751,2,0,P|437:244|470:248,1,35.625001358986,0|0,3:1|3:0,0:0:0:0:
376,349,218037,2,0,P|377:370|373:403,1,35.625001358986,8|0,3:1|3:0,0:0:0:0:
250,242,218323,1,0,3:0:0:0:
280,177,218465,1,0,3:0:0:0:
333,150,218608,2,0,L|376:145,1,35.625001358986,0|0,3:0|3:0,0:0:0:0:
452,245,218894,2,0,L|478:211,1,35.625001358986,0|0,3:0|3:0,0:0:0:0:
407,62,219179,1,0,3:0:0:0:
370,62,219322,2,0,P|344:65|311:75,1,35.625001358986,0|0,3:0|3:0,0:0:0:0:
487,136,219608,6,0,P|494:95|495:26,1,106.875004076958,8|0,3:1|3:0,0:0:0:0:
373,160,220179,1,0,3:0:0:0:
351,249,220322,1,0,3:0:0:0:
379,327,220465,2,0,B|427:355|482:287|432:210|329:257,2,201.87500385046,0|8|0,3:0|3:1|3:0,0:0:0:0:
379,327,222037,2,0,B|362:286|380:250|380:250|404:202|368:153,1,180.49999518013,0|0,3:0|3:0,0:0:0:0:
276,221,222715,5,8,3:1:0:0:
276,221,222751,1,8,3:1:0:0:
276,221,223037,2,0,L|249:227,4,22.5624993975163,8|8|8|8|8,1:0|1:0|1:0|1:0|1:0,0:0:0:0:
233,354,223465,1,8,1:0:0:0:
207,150,223608,6,0,P|182:126|136:114,1,71.2500027179719,2|2,3:1|0:1,0:0:0:0:
260,86,224036,1,2,0:1:0:0:
260,86,224322,2,0,P|285:62|331:50,2,71.2500027179719,10|2|2,0:1|0:1|0:1,0:0:0:0:
267,243,225180,2,0,P|232:242|191:218,1,71.2500027179719,2|2,3:1|0:1,0:0:0:0:
368,185,225608,1,2,3:1:0:0:
368,185,225894,2,0,P|400:193|434:227,2,71.2500027179719,10|2|2,3:1|0:1|0:1,0:0:0:0:
339,344,226608,5,2,0:1:0:0:
339,344,226751,2,0,P|340:319|378:277,1,71.2500027179719,2|2,3:1|0:1,0:0:0:0:
512,334,227179,1,2,3:1:0:0:
512,334,227465,2,0,P|476:331|449:310,2,71.2500027179719,10|2|2,0:1|0:1|0:1,0:0:0:0:
222,332,228323,2,0,P|257:334|284:355,1,71.2500027179719,2|2,3:1|0:1,0:0:0:0:
110,384,228751,1,2,3:1:0:0:
110,384,229037,2,0,P|86:357|82:322,2,71.2500027179719,10|2|2,3:1|0:1|0:1,0:0:0:0:
221,152,229894,6,0,P|197:137|143:127,1,71.2500027179719,2|2,3:1|0:1,0:0:0:0:
275,239,230322,1,2,3:1:0:0:
275,239,230608,2,0,P|299:254|353:264,2,71.2500027179719,10|2|2,0:1|0:1|0:1,0:0:0:0:
451,103,231465,2,0,P|430:94|378:87,1,71.2500027179719,2|2,3:1|0:1,0:0:0:0:
438,246,231893,1,2,3:1:0:0:
438,246,232179,2,0,P|465:257|511:262,2,71.2500027179719,10|2|2,3:1|0:1|0:1,0:0:0:0:
307,329,232893,5,2,0:1:0:0:
307,329,233037,2,0,P|277:331|235:349,1,71.2500027179719,2|2,3:1|0:1,0:0:0:0:
78,296,233465,1,2,3:1:0:0:
78,296,233751,2,0,P|107:293|149:275,2,71.2500027179719,10|2|2,0:1|0:1|0:1,0:0:0:0:
0,99,234608,2,0,P|29:101|71:119,1,71.2500027179719,2|2,3:1|0:1,0:0:0:0:
259,143,235036,2,0,P|229:145|187:163,1,71.2500027179719,2|10,3:1|0:1,0:0:0:0:
190,160,235608,5,10,0:1:0:0:
335,94,235750,1,10,0:1:0:0:
158,81,235893,1,10,0:1:0:0:
365,93,236036,1,10,0:1:0:0:
297,272,236180,6,0,P|312:298|353:335,1,71.2500027179719,2|2,3:1|0:1,0:0:0:0:
194,329,236608,1,2,3:1:0:0:
194,329,236894,2,0,P|179:355|138:392,2,71.2500027179719,10|2|2,0:1|0:1|0:1,0:0:0:0:
0,205,237751,2,0,P|39:192|80:192,1,71.2500027179719,2|2,3:1|0:1,0:0:0:0:
109,317,238179,1,2,3:1:0:0:
109,317,238465,2,0,P|70:304|29:304,2,71.2500027179719,10|2|2,3:1|0:1|0:1,0:0:0:0:
173,178,239179,5,2,0:1:0:0:
173,178,239323,2,0,P|212:165|253:165,1,71.2500027179719,6|2,3:1|0:1,0:0:0:0:
308,31,239751,1,2,3:1:0:0:
308,31,240037,2,0,P|269:44|228:44,2,71.2500027179719,10|2|2,0:1|0:1|0:1,0:0:0:0:
400,165,240894,2,0,P|413:204|413:245,1,71.2500027179719,2|2,3:1|0:1,0:0:0:0:
294,356,241322,1,0,3:0:0:0:
294,356,241608,2,0,P|291:314|302:275,2,71.2500027179719,10|2|2,0:1|0:1|0:1,0:0:0:0:
512,16,242465,6,0,L|434:20,1,71.2500027179719,2|2,3:1|0:1,0:0:0:0:
311,100,242893,1,2,3:1:0:0:
311,100,243179,2,0,L|389:104,2,71.2500027179719,10|2|2,0:1|0:1|0:1,0:0:0:0:
173,189,244037,2,0,P|177:167|170:112,1,71.2500027179719,2|2,3:1|0:1,0:0:0:0:
81,30,244465,2,0,P|77:52|84:107,1,71.2500027179719,2|10,3:1|0:1,0:0:0:0:
81,100,245037,5,10,0:1:0:0:
167,254,245179,1,10,0:1:0:0:
80,90,245322,1,10,0:1:0:0:
32,292,245465,1,10,0:1:0:0:
241,168,245608,6,0,P|219:165|161:168,1,71.2500027179719,2|2,3:1|0:1,0:0:0:0:
285,238,246036,1,2,3:1:0:0:
285,238,246322,2,0,P|307:240|362:258,2,71.2500027179719,10|2|2,0:1|0:1|0:1,0:0:0:0:
324,82,247180,2,0,P|357:93|393:99,1,71.2500027179719,2|2,3:1|0:1,0:0:0:0:
247,0,247608,2,0,P|215:15|188:36,1,62.3437523782254,2|0,3:1|0:0,0:0:0:0:
176,52,247894,5,10,0:1:0:0:
176,52,247930,2,0,P|170:99|171:130,1,60.562501155138,8|0,1:0|3:0,0:0:0:0:
309,356,248180,1,10,0:1:0:0:
309,356,248215,2,0,P|315:309|313:284,1,60.562501155138,8|0,1:0|3:0,0:0:0:0:
75,101,248465,5,10,0:1:0:0:
247,198,248608,1,10,0:1:0:0:
419,295,248751,2,0,P|424:264|415:189,1,99.7499969558717,10|0,0:1|0:0,0:0:0:0:
381,109,249179,2,0,P|366:119|341:151,1,49.8749984779358,0|2,3:0|0:1,0:0:0:0:
247,148,249465,2,0,P|244:165|249:206,1,49.8749984779358,0|0,3:0|0:0,0:0:0:0:
179,270,249751,1,0,3:0:0:0:
303,63,249893,2,0,P|241:51|169:46,1,99.7499969558717,10|0,1:0|3:0,0:0:0:0:
80,254,250465,6,0,P|142:266|214:271,1,99.7499969558717,2|0,3:1|0:0,0:0:0:0:
269,375,250893,2,0,P|263:343|233:305,1,49.8749984779358,0|2,3:0|0:1,0:0:0:0:
303,263,251179,2,0,P|277:245|229:238,1,49.8749984779358,0|0,3:0|0:0,0:0:0:0:
258,155,251465,2,0,P|211:168|182:208,1,99.7499969558717,8|0,1:0|0:0,0:0:0:0:
374,215,251893,2,0,P|384:237|387:262,1,49.8749984779358,0|0,3:0|0:0,0:0:0:0:
468,380,252179,6,0,L|474:237,1,99.7499969558717,2|0,3:1|0:0,0:0:0:0:
371,165,252608,2,0,L|373:214,1,49.8749984779358,0|2,3:0|0:1,0:0:0:0:
252,120,252893,2,0,L|288:153,1,49.8749984779358,0|0,3:0|0:0,0:0:0:0:
136,172,253179,1,0,3:0:0:0:
349,52,253322,2,0,L|246:43,1,99.7499969558717,10|0,1:0|3:0,0:0:0:0:
0,239,253893,6,0,L|99:247,1,99.7499969558717,2|0,3:1|0:0,0:0:0:0:
142,330,254322,2,0,L|204:277,1,49.8749984779358,0|2,3:0|0:1,0:0:0:0:
272,313,254608,2,0,L|279:231,1,49.8749984779358,0|0,3:0|0:0,0:0:0:0:
351,209,254893,2,0,L|260:100,1,99.7499969558717,8|0,1:0|0:0,0:0:0:0:
351,285,255322,2,0,L|401:290,1,49.8749984779358,0|0,3:0|0:0,0:0:0:0:
228,53,255608,6,0,B|203:96|203:96|194:164,1,99.7499969558717,2|0,3:1|0:0,0:0:0:0:
284,233,256036,2,0,B|295:204|295:204|300:171,1,49.8749984779358,0|2,3:0|0:1,0:0:0:0:
383,167,256322,2,0,B|370:138|370:138|350:111,1,49.8749984779358,0|0,3:0|0:0,0:0:0:0:
406,50,256608,1,0,3:0:0:0:
199,232,256751,2,0,B|186:286|186:286|191:352,1,99.7499969558717,10|0,1:0|3:0,0:0:0:0:
64,98,257322,6,0,B|51:44|51:44|56:-22,1,99.7499969558717,2|0,3:1|0:0,0:0:0:0:
40,205,257751,2,0,B|12:190|12:190|-3:173,1,49.8749984779358,0|2,3:0|0:1,0:0:0:0:
92,296,258036,2,0,B|61:305|61:305|38:303,1,49.8749984779358,0|0,3:0|0:0,0:0:0:0:
195,315,258322,2,0,B|164:363|164:363|123:386,1,99.7499969558717,8|0,1:0|0:0,0:0:0:0:
226,239,258751,2,0,B|253:254|253:254|269:271,1,49.8749984779358,0|0,3:0|0:0,0:0:0:0:
399,382,259036,6,0,P|405:325|392:256,1,99.7499969558717,2|0,3:1|0:0,0:0:0:0:
374,147,259465,2,0,P|358:173|352:200,1,49.8749984779358,0|2,3:0|0:1,0:0:0:0:
284,62,259751,2,0,P|291:91|305:115,1,49.8749984779358,0|0,3:0|0:0,0:0:0:0:
160,65,260036,1,0,3:0:0:0:
437,207,260179,1,10,1:1:0:0:
437,207,260465,1,0,3:0:0:0:
146,250,260751,6,0,P|130:302|132:342,1,74.8124977169038,2|0,3:1|0:0,0:0:0:0:
133,349,261036,1,0,0:0:0:0:
267,304,261179,2,0,P|231:299|202:301,1,49.8749984779358,0|2,3:0|0:1,0:0:0:0:
310,380,261465,2,0,P|346:385|375:383,1,49.8749984779358,0|0,3:0|0:0,0:0:0:0:
225,220,261751,1,8,1:0:0:0:
9,364,262036,5,8,1:0:0:0:
233,203,262179,1,8,1:0:0:0:
0,25,262465,6,0,L|114:31,1,99.7499969558717,2|0,3:1|0:0,0:0:0:0:
185,129,262893,2,0,L|135:126,1,49.8749984779358,0|2,3:0|0:1,0:0:0:0:
279,177,263179,2,0,L|241:210,1,49.8749984779358,0|0,3:0|0:0,0:0:0:0:
379,144,263465,1,0,3:0:0:0:
140,209,263608,1,10,1:1:0:0:
140,209,263893,1,0,3:0:0:0:
325,59,264179,6,0,L|438:74,1,99.7499969558717,2|0,3:1|0:0,0:0:0:0:
431,166,264608,2,0,L|378:141,1,49.8749984779358,0|2,3:0|0:1,0:0:0:0:
376,284,264893,2,0,L|356:228,1,49.8749984779358,0|0,3:0|0:0,0:0:0:0:
240,316,265179,2,0,L|282:225,1,99.7499969558717,8|0,1:0|0:0,0:0:0:0:
320,375,265608,2,0,L|264:389,1,49.8749984779358,0|0,3:0|0:0,0:0:0:0:
0,245,265893,6,0,B|48:230|48:230|106:228,1,99.7499969558717,2|0,3:1|0:0,0:0:0:0:
131,145,266322,2,0,B|156:158|156:158|181:181,1,49.8749984779358,0|2,3:0|0:1,0:0:0:0:
264,116,266608,2,0,B|272:143|272:143|273:176,1,49.8749984779358,0|0,3:0|0:0,0:0:0:0:
378,189,266893,1,0,3:0:0:0:
54,153,267036,1,10,1:0:0:0:
54,153,267322,1,0,3:0:0:0:
323,32,267608,6,0,B|271:6|271:6|211:-4,1,99.7499969558717,2|0,3:1|0:0,0:0:0:0:
309,114,268036,2,0,B|321:131|321:131|333:157,1,49.8749984779358,0|2,3:0|0:1,0:0:0:0:
252,217,268322,2,0,B|248:238|248:238|238:264,1,49.8749984779358,0|0,3:0|0:0,0:0:0:0:
138,249,268608,2,0,B|92:281|92:281|45:292,1,99.7499969558717,8|0,1:0|0:0,0:0:0:0:
149,117,269036,2,0,B|161:135|161:135|174:161,1,49.8749984779358,0|0,3:0|0:0,0:0:0:0:
177,380,269322,6,0,P|217:385|285:384,1,99.7499969558717,2|0,3:1|0:0,0:0:0:0:
348,286,269751,2,0,P|365:304|380:323,1,49.8749984779358,0|2,3:0|0:1,0:0:0:0:
329,184,270036,2,0,P|353:184|378:187,1,49.8749984779358,0|0,3:0|0:0,0:0:0:0:
243,125,270322,1,0,3:0:0:0:
445,259,270465,1,10,1:0:0:0:
445,259,270751,1,0,3:0:0:0:
512,32,271036,6,0,P|472:27|404:28,1,99.7499969558717,2|0,3:1|0:0,0:0:0:0:
322,90,271465,2,0,P|345:99|369:105,1,49.8749984779358,0|2,3:0|0:1,0:0:0:0:
226,105,271751,2,0,P|235:127|248:149,1,49.8749984779358,0|0,3:0|0:0,0:0:0:0:
147,47,272036,2,0,P|137:70|127:148,1,99.7499969558717,8|0,1:0|0:0,0:0:0:0:
227,22,272465,2,0,P|248:9|271:0,1,49.8749984779358,0|0,3:0|0:0,0:0:0:0:
169,297,272751,6,0,L|54:323,1,99.7499969558717,2|0,3:1|0:0,0:0:0:0:
188,215,273179,2,0,L|269:233,1,49.8749984779358,0|2,3:0|0:1,0:0:0:0:
301,159,273465,2,0,L|345:229,1,49.8749984779358,0|0,3:0|0:0,0:0:0:0:
420,199,273751,1,0,3:0:0:0:
111,227,273893,1,10,1:1:0:0:
111,227,274179,5,0,3:0:0:0:
105,201,274322,1,0,0:0:0:0:
138,129,274465,1,10,1:0:0:0:
302,36,274608,2,0,P|363:45|394:58,1,74.8124977169038,4|0,3:0|0:0,0:0:0:0:
434,128,274893,2,0,P|373:137|342:150,1,74.8124977169038,4|0,3:0|0:0,0:0:0:0:
319,180,275179,5,8,1:0:0:0:
105,22,275322,2,0,L|50:6,1,49.8749984779358,8|0,1:0|3:0,0:0:0:0:
111,227,275608,1,0,3:0:0:0:
290,0,275751,2,0,P|323:2|370:9,1,64.1250002446175,8|0,1:0|0:0,0:0:0:0:
170,159,276036,1,0,0:0:0:0:
165,172,276179,1,4,3:0:0:0:
427,86,278751,6,0,B|384:130|384:130|425:222|425:222|415:327,1,249.375009512902,0|0,3:0|0:0,0:0:0:0:
411,344,279323,1,4,3:0:0:0:
6,105,281894,6,0,L|48:115,1,30.8749985866547,0|0,3:0|0:0,0:0:0:0:
57,149,282036,1,0,3:0:0:0:
92,9,282179,1,0,3:0:0:0:
0,278,282323,2,0,B|15:358|15:358|83:363|83:363|118:305|118:305|220:286,1,308.75,4|0,3:0|0:0,0:0:0:0:
231,282,283323,1,0,3:0:0:0:
121,225,283465,1,0,3:0:0:0:
345,206,283608,2,0,L|300:224,1,30.8749985866547,8|0,1:0|0:0,0:0:0:0:
413,62,283894,6,0,B|448:73|448:73|482:117|482:117|458:159|458:159|500:217|500:217|515:278|515:278|475:323|475:323|469:376,1,380,4|0,3:0|0:0,0:0:0:0:
20,281,286465,6,0,L|8:72,1,199.499993911743,0|0,3:0|0:0,0:0:0:0:
7,53,287037,1,4,3:0:0:0:
55,95,289465,5,0,3:0:0:0:
69,199,289608,1,0,3:0:0:0:
160,46,289750,1,8,1:0:0:0:
166,39,290037,2,0,B|177:146|177:146|154:207|154:207|179:279|179:279|243:324,1,308.75,0|0,3:0|0:0,0:0:0:0:
248,325,291037,2,0,B|286:290|286:290|300:252|300:252|298:198|298:198|282:125,1,199.499993911743,8|0,1:0|0:0,0:0:0:0:
283,135,291608,1,8,1:0:0:0:
283,135,291643,2,0,B|296:157|296:157|328:161|328:161|349:150|349:150|371:135|371:135|395:131|395:131|422:148,1,156.74999521637,8|0,1:0|3:0,0:0:0:0:
0,111,292322,5,4,0:3:0:0:
96,18,292608,5,0,1:0:0:0:
93,74,292750,1,0,1:0:0:0:
90,131,292893,1,0,3:0:0:0:
100,127,293036,1,0,3:0:0:0:
110,123,293180,1,4,3:3:0:0:
451,244,295608,6,0,L|464:180,1,53.4375020384789,0|0,3:0|0:0,0:0:0:0:
468,176,295893,1,8,1:0:0:0:
356,210,296036,1,8,1:0:0:0:
493,184,296180,1,0,3:0:0:0:
397,127,296322,1,0,0:0:0:0:
451,273,296465,2,0,B|399:265|345:292|345:292|351:315|351:315|305:347|235:349|180:309,1,302.812511551381,2|0,0:1|0:0,0:0:0:0:
171,301,297751,2,0,L|182:196,1,95,2|0,0:1|0:0,0:0:0:0:
86,59,298179,2,0,L|75:141,1,56.9999982604981,2|0,0:1|0:0,0:0:0:0:
110,186,298465,2,0,L|99:268,1,56.9999982604981,2|0,0:1|3:0,0:0:0:0:
176,5,298751,5,0,1:0:0:0:
272,28,298893,1,0,3:0:0:0:
311,109,299036,1,0,3:0:0:0:
305,183,299179,1,0,3:0:0:0:
293,191,299323,6,0,L|281:226,5,28.4999991302491,6|0|0|0|0|0,3:1|0:0|0:0|0:0|0:0|0:0,0:0:0:0:
207,212,299751,2,0,L|223:245,3,28.4999991302491,2|0|0|0,0:1|0:0|0:0|0:0,0:0:0:0:
169,307,300037,1,2,0:1:0:0:
169,307,300108,1,0,0:0:0:0:
169,307,300180,1,0,0:0:0:0:
169,307,300251,1,0,0:0:0:0:
174,362,300323,6,0,L|207:345,1,28.4999991302491,0|0,3:0|0:0,0:0:0:0:
330,325,300465,2,0,L|363:308,1,28.4999991302491,0|0,3:0|0:0,0:0:0:0:
403,188,300608,2,0,L|436:171,1,28.4999991302491,8|0,1:0|0:0,0:0:0:0:
248,95,300751,6,0,B|133:69|133:69|29:46|8:137|8:137,1,265.999991882324,4|0,3:0|0:0,0:0:0:0:
65,244,301465,2,0,B|125:254|163:230|182:185,1,142.500005435944,2|0,0:1|0:0,0:0:0:0:
128,68,301893,2,0,B|68:58|30:82|11:127,1,142.500005435944,2|0,0:1|0:0,0:0:0:0:
185,190,302322,1,2,0:1:0:0:
185,190,302608,2,0,B|234:182|230:131|230:131|209:6,1,209.000006378174,2|0,0:1|0:0,0:0:0:0:
65,244,303323,5,8,1:0:0:0:
296,290,303465,2,0,P|325:275|349:236,1,71.2500027179719,8|0,1:0|0:0,0:0:0:0:
246,381,303751,1,4,3:0:0:0:
149,52,303894,2,0,L|147:96,1,35.625001358986,4|0,3:0|0:0,0:0:0:0:
189,199,304180,2,0,P|195:163|67:153,1,213.750008153916,2|0,0:1|0:0,0:0:0:0:
73,238,305179,5,2,0:1:0:0:
80,257,305251,1,0,0:0:0:0:
95,273,305322,1,2,0:1:0:0:
117,285,305394,1,0,0:0:0:0:
142,289,305465,1,2,0:1:0:0:
170,284,305536,1,0,0:0:0:0:
196,292,305608,1,2,0:1:0:0:
214,308,305679,1,0,0:0:0:0:
221,330,305751,1,2,0:1:0:0:
217,351,305822,1,0,0:0:0:0:
205,365,305894,2,0,L|289:376,1,71.2500027179719,2|2,0:1|0:1,0:0:0:0:
10,45,306465,5,0,3:0:0:0:
31,48,306536,1,0,3:0:0:0:
52,51,306607,1,0,3:0:0:0:
67,177,306750,1,0,3:0:0:0:
165,0,306893,2,0,B|219:9|238:73|238:73|263:139|331:155,1,231.562508833409,12|0,1:0|0:0,0:0:0:0:
354,67,307894,6,0,L|401:77,1,35.625001358986,8|0,1:0|0:0,0:0:0:0:
137,278,308179,1,8,1:0:0:0:
145,185,308322,1,8,1:0:0:0:
153,93,308465,1,8,1:0:0:0:
225,234,308608,1,8,1:0:0:0:
190,233,308679,1,8,1:0:0:0:
156,232,308751,1,8,1:0:0:0:
55,132,308894,1,8,1:0:0:0:
298,166,309036,1,8,1:0:0:0:
44,376,309180,2,0,L|-6:359,1,45.1249987950325,0|0,3:0|3:0,0:0:0:0:
138,318,309465,1,0,3:0:0:0:
228,336,309608,1,0,3:0:0:0:
240,376,309751,1,8,1:0:0:0:
244,371,309894,1,0,0:0:0:0:
346,348,310037,6,0,L|279:350,1,61.7499971733095,4|0,3:0|0:0,0:0:0:0:
396,287,310465,2,0,L|463:289,2,61.7499971733095,2|2|2,0:1|0:1|0:1,0:0:0:0:
321,248,311322,1,0,0:0:0:0:
418,86,311608,2,0,P|390:77|358:70,1,61.7499971733095,2|0,0:1|0:0,0:0:0:0:
459,205,312036,2,0,P|485:191|512:173,1,61.7499971733095,2|2,0:1|0:1,0:0:0:0:
157,381,312608,5,2,0:1:0:0:
172,301,312750,1,2,0:1:0:0:
114,224,312893,1,2,0:1:0:0:
0,264,313036,1,2,0:1:0:0:
125,206,313180,6,0,L|197:199,1,61.7499971733095,2|0,0:1|0:0,0:0:0:0:
61,106,313608,2,0,L|-11:99,1,61.7499971733095,2|2,0:1|0:1,0:0:0:0:
295,378,314180,5,2,0:1:0:0:
361,318,314322,1,2,0:1:0:0:
360,217,314465,1,2,0:1:0:0:
277,134,314608,1,2,0:1:0:0:
374,215,314751,6,0,P|405:209|450:188,1,61.7499971733095,2|0,0:1|0:0,0:0:0:0:
263,133,315179,2,0,P|235:120|211:100,1,61.7499971733095,2|2,0:1|0:1,0:0:0:0:
425,384,315751,5,2,0:1:0:0:
453,308,315893,1,2,0:1:0:0:
425,212,316036,1,2,0:1:0:0:
328,145,316179,1,2,0:1:0:0:
151,110,316323,6,0,P|87:102|-2:146,1,142.500005435944,14|0,1:0|3:0,0:0:0:0:
328,145,316751,2,0,P|335:81|291:-8,1,142.500005435944,4|0,1:0|3:0,0:0:0:0:
229,265,317037,2,0,P|269:315|363:348,1,142.500005435944,4|0,1:0|3:0,0:0:0:0:
247,91,317323,2,0,P|207:40|113:7,1,142.500005435944,4|0,1:0|0:0,0:0:0:0:
417,288,317608,5,0,3:0:0:0:
420,274,317751,1,0,3:0:0:0:
405,179,317894,2,0,P|463:204|519:286,1,142.500005435944,4|0,1:0|3:0,0:0:0:0:
225,119,318322,2,0,P|250:60|332:4,1,142.500005435944,4|0,1:0|3:0,0:0:0:0:
259,273,318608,2,0,P|199:296|101:277,1,142.500005435944,4|0,1:0|3:0,0:0:0:0:
330,114,318894,5,0,3:0:0:0:
341,103,319036,1,0,3:0:0:0:
155,179,319179,1,0,3:0:0:0:
144,190,319322,1,0,3:0:0:0:
341,103,319465,2,0,P|421:88|522:140,1,142.500005435944,12|0,1:0|3:0,0:0:0:0:
144,190,319893,2,0,P|126:121|142:52,1,142.500005435944,4|0,1:0|3:0,0:0:0:0:
273,285,320179,2,0,P|237:345|177:383,1,142.500005435944,4|0,1:0|3:0,0:0:0:0:
216,111,320465,2,0,P|251:50|311:12,1,142.500005435944,4|0,1:0|0:0,0:0:0:0:
414,298,320750,5,8,0:1:0:0:
416,311,320893,1,8,0:1:0:0:
458,167,321037,2,0,P|465:87|434:-4,1,142.500005435944,12|0,0:1|3:0,0:0:0:0:
370,217,321465,2,0,P|363:297|394:388,1,142.500005435944,4|0,1:0|3:0,0:0:0:0:
380,80,321751,1,0,1:0:0:0:
367,73,321894,1,0,3:0:0:0:
196,268,322037,1,8,1:0:0:0:
209,261,322179,1,0,3:0:0:0:
208,187,322322,1,0,3:0:0:0:
104,129,322465,1,0,3:0:0:0:
3,296,322608,6,0,P|13:342|42:380,1,95,6|0,3:1|0:0,0:0:0:0:
277,384,323036,2,0,P|237:358|190:352,1,95,2|2,0:1|0:1,0:0:0:0:
349,258,323608,2,0,P|388:232|435:226,1,95,2|0,0:1|0:0,0:0:0:0:
209,261,324036,1,0,0:0:0:0:
117,187,324180,1,2,0:1:0:0:
124,198,324322,2,0,L|118:279,1,47.5,2|0,0:1|0:0,0:0:0:0:
191,136,324608,2,0,L|183:41,2,95,2|2|2,0:1|0:1|0:1,0:0:0:0:
109,29,325322,2,0,L|56:20,1,47.5,2|0,0:1|0:0,0:0:0:0:
1,53,325608,1,0,0:0:0:0:
191,136,325751,6,0,P|230:124|284:94,1,95,2|0,0:1|0:0,0:0:0:0:
182,251,326179,2,0,P|142:239|88:209,2,95,2|2|2,0:1|0:1|0:1,0:0:0:0:
333,190,326893,2,0,L|386:207,1,47.5,2|0,0:1|0:0,0:0:0:0:
418,270,327179,1,2,0:1:0:0:
393,34,327322,2,0,P|383:78|379:138,1,95,2|0,0:1|0:0,0:0:0:0:
317,264,327751,1,2,0:1:0:0:
324,276,328037,2,0,P|325:235|318:173,1,95,2|2,0:1|0:1,0:0:0:0:
397,357,328465,2,0,L|420:314,1,47.5,2|0,0:1|0:0,0:0:0:0:
439,281,328751,1,2,0:1:0:0:
132,187,328894,6,0,L|-13:251,1,142.500005435944,8|0,1:0|3:0,0:0:0:0:
248,181,329322,2,0,L|393:245,1,142.500005435944,8|0,1:0|3:0,0:0:0:0:
164,86,329608,2,0,L|19:150,1,142.500005435944,8|0,1:0|3:0,0:0:0:0:
280,282,329894,2,0,L|425:346,1,142.500005435944,8|0,1:0|0:0,0:0:0:0:
347,104,330179,5,0,3:0:0:0:
346,119,330322,1,0,3:0:0:0:
432,177,330465,2,0,L|422:35,1,142.500005435944,12|0,1:0|3:0,0:0:0:0:
354,204,330893,2,0,L|365:347,1,142.500005435944,8|0,1:0|3:0,0:0:0:0:
508,142,331179,2,0,L|498:0,1,142.500005435944,8|0,1:0|3:0,0:0:0:0:
253,346,331465,5,0,3:0:0:0:
241,355,331607,1,0,3:0:0:0:
288,162,331750,1,0,3:0:0:0:
300,153,331893,1,0,3:0:0:0:
325,70,332037,2,0,L|149:87,1,142.500005435944,12|0,1:0|3:0,0:0:0:0:
102,228,332465,2,0,L|243:241,1,142.500005435944,8|0,1:0|3:0,0:0:0:0:
223,0,332751,2,0,L|47:17,1,142.500005435944,8|0,1:0|3:0,0:0:0:0:
0,298,333037,2,0,L|176:315,1,142.500005435944,8|0,1:0|0:0,0:0:0:0:
353,172,333322,1,8,0:1:0:0:
332,170,333465,1,8,0:1:0:0:
433,303,333608,5,12,0:1:0:0:
444,218,333750,1,0,0:0:0:0:
456,133,333893,1,0,3:0:0:0:
284,265,334036,1,8,1:0:0:0:
296,350,334179,1,0,3:0:0:0:
353,172,334322,1,0,1:0:0:0:
341,87,334465,1,8,1:0:0:0:
284,265,334608,1,8,1:0:0:0:
451,2,334750,1,0,3:0:0:0:
413,9,334893,1,0,3:0:0:0:
398,21,335036,1,0,3:0:0:0:
410,76,335180,6,0,P|451:96|485:132,2,95,4|0|0,3:1|0:0|0:0,0:0:0:0:
343,152,335608,2,0,P|301:172|268:208,1,95,12|0,1:0|3:0,0:0:0:0:
407,384,335894,1,12,1:0:0:0:
395,308,336037,1,0,3:0:0:0:
383,232,336180,1,12,1:0:0:0:
318,321,336322,1,0,3:0:0:0:
460,219,336465,1,0,3:0:0:0:
241,334,336608,1,0,3:0:0:0:
177,142,336751,6,0,P|130:121|68:115,2,95,12|0|0,1:0|0:0|3:0,0:0:0:0:
82,245,337179,2,0,P|43:272|0:289,1,95,4|0,1:0|1:0,0:0:0:0:
164,56,337465,1,4,1:0:0:0:
238,72,337608,1,0,3:0:0:0:
312,89,337751,1,0,3:0:0:0:
177,142,337893,1,0,3:0:0:0:
389,32,338037,6,0,L|397:137,2,95,4|0|0,3:1|0:0|3:0,0:0:0:0:
316,278,338465,2,0,L|324:184,1,95,4|0,1:0|1:0,0:0:0:0:
480,101,338751,1,0,1:0:0:0:
470,176,338894,1,0,3:0:0:0:
460,251,339037,1,4,1:0:0:0:
396,126,339179,1,0,3:0:0:0:
450,326,339322,1,0,3:0:0:0:
412,38,339465,1,0,3:0:0:0:
245,224,339608,6,0,P|283:247|343:255,2,95,4|0|0,3:1|0:0|3:0,0:0:0:0:
100,101,340036,2,0,P|140:76|187:69,1,95,4|0,1:0|1:0,0:0:0:0:
157,321,340322,1,4,1:0:0:0:
171,246,340465,1,0,3:0:0:0:
185,171,340608,1,0,1:0:0:0:
93,384,340750,1,0,1:0:0:0:
343,236,340894,6,0,L|232:222,2,95,4|0|0,3:1|0:0|3:0,0:0:0:0:
490,114,341322,2,0,L|395:125,1,95,4|0,1:0|1:0,0:0:0:0:
488,342,341608,1,0,1:0:0:0:
493,313,341751,1,0,3:0:0:0:
388,96,341894,1,4,1:0:0:0:
395,125,342036,1,0,3:0:0:0:
343,291,342179,1,0,3:0:0:0:
342,285,342322,1,0,3:0:0:0:
197,165,342465,6,0,P|180:215|167:314,2,95,4|0|0,3:1|0:0|3:0,0:0:0:0:
284,116,342893,2,0,P|274:69|259:24,1,95,4|0,1:0|1:0,0:0:0:0:
81,162,343179,1,0,1:0:0:0:
93,237,343322,1,0,3:0:0:0:
106,311,343465,1,0,1:0:0:0:
139,95,343607,1,0,3:0:0:0:
48,378,343751,6,0,L|156:361,1,95,4|0,3:1|0:0,0:0:0:0:
244,341,344036,1,0,3:0:0:0:
381,239,344179,6,0,P|327:222|235:222,1,142.500005435944,4|0,1:0|3:0,0:0:0:0:
401,353,344465,2,0,P|450:326|516:261,1,142.500005435944,4|0,1:1|3:0,0:0:0:0:
249,118,344751,2,0,P|199:144|133:209,1,142.500005435944,4|0,1:0|0:0,0:0:0:0:
412,151,345036,5,0,3:0:0:0:
406,129,345179,1,0,3:0:0:0:
432,37,345322,2,0,L|324:20,1,95,4|0,3:1|0:0,0:0:0:0:
236,0,345607,1,0,3:0:0:0:
371,269,345750,2,0,L|518:245,1,142.500005435944,12|0,1:0|3:0,0:0:0:0:
240,219,346036,1,0,3:0:0:0:
190,274,346179,1,0,3:0:0:0:
184,324,346322,1,0,3:0:0:0:
204,346,346464,1,0,3:0:0:0:
247,202,346608,6,0,P|188:191|122:198,1,106.875004076958,4|0,3:1|0:0,0:0:0:0:
268,118,347322,2,0,P|313:125|364:121,1,71.2500027179719,0|0,0:0|0:0,0:0:0:0:
185,52,347893,1,0,0:0:0:0:
330,268,348179,2,0,L|320:170,1,71.2500027179719,0|0,0:0|0:0,0:0:0:0:
419,259,348607,2,0,L|409:354,1,71.2500027179719,0|0,0:0|0:0,0:0:0:0:
419,340,349036,1,0,0:0:0:0:
314,373,349179,1,0,0:0:0:0:
318,384,349321,1,0,0:0:0:0:
210,351,349464,2,0,L|192:397,1,35.625001358986,0|0,0:0|0:0,0:0:0:0:
295,258,349750,5,0,0:0:0:0:
295,258,349892,2,0,P|243:234|196:234,1,71.2500027179719,0|0,0:0|0:0,0:0:0:0:
360,196,350464,1,0,0:0:0:0:
360,196,350750,2,0,P|392:179|417:154,1,71.2500027179719
228,102,351178,1,4,0:3:0:0:
223,91,351321,2,0,L|197:14,1,71.2500027179719,4|0,0:3|0:0,0:0:0:0:
126,161,351749,1,0,0:0:0:0:
120,178,352035,2,0,L|94:255,1,71.2500027179719,0|0,0:0|0:0,0:0:0:0:
100,266,352463,1,4,0:3:0:0:
300,163,352606,1,0,0:0:0:0:
295,145,352749,1,0,0:0:0:0:
494,83,352894,6,0,L|349:57,1,142.500005435944,12|0,1:1|3:0,0:0:0:0:
328,314,353322,2,0,L|473:288,1,142.500005435944,12|0,1:0|0:0,0:0:0:0:
213,75,353608,2,0,L|72:49,1,142.500005435944,8|0,1:0|3:0,0:0:0:0:
47,306,353894,2,0,L|192:280,1,142.500005435944,12|0,1:0|3:0,0:0:0:0:
280,31,354179,5,0,3:0:0:0:
274,10,354322,1,0,3:0:0:0:
130,384,354465,2,0,L|156:239,1,142.500005435944,8|0,1:0|3:0,0:0:0:0:
361,218,354893,2,0,L|386:358,1,142.500005435944,8|0,1:0|3:0,0:0:0:0:
0,212,355179,2,0,L|26:67,1,142.500005435944,8|0,1:0|3:0,0:0:0:0:
280,31,355465,5,8,1:0:0:0:
309,36,355607,1,0,3:0:0:0:
169,216,355750,1,0,3:0:0:0:
140,221,355893,1,0,3:0:0:0:
327,121,356037,2,0,P|390:130|469:209,1,142.500005435944,12|0,1:0|0:0,0:0:0:0:
264,277,356465,2,0,P|201:268|122:189,1,142.500005435944,12|0,1:0|0:0,0:0:0:0:
363,203,356751,2,0,P|401:253|401:365,1,142.500005435944,8|0,1:0|3:0,0:0:0:0:
228,191,357037,2,0,P|189:140|189:28,1,142.500005435944,12|0,1:0|3:0,0:0:0:0:
399,50,357322,1,0,3:0:0:0:
422,57,357465,1,0,3:0:0:0:
491,152,357608,6,0,P|411:168|338:235,1,142.500005435944,12|0,1:0|3:0,0:0:0:0:
182,322,358036,2,0,P|240:361|310:372,1,142.500005435944,12|0,1:0|3:0,0:0:0:0:
183,170,358322,5,8,1:0:0:0:
81,251,358465,1,0,3:0:0:0:
276,179,358608,1,8,1:0:0:0:
256,43,358750,1,0,3:0:0:0:
54,181,358893,1,0,3:0:0:0:
89,374,359036,1,0,3:0:0:0:
161,93,359180,6,0,L|67:87,1,71.2500027179719,4|0,3:0|3:0,0:0:0:0:
276,179,359608,2,0,L|370:173,1,71.2500027179719,0|0,3:0|0:0,0:0:0:0:
357,151,360180,1,0,0:0:0:0:
400,80,360465,1,0,0:0:0:0:
409,56,360608,1,0,3:0:0:0:
418,32,360751,2,0,P|423:83|418:124,1,71.2500027179719,0|0,3:0|3:0,0:0:0:0:
320,309,361179,2,0,P|315:258|320:217,2,71.2500027179719,8|0|0,1:0|3:0|0:0,0:0:0:0:
512,336,362036,6,0,P|476:334|445:342,1,53.4375020384789,0|0,0:0|0:0,0:0:0:0:
453,363,362322,2,0,L|427:283,1,71.2500027179719,0|0,0:0|3:3,0:0:0:0:
311,253,362750,2,0,L|288:320,1,71.2500027179719,0|0,3:3|0:0,0:0:0:0:
449,169,363322,2,0,L|515:147,1,53.4375020384789
512,120,363607,5,0,3:0:0:0:
0,222,363893,2,0,P|51:238|81:280,1,85.4999973907472,8|0,1:0|0:0,0:0:0:0:
64,292,364178,1,8,1:0:0:0:
202,100,364321,2,0,P|197:61|182:27,1,56.9999982604981,8|0,1:0|0:0,0:0:0:0:
64,292,364607,2,0,P|69:331|84:365,1,56.9999982604981,8|0,1:0|0:0,0:0:0:0:
297,59,364893,1,0,3:0:0:0:
0,98,365035,1,8,1:0:0:0:
454,254,365321,6,0,L|453:209,1,28.4999991302491,0|0,3:0|0:0,0:0:0:0:
464,194,365465,2,0,P|468:241|366:337,1,190,12|0,1:0|3:0,0:0:0:0:
325,110,365893,2,0,P|355:73|495:78,1,190,12|0,1:0|0:0,0:0:0:0:
319,252,366179,2,0,P|228:270|155:214,1,190,8|0,1:0|3:0,0:0:0:0:
413,139,366465,2,0,P|449:169|444:309,1,190,12|0,1:0|3:0,0:0:0:0:
32,384,366750,5,8,3:0:0:0:
35,341,366822,1,8,3:0:0:0:
39,300,366893,1,8,3:0:0:0:
44,259,366965,1,8,3:0:0:0:
51,188,367037,2,0,L|73:-15,1,190,12|0,1:0|3:0,0:0:0:0:
244,196,367465,2,0,L|221:399,1,190,12|0,1:0|3:0,0:0:0:0:
174,119,367751,2,0,L|333:-8,1,190,12|0,1:0|3:0,0:0:0:0:
316,313,368037,5,12,1:0:0:0:
315,332,368179,1,0,3:0:0:0:
427,178,368322,1,0,3:0:0:0:
428,162,368465,1,0,3:0:0:0:
503,96,368608,2,0,P|428:75|274:122,1,190,12|0,1:0|3:0,0:0:0:0:
132,311,369036,2,0,P|206:331|360:284,1,190,12|0,3:1|0:0,0:0:0:0:
319,94,369322,2,0,P|244:73|90:120,1,190,12|0,3:1|0:0,0:0:0:0:
315,312,369608,2,0,P|389:332|543:285,1,190,12|0,1:0|0:0,0:0:0:0:
0,0,369893,5,8,1:0:0:0:
3,43,369965,1,8,1:0:0:0:
7,84,370036,1,8,1:0:0:0:
12,125,370108,1,8,1:0:0:0:
19,196,370180,2,0,L|41:399,1,118.75,12|0,1:0|0:0,0:0:0:0:
145,381,370465,1,0,3:0:0:0:
178,54,370608,2,0,L|50:213,1,118.75,12|0,1:0|0:0,0:0:0:0:
136,273,370894,1,12,1:0:0:0:
391,66,371037,2,0,L|187:88,1,106.875004076958,0|8,3:0|1:0,0:0:0:0:
206,191,371322,1,0,3:0:0:0:
346,344,371465,1,0,3:0:0:0:
372,296,371608,1,0,3:0:0:0:
362,274,371751,6,0,P|318:257|231:243,2,95,12|0|0,1:0|0:0|0:0,0:0:0:0:
206,363,372179,2,0,P|160:377|113:384,1,95,12|0,1:0|3:0,0:0:0:0:
105,107,372465,1,12,1:0:0:0:
123,180,372608,1,0,3:0:0:0:
141,253,372751,1,8,1:0:0:0:
49,161,372893,1,0,3:0:0:0:
202,311,373036,1,8,1:0:0:0:
161,53,373179,1,8,1:0:0:0:
5,356,373323,6,0,P|37:375|110:382,2,95,4|0|0,3:1|3:0|3:0,0:0:0:0:
231,233,373751,2,0,P|183:234|140:252,1,95,8|0,1:0|3:0,0:0:0:0:
360,311,374037,1,12,1:0:0:0:
377,236,374180,1,0,3:0:0:0:
394,162,374323,1,0,3:0:0:0:
426,352,374465,1,0,3:0:0:0:
264,100,374608,6,0,P|388:77|405:81,1,95,4|0,3:1|0:0,0:0:0:0:
124,36,374893,2,0,P|111:81|111:129,2,95,0|8|0,3:0|1:0|3:0,0:0:0:0:
217,222,375322,1,12,1:0:0:0:
141,212,375465,1,0,3:0:0:0:
65,203,375608,1,12,1:0:0:0:
255,294,375750,1,0,3:0:0:0:
111,129,375893,1,0,3:0:0:0:
83,347,376036,1,0,3:0:0:0:
388,161,376180,6,0,P|377:116|327:45,1,95,4|0,3:1|0:0,0:0:0:0:
377,370,376465,2,0,P|421:382|507:375,2,95,0|12|0,3:0|1:0|3:0,0:0:0:0:
285,87,376894,1,12,1:0:0:0:
376,111,377037,1,0,3:0:0:0:
468,136,377180,1,8,1:0:0:0:
203,138,377322,1,8,1:0:0:0:
424,25,377465,6,0,L|427:156,2,95,4|0|0,3:1|0:0|3:0,0:0:0:0:
218,384,377893,2,0,L|220:289,1,95,8|0,1:0|3:0,0:0:0:0:
378,243,378179,1,12,1:0:0:0:
55,180,378322,1,0,3:0:0:0:
208,33,378465,1,0,3:0:0:0:
209,47,378607,1,0,3:0:0:0:
211,61,378750,1,0,3:0:0:0:
212,75,378893,1,0,3:0:0:0:
137,224,379037,6,0,P|136:165|116:95,1,95,4|0,3:1|0:0,0:0:0:0:
0,384,379322,2,0,P|59:383|129:363,2,95,0|12|0,3:0|1:0|3:0,0:0:0:0:
407,215,379751,1,12,1:0:0:0:
314,235,379894,1,0,3:0:0:0:
221,257,380037,1,8,1:0:0:0:
500,193,380179,1,8,1:0:0:0:
145,204,380322,6,0,L|1:184,1,95,4|0,3:1|3:0,0:0:0:0:
293,342,380607,2,0,L|437:322,2,95,0|0|0,3:0|3:0|3:0,0:0:0:0:
119,99,381036,1,12,1:0:0:0:
299,384,381179,1,0,3:0:0:0:
436,121,381322,2,0,L|341:134,2,95,4|0|0,3:0|3:0|3:0,0:0:0:0:
122,72,381750,5,0,3:0:0:0:
299,384,381893,1,0,3:0:0:0:
95,253,382035,2,0,L|-39:260,2,95,0|0|0,3:0|3:0|3:0,0:0:0:0:
176,358,382464,1,0,3:0:0:0:
317,5,382607,1,8,1:0:0:0:
438,228,382750,1,0,3:0:0:0:
35,122,382893,1,0,3:0:0:0:
306,299,383035,1,0,3:0:0:0:
130,20,383180,6,0,B|114:103|114:103|100:182|170:230|249:207|260:126|260:126|272:83|316:59|358:76|386:93|386:93|415:109|465:123|516:97,1,623.437523782254,4|0,3:0|0:0,0:0:0:0:
449,15,386322,2,0,B|388:95|449:191|449:191|503:290|433:370,1,374.062514269353,4|0,3:1|0:0,0:0:0:0:
439,364,388607,1,0,0:0:0:0:
439,364,389465,2,0,P|254:120|66:377,1,712.500027179719,4|0,3:1|0:0,0:0:0:0:
62,365,392608,2,0,B|158:174|158:174|16:15|16:15|16:229|16:229|131:299,1,748.125028538705,4|0,3:1|0:0,0:0:0:0:
138,301,395751,2,0,B|186:305|232:279|237:221|237:221|247:160|325:138|387:165|396:223,1,356.25001358986,4|0,3:1|0:0,0:0:0:0:
278,38,397323,6,0,L|278:23,1,8.90625033974649,8|8,1:0|1:0,0:0:0:0:
124,147,397751,1,0,3:0:0:0:
115,146,397787,1,0,3:0:0:0:
254,320,398180,1,0,3:0:0:0:
254,328,398215,1,0,3:0:0:0:
320,233,398608,1,0,3:0:0:0:
328,232,398644,1,0,3:0:0:0:
306,195,398894,6,0,B|224:201|207:274|207:274|177:347|52:332,1,285.000010871888,4|0,3:0|0:0,0:0:0:0:
123,251,400180,1,8,1:0:0:0:
410,314,400322,1,0,3:0:0:0:
512,166,400465,1,8,1:0:0:0:
225,229,400608,1,0,3:0:0:0:
243,312,400751,1,0,3:0:0:0:
317,5,400894,2,0,L|324:123,1,118.75,8|0,1:0|3:0,0:0:0:0:
115,369,401180,2,0,L|122:250,1,118.75,8|0,1:0|3:0,0:0:0:0:
429,64,401465,1,0,3:0:0:0:
421,146,401608,1,0,3:0:0:0:
413,228,401751,1,0,3:0:0:0:
405,310,401894,1,0,3:0:0:0:
431,291,402037,6,0,P|350:280|282:280,1,121.125002310276,8|0,1:0|3:0,0:0:0:0:
310,278,402751,1,0,3:0:0:0:
473,382,403037,1,8,1:0:0:0:
310,278,403322,1,0,3:0:0:0:
461,146,403608,6,0,P|411:164|382:253,1,121.125002310276,0|0,3:0|3:0,0:0:0:0:
378,220,404322,1,0,3:0:0:0:
399,7,404608,1,8,1:0:0:0:
378,220,404893,1,0,3:0:0:0:
0,273,405180,6,0,B|28:285|58:272|58:272|93:258|123:280,1,121.125002310276,0|0,3:0|3:0,0:0:0:0:
117,275,405894,1,0,3:0:0:0:
3,41,406180,1,8,1:0:0:0:
117,275,406465,1,0,3:0:0:0:
281,171,406751,5,0,3:0:0:0:
291,197,406893,1,0,3:0:0:0:
291,197,407036,1,0,3:0:0:0:
200,112,407179,2,0,P|186:53|212:-11,1,118.75,8|0,1:0|3:0,0:0:0:0:
413,292,407465,1,8,1:0:0:0:
296,315,407608,1,0,3:0:0:0:
179,338,407751,1,0,3:0:0:0:
199,343,408036,1,0,3:0:0:0:
216,346,408323,6,0,P|233:301|230:213,1,118.75,10|0,0:1|0:0,0:0:0:0:
129,146,408751,2,0,P|128:205|147:261,2,118.75,0|0|0,3:0|3:0|3:0,0:0:0:0:
421,268,409465,2,0,P|421:327|402:383,1,118.75,10|0,1:0|3:0,0:0:0:0:
383,107,410037,6,0,P|397:49|430:0,1,118.75,2|0,3:1|0:0,0:0:0:0:
474,157,410465,2,0,P|459:214|426:263,1,118.75,0|0,3:0|3:0,0:0:0:0:
389,261,410894,1,0,0:0:0:0:
172,195,411037,2,0,P|227:175|346:210,1,178.125,8|0,1:0|3:0,0:0:0:0:
56,285,411751,6,0,L|38:149,1,118.75,2|0,3:1|0:0,0:0:0:0:
107,112,412180,1,0,3:0:0:0:
111,87,412465,1,0,3:0:0:0:
115,62,412751,1,0,3:0:0:0:
167,358,412894,2,0,P|111:377|13:354,1,118.75,10|0,1:0|3:0,0:0:0:0:
172,195,413465,6,0,P|230:191|319:238,1,118.75,2|0,3:1|0:0,0:0:0:0:
274,341,413894,1,0,3:0:0:0:
294,328,414180,1,0,3:0:0:0:
430,338,414465,2,0,L|306:313,1,118.75,8|0,1:0|0:0,0:0:0:0:
448,322,414894,1,0,3:0:0:0:
171,193,415180,6,0,P|262:172|298:135,1,118.75,2|0,3:1|0:0,0:0:0:0:
95,143,415608,1,0,3:0:0:0:
83,176,415894,1,0,3:0:0:0:
72,210,416180,1,0,3:0:0:0:
173,35,416323,2,0,P|136:30|41:45,1,118.75,10|0,1:0|3:0,0:0:0:0:
339,349,416894,6,0,P|376:354|471:339,1,118.75,2|0,3:1|0:0,0:0:0:0:
304,272,417323,1,0,3:0:0:0:
284,259,417608,1,0,3:0:0:0:
148,269,417894,2,0,L|272:244,1,118.75,8|0,1:0|0:0,0:0:0:0:
130,253,418323,1,0,3:0:0:0:
370,146,418608,6,0,P|389:201|379:278,1,118.75,2|0,3:1|0:0,0:0:0:0:
270,114,419037,1,0,3:0:0:0:
272,84,419323,1,0,3:0:0:0:
274,54,419608,1,0,3:0:0:0:
196,296,419751,2,0,L|206:160,1,118.75,10|0,1:1|3:0,0:0:0:0:
176,217,420180,5,0,3:0:0:0:
12,277,420323,2,0,P|69:291|129:366,1,147.250001123428,10|0,1:1|2:0,0:0:0:0:
330,155,420751,1,0,3:0:0:0:
75,111,421037,1,0,3:0:0:0:
401,76,421180,1,8,1:0:0:0:
392,344,421465,5,8,1:0:0:0:
392,344,421608,1,8,1:0:0:0:
185,64,421751,1,0,3:0:0:0:
185,64,421894,1,0,3:0:0:0:
431,230,422037,6,0,P|322:254|268:354,1,220.875001685143,2|0,3:1|3:0,0:0:0:0:
269,342,422751,1,0,3:0:0:0:
269,342,423037,1,0,3:0:0:0:
464,136,423180,1,10,1:1:0:0:
492,296,423465,1,0,3:0:0:0:
354,346,423751,6,0,P|332:264|361:134,1,178.125,2|0,3:1|3:0,0:0:0:0:
343,172,424465,1,0,3:0:0:0:
26,206,424751,2,0,L|17:306,1,59.375,8|2,1:0|0:1,0:0:0:0:
40,303,425037,1,0,0:0:0:0:
98,23,425180,1,0,3:0:0:0:
98,23,425465,6,0,P|128:100|205:115,1,118.75,2|0,3:1|0:0,0:0:0:0:
347,101,425894,2,0,P|271:67|206:111,1,118.75,0|0,3:0|3:0,0:0:0:0:
404,23,426465,1,0,3:0:0:0:
272,180,426608,1,10,1:0:0:0:
279,204,426894,1,0,3:0:0:0:
334,289,427180,6,0,B|302:320|249:301|249:301|198:290|169:323,1,178.125,2|0,3:1|3:0,0:0:0:0:
178,348,427894,1,0,3:0:0:0:
448,85,428180,2,0,P|470:153|491:261,1,178.125,8|0,1:0|3:0,0:0:0:0:
157,2,428894,6,0,P|129:86|114:174,1,178.125,2|0,3:1|3:0,0:0:0:0:
140,167,429608,1,0,3:0:0:0:
172,162,429894,1,0,3:0:0:0:
0,199,430037,1,10,1:0:0:0:
204,157,430323,1,0,3:0:0:0:
92,239,430608,6,0,L|102:358,1,118.75,2|0,3:1|0:0,0:0:0:0:
204,157,431037,2,0,L|213:38,1,118.75,0|0,3:0|3:0,0:0:0:0:
32,384,431608,1,8,1:0:0:0:
442,210,431894,5,0,0:0:0:0:
455,249,432037,1,0,3:0:0:0:
285,177,432323,2,0,P|327:122|476:94,1,178.125,2|0,3:1|3:0,0:0:0:0:
169,312,433037,2,0,P|139:272|33:253,1,118.75,0|0,3:0|3:0,0:0:0:0:
395,352,433465,1,10,1:1:0:0:
410,384,433751,1,0,3:0:0:0:
140,39,434037,5,2,3:1:0:0:
130,60,434108,1,0,3:0:0:0:
125,83,434180,1,0,3:0:0:0:
125,106,434251,1,0,3:0:0:0:
127,130,434323,2,0,L|137:179,1,29.6875,2|0,3:1|3:0,0:0:0:0:
255,176,434465,5,2,3:1:0:0:
257,152,434537,1,0,3:0:0:0:
253,128,434608,2,0,L|246:82,1,29.6875,0|0,3:0|3:0,0:0:0:0:
181,231,434751,1,2,3:1:0:0:
179,255,434823,1,0,3:0:0:0:
182,279,434894,2,0,L|186:308,1,29.6875,0|0,3:0|3:0,0:0:0:0:
339,177,435037,5,2,3:1:0:0:
341,153,435108,1,0,3:0:0:0:
343,129,435180,1,0,3:0:0:0:
345,105,435251,1,0,3:0:0:0:
400,76,435323,5,10,1:0:0:0:
140,39,435465,1,10,1:0:0:0:
462,0,435751,6,0,P|456:186|306:76,1,457.187513952256,4|0,3:0|0:0,0:0:0:0:
307,67,438323,2,0,P|302:131|299:207,1,124.687504756451,4|0,3:0|0:0,0:0:0:0:
299,202,438894,2,0,P|148:92|143:278,1,455.999986083985,4|0,3:0|0:0,0:0:0:0:
256,192,441251,12,0,453460,0:0:0:0:
