osu file format v14

[General]
AudioFilename: audio.mp3
AudioLeadIn: 0
PreviewTime: 78579
Countdown: 0
SampleSet: Soft
StackLeniency: 0.3
Mode: 0
LetterboxInBreaks: 0
WidescreenStoryboard: 1

[Editor]
Bookmarks: 7639,31640,99405
DistanceSpacing: 1
BeatDivisor: 2
GridSize: 4
TimelineZoom: 1.100003

[Metadata]
Title:Hakase no Suki Nano Nano
TitleUnicode:はかせの好きなのなの
Artist:Hakase (CV: Konno Hiromi)
ArtistUnicode:はかせ (CV: 今野宏美)
Creator:Fish Rose
Version:Surou's Hard feat. Teages
Source:日常
Tags:anime nichijou irin ilineko Surou japanese hyadain kyoto animation character song Teages
BeatmapID:2575550
BeatmapSetID:1238745

[Difficulty]
HPDrainRate:5
CircleSize:3.7
OverallDifficulty:6
ApproachRate:8
SliderMultiplier:1.6
SliderTickRate:1

[Events]
//Background and Video events
0,0,"18160923_p0_waifu2x_photo_noise0_scale_tta_1.png",0,0
//Break Periods
2,181483,191260
2,206895,207849
//Storyboard Layer 0 (Background)
//Storyboard Layer 1 (Fail)
//Storyboard Layer 2 (Pass)
//Storyboard Layer 3 (Foreground)
//Storyboard Layer 4 (Overlay)
//Storyboard Sound Samples

[TimingPoints]
581,352.941176470588,4,2,1,60,1,0
6845,-100,4,2,1,5,0,0
6933,-100,4,2,1,60,0,0
7286,-100,4,2,1,70,0,0
20256,-100,4,2,1,5,0,0
20345,-100,4,2,1,70,0,0
31550,-100,4,2,1,5,0,0
31639,352.941176470588,3,2,1,90,1,0
38698,352.941176470588,4,2,1,90,1,0
44256,-100,4,2,1,5,0,0
44345,-100,4,2,1,70,0,0
55550,-100,4,2,1,5,0,0
55639,352.941176470588,3,2,1,90,1,0
62697,352.941176470588,4,2,1,90,1,0
68255,-100,4,2,1,5,0,0
68344,-100,4,2,2,60,0,0
79285,-100,4,2,1,80,0,0
79638,-90.9090909090909,4,2,1,80,0,1
99314,-90.9090909090909,4,2,1,80,0,0
99402,-100,4,2,1,70,0,0
102226,-100,4,2,1,60,0,0
107078,-100,4,2,1,5,0,0
107167,-100,4,2,1,60,0,0
107520,-100,4,2,1,70,0,0
107784,-100,4,2,1,5,0,0
107873,-100,4,2,1,70,0,0
117666,-100,4,2,1,5,0,0
117755,-100,4,2,1,70,0,0
128960,-100,4,2,1,5,0,0
129049,352.941176470588,3,2,1,90,1,0
136107,352.941176470588,4,2,1,90,1,0
141665,-100,4,2,1,5,0,0
141754,-100,4,3,2,60,0,0
152695,-100,4,3,1,80,0,0
153048,-90.9090909090909,4,3,1,80,0,1
172812,-100,4,3,1,70,0,0
175636,-100,4,3,1,60,0,0
180488,-100,4,3,1,5,0,0
180577,-100,4,3,1,60,0,0
180930,-100,4,3,1,70,0,0
192583,-100,4,2,1,60,0,0
200695,-100,4,2,1,70,0,0
209165,-100,4,2,1,80,0,0
209429,-100,4,2,1,5,0,0
209518,-90.9090909090909,4,2,1,80,0,1
229283,-90.9090909090909,4,2,1,70,0,1
232106,-90.9090909090909,4,2,1,60,0,0
236695,-100,4,2,1,60,0,0
236959,-100,4,2,1,5,0,0
237048,-100,4,2,1,60,0,0
237401,-100,4,2,1,70,0,0

[Colours]
Combo1 : 150,255,255
Combo2 : 255,200,150
Combo3 : 255,150,50
Combo4 : 255,192,208
Combo5 : 255,100,100
Combo6 : 100,177,255

[HitObjects]
39,250,1992,5,8,2:3:0:0:
66,325,2169,1,8,2:3:0:0:
145,339,2345,1,8,2:3:0:0:
196,277,2522,1,8,2:3:0:0:
196,277,3404,5,8,2:3:0:0:
247,216,3580,1,8,2:3:0:0:
326,229,3757,1,8,2:3:0:0:
275,290,3933,1,8,2:3:0:0:
247,216,4816,5,8,2:3:0:0:
218,141,4992,1,8,2:3:0:0:
270,79,5169,1,8,2:3:0:0:
349,94,5345,1,8,2:3:0:0:
196,277,5875,5,8,2:3:0:0:
225,352,6051,1,8,2:3:0:0:
256,192,6139,12,2,7286,2:0:0:0:
10,128,7639,6,0,P|79:89|153:107,1,160,12|8,2:3|2:0,2:0:0:0:
139,190,8169,1,0,2:0:0:0:
139,190,8345,2,0,L|239:196,1,80,8|0,2:3|2:0,2:0:0:0:
280,143,8698,1,8,2:0:0:0:
295,221,8875,6,0,P|337:226|374:208,1,80,8|0,2:3|2:0,2:0:0:0:
449,198,9228,2,0,L|464:283,1,80,8|8,2:3|2:0,2:0:0:0:
512,346,9580,1,8,2:3:0:0:
512,346,9757,2,0,L|324:386,1,160,8|8,2:3|2:0,0:0:0:0:
195,382,10463,6,0,L|7:342,1,160,12|8,2:3|2:0,2:0:0:0:
24,274,10992,1,0,2:0:0:0:
24,274,11169,2,0,P|33:234|63:201,1,80,8|0,2:3|2:0,2:0:0:0:
128,167,11522,1,8,2:0:0:0:
158,93,11698,6,0,P|196:82|235:89,1,80,8|0,2:3|2:0,2:0:0:0:
308,123,12051,2,0,P|346:135|389:126,1,80,8|8,2:3|2:3,2:0:0:0:
452,83,12404,1,8,2:3:0:0:
452,83,12580,2,0,P|481:109|495:151,1,80,8|8,2:3|2:0,2:0:0:0:
498,227,12933,2,0,L|418:215,1,80,8|0,0:0|0:0,0:0:0:0:
469,307,13286,6,0,L|303:282,1,160,12|8,2:3|2:0,2:0:0:0:
292,206,13816,1,0,2:0:0:0:
292,206,13992,2,0,P|292:161|288:118,1,80,8|0,2:3|2:0,2:0:0:0:
267,48,14345,1,8,2:0:0:0:
201,95,14522,6,0,P|164:113|103:104,1,80,8|0,2:3|2:0,2:0:0:0:
94,38,14875,2,0,P|52:40|4:79,1,80,8|8,2:3|2:0,2:0:0:0:
34,142,15228,1,8,2:3:0:0:
34,142,15404,2,0,L|58:308,1,160,8|8,2:3|2:0,2:0:0:0:
213,353,16110,5,12,2:3:0:0:
213,353,16286,1,8,2:3:0:0:
231,275,16463,2,0,P|266:246|289:206,1,80,8|0,2:3|2:0,2:0:0:0:
230,165,16816,1,12,2:3:0:0:
230,165,16992,1,8,2:3:0:0:
166,116,17169,2,0,P|157:69|136:30,1,80,8|0,2:3|2:0,2:0:0:0:
246,12,17522,5,12,2:3:0:0:
246,12,17698,1,8,2:3:0:0:
326,15,17875,2,0,L|356:105,1,80,8|0,2:3|2:0,2:0:0:0:
334,172,18228,1,12,2:3:0:0:
334,172,18404,1,8,2:3:0:0:
287,236,18580,2,0,L|194:217,1,80,8|0,2:3|2:0,2:0:0:0:
179,145,18933,6,0,P|135:105|152:163,1,160,12|0,2:3|2:0,2:0:0:0:
280,376,19992,6,0,B|315:321|382:326,1,120,2|0,2:0|2:0,2:0:0:0:
413,324,20345,6,0,L|393:239,2,80,12|0|8,2:3|2:0|2:0,2:0:0:0:
488,290,20875,1,0,2:0:0:0:
488,290,21051,2,0,L|468:205,1,80,8|0,2:3|2:0,0:0:0:0:
446,135,21404,1,8,2:0:0:0:
404,66,21580,6,0,P|441:43|460:2,2,80,8|0|8,2:3|2:0|2:3,2:0:0:0:
334,35,22110,1,8,2:0:0:0:
334,35,22286,2,0,L|240:36,1,80,8|8,2:3|2:3,0:0:0:0:
209,190,22816,2,0,L|288:189,1,80,8|0,2:0|2:0,2:0:0:0:
385,148,23169,6,0,P|397:188|397:246,1,80,12|0,2:3|2:0,2:0:0:0:
474,254,23522,2,0,P|447:295|396:312,1,80,8|0,2:0|2:0,2:0:0:0:
390,383,23875,2,0,L|311:364,1,80,8|0,2:3|2:0,2:0:0:0:
233,353,24228,1,8,2:0:0:0:
240,273,24404,2,0,L|195:119,1,160,8|8,2:3|2:3,2:0:0:0:
45,234,25110,5,8,2:3:0:0:
45,234,25286,2,0,L|69:316,1,80,8|0,2:3|2:0,2:0:0:0:
127,364,25639,2,0,L|209:340,1,80,8|0,2:3|2:0,2:0:0:0:
241,235,25992,6,0,B|290:237|314:274,1,80,12|0,2:3|2:0,2:0:0:0:
348,339,26345,2,0,B|397:336|417:305,1,80,8|0,2:0|2:0,2:0:0:0:
496,293,26698,2,0,L|490:372,2,80,8|0|8,2:3|2:0|2:0,2:0:0:0:
500,212,27228,6,0,P|458:188|418:187,1,80,8|0,2:3|2:0,2:0:0:0:
372,127,27580,2,0,P|323:126|288:107,1,80,8|8,2:3|2:0,2:0:0:0:
236,58,27933,2,0,L|234:3,2,40,8|0|8,2:3|2:0|2:3,2:0:0:0:
165,96,28286,2,0,L|183:270,1,160,0|0,2:0|2:0,0:0:0:0:
254,292,28816,6,0,P|341:311|405:279,1,160,12|8,2:3|2:0,2:0:0:0:
428,205,29345,1,8,2:3:0:0:
484,148,29522,2,0,L|510:63,2,80,8|8|8,2:3|2:3|2:3,2:0:0:0:
428,205,30051,2,0,P|384:195|349:160,1,80,12|0,2:3|2:0,2:0:0:0:
335,95,30404,6,0,P|347:58|378:33,2,80,8|8|8,2:3|2:3|2:3,0:0:0:0:
226,125,30933,2,0,P|252:154|258:193,1,80,8|0,2:3|2:0,2:0:0:0:
212,259,31286,1,10,2:0:0:0:
347,210,31639,6,0,P|365:262|291:355,1,160,12|0,2:3|2:0,2:0:0:0:
238,371,32168,2,0,P|183:360|140:250,1,160,8|0,2:3|2:0,2:0:0:0:
153,196,32697,2,0,P|189:154|306:171,1,160,12|0,2:3|2:0,2:0:0:0:
347,210,33227,2,0,P|399:228|492:154,1,160,8|0,2:3|2:0,2:0:0:0:
507,101,33756,6,0,L|358:45,1,160,12|0,2:3|2:0,2:0:0:0:
345,124,34286,2,0,L|196:68,1,160,8|0,2:3|2:0,2:0:0:0:
183,147,34815,2,0,L|34:91,1,160,12|0,2:3|2:0,2:0:0:0:
18,169,35344,2,0,L|167:225,1,160,8|0,2:3|2:0,2:0:0:0:
248,223,35874,6,0,P|281:179|239:67,1,160,12|0,2:3|2:0,2:0:0:0:
194,36,36403,2,0,P|139:29|63:120,1,160,8|0,2:3|2:0,2:0:0:0:
60,177,36933,2,0,P|81:227|198:247,1,160,12|0,2:3|2:0,2:0:0:0:
248,223,37462,2,0,P|291:189|403:231,1,160,8|0,2:3|2:0,2:0:0:0:
448,265,37991,2,0,L|475:357,1,80,8|8,2:3|2:3,2:0:0:0:
396,370,38344,2,0,L|369:278,1,80,8|8,2:3|2:3,2:0:0:0:
388,211,38698,6,0,P|425:180|435:133,1,80,8|0,2:3|2:0,2:0:0:0:
512,162,39050,2,0,P|503:114|467:82,1,80,8|0,2:3|2:0,2:0:0:0:
424,37,39403,2,0,L|338:43,1,80,8|0,2:3|2:0,2:0:0:0:
340,122,39756,2,0,L|254:128,1,80,8|0,2:3|2:0,2:0:0:0:
225,199,40109,6,0,P|188:168|178:121,1,80,8|0,2:3|2:0,2:0:0:0:
101,150,40462,2,0,P|109:102|145:70,1,80,8|0,2:3|2:0,2:0:0:0:
188,25,40815,2,0,L|267:19,1,80,8|0,2:3|2:0,2:0:0:0:
304,90,41168,2,0,L|383:84,1,80,8|0,2:3|2:0,2:0:0:0:
486,119,41521,5,12,2:3:0:0:
486,119,41698,1,8,2:3:0:0:
418,159,41874,2,0,P|409:206|373:238,1,80,8|8,2:3|2:3,2:0:0:0:
312,222,42227,1,8,2:3:0:0:
312,222,42403,1,8,2:3:0:0:
251,169,42580,2,0,P|205:185|159:170,1,80,8|8,2:3|2:3,2:0:0:0:
80,135,42933,6,0,P|63:180|78:226,1,80,8|8,2:3|2:3,2:0:0:0:
116,275,43286,1,8,2:3:0:0:
67,338,43462,1,8,2:3:0:0:
132,384,43639,1,8,2:3:0:0:
286,340,43992,6,2,L|409:315,1,120,10|2,2:0|2:0,2:0:0:0:
433,289,44345,6,0,P|441:327|464:360,2,80,12|0|8,2:3|2:0|2:0,2:0:0:0:
379,236,44874,1,0,2:0:0:0:
379,236,45050,2,0,P|402:192|437:166,1,80,8|0,2:3|2:0,0:0:0:0:
504,173,45403,1,8,2:0:0:0:
462,104,45580,6,0,P|488:62|493:18,2,80,8|0|8,2:3|2:0|2:3,2:0:0:0:
385,103,46109,1,8,2:0:0:0:
385,103,46286,2,0,L|290:122,1,80,8|8,2:3|2:3,0:0:0:0:
170,33,46815,2,0,P|152:62|149:114,1,80,8|0,2:0|2:0,2:0:0:0:
147,211,47168,6,0,P|176:193|228:190,1,80,12|0,2:3|2:0,2:0:0:0:
297,215,47521,2,0,P|315:245|318:296,1,80,8|0,2:0|2:0,2:0:0:0:
324,370,47874,2,0,L|167:341,1,160,8|8,2:3|2:0,2:0:0:0:
89,320,48403,1,8,2:3:0:0:
69,161,48756,6,0,P|64:205|77:241,1,80,8|8,2:3|2:0,2:0:0:0:
155,267,49109,1,8,2:3:0:0:
155,267,49286,2,0,L|343:228,1,160,8|8,2:3|2:3,2:0:0:0:
460,187,49992,6,0,P|486:218|497:261,1,80,12|0,2:3|2:0,2:0:0:0:
422,286,50345,2,0,P|408:324|376:355,1,80,8|0,2:0|2:0,2:0:0:0:
307,319,50697,2,0,L|228:333,1,80,8|0,2:3|2:0,2:0:0:0:
157,369,51050,1,8,2:0:0:0:
75,363,51227,6,0,P|49:332|38:289,1,80,8|0,2:3|2:0,2:0:0:0:
0,224,51580,2,0,P|13:185|45:154,1,80,8|8,2:3|2:0,2:0:0:0:
120,138,51933,1,8,2:3:0:0:
120,138,52109,1,8,2:3:0:0:
151,211,52286,2,0,P|216:255|271:174,1,160,0|0,2:0|2:0,0:0:0:0:
245,134,52815,6,0,P|316:95|409:80,1,160,12|8,2:3|2:0,2:0:0:0:
438,151,53345,1,8,2:0:0:0:
438,151,53521,2,0,L|433:234,1,80,8|8,2:3|2:3,2:0:0:0:
431,311,53874,1,8,2:3:0:0:
502,275,54050,1,12,2:3:0:0:
342,269,54403,6,0,L|330:352,2,80,8|8|8,2:3|2:3|2:3,0:0:0:0:
406,220,54933,2,0,L|418:137,1,80,8|0,2:3|2:0,2:0:0:0:
479,89,55286,1,0,2:0:0:0:
366,0,55639,6,0,P|358:76|290:111,1,160,12|0,2:3|2:0,2:0:0:0:
282,191,56168,2,0,P|221:151|223:67,1,160,8|0,2:3|2:0,2:0:0:0:
157,22,56697,2,0,P|221:-10|292:33,1,160,12|0,2:3|2:0,2:0:0:0:
290,111,57227,2,0,P|297:187|365:222,1,160,8|0,2:3|2:0,2:0:0:0:
431,176,57756,6,0,P|465:227|476:356,1,160,12|0,2:3|2:0,2:0:0:0:
402,307,58286,2,0,P|351:340|222:352,1,160,8|0,2:3|2:0,2:0:0:0:
271,278,58815,2,0,P|237:227|226:98,1,160,12|0,2:3|2:0,2:0:0:0:
286,83,59344,2,0,P|235:49|106:38,1,160,8|0,2:3|2:0,2:0:0:0:
75,81,59874,6,0,P|82:157|150:192,1,160,12|0,2:3|2:0,2:0:0:0:
159,272,60403,2,0,P|219:232|217:148,1,160,8|0,2:3|2:0,2:0:0:0:
284,103,60933,2,0,P|219:71|148:114,1,160,12|0,2:3|2:0,2:0:0:0:
151,192,61462,2,0,P|143:268|75:303,1,160,8|0,2:3|2:0,2:0:0:0:
6,260,61991,2,0,L|20:176,1,80,8|8,2:3|2:3,2:0:0:0:
83,133,62344,2,0,L|97:49,1,80,8|8,2:3|2:3,2:0:0:0:
168,16,62697,6,0,P|211:7|258:19,1,80,8|0,2:3|2:0,2:0:0:0:
209,85,63049,2,0,P|250:98|285:132,1,80,8|0,2:3|2:0,2:0:0:0:
223,181,63402,2,0,L|209:265,1,80,8|0,2:3|2:0,2:0:0:0:
289,270,63755,2,0,L|275:354,1,80,8|0,2:3|2:0,2:0:0:0:
351,375,64108,6,0,P|394:384|441:372,1,80,8|0,2:3|2:0,2:0:0:0:
392,306,64461,2,0,P|433:292|468:258,1,80,8|0,2:3|2:0,2:0:0:0:
406,210,64814,2,0,L|392:126,1,80,8|0,2:3|2:0,2:0:0:0:
472,121,65167,2,0,L|458:37,1,80,8|0,2:3|2:0,2:0:0:0:
363,0,65520,6,0,P|321:13|286:47,1,80,8|8,2:3|2:3,2:0:0:0:
214,25,65873,2,0,P|205:67|217:115,1,80,8|8,2:3|2:3,2:0:0:0:
245,174,66226,1,8,2:3:0:0:
324,188,66402,1,8,2:3:0:0:
351,263,66579,1,8,2:3:0:0:
299,323,66755,1,8,2:3:0:0:
212,264,66932,6,0,P|163:241|127:243,1,80,8|8,2:3|2:3,2:0:0:0:
58,246,67285,1,8,2:3:0:0:
90,175,67461,1,8,2:3:0:0:
137,240,67638,1,8,2:3:0:0:
14,185,67991,1,0,2:0:0:0:
128,72,68344,6,0,L|214:60,1,80,4|0,3:0|3:0,3:0:0:0:
270,107,68697,2,0,L|356:95,1,80,8|0,3:0|3:0,3:0:0:0:
427,84,69049,2,0,P|444:131|434:172,2,80,0|0|8,3:0|3:0|3:0,3:0:0:0:
376,21,69579,2,0,B|334:1|334:1|221:19,1,160,0|0,3:0|3:0,3:0:0:0:
150,55,70108,2,0,P|176:88|222:100,2,80,8|0|0,3:0|3:0|3:0,3:0:0:0:
150,55,70814,2,2,L|64:67,1,80,2|0,3:0|3:0,3:0:0:0:
111,162,71167,6,0,L|99:248,1,80,4|0,3:0|3:0,3:0:0:0:
20,233,71520,2,0,L|8:319,1,80,8|0,3:0|3:0,3:0:0:0:
88,319,71873,2,0,L|174:331,2,80,0|0|8,3:0|3:0|3:0,3:0:0:0:
99,241,72402,2,0,B|198:253|198:253|256:239,1,160,0|0,3:0|3:0,3:0:0:0:
329,204,72932,2,0,P|370:210|403:243,2,80,8|0|0,3:0|3:0|3:0,3:0:0:0:
329,204,73638,2,2,L|243:192,1,80,2|0,3:0|3:0,3:0:0:0:
146,175,73991,6,0,P|116:142|108:99,1,80,4|0,3:0|3:0,3:0:0:0:
187,106,74344,2,0,P|200:63|233:35,1,80,8|0,3:0|3:0,3:0:0:0:
305,33,74696,2,0,L|391:45,2,80,0|0|8,3:0|3:0|3:0,3:0:0:0:
267,107,75226,2,0,P|292:180|365:201,1,160,0|0,3:0|3:0,3:0:0:0:
419,142,75755,2,0,P|458:144|493:162,2,80,8|0|0,3:0|3:0|3:0,3:0:0:0:
462,296,76461,2,0,P|426:312|386:314,1,80,2|0,3:0|3:0,3:0:0:0:
342,246,76814,6,0,L|240:222,1,80,4|0,3:0|3:0,3:0:0:0:
274,148,77167,2,0,L|186:161,1,80,8|0,3:0|3:0,3:0:0:0:
130,114,77520,1,0,3:0:0:0:
50,112,77696,2,0,P|50:152|36:189,2,80,0|8|0,3:0|3:0|3:0,0:0:0:0:
0,20,78226,5,0,3:0:0:0:
173,49,78579,1,0,3:0:0:0:
173,49,78932,1,0,3:0:0:0:
65,189,79285,1,2,2:0:0:0:
144,365,79638,6,0,L|235:385,1,88,4|0,2:0|2:0,2:0:0:0:
314,360,79991,2,0,L|332:273,1,88,8|8,2:0|2:0,2:0:0:0:
333,233,80255,1,8,2:0:0:0:
333,233,80344,2,0,P|315:189|312:147,1,88,8|0,2:3|2:0,2:0:0:0:
287,62,80696,1,8,2:0:0:0:
223,122,80873,6,0,P|171:132|126:111,1,88,0|8,2:0|2:3,2:0:0:0:
75,59,81226,1,0,2:0:0:0:
36,137,81402,2,0,L|16:226,1,88,8|8,2:0|2:0,2:0:0:0:
11,270,81667,1,8,2:0:0:0:
11,270,81755,2,0,P|54:266|93:284,1,88,8|0,2:3|2:0,2:0:0:0:
82,372,82108,2,0,P|130:375|171:351,1,88,8|0,2:0|2:0,2:0:0:0:
179,243,82461,5,4,2:0:0:0:
245,302,82638,2,0,L|332:324,1,88,0|8,2:0|2:0,2:0:0:0:
404,275,82991,1,0,3:0:0:0:
462,341,83167,2,0,L|470:388,2,44,0|0|0,3:0|3:0|3:0,2:0:0:0:
491,258,83520,1,8,3:0:0:0:
433,192,83696,1,0,3:0:0:0:
433,192,83785,1,0,3:0:0:0:
433,192,83873,5,8,2:0:0:0:
472,85,84049,1,8,2:0:0:0:
472,85,84402,5,8,2:0:0:0:
360,105,84579,1,8,2:0:0:0:
360,105,85285,6,0,P|309:106|268:82,1,88,4|0,2:0|2:0,2:0:0:0:
221,20,85638,2,0,P|172:5|126:17,1,88,8|8,2:0|2:0,2:0:0:0:
109,46,85902,1,8,2:0:0:0:
109,46,85991,2,0,L|93:133,1,88,8|0,2:3|2:0,2:0:0:0:
81,220,86344,2,0,L|168:204,1,88,8|0,2:0|2:0,2:0:0:0:
186,118,86696,6,0,L|273:134,1,88,8|0,2:3|2:0,2:0:0:0:
271,222,87049,2,0,L|358:238,1,88,8|8,2:0|2:0,2:0:0:0:
405,247,87314,1,8,2:0:0:0:
405,247,87402,2,0,P|397:196|425:149,1,88,8|0,2:3|2:0,2:0:0:0:
492,197,87755,2,0,P|508:156|500:113,1,88.000002685547,8|0,2:0|2:0,2:0:0:0:
458,6,88108,6,0,P|408:29|355:31,1,88,4|0,2:0|2:0,2:0:0:0:
292,6,88461,1,8,2:0:0:0:
303,101,88638,1,8,2:0:0:0:
303,101,88726,1,8,2:0:0:0:
303,101,88814,2,0,P|326:150|328:203,1,88,8|0,2:3|2:0,2:0:0:0:
309,256,89167,2,0,P|259:279|206:281,1,88,8|0,2:0|2:0,2:0:0:0:
200,170,89520,5,2,2:0:0:0:
200,82,89696,1,2,2:0:0:0:
123,38,89873,1,2,2:0:0:0:
47,82,90049,1,2,2:0:0:0:
47,82,90402,1,8,2:0:0:0:
124,126,90579,1,10,2:0:0:0:
47,170,90755,1,8,2:0:0:0:
138,239,90932,6,0,P|153:285|148:334,1,88,4|0,2:0|2:0,2:0:0:0:
86,384,91285,2,0,P|38:373|-2:345,1,88,8|8,2:0|2:0,2:0:0:0:
6,312,91549,1,8,2:0:0:0:
6,312,91638,2,0,L|19:218,1,88,8|0,2:3|2:0,2:0:0:0:
11,136,91991,1,8,2:0:0:0:
93,167,92167,6,0,P|138:179|186:172,1,88,0|8,2:0|2:3,2:0:0:0:
256,132,92520,1,0,2:0:0:0:
289,213,92696,2,0,L|299:314,1,88,8|8,2:0|2:0,2:0:0:0:
307,348,92961,1,8,2:0:0:0:
307,348,93049,2,0,P|351:332|398:340,1,88,8|0,2:3|2:0,2:0:0:0:
478,349,93402,2,0,L|473:255,1,88,8|0,2:0|2:0,2:0:0:0:
367,216,93755,5,4,2:0:0:0:
445,177,93932,2,0,P|460:137|447:84,1,88,0|8,2:0|2:0,2:0:0:0:
419,23,94285,1,0,3:0:0:0:
419,23,94373,1,0,3:0:0:0:
419,23,94461,2,0,L|476:8,2,44,0|0|0,3:0|3:0|3:0,2:0:0:0:
336,55,94814,1,8,3:0:0:0:
262,12,94991,1,0,3:0:0:0:
262,12,95079,1,0,3:0:0:0:
262,12,95167,5,8,2:0:0:0:
235,122,95344,1,8,2:0:0:0:
235,122,95696,5,8,2:0:0:0:
208,232,95873,1,8,2:0:0:0:
73,317,96579,6,0,L|177:332,1,88,12|0,2:3|2:0,2:0:0:0:
152,241,96932,2,0,L|256:256,1,88,8|0,2:3|2:0,2:0:0:0:
251,342,97285,2,0,L|355:357,1,88,8|0,2:3|2:0,2:0:0:0:
330,266,97638,2,0,L|434:281,1,88,8|0,2:3|2:0,2:0:0:0:
511,336,97991,6,0,L|499:231,1,88,8|0,2:3|2:0,2:0:0:0:
418,279,98344,2,0,L|406:174,1,88,8|0,2:3|2:0,2:0:0:0:
489,157,98696,2,0,L|477:52,1,88,8|0,2:3|2:0,2:0:0:0:
396,100,99049,2,0,L|384:-5,1,88,8|0,2:3|2:0,2:0:0:0:
254,25,99402,6,0,P|207:25|158:15,2,80,2|2|8,2:0|2:0|2:0,2:0:0:0:
396,100,100108,2,0,P|435:99|474:90,2,80,2|2|8,2:0|2:0|2:0,2:0:0:0:
254,175,100814,2,0,P|214:174|175:165,2,80,2|2|8,2:0|2:0|2:0,2:0:0:0:
396,250,101520,2,0,P|435:249|474:240,2,80,2|2|8,2:0|2:0|2:0,2:0:0:0:
248,335,102226,5,8,2:3:0:0:
218,260,102402,1,8,2:3:0:0:
138,248,102579,1,8,2:3:0:0:
87,311,102755,1,8,2:3:0:0:
27,162,103638,5,8,2:3:0:0:
78,99,103814,1,8,2:3:0:0:
107,174,103991,1,8,2:3:0:0:
158,111,104167,1,8,2:3:0:0:
209,48,105049,5,8,2:3:0:0:
289,60,105226,1,8,2:3:0:0:
369,72,105402,1,8,2:3:0:0:
449,84,105579,1,8,2:3:0:0:
449,84,106108,5,8,2:3:0:0:
398,147,106285,1,8,2:3:0:0:
398,147,106814,6,0,P|397:213|433:262,1,120,0|0,2:0|2:0,2:0:0:0:
460,277,107167,1,0,2:0:0:0:
408,337,107344,1,0,2:0:0:0:
334,305,107520,1,0,2:0:0:0:
174,329,107873,6,0,P|181:284|180:220,1,80,12|0,2:3|2:0,2:0:0:0:
141,180,108226,1,8,2:0:0:0:
219,156,108402,1,0,2:0:0:0:
219,156,108579,2,0,L|416:167,1,160,8|8,2:3|2:0,2:0:0:0:
444,119,109108,6,0,P|449:74|440:24,1,80,8|0,2:3|2:0,2:0:0:0:
370,9,109461,2,0,P|325:4|275:13,1,80,8|8,2:3|2:0,2:0:0:0:
210,11,109814,2,0,L|167:-2,2,40,8|0|8,2:3|2:0|2:3,2:0:0:0:
212,91,110167,1,0,2:0:0:0:
132,84,110344,2,0,L|37:56,1,80,8|0,2:0|2:0,2:0:0:0:
30,162,110696,6,0,P|45:208|38:257,1,80,12|0,2:3|2:0,2:0:0:0:
1,307,111049,1,8,2:0:0:0:
84,318,111226,1,0,2:0:0:0:
84,318,111402,2,0,L|241:276,1,160,8|8,2:3|2:0,2:0:0:0:
266,351,111932,6,0,L|369:371,1,80,8|0,2:3|2:0,2:0:0:0:
414,327,112285,2,0,P|417:285|411:232,1,80,8|0,2:3|2:0,2:0:0:0:
351,197,112638,2,0,P|328:196|306:188,2,40,8|0|8,2:3|2:0|2:3,2:0:0:0:
427,172,112991,1,8,2:0:0:0:
449,95,113167,2,0,P|425:52|385:23,1,80,8|0,2:0|2:0,2:0:0:0:
293,58,113520,6,0,P|253:74|205:78,1,80,12|0,2:3|2:0,2:0:0:0:
152,30,113873,1,8,2:0:0:0:
105,96,114049,1,0,2:0:0:0:
105,96,114226,2,0,L|149:280,1,160,8|8,2:3|2:0,2:0:0:0:
213,288,114755,6,0,L|319:262,1,80,8|0,2:3|2:0,2:0:0:0:
302,348,115108,2,0,L|410:354,1,80,8|8,2:3|2:0,2:0:0:0:
461,345,115461,2,0,L|469:394,2,40,8|0|8,2:3|2:0|2:3,2:0:0:0:
433,269,115814,1,0,2:0:0:0:
512,260,115991,2,0,P|515:207|508:154,1,80,8|0,2:0|2:0,2:0:0:0:
457,91,116344,5,4,2:0:0:0:
457,91,117402,2,2,P|397:76|336:100,1,120,0|0,2:0|2:0,2:0:0:0:
306,112,117755,6,0,L|307:19,2,80,12|0|8,2:3|2:0|2:0,2:0:0:0:
235,147,118285,1,0,2:0:0:0:
235,147,118461,2,0,L|142:145,1,80,8|0,2:3|2:0,0:0:0:0:
114,75,118814,1,8,2:0:0:0:
33,76,118991,6,0,P|35:36|49:-1,2,80,8|0|8,2:3|2:0|2:3,2:0:0:0:
80,147,119520,1,8,2:0:0:0:
80,147,119696,2,0,P|88:192|81:241,1,80,8|8,2:3|2:3,0:0:0:0:
51,382,120226,2,0,P|98:366|147:370,1,80,8|0,2:0|2:0,2:0:0:0:
230,382,120579,6,0,L|336:357,1,80,12|0,2:3|2:0,2:0:0:0:
325,285,120932,2,0,L|431:260,1,80,8|0,2:0|2:0,2:0:0:0:
471,311,121285,2,0,P|487:221|473:119,1,160,8|8,2:3|2:0,2:0:0:0:
445,82,121814,6,0,L|357:73,1,80,8|0,2:3|2:0,2:0:0:0:
320,7,122167,2,0,L|232:-2,1,80,8|8,2:3|2:0,2:0:0:0:
171,36,122520,1,8,2:3:0:0:
171,36,122696,2,0,P|159:118|91:116,1,160,8|8,2:3|2:3,2:0:0:0:
208,233,123402,6,0,L|373:251,1,160,12|8,2:3|2:0,2:0:0:0:
433,204,123932,1,0,2:0:0:0:
452,126,124108,2,0,P|435:81|390:49,1,80,8|0,2:3|2:0,2:0:0:0:
334,67,124461,1,8,2:0:0:0:
278,9,124638,6,0,L|175:20,1,80,8|0,2:3|2:0,2:0:0:0:
194,97,124991,2,0,L|91:108,1,80,8|8,2:3|2:0,2:0:0:0:
49,58,125344,2,0,L|45:17,2,40,8|0|8,2:3|2:0|2:3,2:0:0:0:
7,126,125696,2,0,L|25:291,1,160,0|0,2:0|2:0,0:0:0:0:
106,289,126226,6,0,P|144:361|224:359,1,160,12|8,2:3|2:0,2:0:0:0:
271,307,126755,1,0,2:0:0:0:
338,350,126932,2,0,L|444:371,2,80,8|8|8,2:3|2:3|2:3,2:0:0:0:
271,307,127461,2,0,P|263:263|281:210,1,80,12|0,2:3|2:0,2:0:0:0:
309,158,127814,2,0,P|349:160|387:173,2,80,8|8|8,2:3|2:3|2:3,0:0:0:0:
223,97,128344,2,0,P|179:111|122:108,1,80,8|0,2:3|2:0,2:0:0:0:
100,46,128696,1,10,2:0:0:0:
13,161,129049,6,0,P|39:243|35:328,1,160,12|0,2:3|2:0,2:0:0:0:
110,351,129578,2,0,P|168:287|243:248,1,160,8|0,2:3|2:0,2:0:0:0:
226,171,130107,2,0,P|141:152|70:106,1,160,12|0,2:3|2:0,2:0:0:0:
107,39,130637,2,0,P|191:57|262:103,1,160,8|0,2:3|2:0,2:0:0:0:
226,171,131166,6,0,P|270:232|347:229,1,160,12|0,2:3|2:0,2:0:0:0:
304,158,131696,2,0,P|335:88|293:23,1,160,8|0,2:3|2:0,2:0:0:0:
254,96,132225,2,0,P|178:104|143:172,1,160,12|0,2:3|2:0,2:0:0:0:
226,171,132754,2,0,P|257:240|215:305,1,160,8|0,2:3|2:0,2:0:0:0:
134,303,133284,6,0,P|81:234|56:153,1,160,12|0,2:3|2:0,2:0:0:0:
142,172,133813,2,0,P|174:92|232:29,1,160,8|0,2:3|2:0,2:0:0:0:
259,113,134343,2,0,P|344:101|427:120,1,160,12|0,2:3|2:0,2:0:0:0:
426,196,134872,2,0,P|487:151|484:74,1,160,8|0,2:3|2:0,2:0:0:0:
421,23,135401,2,0,P|373:12|317:11,1,80,8|8,2:3|2:3,2:0:0:0:
262,16,135754,2,0,P|213:26|162:49,1,80,8|8,2:3|2:3,2:0:0:0:
172,116,136107,6,0,P|125:123|85:113,1,80,8|0,2:3|2:0,2:0:0:0:
18,89,136459,2,0,L|10:189,1,80,8|0,2:3|2:0,2:0:0:0:
3,248,136812,2,0,P|49:255|89:245,1,80,8|0,2:3|2:0,2:0:0:0:
157,221,137165,2,0,L|165:321,1,80,8|0,2:3|2:0,2:0:0:0:
177,379,137518,6,0,P|223:371|263:381,1,80,8|0,2:3|2:0,2:0:0:0:
335,379,137871,2,0,L|343:279,1,80,8|0,2:3|2:0,2:0:0:0:
315,221,138224,2,0,P|268:213|228:223,1,80,8|0,2:3|2:0,2:0:0:0:
157,221,138577,2,0,L|149:121,1,80,8|0,2:3|2:0,2:0:0:0:
103,55,138930,5,8,2:3:0:0:
103,55,139107,1,8,2:3:0:0:
182,40,139283,2,0,P|218:10|258:-1,1,80,8|8,2:3|2:3,2:0:0:0:
321,45,139636,1,8,2:3:0:0:
321,45,139812,1,8,2:3:0:0:
386,90,139989,2,0,L|395:188,1,80,8|8,2:3|2:3,2:0:0:0:
427,269,140342,6,0,P|380:261|340:271,1,80,8|8,2:3|2:3,2:0:0:0:
270,255,140695,1,8,2:3:0:0:
321,194,140871,1,8,2:3:0:0:
348,267,141048,1,8,2:3:0:0:
245,179,141401,1,10,2:0:0:0:
157,93,141754,6,0,L|165:186,1,80,4|0,3:0|3:0,3:0:0:0:
83,172,142107,2,0,L|75:265,1,80,8|0,3:0|3:0,3:0:0:0:
68,331,142459,2,0,P|30:360|-15:364,2,80,0|0|8,3:0|3:0|3:0,3:0:0:0:
143,301,142989,2,0,B|193:293|193:293|325:313,1,160,0|0,3:0|3:0,3:0:0:0:
368,353,143518,2,0,P|403:331|443:324,2,80,8|0|0,3:0|3:0|3:0,3:0:0:0:
368,353,144224,2,2,L|383:258,1,80,2|0,3:0|3:0,3:0:0:0:
475,229,144577,6,0,L|460:134,1,80,4|0,3:0|3:0,3:0:0:0:
385,171,144930,2,0,L|370:76,1,80,8|0,3:0|3:0,3:0:0:0:
435,42,145283,2,0,P|483:45|522:29,2,80,0|0|8,3:0|3:0|3:0,3:0:0:0:
360,12,145812,2,0,B|320:-3|320:-3|204:15,1,160,0|0,3:0|3:0,3:0:0:0:
124,27,146342,2,0,P|142:72|184:95,2,80,8|0|0,3:0|3:0|3:0,3:0:0:0:
124,27,147048,2,2,L|102:114,1,80,2|0,3:0|3:0,3:0:0:0:
16,161,147401,6,0,L|111:190,1,80,4|0,3:0|3:0,3:0:0:0:
89,264,147754,2,0,L|181:243,1,80,8|0,3:0|3:0,3:0:0:0:
243,271,148107,2,0,P|234:316|206:347,2,80,0|0|8,3:0|3:0|3:0,3:0:0:0:
228,191,148636,2,0,B|275:198|275:198|394:184,1,160,0|0,3:0|3:0,3:0:0:0:
456,145,149165,2,0,P|480:181|522:197,2,80,8|0|0,3:0|3:0|3:0,3:0:0:0:
477,303,149871,2,0,L|444:384,1,80,2|0,3:0|3:0,3:0:0:0:
370,351,150224,6,0,P|331:366|281:352,1,80,4|0,3:0|3:0,3:0:0:0:
286,280,150577,2,0,P|253:253|240:203,1,80,8|0,3:0|3:0,3:0:0:0:
185,160,150930,1,0,3:0:0:0:
107,139,151107,2,0,P|86:105|51:86,2,80,0|8|0,3:0|3:0|3:0,0:0:0:0:
64,234,151636,5,8,3:0:0:0:
240,218,151989,1,0,3:0:0:0:
240,218,152342,1,0,3:0:0:0:
77,150,152695,1,2,2:0:0:0:
76,344,153048,6,0,P|121:323|170:327,1,88,4|0,2:0|2:0,2:0:0:0:
228,377,153401,2,0,P|276:385|323:369,1,88,8|8,2:0|2:0,2:0:0:0:
332,337,153665,1,8,2:0:0:0:
332,337,153754,2,0,L|425:320,1,88,8|0,2:3|2:0,2:0:0:0:
498,283,154107,1,8,2:0:0:0:
425,233,154283,6,0,P|409:186|417:141,1,88,0|8,2:0|2:3,2:0:0:0:
486,98,154636,1,0,2:0:0:0:
406,61,154812,2,0,L|304:57,1,88,8|8,2:0|2:0,2:0:0:0:
294,83,155077,1,8,2:0:0:0:
294,83,155165,2,0,P|244:96|192:78,1,88,8|0,2:3|2:0,2:0:0:0:
167,11,155518,2,0,P|118:-6|64:7,1,88,8|0,2:0|2:0,2:0:0:0:
111,109,155871,5,4,2:0:0:0:
23,116,156048,2,0,L|11:210,1,88,0|8,2:0|2:0,2:0:0:0:
79,259,156401,1,0,3:0:0:0:
53,342,156577,2,0,P|26:347|0:359,2,44,0|0|0,3:0|3:0|3:0,2:0:0:0:
138,324,156930,1,8,3:0:0:0:
220,377,157107,1,0,3:0:0:0:
220,377,157195,1,0,3:0:0:0:
220,377,157283,5,8,2:0:0:0:
310,302,157459,1,8,2:0:0:0:
310,302,157812,5,8,2:0:0:0:
203,264,157989,1,8,2:0:0:0:
408,274,158695,6,0,L|419:181,1,88,4|0,2:0|2:0,2:0:0:0:
502,210,159048,2,0,L|513:118,1,88,8|8,2:0|2:0,2:0:0:0:
512,84,159312,1,8,2:0:0:0:
512,84,159401,2,0,P|466:63|416:63,1,88,8|0,2:3|2:0,2:0:0:0:
353,107,159754,2,0,P|309:107|268:92,1,88,8|0,2:0|2:0,2:0:0:0:
197,39,160106,6,0,L|93:24,1,88,8|0,2:3|2:0,2:0:0:0:
45,88,160459,2,0,L|30:192,1,88,8|8,2:0|2:0,2:0:0:0:
27,219,160724,1,8,2:0:0:0:
27,219,160812,2,0,P|76:206|117:219,1,88,8|0,2:3|2:0,2:0:0:0:
112,303,161165,2,0,P|155:328|198:326,1,88,8|0,2:0|2:0,2:0:0:0:
252,230,161518,6,0,B|346:247,1,88,4|0,2:0|2:0,2:0:0:0:
394,314,161871,1,8,2:0:0:0:
430,238,162048,1,8,2:0:0:0:
430,238,162136,1,8,2:0:0:0:
430,238,162224,2,0,P|451:188|457:133,1,88,8|0,2:3|2:0,2:0:0:0:
424,72,162577,2,0,P|374:51|319:45,1,88,8|0,2:0|2:0,2:0:0:0:
264,131,162930,5,2,2:0:0:0:
217,56,163107,1,2,2:0:0:0:
176,135,163283,1,2,2:0:0:0:
129,60,163459,1,2,2:0:0:0:
129,60,163812,1,8,2:0:0:0:
54,107,163989,1,10,2:0:0:0:
57,195,164165,1,8,2:0:0:0:
141,271,164342,6,0,P|192:263|237:273,1,88,4|0,2:0|2:0,2:0:0:0:
269,346,164695,2,0,L|366:340,1,88,8|8,2:0|2:0,2:0:0:0:
401,341,164959,1,8,2:0:0:0:
401,341,165048,2,0,P|382:293|387:250,1,88,8|0,2:3|2:0,2:0:0:0:
405,158,165401,1,8,2:0:0:0:
323,196,165577,6,0,L|214:174,1,88,0|8,2:0|2:3,2:0:0:0:
161,225,165930,1,0,2:0:0:0:
155,137,166106,2,0,P|175:91|169:38,1,88,8|8,2:0|2:0,2:0:0:0:
158,17,166371,1,8,2:0:0:0:
158,17,166459,2,0,L|254:29,1,88,8|0,2:3|2:0,2:0:0:0:
282,108,166812,2,0,L|374:96,1,88,8|0,2:0|2:0,2:0:0:0:
471,44,167165,5,4,2:0:0:0:
449,128,167342,2,0,L|461:227,1,88,0|8,2:0|2:0,2:0:0:0:
470,311,167695,1,0,3:0:0:0:
470,311,167783,1,0,3:0:0:0:
470,311,167871,2,0,P|497:320|524:319,2,44,0|0|0,3:0|3:0|3:0,2:0:0:0:
388,265,168224,1,8,3:0:0:0:
333,333,168401,1,0,3:0:0:0:
333,333,168489,1,0,3:0:0:0:
333,333,168577,5,8,2:0:0:0:
293,226,168754,1,8,2:0:0:0:
293,226,169106,5,8,2:0:0:0:
213,308,169283,1,8,2:0:0:0:
132,202,169989,6,0,P|96:173|70:127,1,88,12|0,2:3|2:0,2:0:0:0:
159,118,170342,2,0,P|165:72|192:26,1,88,8|0,2:3|2:0,2:0:0:0:
245,100,170695,2,0,P|287:82|340:83,1,88,8|0,2:3|2:0,2:0:0:0:
302,164,171048,2,0,P|337:192|363:238,1,88,8|0,2:3|2:0,2:0:0:0:
301,329,171401,6,0,P|339:349|383:355,1,88,8|0,2:3|2:0,2:0:0:0:
365,269,171754,2,0,P|408:267|449:251,1,88,8|0,2:3|2:0,2:0:0:0:
390,185,172106,2,0,P|426:161|454:127,1,88,8|0,2:3|2:0,2:0:0:0:
369,99,172459,2,0,P|389:60|395:16,1,88,8|0,2:3|2:0,2:0:0:0:
281,31,172812,6,0,L|187:44,2,80,2|2|8,2:0|2:0|2:0,2:0:0:0:
90,115,173518,2,0,L|184:128,2,80,2|2|8,2:0|2:0|2:0,2:0:0:0:
281,199,174224,2,0,L|201:209,2,80,2|2|8,2:0|2:0|2:0,2:0:0:0:
90,283,174930,2,0,L|169:293,2,80,2|2|8,2:0|2:0|2:0,2:0:0:0:
275,363,175636,5,8,2:3:0:0:
353,351,175812,1,8,2:3:0:0:
431,339,175989,1,8,2:3:0:0:
509,327,176165,1,8,2:3:0:0:
438,124,177048,5,8,2:3:0:0:
406,197,177224,1,8,2:3:0:0:
359,133,177401,1,8,2:3:0:0:
328,207,177577,1,8,2:3:0:0:
337,0,178459,5,8,2:3:0:0:
259,11,178636,1,8,2:3:0:0:
229,84,178812,1,8,2:3:0:0:
277,146,178989,1,8,2:3:0:0:
277,146,179518,5,8,2:3:0:0:
198,159,179695,1,8,2:3:0:0:
198,159,180224,6,0,P|150:113|75:129,1,120,0|0,2:0|2:0,2:0:0:0:
61,126,180577,1,0,2:0:0:0:
42,203,180754,1,0,2:0:0:0:
82,271,180930,2,2,L|184:261,1,80,2|0,2:0|2:0,2:0:0:0:
241,259,181283,5,4,2:0:0:0:
319,42,192577,6,0,L|415:33,2,80,4|0|8,2:0|2:0|2:0,2:0:0:0:
253,87,193106,2,0,L|262:183,2,80,0|0|0,2:0|2:0|2:0,0:0:0:0:
181,51,193636,2,0,P|145:78|96:83,1,80,8|0,2:0|2:0,2:0:0:0:
18,37,193989,6,0,L|-2:132,1,80,0|0,2:0|2:0,2:0:0:0:
72,152,194342,2,0,P|92:189|96:236,1,80,8|0,2:0|2:0,2:0:0:0:
56,295,194695,2,0,L|143:310,1,80,0|0,2:0|2:0,2:0:0:0:
152,384,195048,2,0,L|245:359,1,80,8|0,2:0|2:0,2:0:0:0:
318,308,195401,6,0,L|241:287,2,80,4|0|8,2:0|2:0|2:0,0:0:0:0:
387,347,195930,1,0,2:0:0:0:
455,305,196106,2,0,P|492:276|519:239,2,80,0|0|8,2:0|2:0|2:0,2:0:0:0:
385,267,196636,1,0,2:0:0:0:
398,174,196812,6,0,L|308:154,1,80,0|0,2:0|2:0,2:0:0:0:
293,232,197165,2,0,L|195:253,1,80,8|0,2:0|2:0,2:0:0:0:
135,264,197518,2,0,L|115:174,1,80,0|0,2:0|2:0,2:0:0:0:
196,169,197871,2,0,L|216:79,1,80,8|0,2:0|2:0,2:0:0:0:
109,76,198224,6,0,P|63:69|22:41,2,80,4|0|8,2:0|2:0|2:0,2:0:0:0:
172,25,198754,1,0,2:0:0:0:
251,22,198930,1,0,2:0:0:0:
298,86,199106,2,0,L|308:194,1,80,0|8,2:0|2:0,2:0:0:0:
266,235,199459,1,0,2:0:0:0:
370,239,199636,6,0,P|415:245|456:273,2,80,0|0|8,2:0|2:0|2:0,2:0:0:0:
316,298,200165,1,0,2:0:0:0:
245,335,200342,2,0,P|209:340|162:331,1,80,0|0,2:0|2:0,2:0:0:0:
113,272,200695,2,2,L|103:180,1,80,10|0,2:0|2:0,2:0:0:0:
68,94,201048,6,0,P|110:96|148:84,1,80,12|0,2:3|2:0,2:0:0:0:
219,52,201401,2,0,L|227:139,1,80,8|0,2:3|2:0,2:0:0:0:
266,201,201754,2,0,P|308:203|346:191,1,80,8|0,2:3|2:0,2:0:0:0:
416,158,202106,2,0,L|424:245,1,80,8|0,2:3|2:0,2:0:0:0:
400,314,202459,6,0,B|288:367|288:367|170:340,2,240,8|8|8,2:3|2:3|2:3,2:0:0:0:
400,314,203871,5,8,2:3:0:0:
369,240,204048,1,8,2:3:0:0:
448,247,204224,2,0,P|463:210|455:151,1,80,8|8,2:3|2:3,2:0:0:0:
454,91,204577,1,8,2:3:0:0:
386,47,204754,2,0,P|349:32|290:40,1,80,8|8,2:3|2:3,2:0:0:0:
296,112,205106,1,8,2:3:0:0:
228,32,205283,5,8,2:3:0:0:
256,192,205371,12,2,206695,2:0:0:0:
32,150,209165,6,2,B|57:221|24:278,1,120,0|0,2:0|2:0,2:0:0:0:
4,303,209518,6,0,L|108:315,1,88,4|0,2:0|2:0,2:0:0:0:
150,378,209871,2,0,L|248:353,1,88,8|8,2:0|2:0,2:0:0:0:
273,332,210136,1,8,2:0:0:0:
273,332,210224,2,0,P|320:328|377:344,1,88,8|0,2:3|2:0,2:0:0:0:
436,379,210577,1,8,2:0:0:0:
448,292,210754,6,0,P|449:242|471:203,1,88,0|8,2:0|2:3,2:0:0:0:
508,131,211106,1,0,2:0:0:0:
429,92,211283,2,0,L|339:84,1,88,8|8,2:0|2:0,2:0:0:0:
309,114,211548,1,8,2:0:0:0:
309,114,211636,2,0,P|261:121|217:108,1,88,8|0,2:3|2:0,2:0:0:0:
189,30,211989,2,0,P|142:17|97:27,1,88,8|0,2:0|2:0,2:0:0:0:
0,66,212342,5,4,2:0:0:0:
28,149,212518,2,0,L|131:163,1,88,0|8,2:0|2:0,2:0:0:0:
154,240,212871,1,0,3:0:0:0:
229,194,213048,2,0,P|232:161|240:135,2,44,0|0|0,3:0|3:0|3:0,2:0:0:0:
231,281,213401,1,8,3:0:0:0:
313,243,213577,1,0,3:0:0:0:
313,243,213665,1,0,3:0:0:0:
313,243,213754,5,8,2:0:0:0:
427,243,213930,1,8,2:0:0:0:
427,243,214283,5,8,2:0:0:0:
370,341,214459,1,8,2:0:0:0:
370,341,215165,6,0,L|461:332,1,88,4|0,2:0|2:0,2:0:0:0:
512,265,215518,2,0,P|509:215|475:168,1,88,8|8,2:0|2:0,2:0:0:0:
461,157,215783,1,8,2:0:0:0:
461,157,215871,6,0,L|373:167,1,88,8|0,2:3|2:0,2:0:0:0:
302,218,216224,2,0,L|198:194,1,88,8|0,2:0|2:0,2:0:0:0:
119,258,216577,6,0,L|106:154,1,88,8|0,2:3|2:0,2:0:0:0:
23,145,216930,2,0,L|45:41,1,88,8|8,2:0|2:0,2:0:0:0:
55,19,217195,1,8,2:0:0:0:
54,18,217283,2,0,P|99:36|153:22,1,88,8|0,2:3|2:0,2:0:0:0:
196,95,217636,2,0,P|239:90|279:107,1,88,8|0,2:0|2:0,2:0:0:0:
357,190,217989,6,0,B|371:87,1,88,4|0,2:0|2:0,2:0:0:0:
421,32,218342,1,8,2:0:0:0:
509,75,218518,1,8,2:0:0:0:
509,75,218606,1,8,2:0:0:0:
509,75,218695,2,0,P|520:121|503:180,1,88,8|0,2:3|2:0,2:0:0:0:
444,215,219048,2,0,P|433:261|450:320,1,88,8|0,2:0|2:0,2:0:0:0:
355,377,219401,5,2,2:0:0:0:
306,304,219577,1,2,2:0:0:0:
271,384,219754,1,2,2:0:0:0:
224,311,219930,1,2,2:0:0:0:
224,311,220283,1,8,2:0:0:0:
178,238,220459,1,10,2:0:0:0:
217,160,220636,1,8,2:0:0:0:
325,195,220812,6,0,P|374:208|417:196,1,88,4|0,2:0|2:0,2:0:0:0:
476,142,221165,2,0,P|489:93|477:50,1,88,8|8,2:0|2:0,2:0:0:0:
458,25,221430,1,8,2:0:0:0:
458,25,221518,2,0,L|363:15,1,88,8|0,2:3|2:0,2:0:0:0:
308,78,221871,1,8,2:0:0:0:
218,0,222048,6,0,L|209:100,1,88,0|8,2:0|2:3,2:0:0:0:
202,175,222401,1,0,2:0:0:0:
129,124,222577,2,0,P|82:128|39:110,1,88,8|8,2:0|2:0,2:0:0:0:
20,83,222842,1,8,2:0:0:0:
20,83,222930,2,0,P|38:120|28:178,1,88,8|0,2:3|2:0,2:0:0:0:
95,228,223283,2,0,P|77:265|87:323,1,88,8|0,2:0|2:0,2:0:0:0:
167,384,223636,5,4,2:0:0:0:
218,312,223812,2,0,L|315:322,1,88,0|8,2:0|2:0,2:0:0:0:
381,272,224165,1,0,3:0:0:0:
381,272,224254,1,0,3:0:0:0:
381,272,224342,2,0,L|437:278,2,44,0|0|0,3:0|3:0|3:0,2:0:0:0:
320,207,224695,1,8,3:0:0:0:
386,150,224871,1,0,3:0:0:0:
386,150,224959,1,0,3:0:0:0:
386,150,225048,5,8,2:0:0:0:
279,108,225224,1,8,2:0:0:0:
279,108,225577,5,8,2:0:0:0:
368,36,225754,1,8,2:0:0:0:
368,36,226459,6,0,L|266:20,1,88,12|0,2:3|2:0,2:0:0:0:
212,77,226812,2,0,L|196:179,1,88,8|0,2:3|2:0,2:0:0:0:
253,233,227165,2,0,L|355:249,1,88,8|0,2:3|2:0,2:0:0:0:
409,192,227518,2,0,L|425:90,1,88,8|0,2:3|2:0,2:0:0:0:
512,191,227871,6,0,P|517:243|504:293,1,88,8|0,2:3|2:0,2:0:0:0:
422,282,228224,2,0,P|401:330|365:367,1,88,8|0,2:3|2:0,2:0:0:0:
299,316,228577,2,0,P|257:347|207:361,1,88,8|0,2:3|2:0,2:0:0:0:
176,284,228930,2,0,P|125:290|75:277,1,88,8|0,2:3|2:0,2:0:0:0:
25,187,229283,5,2,2:0:0:0:
41,101,229459,1,2,2:0:0:0:
124,72,229636,1,8,2:0:0:0:
124,72,229989,5,2,2:0:0:0:
197,23,230165,1,2,2:0:0:0:
277,62,230342,1,8,2:0:0:0:
277,62,230695,5,2,2:0:0:0:
364,79,230871,1,2,2:0:0:0:
393,164,231048,1,8,2:0:0:0:
393,164,231401,5,2,2:0:0:0:
443,238,231577,1,2,2:0:0:0:
403,319,231754,1,8,2:0:0:0:
403,319,232106,5,8,2:3:0:0:
323,316,232283,1,8,2:3:0:0:
243,313,232459,1,8,2:3:0:0:
163,310,232636,1,8,2:3:0:0:
49,97,233518,5,8,2:3:0:0:
87,168,233695,1,8,2:3:0:0:
129,99,233871,1,8,2:3:0:0:
167,169,234048,1,8,2:3:0:0:
315,116,234930,5,8,2:3:0:0:
356,48,235106,1,8,2:3:0:0:
436,50,235283,1,8,2:3:0:0:
475,121,235459,1,8,2:3:0:0:
475,121,235989,5,8,2:3:0:0:
434,189,236165,1,8,2:3:0:0:
434,189,236695,6,0,P|420:240|442:305,1,120,0|0,2:0|2:0,2:0:0:0:
468,332,237048,1,0,2:0:0:0:
398,371,237224,1,0,2:0:0:0:
407,384,237401,1,2,2:0:0:0:
191,344,237754,5,8,2:3:0:0:
103,306,237930,1,8,2:3:0:0:
92,211,238106,1,8,2:3:0:0:
169,154,238283,1,8,2:3:0:0:
335,137,239165,5,8,2:3:0:0:
247,98,239342,1,8,2:3:0:0:
257,193,239518,1,8,2:3:0:0:
169,154,239695,1,8,2:3:0:0:
335,137,240577,5,8,2:3:0:0:
392,213,240754,1,8,2:3:0:0:
354,301,240930,1,8,2:3:0:0:
259,312,241106,1,8,2:3:0:0:
55,114,241636,5,8,2:3:0:0:
92,211,241812,1,8,2:3:0:0:
92,211,242342,5,2,2:1:0:0:
256,192,242430,12,0,243401,2:1:0:0:
