osu file format v14

[General]
AudioFilename: audio.mp3
AudioLeadIn: 0
PreviewTime: 78579
Countdown: 0
SampleSet: Soft
StackLeniency: 0.7
Mode: 0
LetterboxInBreaks: 0
WidescreenStoryboard: 1

[Editor]
Bookmarks: 7639,20345,44345,68345,99405,107875,117757,141757,181286,192580
DistanceSpacing: 1
BeatDivisor: 2
GridSize: 32
TimelineZoom: 1.500003

[Metadata]
Title:Hakase no Suki Nano Nano
TitleUnicode:はかせの好きなのなの
Artist:Hakase (CV: Konno Hiromi)
ArtistUnicode:はかせ (CV: 今野宏美)
Creator:Fish Rose
Version:Normal
Source:日常
Tags:anime nichijou irin ilineko Surou japanese hyadain kyoto animation character song Teages
BeatmapID:2588467
BeatmapSetID:1238745

[Difficulty]
HPDrainRate:4
CircleSize:3.5
OverallDifficulty:4
ApproachRate:5
SliderMultiplier:1.1
SliderTickRate:1

[Events]
//Background and Video events
0,0,"18160923_p0_waifu2x_photo_noise0_scale_tta_1.png",0,0
//Break Periods
2,181286,191377
2,205483,208318
//Storyboard Layer 0 (Background)
//Storyboard Layer 1 (Fail)
//Storyboard Layer 2 (Pass)
//Storyboard Layer 3 (Foreground)
//Storyboard Layer 4 (Overlay)
//Storyboard Sound Samples

[TimingPoints]
581,352.941176470588,4,2,1,60,1,0
1992,-100,4,2,1,60,0,0
6845,-100,4,2,1,5,0,0
6933,-100,4,2,1,60,0,0
7286,-100,4,2,1,70,0,0
7551,-100,4,2,1,5,0,0
7639,-100,4,2,1,70,0,0
19816,-100,4,2,1,5,0,0
19990,-100,4,2,1,70,0,0
20257,-100,4,2,1,5,0,0
20343,-100,4,2,1,70,0,0
31551,-100,4,2,1,5,0,0
31639,352.941176470588,3,2,1,90,1,0
31639,-100,4,2,1,90,0,0
38698,352.941176470588,4,2,1,90,1,0
44256,-100,4,2,1,5,0,0
44345,-100,4,2,1,70,0,0
55550,-100,4,2,1,5,0,0
55639,352.941176470588,3,2,1,90,1,0
55639,-100,4,2,1,90,0,0
62697,352.941176470588,4,2,1,90,1,0
68255,-100,4,2,1,5,0,0
68345,-100,4,3,2,60,0,0
71079,-100,4,3,2,5,0,0
71167,-100,4,3,2,60,0,0
73902,-100,4,3,2,5,0,0
73991,-100,4,3,2,60,0,0
76726,-100,4,3,2,5,0,0
76814,-100,4,3,2,60,0,0
78844,-100,4,3,2,5,0,0
78932,-100,4,3,2,60,0,0
79196,-100,4,3,2,5,0,0
79286,-100,4,2,1,80,0,0
79549,-100,4,2,1,5,0,0
79638,-100,4,2,1,80,0,1
85196,-100,4,2,1,5,0,1
85285,-100,4,2,1,80,0,1
96491,-100,4,2,1,5,0,1
96579,-100,4,2,1,80,0,1
99402,-100,4,2,1,70,0,0
102228,-100,4,2,1,60,0,0
107079,-100,4,2,1,5,0,0
107167,-100,4,2,1,60,0,0
107522,-100,4,2,1,70,0,0
107785,-100,4,2,1,5,0,0
107873,-100,4,2,1,70,0,0
117226,-100,4,2,1,5,0,0
117402,-100,4,2,1,70,0,0
117667,-100,4,2,1,5,0,0
117755,-100,4,2,1,70,0,0
128961,-100,4,2,1,5,0,0
129049,352.941176470588,3,2,1,90,1,0
129051,-100,4,2,1,90,0,0
136107,352.941176470588,4,2,1,90,1,0
141665,-100,4,2,1,5,0,0
141754,-100,4,3,2,60,0,0
141757,-100,4,3,2,60,0,0
144489,-100,4,3,2,5,0,0
144577,-100,4,3,2,60,0,0
147312,-100,4,3,2,5,0,0
147401,-100,4,3,2,60,0,0
150136,-100,4,3,2,5,0,0
150224,-100,4,3,2,60,0,0
152254,-100,4,3,2,5,0,0
152342,-100,4,3,2,60,0,0
152607,-100,4,3,2,5,0,0
152695,-100,4,2,1,80,0,0
152698,-100,4,2,1,80,0,0
152959,-100,4,2,1,5,0,0
153048,-100,4,2,1,80,0,1
158607,-100,4,2,1,5,0,1
158695,-100,4,2,1,80,0,1
169901,-100,4,2,1,5,0,1
169989,-100,4,2,1,80,0,1
172812,-100,4,2,1,70,0,0
175636,-100,4,2,1,60,0,0
175639,-100,4,2,1,60,0,0
180489,-100,4,2,1,5,0,0
180577,-100,4,2,1,60,0,0
180930,-100,4,2,1,70,0,0
180933,-100,4,2,1,70,0,0
181195,-100,4,2,1,5,0,0
181283,-100,4,2,1,70,0,0
192583,-100,4,2,1,60,0,0
200695,-100,4,2,1,70,0,0
200698,-100,4,2,1,70,0,0
200959,-100,4,2,1,5,0,0
201048,-100,4,2,1,70,0,0
209165,-100,4,2,1,80,0,0
209169,-100,4,2,1,80,0,0
209430,-100,4,2,1,5,0,0
209518,-100,4,2,1,80,0,1
215077,-100,4,2,1,5,0,1
215165,-100,4,2,1,80,0,1
226371,-100,4,2,1,5,0,1
226459,-100,4,2,1,80,0,1
229283,-100,4,2,1,70,0,0
232106,-100,4,2,1,60,0,0
232110,-100,4,2,1,60,0,0
236959,-100,4,2,1,5,0,0
237048,-100,4,2,1,60,0,0
237401,-100,4,2,1,70,0,0
237404,-100,4,2,1,70,0,0

[Colours]
Combo1 : 255,94,174
Combo2 : 255,151,47
Combo3 : 81,255,81
Combo4 : 232,64,60

[HitObjects]
176,295,1992,6,0,L|169:373,2,55,8|8|8,0:3|0:3|0:3,0:0:0:0:
182,240,2522,1,8,0:3:0:0:
451,296,3404,6,0,L|373:303,1,55,8|8,0:3|0:3,0:0:0:0:
352,334,3757,2,0,L|274:341,1,55,8|8,0:3|0:3,0:0:0:0:
78,171,4816,6,0,L|156:164,2,55,8|8|8,0:3|0:3|0:3,0:0:0:0:
23,177,5345,1,8,0:3:0:0:
44,345,5875,5,8,0:3:0:0:
44,345,6051,1,8,0:3:0:0:
44,345,7286,5,2,0:0:0:0:
143,299,7639,6,0,P|197:285|265:314,1,110,12|8,0:3|0:0,0:0:0:0:
294,339,8169,1,0,0:0:0:0:
294,339,8345,2,0,P|346:354|398:340,1,110,8|8,0:3|0:0,0:0:0:0:
446,312,8875,1,8,0:3:0:0:
491,211,9228,1,8,0:3:0:0:
442,118,9580,1,8,0:3:0:0:
442,118,9757,2,0,L|327:126,1,110,8|8,0:3|0:0,0:0:0:0:
240,64,10463,6,0,P|185:50|117:79,1,110,12|8,0:3|0:0,0:0:0:0:
90,94,10992,1,0,0:0:0:0:
90,94,11169,1,8,0:3:0:0:
41,194,11522,1,8,0:0:0:0:
41,194,11698,2,0,P|27:248|56:316,1,110,8|8,0:3|0:3,0:0:0:0:
87,331,12228,2,0,L|163:330,1,55,8|8,0:3|0:3,0:0:0:0:
189,302,12580,2,0,L|325:298,1,110,8|8,0:3|0:0,0:0:0:0:
399,345,13286,6,0,P|385:290|414:222,1,110,12|8,0:3|0:0,0:0:0:0:
435,198,13816,1,0,0:0:0:0:
435,198,13992,2,0,P|450:145|436:93,1,110,8|8,0:3|0:0,0:0:0:0:
408,45,14522,1,8,0:3:0:0:
325,117,14875,1,8,0:3:0:0:
238,57,15228,1,8,0:3:0:0:
238,57,15404,2,0,L|112:66,1,110,8|8,0:3|0:0,0:0:0:0:
54,146,16110,6,0,L|-20:152,2,55,12|8|8,0:3|0:3|0:3,0:0:0:0:
159,177,16816,2,0,L|233:171,2,55,12|8|8,0:3|0:3|0:3,0:0:0:0:
82,256,17522,2,0,L|8:262,2,55,12|12|8,0:3|0:3|0:3,0:0:0:0:
189,282,18228,2,0,L|263:276,2,55,12|8|8,0:3|0:3|0:3,0:0:0:0:
150,321,18757,1,0,0:0:0:0:
150,321,18933,1,12,0:3:0:0:
8,63,20345,6,0,P|63:49|131:78,1,110,12|8,0:3|0:0,0:0:0:0:
158,103,20875,1,0,0:0:0:0:
158,103,21051,2,0,P|210:117|262:103,1,110,8|8,0:3|0:0,0:0:0:0:
311,77,21580,1,8,0:3:0:0:
415,42,21933,1,8,0:3:0:0:
503,115,22286,1,8,0:3:0:0:
503,115,22463,2,0,L|482:273,1,110,8|8,0:3|0:0,0:0:0:0:
384,261,23169,6,0,L|405:103,2,110,12|8|8,0:3|0:0|0:3,0:0:0:0:
304,336,24228,1,8,0:0:0:0:
304,336,24404,2,0,P|255:310|201:313,1,110,8|8,0:3|0:3,0:0:0:0:
106,365,25110,1,8,0:3:0:0:
106,365,25286,2,0,P|57:340|28:294,1,110,8|8,0:3|0:3,0:0:0:0:
5,186,25992,6,0,B|45:158|45:158|119:158,1,110,12|8,0:3|0:0,0:0:0:0:
155,194,26522,1,0,0:0:0:0:
155,194,26698,2,0,L|286:194,1,110,8|8,0:3|0:0,0:0:0:0:
320,194,27228,1,8,0:3:0:0:
388,108,27580,1,8,0:3:0:0:
316,31,27933,1,8,0:3:0:0:
316,31,28110,2,0,P|263:16|211:30,1,110,8|8,0:3|0:0,0:0:0:0:
119,91,28816,6,0,L|129:224,1,110,12|8,0:3|0:0,0:0:0:0:
174,238,29345,1,8,0:3:0:0:
174,238,29522,2,0,L|181:325,2,55,8|8|8,0:3|0:3|0:3,0:0:0:0:
214,200,30051,1,12,0:3:0:0:
265,297,30404,2,0,L|272:384,2,55,8|8|8,0:3|0:3|0:3,0:0:0:0:
305,259,30933,1,8,0:3:0:0:
399,314,31286,1,10,0:0:0:0:
489,251,31639,6,0,P|501:156|471:86,1,165,12|8,0:3|0:3,0:0:0:0:
328,20,32697,2,0,P|316:114|346:184,1,165,12|8,0:3|0:3,0:0:0:0:
414,325,33756,6,0,L|234:347,1,165,12|8,0:3|0:3,0:0:0:0:
104,267,34815,2,0,L|267:246,1,165,12|8,0:3|0:3,0:0:0:0:
407,158,35874,6,0,P|341:87|268:65,1,165,12|8,0:3|0:3,0:0:0:0:
113,67,36933,2,0,P|177:136|250:158,1,165,12|8,0:3|0:3,0:0:0:0:
407,158,37991,5,8,0:3:0:0:
421,267,38344,1,8,0:3:0:0:
333,333,38697,5,8,0:3:0:0:
333,333,39050,1,8,0:3:0:0:
231,289,39403,1,8,0:3:0:0:
231,289,39756,1,8,0:3:0:0:
120,301,40109,2,0,P|66:312|16:292,1,110,8|8,0:3|0:3,0:0:0:0:
75,199,40815,2,0,L|74:84,1,110,8|8,0:3|0:3,0:0:0:0:
176,48,41521,6,0,P|228:33|280:48,1,110,8|8,0:3|0:3,0:0:0:0:
325,88,42050,1,8,0:3:0:0:
325,88,42227,2,0,L|317:200,1,110,8|8,0:3|0:3,0:0:0:0:
428,207,42933,6,0,L|420:319,1,110,8|8,0:3|0:3,0:0:0:0:
381,355,43462,1,8,0:3:0:0:
381,355,43639,1,8,0:3:0:0:
282,306,43992,1,10,0:0:0:0:
184,357,44345,6,0,P|131:370|79:354,1,110,12|8,0:3|0:0,0:0:0:0:
45,317,44874,1,0,0:0:0:0:
45,317,45050,2,0,B|57:191,1,110,8|8,0:3|0:0,0:0:0:0:
63,152,45580,1,8,0:3:0:0:
113,54,45933,1,8,0:3:0:0:
226,54,46286,1,8,0:3:0:0:
226,54,46462,2,0,L|349:48,1,110,8|8,0:3|0:0,0:0:0:0:
383,147,47168,6,0,L|260:153,2,110,12|8|8,0:3|0:0|0:3,0:0:0:0:
489,190,48227,1,8,0:0:0:0:
489,190,48403,2,0,P|502:243|486:295,1,110,8|8,0:3|0:3,0:0:0:0:
402,366,49109,1,8,0:3:0:0:
402,366,49286,2,0,L|265:354,1,110,8|8,0:3|0:3,0:0:0:0:
182,342,49992,6,0,P|168:289|184:237,1,110,12|8,0:3|0:0,0:0:0:0:
211,191,50521,1,0,0:0:0:0:
211,191,50697,2,0,P|226:139|213:86,1,110,8|8,0:3|0:0,0:0:0:0:
186,37,51227,1,8,0:3:0:0:
76,24,51580,1,8,0:3:0:0:
0,104,51933,1,8,0:3:0:0:
0,104,52109,2,0,L|9:213,1,110,8|8,0:3|0:0,0:0:0:0:
27,322,52815,6,0,P|79:337|132:324,1,110,12|8,0:3|0:0,0:0:0:0:
165,281,53345,1,8,0:0:0:0:
165,281,53521,2,0,L|229:282,2,55,8|8|8,0:3|0:3|0:3,0:0:0:0:
139,232,54050,1,12,0:3:0:0:
233,175,54403,2,0,L|232:111,2,55,8|8|8,0:3|0:3|0:3,0:0:0:0:
282,201,54933,1,8,0:3:0:0:
381,153,55286,1,2,0:0:0:0:
482,194,55639,6,0,P|508:271|494:351,1,165,12|8,0:3|0:3,0:0:0:0:
338,298,56697,2,0,P|311:220|325:140,1,165,12|8,0:3|0:3,0:0:0:0:
428,11,57756,6,0,L|254:27,1,165,12|8,0:3|0:3,0:0:0:0:
160,155,58815,2,0,L|334:139,1,165,12|8,0:3|0:3,0:0:0:0:
441,256,59874,6,0,P|387:317|310:345,1,165,12|8,0:3|0:3,0:0:0:0:
146,345,60933,2,0,P|199:283|276:255,1,165,12|8,0:3|0:3,0:0:0:0:
441,256,61991,5,8,0:3:0:0:
455,147,62344,1,8,0:3:0:0:
367,81,62697,5,8,0:3:0:0:
367,81,63049,1,8,0:3:0:0:
265,125,63402,1,8,0:3:0:0:
265,125,63755,1,8,0:3:0:0:
154,113,64108,2,0,P|100:102|50:122,1,110,8|8,0:3|0:3,0:0:0:0:
112,213,64814,2,0,L|111:328,1,110,8|8,0:3|0:3,0:0:0:0:
217,293,65520,6,0,P|271:282|321:302,1,110,8|8,0:3|0:3,0:0:0:0:
367,340,66049,1,8,0:3:0:0:
367,340,66226,2,0,L|482:341,1,110,8|8,0:3|0:3,0:0:0:0:
445,235,66932,6,0,L|363:233,1,55,8|8,0:3|0:3,0:0:0:0:
350,195,67285,2,0,L|268:193,1,55,8|8,0:3|0:3,0:0:0:0:
239,193,67638,1,8,0:3:0:0:
151,260,67991,1,2,0:0:0:0:
51,215,68344,6,0,P|39:161|56:110,1,110,4|8,0:0|0:0,0:0:0:0:
149,53,69049,2,0,L|159:-25,2,55,0|0|8,0:0|0:0|0:0,0:0:0:0:
140,107,69579,2,0,P|191:123|244:111,1,110
295,88,70108,2,0,L|377:88,2,55,8|0|0,0:0|0:0|0:0,0:0:0:0:
255,191,70814,1,2,0:0:0:0:
365,191,71167,6,0,L|516:192,1,110,4|8,0:0|0:0,0:0:0:0:
441,296,71873,2,0,L|523:296,2,55,0|0|8,0:0|0:0|0:0,0:0:0:0:
401,334,72402,2,0,P|349:351|296:338,1,110
255,302,72932,2,0,L|255:247,1,55,8|0,0:0|0:0,0:0:0:0:
253,191,73285,1,0,0:0:0:0:
153,143,73638,1,2,0:0:0:0:
56,195,73991,6,0,P|43:247|60:299,1,110,4|8,0:0|0:0,0:0:0:0:
167,325,74697,2,0,L|167:383,2,55,0|0|8,0:0|0:0|0:0,0:0:0:0:
213,294,75226,2,0,B|246:275|246:275|339:282,1,110
341,330,75755,2,0,L|395:332,1,55,8|0,0:0|0:0,0:0:0:0:
451,335,76108,1,0,0:0:0:0:
506,240,76461,1,2,0:0:0:0:
465,137,76814,6,0,P|412:117|354:136,1,110,4|8,0:0|0:0,0:0:0:0:
264,183,77520,2,0,L|209:187,2,55,0|0|8,0:0|0:0|0:0,0:0:0:0:
313,217,78049,1,0,0:0:0:0:
313,217,78226,1,0,0:0:0:0:
388,296,78579,6,0,P|444:309|502:295,2,110,0|0|2,0:0|0:0|0:0,0:0:0:0:
284,334,79638,6,0,B|245:316|245:316|173:319,1,110,4|8,0:0|0:0,0:0:0:0:
126,326,80167,1,8,0:0:0:0:
126,326,80344,1,8,0:3:0:0:
29,376,80696,1,8,0:0:0:0:
29,376,80873,6,0,P|16:323|33:271,1,110
61,224,81402,2,0,L|60:142,1,55,8|8,0:0|0:0,0:0:0:0:
55,114,81755,1,8,0:3:0:0:
141,46,82108,1,8,0:0:0:0:
237,108,82461,5,4,0:0:0:0:
237,108,82638,2,0,L|238:190,2,55,0|8|0,0:0|0:0|3:0,0:0:0:0:
276,69,83167,2,0,L|358:68,1,55,0|0,3:0|3:0,0:0:0:0:
372,105,83520,2,0,L|454:104,1,55,8|0,3:0|3:0,0:0:0:0:
486,106,83873,5,8,0:0:0:0:
486,106,84049,1,8,0:0:0:0:
486,219,84402,1,8,0:0:0:0:
486,219,84579,1,8,0:0:0:0:
300,337,85285,6,0,P|245:350|193:336,1,110,4|8,0:0|0:0,0:0:0:0:
166,289,85814,1,8,0:0:0:0:
114,271,85991,2,0,P|101:216|115:164,1,110,8|8,0:3|0:0,0:0:0:0:
145,59,86696,6,0,L|279:64,1,110,8|8,0:3|0:0,0:0:0:0:
280,112,87226,1,8,0:0:0:0:
305,160,87402,2,0,L|439:165,1,110,8|8,0:3|0:0,0:0:0:0:
475,256,88108,6,0,L|365:251,1,110,4|8,0:0|0:0,0:0:0:0:
324,290,88638,1,8,0:0:0:0:
283,326,88814,2,0,L|149:321,1,110,8|8,0:3|0:0,0:0:0:0:
111,230,89520,6,0,L|56:228,2,55,2|2|2,0:0|0:0|0:0,0:0:0:0:
158,202,90049,1,2,0:0:0:0:
140,93,90402,2,0,L|85:91,2,55,8|10|8,0:0|0:0|0:0,0:0:0:0:
182,58,90932,6,0,P|237:45|289:59,1,110,4|8,0:0|0:0,0:0:0:0:
329,102,91461,1,8,0:0:0:0:
329,102,91638,1,8,0:3:0:0:
428,51,91991,1,8,0:0:0:0:
428,51,92167,6,0,P|441:106|427:158,1,110
397,203,92696,2,0,L|395:257,1,55,8|8,0:0|0:0,0:0:0:0:
395,313,93049,1,8,0:3:0:0:
305,377,93402,1,8,0:0:0:0:
222,312,93755,5,4,0:0:0:0:
222,312,93932,2,0,L|223:257,2,55,0|8|0,0:0|0:0|3:0,0:0:0:0:
189,356,94461,2,0,L|134:354,1,55,0|0,3:0|3:0,0:0:0:0:
107,305,94814,2,0,L|52:303,1,55,8|0,3:0|3:0,0:0:0:0:
0,305,95167,5,8,0:0:0:0:
0,305,95344,1,8,0:0:0:0:
7,198,95696,1,8,0:0:0:0:
7,198,95873,1,8,0:0:0:0:
152,33,96579,6,0,B|188:60|188:60|253:60,1,110,12|8,0:3|0:3,0:0:0:0:
363,58,97285,1,8,0:3:0:0:
415,154,97638,1,8,0:3:0:0:
348,241,97991,2,0,P|295:254|243:239,1,110,8|8,0:3|0:3,0:0:0:0:
154,172,98696,1,8,0:3:0:0:
65,236,99049,1,8,0:3:0:0:
154,300,99402,6,0,L|155:354,2,55,2|2|8,0:0|0:0|0:0,0:0:0:0:
261,270,100108,2,0,L|262:324,2,55,2|2|8,0:0|0:0|0:0,0:0:0:0:
367,238,100814,2,0,L|368:292,2,55,2|2|8,0:0|0:0|0:0,0:0:0:0:
474,210,101520,2,0,L|475:264,2,55,2|2|8,0:0|0:0|0:0,0:0:0:0:
424,112,102226,6,0,L|422:36,2,55,8|8|8,0:3|0:3|0:3,0:0:0:0:
397,160,102755,1,8,0:3:0:0:
142,55,103638,6,0,L|141:113,1,55,8|8,0:3|0:3,0:0:0:0:
111,156,103991,2,0,L|111:231,1,55,8|8,0:3|0:3,0:0:0:0:
366,312,105049,6,0,L|442:310,2,55,8|8|8,0:3|0:3|0:3,0:0:0:0:
318,285,105579,1,8,0:3:0:0:
447,180,106108,5,8,0:3:0:0:
447,180,106285,1,8,0:3:0:0:
447,180,107520,5,2,0:0:0:0:
437,70,107873,6,0,P|383:56|315:85,1,110,12|8,0:3|0:0,0:0:0:0:
287,102,108402,1,0,0:0:0:0:
287,102,108579,2,0,P|235:117|183:103,1,110,8|8,0:3|0:0,0:0:0:0:
133,76,109108,1,8,0:3:0:0:
40,140,109461,1,8,0:3:0:0:
73,249,109814,1,8,0:3:0:0:
73,249,109991,2,0,L|65:364,1,110,8|8,0:3|0:0,0:0:0:0:
167,317,110696,6,0,P|222:303|290:332,1,110,12|8,0:3|0:0,0:0:0:0:
320,354,111226,1,0,0:0:0:0:
320,354,111402,1,8,0:3:0:0:
427,324,111755,1,8,0:0:0:0:
427,324,111932,2,0,P|441:270|412:202,1,110,8|8,0:3|0:3,0:0:0:0:
390,176,112461,2,0,L|389:100,1,55,0|8,0:0|0:3,0:0:0:0:
388,66,112814,2,0,L|252:70,1,110,8|8,0:3|0:0,0:0:0:0:
180,17,113520,6,0,P|166:72|195:140,1,110,12|8,0:3|0:0,0:0:0:0:
217,170,114049,1,0,0:0:0:0:
217,170,114226,2,0,P|231:223|218:275,1,110,8|8,0:3|0:0,0:0:0:0:
179,314,114755,1,8,0:3:0:0:
68,312,115108,1,8,0:3:0:0:
9,225,115461,1,8,0:3:0:0:
9,225,115638,2,0,B|9:165|9:165|41:109,1,110,8|8,0:3|0:0,0:0:0:0:
111,43,116344,1,4,0:0:0:0:
10,326,117755,6,0,P|65:340|133:311,1,110,12|8,0:3|0:0,0:0:0:0:
158,290,118285,1,0,0:0:0:0:
158,290,118461,2,0,P|210:276|262:290,1,110,8|8,0:3|0:0,0:0:0:0:
313,312,118991,1,8,0:3:0:0:
418,341,119344,1,8,0:3:0:0:
505,274,119696,1,8,0:3:0:0:
505,274,119873,2,0,L|497:114,1,110,8|8,0:3|0:0,0:0:0:0:
399,118,120579,6,0,L|406:277,2,110,12|8|8,0:3|0:0|0:3,0:0:0:0:
321,47,121638,1,8,0:0:0:0:
321,47,121814,2,0,P|266:34|215:51,1,110,8|8,0:3|0:3,0:0:0:0:
122,107,122520,1,8,0:3:0:0:
122,107,122696,2,0,B|93:154|93:154|95:208,1,110,8|8,0:3|0:3,0:0:0:0:
103,318,123402,6,0,P|157:330|208:313,1,110,12|8,0:3|0:0,0:0:0:0:
243,272,123932,1,0,0:0:0:0:
243,272,124108,2,0,L|374:272,1,110,8|8,0:3|0:0,0:0:0:0:
408,273,124638,1,8,0:3:0:0:
465,179,124991,1,8,0:3:0:0:
408,90,125344,1,8,0:3:0:0:
408,90,125520,2,0,L|298:90,1,110,8|8,0:3|0:0,0:0:0:0:
200,38,126226,6,0,P|184:91|198:143,1,110,12|8,0:3|0:0,0:0:0:0:
236,189,126755,1,0,0:0:0:0:
236,189,126932,2,0,L|324:191,2,55,8|8|8,0:3|0:3|0:3,0:0:0:0:
199,230,127461,1,12,0:3:0:0:
240,331,127814,2,0,L|152:329,2,55,8|8|8,0:3|0:3|0:3,0:0:0:0:
277,290,128344,1,8,0:3:0:0:
377,334,128696,1,10,0:0:0:0:
466,270,129049,6,0,P|478:175|448:105,1,165,12|8,0:3|0:3,0:0:0:0:
318,16,130107,2,0,P|306:110|336:180,1,165,12|8,0:3|0:3,0:0:0:0:
400,323,131166,6,0,L|220:345,1,165,12|8,0:3|0:3,0:0:0:0:
90,264,132225,2,0,L|253:243,1,165,12|8,0:3|0:3,0:0:0:0:
363,119,133284,6,0,P|286:61|211:52,1,165,12|8,0:3|0:3,0:0:0:0:
58,85,134343,2,0,P|134:142|209:151,1,165,12|8,0:3|0:3,0:0:0:0:
363,119,135401,5,8,0:3:0:0:
412,215,135754,1,8,0:3:0:0:
352,307,136107,5,8,0:3:0:0:
352,307,136459,1,8,0:3:0:0:
241,302,136812,1,8,0:3:0:0:
241,302,137165,1,8,0:3:0:0:
141,350,137518,2,0,L|-4:348,1,110,8|8,0:3|0:3,0:0:0:0:
5,241,138224,2,0,P|-7:188|10:136,1,110,8|8,0:3|0:3,0:0:0:0:
91,62,138930,6,0,L|200:54,1,110,8|8,0:3|0:3,0:0:0:0:
246,94,139459,1,8,0:3:0:0:
246,94,139636,2,0,P|298:109|350:93,1,110,8|8,0:3|0:3,0:0:0:0:
448,43,140342,6,0,P|461:95|445:147,1,110,8|8,0:3|0:3,0:0:0:0:
408,189,140871,1,8,0:3:0:0:
408,189,141048,1,8,0:3:0:0:
340,275,141401,1,10,0:0:0:0:
229,276,141754,6,0,L|84:280,1,110,4|8,0:0|0:0,0:0:0:0:
57,187,142459,2,0,L|-10:189,2,55,0|0|8,0:0|0:0|0:0,0:0:0:0:
112,183,142989,2,0,P|163:163|188:116,1,110
187,60,143518,2,0,L|185:-7,2,55,8|0|0,0:0|0:0|0:0,0:0:0:0:
282,115,144224,1,2,0:0:0:0:
371,52,144577,6,0,P|424:41|475:57,1,110,4|8,0:0|0:0,0:0:0:0:
419,152,145283,2,0,L|364:152,2,55,0|0|8,0:0|0:0|0:0,0:0:0:0:
451,196,145812,2,0,B|473:230|473:230|471:299,1,110
435,341,146342,2,0,P|403:347|380:341,1,55,8|0,0:0|0:0,0:0:0:0:
336,311,146695,1,0,0:0:0:0:
242,368,147048,1,2,0:0:0:0:
144,317,147401,6,0,P|129:264|144:211,1,110,4|8,0:0|0:0,0:0:0:0:
227,140,148107,2,0,L|300:136,2,55,0|0|8,0:0|0:0|0:0,0:0:0:0:
187,101,148636,2,0,B|118:103|118:103|72:68,1,110
112,30,149165,2,0,P|136:14|192:17,1,55,8|0,0:0|0:0,0:0:0:0:
216,12,149518,1,0,0:0:0:0:
325,15,149871,1,2,0:0:0:0:
384,107,150224,6,0,L|493:105,1,110,4|8,0:0|0:0,0:0:0:0:
445,205,150930,2,0,L|528:204,2,55,0|0|8,0:0|0:0|0:0,0:0:0:0:
398,231,151459,1,0,0:0:0:0:
398,231,151636,1,8,0:0:0:0:
398,341,151989,6,0,P|451:351|504:338,2,110,0|0|2,0:0|0:0|0:0,0:0:0:0:
289,319,153048,6,0,L|161:330,1,110,4|8,0:0|0:0,0:0:0:0:
128,337,153577,1,8,0:0:0:0:
128,337,153754,1,8,0:3:0:0:
38,282,154107,1,8,0:0:0:0:
38,282,154283,6,0,P|27:228|46:176,1,110
90,144,154812,2,0,L|166:138,1,55,8|8,0:0|0:0,0:0:0:0:
199,133,155165,1,8,0:3:0:0:
251,36,155518,1,8,0:0:0:0:
364,29,155871,5,4,0:0:0:0:
364,29,156048,2,0,L|440:23,2,55,0|8|0,0:0|0:0|3:0,0:0:0:0:
342,79,156577,2,0,L|348:155,1,55,0|0,3:0|3:0,0:0:0:0:
326,185,156930,2,0,L|332:261,1,55,8|0,3:0|3:0,0:0:0:0:
340,298,157283,5,8,0:0:0:0:
340,298,157459,1,8,0:0:0:0:
240,337,157812,1,8,0:0:0:0:
240,337,157989,1,8,0:0:0:0:
41,246,158695,6,0,P|27:193|41:140,1,110,4|8,0:0|0:0,0:0:0:0:
84,106,159224,1,8,0:0:0:0:
107,56,159401,2,0,P|159:42|212:55,1,110,8|8,0:3|0:0,0:0:0:0:
323,53,160107,6,0,P|375:39|428:53,1,110,8|8,0:3|0:0,0:0:0:0:
451,104,160636,1,8,0:0:0:0:
501,128,160812,2,0,P|514:180|501:233,1,110,8|8,0:3|0:0,0:0:0:0:
435,322,161518,6,0,L|320:347,1,110,4|8,0:0|0:0,0:0:0:0:
275,325,162048,1,8,0:0:0:0:
223,345,162224,2,0,L|115:321,1,110,8|8,0:3|0:0,0:0:0:0:
55,228,162930,6,0,L|-11:214,2,55,2|2|2,0:0|0:0|0:0,0:0:0:0:
101,197,163459,1,2,0:0:0:0:
54,97,163812,2,0,L|-12:83,2,55,8|10|8,0:0|0:0|0:0,0:0:0:0:
102,70,164342,6,0,P|157:63|226:128,1,110,4|8,0:0|0:0,0:0:0:0:
243,134,164871,1,8,0:0:0:0:
243,134,165048,1,8,0:3:0:0:
344,87,165401,1,8,0:0:0:0:
344,87,165577,6,0,P|399:80|468:145,1,110
481,147,166106,2,0,L|474:235,1,55,8|8,0:0|0:0,0:0:0:0:
472,256,166459,1,8,0:3:0:0:
379,314,166812,1,8,0:0:0:0:
306,238,167165,5,4,0:0:0:0:
306,238,167342,2,0,L|310:183,2,55,0|8|0,0:0|0:0|3:0,0:0:0:0:
263,273,167871,2,0,L|208:268,1,55,0|0,3:0|3:0,0:0:0:0:
159,295,168224,2,0,L|104:290,1,55,8|0,3:0|3:0,0:0:0:0:
53,287,168577,5,8,0:0:0:0:
53,287,168754,1,8,0:0:0:0:
3,194,169106,1,8,0:0:0:0:
3,194,169283,1,8,0:0:0:0:
173,55,169989,6,0,P|225:41|278:57,1,110,12|8,0:3|0:3,0:0:0:0:
388,64,170695,1,8,0:3:0:0:
438,161,171048,1,8,0:3:0:0:
360,238,171401,2,0,B|295:238|295:238|259:211,1,110,8|8,0:3|0:3,0:0:0:0:
149,194,172106,1,8,0:3:0:0:
152,84,172459,1,8,0:3:0:0:
233,10,172812,6,0,L|287:8,2,55,2|2|8,0:0|0:0|0:0,0:0:0:0:
305,95,173518,2,0,L|359:93,2,55,2|2|8,0:0|0:0|0:0,0:0:0:0:
377,180,174224,2,0,L|431:178,2,55,2|2|8,0:0|0:0|0:0,0:0:0:0:
449,265,174930,2,0,L|503:263,2,55,2|2|8,0:0|0:0|0:0,0:0:0:0:
363,334,175636,6,0,L|287:336,2,55,8|8|8,0:3|0:3|0:3,0:0:0:0:
411,361,176165,1,8,0:3:0:0:
149,276,177048,6,0,L|150:218,1,55,8|8,0:3|0:3,0:0:0:0:
180,175,177401,2,0,L|180:100,1,55,8|8,0:3|0:3,0:0:0:0:
454,91,178459,6,0,L|452:15,2,55,8|8|8,0:3|0:3|0:3,0:0:0:0:
427,139,178989,1,8,0:3:0:0:
456,306,179518,5,8,0:3:0:0:
456,306,179695,1,8,0:3:0:0:
456,306,180930,5,2,2:0:0:0:
121,45,192577,6,0,L|184:45,2,55,4|0|8,0:0|0:0|0:0,0:0:0:0:
74,73,193106,1,0,0:0:0:0:
74,73,193283,2,0,L|11:73,2,55,0|0|8,0:0|0:0|0:0,0:0:0:0:
126,169,193989,5,0,0:0:0:0:
236,167,194342,1,8,0:0:0:0:
285,69,194695,1,0,0:0:0:0:
394,66,195048,1,8,0:0:0:0:
447,161,195401,6,0,L|448:242,1,55,4|0,0:0|0:0,0:0:0:0:
412,258,195754,2,0,L|413:339,1,55,8|0,0:0|0:0,0:0:0:0:
447,355,196106,2,0,L|528:354,2,55,0|0|8,0:0|0:0|0:0,0:0:0:0:
336,358,196812,5,0,0:0:0:0:
226,356,197165,1,8,0:0:0:0:
177,258,197518,1,0,0:0:0:0:
68,255,197871,1,8,0:0:0:0:
68,144,198224,6,0,L|-11:142,2,55,4|0|8,0:0|0:0|0:0,0:0:0:0:
131,55,198930,1,0,0:0:0:0:
131,55,199106,2,0,L|261:56,1,110
273,100,199636,2,0,L|334:102,2,55,0|0|8,0:0|0:0|0:0,0:0:0:0:
244,149,200165,1,0,0:0:0:0:
244,149,200342,1,0,0:0:0:0:
295,246,200695,1,10,0:0:0:0:
240,341,201048,6,0,P|184:365|128:328,1,110,12|8,0:3|0:3,0:0:0:0:
57,275,201754,2,0,B|56:208|56:208|81:172,1,110,8|8,0:3|0:3,0:0:0:0:
151,88,202459,6,0,P|206:63|262:100,1,110,8|0,0:3|0:0,0:0:0:0:
288,121,202989,2,0,B|288:187|288:187|263:223,1,110,8|0,0:3|0:0,0:0:0:0:
231,268,203518,1,8,0:3:0:0:
310,343,203871,6,0,P|365:367|421:330,1,110,8|8,0:3|0:3,0:0:0:0:
451,313,204401,1,8,0:3:0:0:
451,313,204577,2,0,B|476:277|476:277|475:196,1,110,8|8,0:3|0:3,0:0:0:0:
477,159,205106,1,8,0:3:0:0:
477,159,205283,1,8,0:3:0:0:
221,335,209518,6,0,B|260:317|260:317|332:320,1,110,4|8,0:0|0:0,0:0:0:0:
386,326,210048,1,8,0:0:0:0:
386,326,210224,1,8,0:3:0:0:
488,378,210577,1,8,0:0:0:0:
488,378,210754,6,0,P|501:325|484:273,1,110
451,229,211283,2,0,L|452:147,1,55,8|8,0:0|0:0,0:0:0:0:
451,118,211636,1,8,0:3:0:0:
366,47,211989,1,8,0:0:0:0:
275,108,212342,5,4,0:0:0:0:
275,108,212518,2,0,L|274:190,2,55,0|8|0,0:0|0:0|3:0,0:0:0:0:
236,69,213048,2,0,L|154:68,1,55,0|0,3:0|3:0,0:0:0:0:
140,105,213401,2,0,L|58:104,1,55,8|0,3:0|3:0,0:0:0:0:
33,107,213754,5,8,0:0:0:0:
33,107,213930,1,8,0:0:0:0:
29,220,214283,1,8,0:0:0:0:
29,220,214459,1,8,0:0:0:0:
212,337,215165,6,0,P|267:350|319:336,1,110,4|8,0:0|0:0,0:0:0:0:
346,289,215695,1,8,0:0:0:0:
398,271,215871,2,0,P|411:216|397:164,1,110,8|8,0:3|0:0,0:0:0:0:
367,59,216577,6,0,L|233:64,1,110,8|8,0:3|0:0,0:0:0:0:
232,112,217106,1,8,0:0:0:0:
207,160,217283,2,0,L|73:165,1,110,8|8,0:3|0:0,0:0:0:0:
37,256,217989,6,0,L|147:251,1,110,4|8,0:0|0:0,0:0:0:0:
188,290,218518,1,8,0:0:0:0:
229,326,218695,2,0,L|363:321,1,110,8|8,0:3|0:0,0:0:0:0:
401,230,219401,6,0,L|456:228,2,55,2|2|2,0:0|0:0|0:0,0:0:0:0:
354,202,219930,1,2,0:0:0:0:
372,93,220283,2,0,L|427:91,2,55,8|10|8,0:0|0:0|0:0,0:0:0:0:
330,58,220812,6,0,P|275:45|223:59,1,110,4|8,0:0|0:0,0:0:0:0:
180,90,221342,1,8,0:0:0:0:
180,90,221518,1,8,0:3:0:0:
89,38,221871,1,8,0:0:0:0:
89,38,222048,6,0,P|76:93|90:145,1,110
111,193,222577,2,0,L|113:247,1,55,8|8,0:0|0:0,0:0:0:0:
113,303,222930,1,8,0:3:0:0:
195,376,223283,1,8,0:0:0:0:
281,307,223636,5,4,0:0:0:0:
281,307,223812,2,0,L|280:252,2,55,0|8|0,0:0|0:0|3:0,0:0:0:0:
313,351,224342,2,0,L|368:349,1,55,0|0,3:0|3:0,0:0:0:0:
399,303,224695,2,0,L|454:301,1,55,8|0,3:0|3:0,0:0:0:0:
512,306,225048,5,8,0:0:0:0:
512,306,225224,1,8,0:0:0:0:
505,198,225577,1,8,0:0:0:0:
505,198,225754,1,8,0:0:0:0:
360,33,226459,6,0,B|324:60|324:60|259:60,1,110,12|8,0:3|0:3,0:0:0:0:
149,58,227165,1,8,0:3:0:0:
97,154,227518,1,8,0:3:0:0:
164,241,227871,2,0,P|217:254|269:239,1,110,8|8,0:3|0:3,0:0:0:0:
358,172,228577,1,8,0:3:0:0:
447,236,228930,1,8,0:3:0:0:
358,300,229283,6,0,L|357:354,2,55,2|2|8,0:0|0:0|0:0,0:0:0:0:
251,270,229989,2,0,L|250:324,2,55,2|2|8,0:0|0:0|0:0,0:0:0:0:
145,238,230695,2,0,L|144:292,2,55,2|2|8,0:0|0:0|0:0,0:0:0:0:
38,210,231401,2,0,L|37:264,2,55,2|2|8,0:0|0:0|0:0,0:0:0:0:
81,108,232106,6,0,L|82:54,2,55,8|8|8,0:3|0:3|0:3,0:0:0:0:
115,151,232636,1,8,0:3:0:0:
334,316,233518,6,0,L|276:317,1,55,8|8,0:3|0:3,0:0:0:0:
233,347,233871,2,0,L|158:347,1,55,8|8,0:3|0:3,0:0:0:0:
244,79,234930,6,0,L|168:77,2,55,8|8|8,0:3|0:3|0:3,0:0:0:0:
284,117,235459,1,8,0:3:0:0:
452,125,235989,5,8,0:3:0:0:
452,125,236165,1,8,0:3:0:0:
452,125,237401,5,2,0:0:0:0:
391,216,237754,6,0,L|389:292,2,55,8|8|8,0:3|0:3|0:3,0:0:0:0:
364,168,238283,1,8,0:3:0:0:
103,80,239165,6,0,L|161:79,1,55,8|8,0:3|0:3,0:0:0:0:
204,49,239518,2,0,L|279:49,1,55,8|8,0:3|0:3,0:0:0:0:
161,306,240577,6,0,L|163:382,2,55,8|8|8,0:3|0:3|0:3,0:0:0:0:
188,258,241106,1,8,0:3:0:0:
356,249,241636,5,8,0:3:0:0:
356,249,241812,1,8,0:3:0:0:
348,85,242342,5,2,0:1:0:0:
