osu file format v14

[General]
AudioFilename: audio.ogg
AudioLeadIn: 0
PreviewTime: 61063
Countdown: 0
SampleSet: Normal
StackLeniency: 0.7
Mode: 3
LetterboxInBreaks: 0
SpecialStyle: 0
WidescreenStoryboard: 1

[Editor]
DistanceSpacing: 0.99
BeatDivisor: 4
GridSize: 16
TimelineZoom: 1

[Metadata]
Title:Usuhanazakura (Short Ver.)
TitleUnicode:薄花桜 (Short Ver.)
Artist:Haizakura (CV: Waki Azumi)
ArtistUnicode:灰桜 (CV: 和氣あず未)
Creator:Hidden is fun
Version:Easy
Source:プリマドール
Tags:[GB]Edward_Tsui Edward_Tsui yhsh Anime pop Japanese Prima Doll 丘野塔也 折户伸治 奈须野新平 あじゅじゅ、あじゅみん、ajuju、AJJ IN Prima Doll Interlude Prima Doll Encore
BeatmapID:3702341
BeatmapSetID:1805371

[Difficulty]
HPDrainRate:6
CircleSize:4
OverallDifficulty:6
ApproachRate:5
SliderMultiplier:1.4
SliderTickRate:1

[Events]
//Background and Video events
0,0,"bg.jpg",0,0
//Break Periods
//Storyboard Layer 0 (Background)
//Storyboard Layer 1 (Fail)
//Storyboard Layer 2 (Pass)
//Storyboard Layer 3 (Foreground)
//Storyboard Layer 4 (Overlay)
//Storyboard Sound Samples
Sample,76302,0,"LR_Tom Hit 2.wav",30

[TimingPoints]
1064,476.190476190476,4,1,1,50,1,0
62016,-100,4,1,1,50,0,1
75111,-100,4,1,1,50,0,0
77730,-100,4,1,1,50,0,1
96302,-100,4,1,1,50,0,0

[HitObjects]
64,192,1064,5,6,0:0:0:0:
320,192,1064,1,8,0:0:0:0:
192,192,1540,1,0,0:0:0:0:
448,192,2016,1,0,0:0:0:0:
64,192,2492,1,0,0:0:0:0:
192,192,2730,1,2,0:0:0:0:
448,192,2730,1,0,0:0:0:0:
320,192,3206,1,2,0:0:0:0:
320,192,3444,1,2,0:0:0:0:
448,192,4159,1,2,0:0:0:0:
64,192,4397,1,8,0:0:0:0:
192,192,4397,1,0,0:0:0:30:clap.wav
448,192,4873,1,6,0:0:0:0:
192,192,5349,1,0,0:0:0:0:
320,192,5825,1,0,0:0:0:0:
64,192,6302,1,0,0:0:0:0:
192,192,6540,1,2,0:0:0:0:
320,192,6540,1,4,0:0:0:0:
448,192,7016,1,8,0:0:0:0:
64,192,7254,1,8,0:0:0:0:
320,192,7730,1,2,0:0:0:0:
192,192,8206,1,0,0:0:0:30:LR_Tom Hit 2.wav
64,192,8683,1,2,0:0:0:0:
448,192,8683,1,4,0:0:0:0:
320,192,9159,1,10,0:0:0:0:
448,192,9873,1,0,0:0:0:0:
320,192,10111,1,10,0:0:0:0:
64,192,10349,1,4,0:0:0:0:
192,192,10349,1,2,0:0:0:0:
192,192,10825,1,10,0:0:0:0:
192,192,11063,1,2,0:0:0:0:
320,192,11302,1,4,0:0:0:0:
448,192,11302,1,2,0:0:0:0:
192,192,11778,1,10,0:0:0:0:
64,192,12016,1,2,0:0:0:0:
448,192,12254,128,0,13921:0:0:0:0:
192,192,12492,1,0,0:0:0:0:
64,192,14397,1,2,0:0:0:0:
320,192,14397,1,4,0:0:0:0:
448,192,14754,1,6,0:0:0:0:
64,192,15111,1,6,0:0:0:0:
192,192,15349,1,2,0:0:0:0:
448,192,15349,1,4,0:0:0:0:
64,192,15825,1,8,0:0:0:0:
320,192,15825,1,0,0:0:0:30:clap.wav
192,192,16302,1,2,0:0:0:0:
64,192,17254,1,0,0:0:0:0:
448,192,17611,1,0,0:0:0:0:
192,192,17968,1,0,0:0:0:0:
192,192,19159,128,0,19635:0:0:0:0:
448,192,19635,1,0,0:0:0:0:
64,192,19873,1,2,0:0:0:0:
64,192,20825,1,0,0:0:0:0:
320,192,21063,1,0,0:0:0:0:
448,192,21302,1,0,0:0:0:0:
192,192,21540,1,0,0:0:0:0:
448,192,21778,128,2,22254:0:0:0:0:
192,192,22254,1,0,0:0:0:0:
320,192,22492,1,0,0:0:0:0:
64,192,22730,128,0,23206:0:0:0:0:
192,192,23921,1,6,0:0:0:0:
64,192,24873,1,0,0:0:0:0:
448,192,25230,1,0,0:0:0:0:
192,192,25587,1,2,0:0:0:0:
64,192,26778,1,0,0:0:0:0:
192,192,27016,1,2,0:0:0:0:
448,192,27254,1,0,0:0:0:0:
320,192,27492,1,6,0:0:0:0:
64,192,28444,1,0,0:0:0:0:
320,192,28683,1,0,0:0:0:0:
192,192,28921,1,0,0:0:0:0:
448,192,29159,1,0,0:0:0:0:
320,192,29397,1,6,0:0:0:0:
448,192,29873,1,0,0:0:0:0:
64,192,30111,128,4,31063:0:0:0:0:
192,192,31540,1,2,0:0:0:0:
448,192,31540,1,4,0:0:0:0:
320,192,32016,1,0,0:0:0:0:
448,192,32492,1,2,0:0:0:0:
64,192,32849,1,2,0:0:0:0:
320,192,33206,1,2,0:0:0:0:
192,192,33444,128,0,33921:0:0:0:0:
320,192,33921,1,8,0:0:0:0:
448,192,34397,1,0,0:0:0:0:
64,192,34754,1,0,0:0:0:0:
320,192,35111,1,4,0:0:0:0:
448,192,35111,1,2,0:0:0:0:
64,192,35587,1,2,0:0:0:0:
320,192,35825,1,8,0:0:0:0:
192,192,36063,1,0,0:0:0:0:
448,192,36302,1,2,0:0:0:0:
64,192,36778,1,8,0:0:0:0:
320,192,37016,1,2,0:0:0:0:
448,192,37254,128,0,37730:0:0:0:0:
192,192,37730,1,2,0:0:0:0:
320,192,37968,128,0,38444:0:0:0:0:
64,192,38444,1,0,0:0:0:0:
192,192,38683,128,2,39159:0:0:0:0:
64,192,39635,1,2,0:0:0:0:
448,192,39635,1,4,0:0:0:0:
320,192,40111,1,2,0:0:0:0:
192,192,40468,1,2,0:0:0:0:
64,192,40825,1,2,0:0:0:0:
192,192,41540,1,2,0:0:0:0:
448,192,42016,1,2,0:0:0:0:
64,192,42373,1,0,0:0:0:0:
320,192,42730,1,4,0:0:0:0:
448,192,42730,1,2,0:0:0:0:
192,192,43206,1,0,0:0:0:0:
320,192,43444,1,2,0:0:0:0:
64,192,43683,1,0,0:0:0:0:
448,192,44159,1,0,0:0:0:0:
320,192,44397,1,2,0:0:0:0:
192,192,44635,1,6,0:0:0:0:
320,192,45111,1,2,0:0:0:0:
64,192,45349,1,2,0:0:0:0:
192,192,45825,128,2,46302:0:0:0:0:
448,192,46302,1,2,0:0:0:0:
320,192,46778,1,6,0:0:0:0:
64,192,47254,128,0,47730:0:0:0:0:
448,192,47968,128,0,48444:0:0:0:0:
64,192,48444,1,0,0:0:0:0:
320,192,48683,1,0,0:0:0:0:
192,192,49159,1,0,0:0:0:0:
448,192,49397,1,0,0:0:0:0:
320,192,49873,1,8,0:0:0:0:
64,192,50111,1,0,0:0:0:0:
448,192,50587,1,0,0:0:0:0:
320,192,51063,128,0,51540:0:0:0:0:
64,192,51540,128,0,52016:0:0:0:0:
448,192,52016,128,0,52492:0:0:0:0:
192,192,52492,1,0,0:0:0:0:
64,192,52849,1,0,0:0:0:0:
448,192,53206,1,0,0:0:0:0:
320,192,53683,1,0,0:0:0:30:LR_Tom Hit 2.wav
64,192,53921,1,0,0:0:0:30:LR_Tom Hit 2.wav
320,192,54397,128,10,54873:0:0:0:0:
64,192,54873,128,10,55349:0:0:0:0:
448,192,55349,128,10,55825:0:0:0:0:
192,192,55825,128,10,56302:0:0:0:0:
64,192,56302,1,10,0:0:0:0:
448,192,56659,1,0,0:0:0:0:
192,192,57016,1,8,0:0:0:0:
320,192,57492,1,8,0:0:0:0:
64,192,57730,1,10,0:0:0:0:
448,192,57968,1,8,0:0:0:0:
320,192,59873,1,4,0:0:0:0:
448,192,59873,1,2,0:0:0:0:
192,192,60349,1,6,0:0:0:0:
192,192,60587,1,6,0:0:0:0:
448,192,61063,1,2,0:0:0:0:
64,192,61540,1,8,0:0:0:0:
192,192,61540,1,0,0:0:0:0:
320,192,62016,1,2,0:0:0:0:
64,192,62254,1,0,0:0:0:0:
192,192,62492,1,10,0:0:0:0:
448,192,62730,1,0,0:0:0:0:
64,192,62968,1,2,0:0:0:0:
320,192,63325,1,0,0:0:0:0:
192,192,63683,1,0,0:0:0:0:
320,192,64159,1,0,0:0:0:0:
64,192,64397,1,10,0:0:0:0:
448,192,64635,1,0,0:0:0:0:
192,192,64873,128,2,65349:0:0:0:0:
320,192,65349,1,10,0:0:0:0:
64,192,65825,1,2,0:0:0:0:
320,192,66063,1,0,0:0:0:0:
192,192,66302,1,10,0:0:0:0:
448,192,66540,1,0,0:0:0:0:
64,192,66778,1,2,0:0:0:0:
320,192,67135,1,0,0:0:0:0:
448,192,67492,1,0,0:0:0:0:
192,192,67968,1,0,0:0:0:0:
448,192,68206,1,10,0:0:0:0:
64,192,68444,1,0,0:0:0:0:
320,192,68683,128,2,69159:0:0:0:0:
192,192,69159,1,10,0:0:0:0:
448,192,69635,1,2,0:0:0:0:
64,192,69873,1,0,0:0:0:0:
192,192,70111,1,10,0:0:0:0:
320,192,70349,1,0,0:0:0:0:
448,192,70587,1,2,0:0:0:0:
64,192,70944,1,0,0:0:0:0:
320,192,71302,1,0,0:0:0:0:
192,192,71778,1,0,0:0:0:0:
64,192,72016,1,10,0:0:0:0:
448,192,72254,1,0,0:0:0:0:
320,192,72492,128,2,72968:0:0:0:0:
192,192,72968,1,10,0:0:0:0:
448,192,73444,128,2,73921:0:0:0:0:
320,192,73921,1,10,0:0:0:0:
192,192,74397,1,2,0:0:0:0:
448,192,74873,1,10,0:0:0:0:
64,192,75111,128,2,76302:0:0:0:0:
320,192,75111,1,4,0:0:0:0:
448,192,75587,1,2,0:0:0:0:
192,192,75825,1,2,0:0:0:0:
448,192,76302,1,2,0:0:0:0:
320,192,76540,1,0,0:0:0:30:LR_Tom Hit 2.wav
192,192,76778,1,6,0:0:0:0:
64,192,77254,1,2,0:0:0:0:
64,192,77492,1,2,0:0:0:0:
192,192,77730,1,2,0:0:0:0:
320,192,77730,1,4,0:0:0:0:
448,192,77968,1,0,0:0:0:0:
64,192,78206,1,2,0:0:0:0:
320,192,78563,1,0,0:0:0:0:
192,192,78921,1,0,0:0:0:0:
448,192,79397,1,0,0:0:0:0:
320,192,79635,1,10,0:0:0:0:
192,192,79873,1,0,0:0:0:0:
64,192,80111,128,2,80587:0:0:0:0:
448,192,80587,1,10,0:0:0:0:
320,192,81063,1,2,0:0:0:0:
192,192,81302,1,0,0:0:0:0:
64,192,81540,1,10,0:0:0:0:
448,192,81778,1,0,0:0:0:0:
192,192,82016,1,2,0:0:0:0:
320,192,82373,1,0,0:0:0:0:
64,192,82730,1,0,0:0:0:0:
192,192,83206,1,0,0:0:0:0:
448,192,83444,1,10,0:0:0:0:
64,192,83683,1,0,0:0:0:0:
320,192,83921,128,2,84397:0:0:0:0:
192,192,84397,1,10,0:0:0:0:
64,192,84873,1,2,0:0:0:0:
320,192,85111,1,0,0:0:0:0:
192,192,85349,1,10,0:0:0:0:
448,192,85587,1,0,0:0:0:0:
64,192,85825,1,2,0:0:0:0:
320,192,86183,1,0,0:0:0:0:
192,192,86540,1,0,0:0:0:0:
448,192,87016,1,0,0:0:0:0:
64,192,87254,1,10,0:0:0:0:
192,192,87492,1,0,0:0:0:0:
448,192,87730,128,2,88206:0:0:0:0:
64,192,88206,1,10,0:0:0:0:
320,192,88683,1,2,0:0:0:0:
448,192,88683,1,4,0:0:0:0:
192,192,89040,1,0,0:0:0:0:
64,192,89397,128,0,90825:0:0:0:0:
448,192,89635,1,2,0:0:0:0:
320,192,90349,1,6,0:0:0:0:
448,192,90825,1,2,0:0:0:0:
192,192,91063,1,2,0:0:0:0:
320,192,91540,1,2,0:0:0:0:
64,192,91778,1,2,0:0:0:0:
448,192,92016,1,6,0:0:0:0:
64,192,92492,1,4,0:0:0:0:
320,192,92492,1,8,0:0:0:0:
192,192,92968,1,0,0:0:0:0:
64,192,93206,1,0,0:0:0:0:
448,192,93683,1,0,0:0:0:0:
192,192,94159,1,2,0:0:0:0:
320,192,94159,128,4,95825:0:0:0:0:
64,192,94873,1,2,0:0:0:0:
192,192,95349,1,2,0:0:0:0:
64,192,95825,1,8,0:0:0:0:
448,192,95825,1,0,0:0:0:30:clap.wav
64,192,96302,1,2,0:0:0:0:
320,192,96302,1,0,0:0:0:0:
192,192,96778,1,0,0:0:0:0:
448,192,97254,1,0,0:0:0:0:
64,192,97730,1,0,0:0:0:30:LR_Tom Hit 2.wav
320,192,97968,1,8,0:0:0:0:
448,192,97968,1,4,0:0:0:0:
192,192,98444,1,0,0:0:0:0:
192,192,98683,1,10,0:0:0:0:
64,192,99159,1,2,0:0:0:0:
448,192,99397,1,0,0:0:0:0:
64,192,99635,1,6,0:0:0:0:
192,192,99635,1,8,0:0:0:0:
320,192,100111,1,2,0:0:0:0:
448,192,100111,1,4,0:0:0:0:
192,192,100587,1,10,0:0:0:0:
320,192,101063,1,2,0:0:0:0:
64,192,101540,1,10,0:0:0:0:
192,192,101778,1,2,0:0:0:0:
320,192,101778,1,4,0:0:0:0:
448,192,102254,1,8,0:0:0:0:
64,192,102492,1,8,0:0:0:0:
320,192,102968,1,2,0:0:0:0:
192,192,103444,1,0,0:0:0:30:LR_Tom Hit 2.wav
64,192,103921,1,2,0:0:0:0:
448,192,103921,1,4,0:0:0:0:
320,192,104397,1,10,0:0:0:0:
192,192,104873,1,2,0:0:0:0:
448,192,105111,1,0,0:0:0:0:
320,192,105349,1,10,0:0:0:0:
64,192,105587,1,4,0:0:0:0:
192,192,105587,1,2,0:0:0:0:
192,192,106063,1,10,0:0:0:0:
192,192,106302,1,2,0:0:0:0:
320,192,106540,1,4,0:0:0:0:
448,192,106540,1,2,0:0:0:0:
192,192,107016,1,10,0:0:0:0:
64,192,107254,1,2,0:0:0:0:
448,192,107492,128,0,109159:0:0:0:0:
64,192,109635,1,4,0:0:0:0:
320,192,109635,1,8,0:0:0:0:
64,192,109992,1,12,0:0:0:0:
192,192,110349,1,4,0:0:0:0:
448,192,110349,1,8,0:0:0:0:
448,192,110706,1,12,0:0:0:0:
64,192,111063,1,8,0:0:0:0:
320,192,111063,1,0,0:0:0:30:clap.wav
192,192,112016,128,2,117730:0:0:0:0:
