osu file format v14

[General]
AudioFilename: audio.mp3
AudioLeadIn: 0
PreviewTime: -1
Countdown: 1
SampleSet: None
StackLeniency: 0.7
Mode: 0
LetterboxInBreaks: 0
WidescreenStoryboard: 0

[Editor]
DistanceSpacing: 0.9
BeatDivisor: 4
GridSize: 16
TimelineZoom: 0.9

[Metadata]
Title:Let Me Go
TitleUnicode:Let Me Go
Artist:Hailee Steinfeld
ArtistUnicode:Hailee Steinfeld
Creator:DavidApollo
Version:Normal
Source:
Tags:
BeatmapID:1487489
BeatmapSetID:703027

[Difficulty]
HPDrainRate:6
CircleSize:4
OverallDifficulty:5
ApproachRate:9
SliderMultiplier:1.3
SliderTickRate:3

[Events]
//Background and Video events
//Break Periods
2,68950,73025
//Storyboard Layer 0 (Background)
//Storyboard Layer 1 (Fail)
//Storyboard Layer 2 (Pass)
//Storyboard Layer 3 (Foreground)
//Storyboard Sound Samples

[TimingPoints]
0,500,4,1,0,100,1,0

[HitObjects]
256,192,750,12,0,5250,0:0:0:0:
128,80,5250,5,0,0:0:0:0:
128,352,6375,1,0,0:0:0:0:
256,112,7500,1,0,0:0:0:0:
144,208,8125,1,0,0:0:0:0:
176,80,8750,1,0,0:0:0:0:
256,192,9375,1,0,0:0:0:0:
256,64,9875,1,0,0:0:0:0:
192,192,10500,1,0,0:0:0:0:
176,64,11000,1,0,0:0:0:0:
176,208,11625,1,0,0:0:0:0:
304,160,12250,1,0,0:0:0:0:
256,128,12500,1,0,0:0:0:0:
176,128,12875,1,0,0:0:0:0:
128,144,13125,1,0,0:0:0:0:
112,192,13375,1,0,0:0:0:0:
128,240,13625,1,0,0:0:0:0:
176,32,14500,5,0,0:0:0:0:
192,192,15125,1,0,0:0:0:0:
288,80,15750,1,0,0:0:0:0:
304,208,16250,1,0,0:0:0:0:
176,112,17000,1,0,0:0:0:0:
96,208,17500,1,0,0:0:0:0:
224,176,18000,5,0,0:0:0:0:
352,144,18625,1,0,0:0:0:0:
208,128,19250,1,0,0:0:0:0:
256,256,19875,1,0,0:0:0:0:
160,192,20375,1,0,0:0:0:0:
176,64,21000,1,0,0:0:0:0:
224,96,21250,2,0,P|288:128|256:112,4,97.5
96,128,23250,1,0,0:0:0:0:
240,128,23875,1,0,0:0:0:0:
368,80,24500,1,0,0:0:0:0:
240,112,25125,1,0,0:0:0:0:
304,208,25625,1,0,0:0:0:0:
176,160,26250,1,0,0:0:0:0:
256,80,26750,1,0,0:0:0:0:
336,192,27375,1,0,0:0:0:0:
208,160,27875,1,0,0:0:0:0:
272,16,28625,1,0,0:0:0:0:
208,96,29125,5,0,0:0:0:0:
96,112,29625,1,0,0:0:0:0:
240,144,30250,1,0,0:0:0:0:
160,48,30875,1,0,0:0:0:0:
112,160,31375,1,0,0:0:0:0:
256,112,32000,1,0,0:0:0:0:
128,144,32625,1,0,0:0:0:0:
208,16,33250,1,0,0:0:0:0:
160,112,33750,1,0,0:0:0:0:
304,112,34375,1,0,0:0:0:0:
240,96,34625,1,0,0:0:0:0:
160,112,35000,1,0,0:0:0:0:
160,160,35250,1,0,0:0:0:0:
208,208,35500,1,0,0:0:0:0:
320,112,36125,1,0,0:0:0:0:
192,128,36625,1,0,0:0:0:0:
336,128,37250,1,0,0:0:0:0:
208,128,37750,1,0,0:0:0:0:
336,112,38250,5,0,0:0:0:0:
208,112,38875,1,0,0:0:0:0:
304,112,39250,1,0,0:0:0:0:
192,128,39750,1,0,0:0:0:0:
256,16,40250,1,0,0:0:0:0:
208,128,40750,1,0,0:0:0:0:
320,64,41250,1,0,0:0:0:0:
176,112,41875,1,0,0:0:0:0:
320,128,42500,5,0,0:0:0:0:
224,128,42875,1,0,0:0:0:0:
160,176,43250,1,0,0:0:0:0:
160,240,43500,1,0,0:0:0:0:
208,256,43750,1,0,0:0:0:0:
272,256,44000,1,0,0:0:0:0:
320,224,44250,1,0,0:0:0:0:
320,160,44500,1,0,0:0:0:0:
272,144,44750,1,0,0:0:0:0:
176,128,45125,5,0,0:0:0:0:
144,32,45625,1,0,0:0:0:0:
208,80,46000,1,0,0:0:0:0:
208,144,46250,1,0,0:0:0:0:
144,160,46500,1,0,0:0:0:0:
288,128,47125,1,0,0:0:0:0:
144,128,47750,1,0,0:0:0:0:
288,128,48375,1,0,0:0:0:0:
160,128,49000,1,0,0:0:0:0:
272,128,49500,1,0,0:0:0:0:
208,192,49750,1,0,0:0:0:0:
240,160,50000,1,0,0:0:0:0:
224,128,50125,1,0,0:0:0:0:
176,128,50375,1,0,0:0:0:0:
160,144,50500,1,0,0:0:0:0:
176,176,50625,1,0,0:0:0:0:
208,208,50875,1,0,0:0:0:0:
240,208,51000,1,0,0:0:0:0:
160,48,51750,5,0,0:0:0:0:
320,112,52500,1,0,0:0:0:0:
224,144,52875,1,0,0:0:0:0:
384,176,53625,1,0,0:0:0:0:
256,176,54125,1,0,0:0:0:0:
400,176,54750,1,0,0:0:0:0:
256,176,55375,1,0,0:0:0:0:
384,80,56000,5,0,0:0:0:0:
176,224,57000,1,0,0:0:0:0:
160,80,57625,1,0,0:0:0:0:
224,80,57875,5,0,0:0:0:0:
128,208,58500,1,0,0:0:0:0:
272,160,59125,1,0,0:0:0:0:
160,272,59750,1,0,0:0:0:0:
304,160,60500,1,0,0:0:0:0:
160,160,61125,1,0,0:0:0:0:
304,208,61750,1,0,0:0:0:0:
208,112,62375,1,0,0:0:0:0:
304,192,62875,1,0,0:0:0:0:
192,240,63375,1,0,0:0:0:0:
304,160,64000,5,0,0:0:0:0:
176,144,64625,1,0,0:0:0:0:
288,208,65250,1,0,0:0:0:0:
176,256,65750,1,0,0:0:0:0:
288,160,66375,1,0,0:0:0:0:
176,240,67000,1,0,0:0:0:0:
144,112,67625,1,0,0:0:0:0:
240,176,68125,1,0,0:0:0:0:
240,32,68750,1,0,0:0:0:0:
256,192,73625,12,0,78125,0:0:0:0:
128,80,78125,5,0,0:0:0:0:
128,352,79250,1,0,0:0:0:0:
256,112,80375,1,0,0:0:0:0:
144,208,81000,1,0,0:0:0:0:
176,80,81625,1,0,0:0:0:0:
256,192,82250,1,0,0:0:0:0:
256,64,82750,1,0,0:0:0:0:
192,192,83375,1,0,0:0:0:0:
176,64,83875,1,0,0:0:0:0:
176,208,84500,1,0,0:0:0:0:
304,160,85125,1,0,0:0:0:0:
256,128,85375,1,0,0:0:0:0:
176,128,85750,1,0,0:0:0:0:
128,144,86000,1,0,0:0:0:0:
112,192,86250,1,0,0:0:0:0:
128,240,86500,1,0,0:0:0:0:
176,32,87375,5,0,0:0:0:0:
192,192,88000,1,0,0:0:0:0:
288,80,88625,1,0,0:0:0:0:
304,208,89125,1,0,0:0:0:0:
176,112,89875,1,0,0:0:0:0:
96,208,90375,1,0,0:0:0:0:
224,176,90875,5,0,0:0:0:0:
352,144,91500,1,0,0:0:0:0:
208,128,92125,1,0,0:0:0:0:
256,256,92750,1,0,0:0:0:0:
160,192,93250,1,0,0:0:0:0:
176,64,93875,1,0,0:0:0:0:
224,96,94125,2,0,P|288:128|256:112,4,97.5
96,128,96125,1,0,0:0:0:0:
240,128,96750,1,0,0:0:0:0:
368,80,97375,1,0,0:0:0:0:
240,112,98000,1,0,0:0:0:0:
304,208,98500,1,0,0:0:0:0:
176,160,99125,1,0,0:0:0:0:
256,80,99625,1,0,0:0:0:0:
336,192,100250,1,0,0:0:0:0:
208,160,100750,1,0,0:0:0:0:
272,16,101500,1,0,0:0:0:0:
208,96,102000,5,0,0:0:0:0:
96,112,102500,1,0,0:0:0:0:
240,144,103125,1,0,0:0:0:0:
160,48,103750,1,0,0:0:0:0:
112,160,104250,1,0,0:0:0:0:
256,112,104875,1,0,0:0:0:0:
128,144,105500,1,0,0:0:0:0:
208,16,106125,1,0,0:0:0:0:
160,112,106625,1,0,0:0:0:0:
304,112,107250,1,0,0:0:0:0:
240,96,107500,1,0,0:0:0:0:
160,112,107875,1,0,0:0:0:0:
160,160,108125,1,0,0:0:0:0:
208,208,108375,1,0,0:0:0:0:
320,112,109000,1,0,0:0:0:0:
192,128,109500,1,0,0:0:0:0:
336,128,110125,1,0,0:0:0:0:
208,128,110625,1,0,0:0:0:0:
336,112,111125,5,0,0:0:0:0:
208,112,111750,1,0,0:0:0:0:
304,112,112125,1,0,0:0:0:0:
192,128,112625,1,0,0:0:0:0:
256,16,113125,1,0,0:0:0:0:
208,128,113625,1,0,0:0:0:0:
320,64,114125,1,0,0:0:0:0:
176,112,114750,1,0,0:0:0:0:
320,128,115375,5,0,0:0:0:0:
224,128,115750,1,0,0:0:0:0:
160,176,116125,1,0,0:0:0:0:
160,240,116375,1,0,0:0:0:0:
208,256,116625,1,0,0:0:0:0:
272,256,116875,1,0,0:0:0:0:
320,224,117125,1,0,0:0:0:0:
320,160,117375,1,0,0:0:0:0:
272,144,117625,1,0,0:0:0:0:
176,128,118000,5,0,0:0:0:0:
144,32,118500,1,0,0:0:0:0:
208,80,118875,1,0,0:0:0:0:
208,144,119125,1,0,0:0:0:0:
144,160,119375,1,0,0:0:0:0:
288,128,120000,1,0,0:0:0:0:
144,128,120625,1,0,0:0:0:0:
288,128,121250,1,0,0:0:0:0:
160,128,121875,1,0,0:0:0:0:
272,128,122375,1,0,0:0:0:0:
208,192,122625,1,0,0:0:0:0:
240,160,122875,1,0,0:0:0:0:
224,128,123000,1,0,0:0:0:0:
176,128,123250,1,0,0:0:0:0:
160,144,123375,1,0,0:0:0:0:
176,176,123500,1,0,0:0:0:0:
208,208,123750,1,0,0:0:0:0:
240,208,123875,1,0,0:0:0:0:
160,48,124625,5,0,0:0:0:0:
320,112,125375,1,0,0:0:0:0:
224,144,125750,1,0,0:0:0:0:
384,176,126500,1,0,0:0:0:0:
256,176,127000,1,0,0:0:0:0:
400,176,127625,1,0,0:0:0:0:
256,176,128250,1,0,0:0:0:0:
384,80,128875,5,0,0:0:0:0:
176,224,129875,1,0,0:0:0:0:
160,80,130500,1,0,0:0:0:0:
224,80,130750,5,0,0:0:0:0:
128,208,131375,1,0,0:0:0:0:
272,160,132000,1,0,0:0:0:0:
160,272,132625,1,0,0:0:0:0:
304,160,133375,1,0,0:0:0:0:
160,160,134000,1,0,0:0:0:0:
304,208,134625,1,0,0:0:0:0:
208,112,135250,1,0,0:0:0:0:
304,192,135750,1,0,0:0:0:0:
192,240,136250,1,0,0:0:0:0:
304,160,136875,5,0,0:0:0:0:
176,144,137500,1,0,0:0:0:0:
288,208,138125,1,0,0:0:0:0:
176,256,138625,1,0,0:0:0:0:
288,160,139250,1,0,0:0:0:0:
176,240,139875,1,0,0:0:0:0:
144,112,140500,1,0,0:0:0:0:
240,176,141000,1,0,0:0:0:0:
240,32,141625,1,0,0:0:0:0:
352,80,142125,1,0,0:0:0:0:
224,144,142750,5,0,0:0:0:0:
