osu file format v14

[General]
AudioFilename: audio.mp3
AudioLeadIn: 0
PreviewTime: 119443
Countdown: 0
SampleSet: Soft
StackLeniency: 0.4
Mode: 0
LetterboxInBreaks: 0
WidescreenStoryboard: 1

[Editor]
Bookmarks: 101633,115701
DistanceSpacing: 1.3
BeatDivisor: 4
GridSize: 16
TimelineZoom: 1.3

[Metadata]
Title:Missed Injections
TitleUnicode:Missed Injections
Artist:Hail the Sun
ArtistUnicode:Hail the Sun
Creator:Hobbes2
Version:Normal
Source:
Tags:English Rock progressive alternative Wake post hardcore math
BeatmapID:2573713
BeatmapSetID:1236409

[Difficulty]
HPDrainRate:2
CircleSize:3
OverallDifficulty:4
ApproachRate:5.5
SliderMultiplier:1
SliderTickRate:1

[Events]
//Background and Video events
0,0,"missed injections.png",0,0
//Break Periods
2,140399,142603
2,154867,158717
//Storyboard Layer 0 (Background)
//Storyboard Layer 1 (Fail)
//Storyboard Layer 2 (Pass)
//Storyboard Layer 3 (Foreground)
//Storyboard Layer 4 (Overlay)
//Storyboard Sound Samples

[TimingPoints]
1263,300,3,2,1,40,1,0
4845,300,3,2,1,40,1,0
4845,-100,3,2,1,60,0,0
30063,-100,3,2,1,40,0,0
30067,300,3,2,1,40,1,0
32445,300,3,2,1,40,1,0
32745,-100,3,2,1,50,0,0
33663,-100,3,2,1,60,0,0
75045,428.571428571429,3,2,1,50,1,0
75045,-83.3333333333333,3,2,1,50,0,0
100348,428.571428571429,3,2,1,60,1,0
100348,-83.3333333333333,3,2,1,60,0,0
104205,-83.3333333333333,3,2,1,50,0,0
105490,307.692307692308,3,2,1,60,1,0
109182,428.571428571429,3,2,1,60,1,0
109182,-83.3333333333333,3,2,1,60,0,0
113032,428.571428571429,3,2,1,50,1,0
114317,307.692307692308,3,2,1,60,1,0
118009,521.739130434783,3,2,1,40,1,0
121139,260.869565217391,3,2,1,60,1,0
121334,-100,3,2,1,5,0,0
121399,-100,3,2,1,60,0,0
121595,-100,3,2,1,5,0,0
121660,-100,3,2,1,60,0,0
121856,-100,3,2,1,5,0,0
121921,-100,3,2,1,60,0,0
122117,-100,3,2,1,5,0,0
122182,-100,3,2,1,60,0,0
122378,-100,3,2,1,5,0,0
122443,-100,3,2,1,60,0,0
122639,-100,3,2,1,5,0,0
122704,-100,3,2,1,60,0,0
127399,400,4,2,1,60,1,0
130599,266.666666666667,3,2,1,60,1,0
140199,352.941176470588,5,2,1,50,1,0
153609,264.705882430796,4,2,1,60,1,0
154667,323.450134770889,4,2,1,60,1,0
162429,324.324324324324,4,2,1,60,1,0
170212,352.941176470588,4,2,1,60,1,0
183623,264.705960207635,4,2,1,60,1,0
184682,480,3,2,1,40,1,0
187562,267.857142857143,3,2,1,60,1,0
187762,-100,3,2,1,5,0,0
187829,-100,3,2,1,60,0,0
188030,-100,3,2,1,5,0,0
188097,-100,3,2,1,60,0,0
188298,-100,3,2,1,5,0,0
188365,-100,3,2,1,60,0,0
188566,-100,3,2,1,5,0,0
188633,-100,3,2,1,60,0,0
188834,-100,3,2,1,5,0,0
188901,-100,3,2,1,60,0,0
189102,-100,3,2,1,5,0,0
189169,-100,3,2,1,60,0,0
193980,400,4,2,1,60,1,0
197180,266.666666666667,3,2,1,60,1,0
200380,400,4,2,1,60,1,0
203580,266.666666666667,3,2,1,60,1,0
206780,400,4,2,1,60,1,0
216380,-100,4,2,1,5,0,0

[Colours]
Combo1 : 203,130,247
Combo2 : 128,255,255
Combo3 : 128,255,128
Combo4 : 255,128,128
Combo5 : 255,170,255

[HitObjects]
384,42,1263,5,2,0:0:0:0:
128,42,2163,1,2,0:0:0:0:
128,342,3063,1,2,0:0:0:0:
384,342,3963,1,2,0:0:0:0:
261,208,4845,6,0,P|276:141|284:101,1,100,6|0,3:2|3:2,0:0:0:0:
264,69,5295,2,0,P|201:59|152:46,1,100,2|0,3:2|3:0,0:0:0:0:
120,51,5745,1,10,0:0:0:0:
44,162,6195,1,10,0:0:0:0:
108,280,6645,6,0,P|158:265|223:252,1,100,6|0,3:2|3:2,0:0:0:0:
241,278,7095,1,2,3:2:0:0:
361,341,7545,2,0,P|369:276|375:218,1,100,10|8,0:0|0:0,0:0:0:0:
384,198,7995,2,0,P|422:194|446:193,2,50,10|8|8,0:0|0:0|0:0,0:0:0:0:
356,162,8445,5,6,3:2:0:0:
266,149,8745,1,2,3:2:0:0:
194,204,9045,1,8,0:0:0:0:
118,154,9345,2,0,P|101:80|92:34,1,100,6|0,3:2|3:2,0:0:0:0:
111,16,9795,1,2,3:2:0:0:
111,16,9945,1,8,0:0:0:0:
198,38,10245,6,0,P|238:24|304:15,1,100,6|2,3:2|3:2,0:0:0:0:
337,29,10695,2,0,P|329:76|322:141,1,100,2|0,3:2|0:0,0:0:0:0:
336,170,11145,1,6,3:2:0:0:
257,214,11445,2,0,L|151:192,1,100,2|8,3:2|0:0,0:0:0:0:
78,153,12045,5,6,3:2:0:0:
43,236,12345,1,2,3:2:0:0:
91,311,12645,1,2,3:2:0:0:
174,344,12945,2,0,P|240:336|295:332,1,100,2|8,3:2|0:2,0:2:0:0:
317,316,13395,1,0,3:2:0:0:
317,316,13545,1,8,0:2:0:0:
373,246,13845,5,6,3:2:0:0:
334,164,14145,1,2,3:2:0:0:
404,107,14445,1,2,3:2:0:0:
356,30,14745,2,0,B|304:5|304:5|227:133,1,200,2|8,3:2|0:2,0:2:0:0:
152,170,15645,6,0,B|130:216|130:216|155:244|155:244|139:313,1,150,8|8,0:0|0:3,0:0:0:0:
131,347,16245,1,14,0:0:0:0:
217,372,16545,2,0,P|256:360|314:349,1,100,14|8,0:0|0:0,0:0:0:0:
353,267,17145,1,10,0:0:0:0:
427,216,17445,2,0,P|430:155|430:64,1,150,14|8,0:0|0:0,0:0:0:0:
295,61,18345,5,6,3:2:0:0:
211,95,18645,1,10,0:0:0:0:
147,30,18945,1,10,0:0:0:0:
79,89,19245,6,0,B|71:153|71:153|75:178|75:178|65:256,1,150,10|8,0:0|0:3,0:0:0:0:
88,357,20145,2,0,B|166:328|166:328|236:360,1,150,14|10,0:0|0:0,0:0:0:0:
361,355,21045,6,0,P|352:285|350:241,1,100,14|0,0:0|3:2,0:0:0:0:
316,225,21495,2,0,P|328:163|345:130,1,100,10|0,0:0|3:2,0:0:0:0:
381,105,21945,1,10,0:0:0:0:
326,34,22245,2,0,P|261:35|216:34,1,100,0|8,3:2|0:0,0:0:0:0:
158,93,22845,6,0,B|144:130|152:167|152:167|180:180|223:159,1,150,8|8,0:0|0:3,0:0:0:0:
264,140,23445,1,14,0:0:0:0:
326,205,23745,2,0,P|309:246|296:311,1,100,14|8,0:0|0:0,0:0:0:0:
364,359,24345,1,10,0:0:0:0:
275,375,24645,6,0,P|208:370|74:359,1,200,14|2,0:0|3:2,0:0:0:0:
15,292,25545,1,6,3:2:0:0:
90,242,25845,1,10,0:0:0:0:
30,174,26145,1,10,0:0:0:0:
94,111,26445,6,0,P|154:121|245:130,1,150,8|8,0:0|0:3,0:0:0:0:
317,79,27195,1,12,0:0:0:0:
317,79,27345,2,0,P|365:127|371:214,1,150,14|10,0:0|0:0,0:0:0:0:
320,278,28095,1,8,0:0:0:0:
320,278,28245,6,0,P|236:270|215:269,2,100,14|2|10,0:0|3:2|0:0,0:0:0:0:
407,257,29145,5,12,0:0:0:0:
488,218,29445,1,12,0:0:0:0:
448,137,29745,1,12,0:0:0:0:
368,178,30067,5,2,0:3:0:0:
104,98,30967,1,2,0:0:0:0:
180,256,31867,1,2,0:0:0:0:
319,24,32745,2,0,B|333:49|363:59|363:59|381:109|336:142|336:142|325:173|338:194,1,200,4|8,0:3|0:3,0:0:0:0:
414,232,33645,6,0,P|402:284|386:385,1,150,6|0,3:2|3:2,0:0:0:0:
268,312,34545,5,10,0:0:0:0:
139,352,34995,1,8,0:0:0:0:
26,277,35445,6,0,B|35:221|35:221|38:174,1,100,6|0,3:2|3:2,0:0:0:0:
17,137,35895,2,0,P|90:159|130:181,1,100,2|0,3:2|3:2,0:0:0:0:
149,145,36345,1,10,0:0:0:0:
228,103,36645,1,8,0:0:0:0:
228,103,36795,2,0,P|253:155|263:204,1,100,10|8,0:0|0:0,0:0:0:0:
238,234,37245,5,6,3:2:0:0:
301,297,37545,2,0,L|408:280,1,100,2|8,3:2|0:0,0:0:0:0:
426,195,38145,5,6,3:2:0:0:
468,115,38445,1,0,3:2:0:0:
468,115,38595,2,0,P|452:61|444:12,1,100,2|0,3:2|0:0,0:0:0:0:
399,17,39045,6,0,P|358:54|246:50,1,150,6|2,3:2|3:2,0:0:0:0:
239,23,39645,1,8,0:0:0:0:
173,85,39945,5,6,3:2:0:0:
95,38,40245,2,0,P|65:31|38:23,2,50,2|0|8,3:2|3:2|0:0,0:0:0:0:
70,124,40845,5,6,3:2:0:0:
80,213,41145,1,2,3:2:0:0:
50,297,41445,1,2,3:2:0:0:
114,359,41745,2,0,P|172:339|226:332,2,100,2|8|8,3:2|0:2|0:2,0:2:0:0:
37,311,42645,5,6,3:2:0:0:
106,253,42945,1,2,3:2:0:0:
20,224,43245,1,2,3:2:0:0:
90,167,43545,2,0,B|156:146|156:146|207:279,1,200,2|8,3:2|0:2,0:2:0:0:
248,345,44445,6,0,P|306:364|372:302,1,150,8|8,0:0|0:3,0:0:0:0:
354,269,45045,1,14,0:0:0:0:
412,200,45345,2,0,P|418:149|424:92,1,100,14|8,0:0|0:0,0:0:0:0:
366,30,45945,1,10,0:0:0:0:
287,73,46245,6,0,P|237:56|122:35,1,150,14|8,0:0|0:0,0:0:0:0:
52,138,47145,5,6,3:2:0:0:
123,192,47445,1,10,0:0:0:0:
38,222,47745,1,10,0:0:0:0:
110,276,48045,6,0,P|161:233|244:226,1,150,10|8,0:0|0:3,0:0:0:0:
307,343,48945,2,0,P|368:349|375:271,1,150,14|10,0:0|0:0,0:0:0:0:
280,183,49845,2,0,P|277:123|277:68,1,100,14|0,0:0|3:2,0:0:0:0:
302,46,50295,2,0,P|364:56|399:77,1,100,10|0,0:0|3:2,0:0:0:0:
420,112,50745,2,0,B|395:156|395:156|379:177|379:177|405:233|405:252,1,150,10|0,0:0|3:2,0:0:0:0:
399,292,51345,1,8,0:0:0:0:
338,358,51645,6,0,B|296:347|246:337|193:333|193:333|179:338|179:338|138:347,1,200,8|14,0:0|0:0,0:0:0:0:
62,303,52545,1,14,0:0:0:0:
101,127,53145,1,10,0:0:0:0:
170,183,53445,2,0,P|215:161|272:154,1,100,14|0,0:0|3:0,0:0:0:0:
308,153,53895,2,0,P|317:215|321:260,1,100,8|8,0:0|0:0,0:0:0:0:
300,292,54345,1,6,3:2:0:0:
371,346,54645,1,10,0:0:0:0:
438,286,54945,1,10,0:0:0:0:
392,208,55245,6,0,B|393:165|400:121|400:121|416:99|416:99|441:70,1,150,10|8,0:0|0:3,0:0:0:0:
318,12,56145,2,0,B|289:23|255:28|255:28|196:12|196:12|163:31,1,150,14|10,0:0|0:0,0:0:0:0:
133,152,57045,5,14,0:0:0:0:
187,224,57345,1,0,3:2:0:0:
131,294,57645,1,8,0:0:0:0:
44,320,57945,2,0,P|36:264|27:220,2,100,14|12|12,0:0|0:0|0:0,0:0:0:0:
129,349,58845,6,0,B|203:370|203:370|225:229,1,200,6|8,3:2|0:0,0:0:0:0:
149,195,59745,1,2,3:2:0:0:
209,128,60045,1,2,3:2:0:0:
57,30,60645,6,0,B|134:14|134:14|176:26|176:26|264:8,1,200,10|4,0:0|3:2,0:0:0:0:
328,57,61545,1,2,0:0:0:0:
412,26,61845,1,10,0:0:0:0:
490,187,62445,6,0,P|468:223|414:265,1,100,14|8,0:0|0:0,0:0:0:0:
339,227,63045,1,8,0:0:0:0:
254,259,63345,2,0,L|233:149,2,100,10|8|8,0:0|0:0|0:0,0:0:0:0:
197,328,64245,5,14,0:0:0:0:
119,282,64545,1,8,0:0:0:0:
48,337,64845,1,8,0:0:0:0:
5,257,65145,2,0,P|28:203|45:144,1,100,10|8,0:0|0:0,0:0:0:0:
5,80,65745,1,8,0:0:0:0:
82,34,66045,6,0,P|158:28|233:18,1,150,6|2,3:2|3:2,0:0:0:0:
253,57,66645,1,8,0:0:0:0:
339,33,66945,2,0,B|398:22|398:22|416:168,1,200,2|0,3:2|0:0,0:0:0:0:
362,233,67845,5,6,3:2:0:0:
244,167,68295,1,6,3:2:0:0:
249,301,68745,1,6,3:2:0:0:
59,108,69645,6,0,P|133:85|167:81,1,100,14|8,0:0|0:0,0:0:0:0:
218,17,70245,1,8,0:0:0:0:
302,47,70545,2,0,P|295:99|291:157,1,100,10|8,0:0|0:0,0:0:0:0:
370,190,71145,1,8,0:0:0:0:
391,277,71445,2,0,B|456:257|456:257|501:283,2,100,14|8|8,0:0|0:0|0:0,0:0:0:0:
316,327,72345,5,14,0:0:0:0:
232,360,72645,1,8,0:0:0:0:
245,271,72945,1,8,0:0:0:0:
245,271,73095,1,8,0:0:0:0:
96,18,75045,6,0,P|85:68|71:154,1,119.999996337891,4|0,1:2|0:0,0:0:0:0:
98,245,75902,1,2,0:3:0:0:
98,245,76330,2,0,P|131:281|248:177,1,239.999992675781,2|2,0:3|0:3,0:0:0:0:
183,109,77616,5,2,0:3:0:0:
255,28,78045,1,2,0:3:0:0:
351,75,78473,1,2,0:3:0:0:
449,119,78902,2,0,P|438:166|425:242,2,119.999996337891,2|2|2,0:3|0:3|0:3,0:0:0:0:
432,67,79973,1,0,3:0:0:0:
378,69,80187,6,0,P|296:52|236:33,1,119.999996337891,2|2,0:3|0:3,0:0:0:0:
161,83,81045,1,2,0:3:0:0:
63,128,81473,2,0,P|74:191|81:260,1,119.999996337891,2|2,0:3|0:3,0:0:0:0:
128,343,82330,1,2,0:3:0:0:
218,283,82759,2,0,P|290:293|350:298,1,119.999996337891,2|2,0:3|0:3,0:0:0:0:
445,176,83830,1,0,0:0:0:0:
402,142,84045,6,0,P|361:136|340:133,1,59.9999981689454,2|4,0:3|0:3,0:0:0:0:
301,98,84473,2,0,P|254:108|218:118,1,59.9999981689454,6|4,0:3|0:3,0:0:0:0:
198,143,84902,2,0,P|189:173|179:210,1,59.9999981689454,6|4,0:3|0:3,0:0:0:0:
159,250,85330,6,0,B|294:204|257:312|410:250,1,239.999992675781,4|2,1:2|0:3,0:0:0:0:
296,62,87045,1,2,0:3:0:0:
296,62,87473,2,0,P|250:77|166:56,1,119.999996337891,2|2,0:3|0:3,0:0:0:0:
83,111,88330,2,0,P|79:169|73:238,1,119.999996337891,2|2,0:3|0:3,0:0:0:0:
129,323,89187,5,2,0:3:0:0:
224,272,89616,1,2,0:3:0:0:
310,337,90045,1,2,0:3:0:0:
358,313,90259,1,0,3:0:0:0:
411,303,90473,2,0,B|460:276|460:276|382:97,1,239.999992675781,2|2,0:3|0:3,0:0:0:0:
287,150,91759,1,2,0:3:0:0:
242,120,91973,2,0,P|182:114|113:103,1,119.999996337891
88,62,92616,1,2,0:3:0:0:
20,146,93045,2,0,P|41:204|58:264,1,119.999996337891,2|2,0:3|0:3,0:0:0:0:
213,217,94116,1,0,0:0:0:0:
259,244,94330,6,0,P|274:197|278:172,1,59.9999981689454,2|4,0:3|0:3,0:0:0:0:
277,132,94759,2,0,P|312:124|348:116,1,59.9999981689454,6|4,0:3|0:3,0:0:0:0:
388,109,95187,2,0,P|419:127|444:147,1,59.9999981689454,6|4,0:3|0:3,0:0:0:0:
446,195,95616,5,4,1:2:0:0:
385,284,96045,1,2,3:0:0:0:
287,237,96473,1,2,3:0:0:0:
213,316,96902,2,0,P|156:297|96:285,1,119.999996337891,2|2,3:0|3:0,0:0:0:0:
39,194,97759,1,2,3:0:0:0:
106,109,98187,5,8,0:0:0:0:
156,89,98402,1,0,3:0:0:0:
209,79,98616,2,0,P|227:119|237:146,1,59.9999981689454,8|0,0:0|3:0,0:0:0:0:
286,134,99045,2,0,P|271:184|268:209,1,59.9999981689454,8|0,0:0|3:0,0:0:0:0:
264,245,99473,1,2,0:3:0:0:
450,354,100348,6,0,B|461:325|461:325|452:253|452:253|461:217,1,119.999996337891,6|8,3:2|0:0,0:0:0:0:
486,192,100990,2,0,B|413:205|413:205|370:196|370:196|280:206,1,179.999994506836,6|14,3:2|0:2,0:0:0:0:
195,324,102276,2,0,B|144:312|144:312|128:325|128:325|118:334,1,59.9999981689454,6|8,3:2|0:0,0:0:0:0:
86,333,102705,1,8,0:0:0:0:
46,296,102919,2,0,P|37:237|33:226,1,59.9999981689454,6|8,3:2|0:0,0:0:0:0:
59,187,103348,1,8,0:0:0:0:
24,145,103562,2,0,B|85:131|85:131|134:137|134:137|213:118,1,179.999994506836,6|4,3:2|1:2,0:0:0:0:
452,89,105490,6,0,P|441:143|434:187,1,100,12|8,0:0|0:0,0:0:0:0:
374,255,106105,1,8,0:0:0:0:
328,177,106413,1,4,0:3:0:0:
328,177,106720,2,0,P|258:177|231:212,1,100,4|4,0:3|0:3,0:0:0:0:
193,273,107336,6,0,B|199:319|199:319|203:381,1,100,12|8,0:0|0:0,0:0:0:0:
116,344,107951,1,8,0:0:0:0:
29,369,108259,2,0,P|16:304|10:256,1,100,4|4,0:3|0:3,0:0:0:0:
74,205,108874,1,4,0:3:0:0:
24,133,109182,6,0,P|47:96|117:96,1,119.999996337891,6|8,3:2|0:0,0:0:0:0:
170,86,109824,2,0,B|245:87|245:87|267:105|267:105|353:103,1,179.999994506836,6|14,3:2|0:0,0:0:0:0:
438,229,111110,2,0,P|449:176|448:143,2,59.9999981689454,6|8|8,3:2|0:0|0:0,0:0:0:0:
408,271,111753,1,6,3:2:0:0:
354,261,111967,2,0,P|296:267|278:269,1,59.9999981689454,8|8,0:0|0:0,0:0:0:0:
263,311,112396,2,0,B|213:287|213:287|173:293|173:293|161:343|152:337,1,119.999996337891,6|0,3:2|0:0,0:0:0:0:
134,352,113032,5,4,1:2:0:0:
37,80,114317,5,12,0:0:0:0:
95,148,114624,1,8,0:0:0:0:
171,99,114932,1,8,0:0:0:0:
247,146,115240,2,0,L|235:263,1,100,0|0,3:0|3:0,0:0:0:0:
223,334,115855,1,0,3:0:0:0:
304,371,116163,6,0,P|360:339|395:330,1,100,12|8,0:0|0:0,0:0:0:0:
436,250,116778,1,8,0:0:0:0:
370,188,117086,5,8,3:0:0:0:
450,147,117393,1,8,3:0:0:0:
425,60,117701,1,8,3:0:0:0:
425,60,118009,5,2,0:3:0:0:
20,81,121139,6,0,P|63:60|116:45,1,100,6|4,3:2|3:2,0:0:0:0:
184,100,121660,2,0,P|178:159|176:205,1,100,4|4,3:2|3:2,0:0:0:0:
256,241,122182,2,0,P|262:300|264:346,1,100,4|4,3:2|3:2,0:0:0:0:
348,373,122704,6,0,P|396:357|415:252,1,150,14|8,0:0|0:0,0:0:0:0:
354,152,123486,1,0,3:0:0:0:
410,82,123747,2,0,B|375:52|375:52|315:45,1,100,0|0,3:0|3:0,0:0:0:0:
244,93,124269,6,0,L|144:82,1,100,6|0,3:2|3:2,0:0:0:0:
68,34,124791,1,0,3:2:0:0:
21,115,125052,2,0,B|16:175|16:175|24:200|24:200|18:281,2,150,10|2|2,0:0|3:2|3:2,0:0:0:0:
110,118,126095,6,0,P|162:101|210:86,1,100,0|0,3:2|3:2,0:0:0:0:
290,130,126617,1,10,0:0:0:0:
290,130,126747,2,0,P|279:186|276:234,2,100,0|2|0,3:2|3:2|3:2,0:0:0:0:
327,103,127399,5,4,3:2:0:0:
427,185,127799,1,4,3:2:0:0:
387,308,128199,1,12,0:0:0:0:
257,306,128599,1,4,3:2:0:0:
219,181,128999,1,4,3:2:0:0:
327,103,129399,1,4,3:2:0:0:
428,184,129799,6,0,B|410:221|410:221|397:243,1,50,12|4,0:0|3:2,0:0:0:0:
384,274,130199,2,0,P|326:279|313:283,1,50,12|4,0:0|3:2,0:0:0:0:
291,289,130599,6,0,P|295:220|297:175,2,100,6|0|0,3:2|3:2|3:2,0:0:0:0:
231,356,131399,2,0,B|99:350|99:350|66:282,1,200,10|0,0:0|0:0,0:0:0:0:
37,204,132199,6,0,P|47:145|55:98,1,100,0|0,3:2|3:2,0:0:0:0:
126,52,132732,1,2,3:2:0:0:
214,68,132999,2,0,B|256:175|172:163|220:273,1,200,10|0,0:0|0:0,0:0:0:0:
154,328,133799,6,0,P|94:311|45:303,1,100,2|0,3:2|3:2,0:0:0:0:
18,223,134332,1,0,3:2:0:0:
8,133,134599,2,0,B|12:106|12:106|21:75,1,50,10|0,0:0|3:2,0:0:0:0:
97,41,134999,2,0,P|129:5|189:7,1,100,0|0,3:2|3:2,0:0:0:0:
212,31,135399,5,0,3:2:0:0:
255,109,135665,1,0,3:2:0:0:
344,105,135932,1,2,3:2:0:0:
385,24,136199,2,0,P|444:45|487:57,1,100,10|4,0:0|0:3,0:0:0:0:
494,144,136732,2,0,P|482:187|474:214,1,50,8|8,3:2|3:2,0:0:0:0:
464,234,136999,5,4,3:2:0:0:
415,309,137265,1,2,3:2:0:0:
338,260,137532,1,2,3:2:0:0:
254,293,137799,2,0,B|225:240|225:240|340:137,1,200,10|0,0:0|0:0,0:0:0:0:
398,89,138599,5,0,3:2:0:0:
334,26,138865,2,0,P|269:8|233:-2,1,100,2|2,3:2|3:2,0:0:0:0:
162,47,139399,1,10,0:0:0:0:
162,47,139532,1,0,3:2:0:0:
113,123,139799,2,0,P|118:182|122:232,1,100,0|0,3:2|3:2,0:0:0:0:
126,256,140199,5,6,3:2:0:0:
52,54,143728,6,0,P|96:43|222:21,1,150,2|0,3:2|0:0,0:0:0:0:
230,56,144433,1,2,3:2:0:0:
316,32,144787,2,0,B|328:76|328:76|337:141,1,100,2|2,3:3|3:3,0:0:0:0:
311,168,145316,2,0,P|294:208|332:253,1,100,2|0,0:0|0:0,0:0:0:0:
369,256,145846,2,0,P|361:314|354:362,1,100,0|0,3:0|3:0,0:0:0:0:
265,365,146551,2,0,P|230:356|118:343,1,150,2|0,3:2|0:0,0:0:0:0:
74,327,147257,6,0,P|68:267|59:211,1,100,14|8,3:2|3:2,0:0:0:0:
81,189,147787,1,8,0:0:0:0:
81,189,147963,1,10,3:2:0:0:
251,28,148846,2,0,B|300:66|296:121,1,100,10|8,0:0|0:0,0:0:0:0:
273,152,149375,2,0,P|334:147|380:143,1,100,10|8,3:2|3:2,0:0:0:0:
421,146,149903,1,8,0:0:0:0:
421,146,150081,2,0,P|405:183|389:248,1,100,8|8,3:3|3:3,0:0:0:0:
377,330,150786,6,0,P|335:335|233:289,1,150,8|4,3:3|0:3,0:0:0:0:
211,257,151493,1,10,3:2:0:0:
120,257,151846,2,0,L|108:148,1,100,2|2,3:3|3:3,0:0:0:0:
68,137,152374,1,10,0:0:0:0:
125,68,152727,1,8,0:0:0:0:
125,68,152904,2,0,P|156:54|266:97,1,150,10|8,3:2|0:0,0:0:0:0:
285,121,153609,6,0,P|276:171|262:221,1,100,12|8,0:0|0:0,0:0:0:0:
189,271,154138,1,8,0:0:0:0:
231,350,154403,1,8,0:0:0:0:
319,323,154667,5,0,1:0:0:0:
83,72,159842,5,4,3:2:0:0:
256,192,160165,12,4,161136,3:2:0:0:
264,52,162106,5,10,0:0:0:0:
264,52,162429,6,0,P|203:45|170:40,2,75,6|2|10,3:2|3:2|0:0,0:0:0:0:
380,119,163401,2,0,P|385:146|388:179,1,50,10|2,0:0|3:2,0:0:0:0:
379,212,163726,2,0,B|355:231|355:231|332:274,1,75,6|2,3:2|3:2,0:0:0:0:
293,324,164212,2,0,P|229:318|201:318,1,75,10|0,0:0|3:2,0:0:0:0:
156,289,164699,1,10,0:0:0:0:
52,246,165023,6,0,P|26:283|6:327,2,75,6|2|10,3:2|3:2|0:0,0:0:0:0:
17,115,165996,1,10,0:0:0:0:
83,54,166320,2,0,P|124:55|168:65,1,75,6|2,3:2|3:2,0:0:0:0:
216,29,166807,2,0,P|243:62|252:94,1,75,10|0,0:0|3:2,0:0:0:0:
262,159,167293,1,10,0:0:0:0:
323,247,167618,6,0,P|391:231|442:231,1,100,6|2,3:2|0:0,0:0:0:0:
475,301,168266,1,2,0:0:0:0:
405,358,168591,1,10,0:0:0:0:
315,369,168915,2,0,L|206:330,1,100,6|0,3:2|0:0,0:0:0:0:
153,275,169564,2,0,P|156:209|156:160,1,100,2|10,0:0|0:0,0:0:0:0:
83,108,170212,5,4,3:2:0:0:
241,338,171270,2,0,P|251:299|275:236,1,100,8|8,0:0|0:0,0:0:0:0:
313,224,171800,6,0,P|359:250|442:201,1,150,4|0,3:2|3:2,0:0:0:0:
416,121,172682,1,8,0:0:0:0:
362,48,173035,2,0,P|299:36|257:34,1,100,0|8,3:2|0:0,0:0:0:0:
193,90,173741,1,0,3:2:0:0:
126,29,174094,1,8,0:0:0:0:
51,77,174447,5,0,3:2:0:0:
51,77,174623,2,0,P|46:127|41:189,1,100,2|0,3:3|3:2,0:0:0:0:
42,221,175153,2,0,B|125:200|125:200|151:222,1,100,2|8,3:3|0:0,0:0:0:0:
199,272,175859,2,0,P|217:326|229:380,1,100,0|8,3:2|0:0,0:0:0:0:
316,363,176564,1,0,3:2:0:0:
378,298,176917,1,8,0:0:0:0:
314,233,177270,6,0,P|308:180|366:104,1,150,6|2,3:2|0:0,0:0:0:0:
411,105,177976,1,2,3:2:0:0:
411,105,178153,2,0,P|411:148|419:212,1,100,2|0,3:3|3:2,0:0:0:0:
444,241,178682,1,0,3:2:0:0:
301,350,179388,2,0,P|242:333|188:326,1,100,0|8,3:2|0:0,0:0:0:0:
120,291,180094,2,0,P|94:228|131:157,1,150,0|0,3:2|0:0,0:0:0:0:
165,132,180800,6,0,P|220:139|288:140,1,100,2|8,3:2|0:0,0:0:0:0:
324,73,181506,1,2,3:2:0:0:
324,73,181682,2,0,P|366:68|410:117,1,100,2|0,0:3|3:2,0:0:0:0:
401,149,182212,2,0,P|397:199|396:263,1,100,2|8,3:3|0:0,0:0:0:0:
347,324,182917,1,0,3:2:0:0:
269,279,183270,1,8,0:0:0:0:
198,343,183623,6,0,P|142:327|102:318,2,100,12|12|12,0:2|0:0|0:0,0:0:0:0:
285,384,184417,1,12,0:0:0:0:
11,110,187562,6,0,B|55:96|55:96|111:90,1,100,6|4,3:2|3:2,0:0:0:0:
182,141,188097,2,0,P|173:183|162:253,1,100,4|4,3:2|3:2,0:0:0:0:
207,318,188633,1,4,3:2:0:0:
288,278,188901,1,4,3:2:0:0:
357,335,189169,6,0,P|427:346|447:264,1,150,8|8,0:0|0:0,0:0:0:0:
386,166,189972,2,0,P|405:106|423:70,1,100,0|0,3:0|3:0,0:0:0:0:
364,2,190508,1,0,3:0:0:0:
313,77,190776,6,0,P|198:77|105:76,1,200,6|0,3:2|3:2,0:0:0:0:
53,143,191579,2,0,P|24:97|65:0,2,150,10|2|2,0:0|3:2|3:2,0:0:0:0:
145,242,192785,5,2,0:0:0:0:
32,313,193187,2,0,P|20:357|13:381,1,50,10|0,0:0|3:2,0:0:0:0:
107,379,193588,2,0,P|165:373|213:368,1,100,2|0,3:2|3:2,0:0:0:0:
233,353,193980,5,4,3:2:0:0:
318,268,194380,1,4,3:2:0:0:
259,163,194780,1,12,0:0:0:0:
145,200,195180,1,4,3:2:0:0:
138,319,195580,1,4,3:2:0:0:
255,343,195980,1,4,3:2:0:0:
327,247,196380,6,0,P|321:204|322:181,1,50,12|4,0:0|3:2,0:0:0:0:
297,159,196780,2,0,P|312:131|320:107,1,50,12|4,0:0|3:2,0:0:0:0:
341,71,197180,6,0,P|289:30|156:64,1,200,6|2,3:2|3:2,0:0:0:0:
106,122,197980,1,10,0:0:0:0:
106,122,198113,2,0,P|50:115|-11:106,2,100,0|0|0,3:2|3:2|3:2,0:0:0:0:
139,151,198780,6,0,P|142:191|152:268,1,100,0|0,3:2|3:2,0:0:0:0:
222,302,199313,1,2,3:2:0:0:
298,255,199580,2,0,B|348:224|348:224|454:316,1,200,10|0,0:0|0:0,0:0:0:0:
374,375,200380,5,4,3:2:0:0:
255,355,200780,1,4,3:2:0:0:
136,372,201180,1,12,0:0:0:0:
204,261,201580,1,4,3:2:0:0:
319,264,201980,1,4,3:2:0:0:
263,157,202380,1,4,3:2:0:0:
166,85,202780,6,0,P|126:88|106:86,1,50,12|4,0:0|3:2,0:0:0:0:
76,117,203180,2,0,P|66:167|69:186,1,50,12|4,0:0|3:2,0:0:0:0:
98,202,203580,6,0,P|31:215|-22:224,2,100,4|2|2,3:2|3:2|3:2,0:0:0:0:
151,274,204380,2,0,B|272:261|272:261|317:282|317:282|461:266,1,300,10|0,0:0|3:2,0:0:0:0:
463,179,205446,5,2,3:2:0:0:
436,92,205713,1,2,3:2:0:0:
365,35,205980,2,0,B|259:0|298:93|173:58,1,200,10|0,0:0|0:0,0:0:0:0:
87,20,206780,5,4,3:2:0:0:
44,132,207180,1,4,3:2:0:0:
112,230,207580,1,12,0:0:0:0:
61,338,207980,1,4,3:2:0:0:
178,315,208380,1,4,3:2:0:0:
94,228,208780,1,4,3:2:0:0:
167,133,209180,6,0,B|163:88|163:88|161:60,1,50,12|4,0:0|3:2,0:0:0:0:
192,49,209580,2,0,P|235:45|259:35,1,50,12|4,0:0|3:2,0:0:0:0:
272,75,209980,5,4,3:2:0:0:
256,192,210380,12,0,216380,0:0:0:0:
