osu file format v14

[General]
AudioFilename: audio.mp3
AudioLeadIn: 0
PreviewTime: 119443
Countdown: 0
SampleSet: Soft
StackLeniency: 0.6
Mode: 0
LetterboxInBreaks: 0
WidescreenStoryboard: 1

[Editor]
Bookmarks: 101633,115701
DistanceSpacing: 1.3
BeatDivisor: 4
GridSize: 16
TimelineZoom: 2.3

[Metadata]
Title:Missed Injections
TitleUnicode:Missed Injections
Artist:Hail the Sun
ArtistUnicode:Hail the Sun
Creator:Hobbes2
Version:Insane
Source:
Tags:English Rock progressive alternative Wake post hardcore math
BeatmapID:2578113
BeatmapSetID:1236409

[Difficulty]
HPDrainRate:4
CircleSize:3.9
OverallDifficulty:8
ApproachRate:9
SliderMultiplier:1.4
SliderTickRate:1

[Events]
//Background and Video events
0,0,"missed injections.png",0,0
//Break Periods
2,154867,159242
//Storyboard Layer 0 (Background)
//Storyboard Layer 1 (Fail)
//Storyboard Layer 2 (Pass)
//Storyboard Layer 3 (Foreground)
//Storyboard Layer 4 (Overlay)
//Storyboard Sound Samples

[TimingPoints]
1263,300,3,2,1,40,1,0
4845,300,3,2,1,40,1,0
4845,-100,3,2,1,60,0,0
8445,-90.9090909090909,3,2,1,60,0,0
30063,-90.9090909090909,3,2,1,40,0,0
30067,300,3,2,1,40,1,0
32445,300,3,2,1,40,1,0
32445,-133.333333333333,3,2,1,40,0,0
32745,-133.333333333333,3,2,1,50,0,0
33645,-90.9090909090909,3,2,1,60,0,0
67263,-222.222222222221,3,2,1,60,0,0
67845,-83.3333333333333,3,2,1,60,0,0
75045,428.571428571429,3,2,1,50,1,0
100348,428.571428571429,3,2,1,60,1,0
100348,-58.8235294117647,3,2,1,60,0,0
104205,-100,3,2,1,50,0,0
105490,307.692307692308,3,2,1,60,1,0
109182,428.571428571429,3,2,1,60,1,0
109182,-58.8235294117647,3,2,1,60,0,0
113032,428.571428571429,3,2,1,50,1,0
114317,307.692307692308,3,2,1,60,1,0
118009,521.739130434783,3,2,1,40,1,0
121139,260.869565217391,3,2,1,60,1,0
121334,-100,3,2,1,5,0,0
121399,-100,3,2,1,60,0,0
121595,-100,3,2,1,5,0,0
121660,-100,3,2,1,60,0,0
121856,-100,3,2,1,5,0,0
121921,-100,3,2,1,60,0,0
122117,-100,3,2,1,5,0,0
122182,-100,3,2,1,60,0,0
122378,-100,3,2,1,5,0,0
122443,-100,3,2,1,60,0,0
122639,-100,3,2,1,5,0,0
122704,-100,3,2,1,60,0,0
127399,400,4,2,1,60,1,0
130599,266.666666666667,3,2,1,60,1,0
140199,352.941176470588,5,2,1,50,1,0
147257,-83.3333333333333,6,2,1,60,0,0
149374,-83.3333333333333,4,2,1,60,0,0
151315,-83.3333333333333,6,2,1,60,0,0
152903,-83.3333333333333,4,2,1,60,0,0
153609,264.705882430796,4,2,1,60,1,0
153609,-83.3333333333333,4,2,1,60,0,0
154667,323.450134770889,4,2,1,60,1,0
162429,324.324324324324,4,2,1,60,1,0
162429,-83.3333333333333,4,2,1,60,0,0
170212,352.941176470588,4,2,1,60,1,0
171800,-83.3333333333333,4,2,1,60,0,0
183623,264.705960207635,4,2,1,60,1,0
183623,-83.3333333333333,4,2,1,60,0,0
184682,480,3,2,1,40,1,0
185402,-133.333333333333,3,2,1,40,0,0
187562,267.857142857143,3,2,1,60,1,0
187762,-100,3,2,1,5,0,0
187829,-100,3,2,1,60,0,0
188030,-100,3,2,1,5,0,0
188097,-100,3,2,1,60,0,0
188298,-100,3,2,1,5,0,0
188365,-100,3,2,1,60,0,0
188566,-100,3,2,1,5,0,0
188633,-100,3,2,1,60,0,0
188834,-100,3,2,1,5,0,0
188901,-100,3,2,1,60,0,0
189102,-100,3,2,1,5,0,0
189169,-100,3,2,1,60,0,0
193980,400,4,2,1,60,1,0
197180,266.666666666667,3,2,1,60,1,0
200380,400,4,2,1,60,1,0
203580,266.666666666667,3,2,1,60,1,0
206780,400,4,2,1,60,1,0
216380,-100,4,2,1,5,0,0

[Colours]
Combo1 : 203,130,247
Combo2 : 128,255,255
Combo3 : 128,255,128
Combo4 : 255,128,128
Combo5 : 255,170,255

[HitObjects]
46,126,1263,5,2,0:0:0:0:
88,23,1563,1,0,0:0:0:0:
88,23,1713,1,0,0:0:0:0:
88,23,1863,1,0,0:0:0:0:
46,126,2163,5,2,0:0:0:0:
88,23,2463,1,0,0:0:0:0:
88,23,2613,1,0,0:0:0:0:
88,23,2763,1,0,0:0:0:0:
46,126,3063,5,2,0:0:0:0:
88,23,3363,1,0,0:0:0:0:
88,23,3513,1,0,0:0:0:0:
88,23,3663,1,0,0:0:0:0:
46,126,3963,5,2,0:0:0:0:
88,23,4263,1,0,0:0:0:0:
88,23,4413,1,0,0:0:0:0:
88,23,4563,1,0,0:0:0:0:
160,134,4845,6,0,P|153:200|145:282,1,140,6|0,3:2|3:2,0:0:0:0:
209,345,5295,1,2,3:2:0:0:
209,345,5445,2,0,P|255:328|295:321,1,70,0|0,0:0|3:0,0:0:0:0:
75,371,5745,6,0,P|25:356|42:258,1,140,10|0,0:0|0:0,0:0:0:0:
88,219,6195,2,0,L|78:126,1,70,10|0,0:0|0:0,0:0:0:0:
18,82,6495,1,0,0:0:0:0:
142,13,6645,6,0,B|236:30|236:30|259:93,1,140,6|0,3:2|3:2,0:0:0:0:
263,161,7095,2,0,L|246:320,1,140,2|0,3:2|3:2,0:0:0:0:
180,361,7545,1,10,0:0:0:0:
353,309,7770,1,8,0:0:0:0:
353,309,7845,1,8,0:0:0:0:
435,346,7995,1,10,0:0:0:0:
421,256,8145,1,8,0:0:0:0:
353,309,8295,1,8,0:0:0:0:
501,290,8445,6,0,B|506:235|512:178|512:178|473:125,1,154.000004699707,6|2,3:2|3:2,0:0:0:0:
415,73,8895,1,0,3:2:0:0:
329,125,9045,2,0,P|338:190|342:232,1,77.0000023498536,8|0,0:0|0:0,0:0:0:0:
276,279,9345,6,0,P|223:261|178:255,1,77.0000023498536,6|0,3:2|0:0,0:0:0:0:
218,356,9645,1,0,3:2:0:0:
145,183,9795,2,0,B|111:212|111:212|116:276,1,77.0000023498536,2|8,3:2|0:0,0:0:0:0:
205,374,10095,1,0,0:0:0:0:
288,255,10245,6,0,P|284:174|273:81,1,154.000004699707,6|2,3:2|3:2,0:0:0:0:
338,22,10695,2,0,P|390:34|449:35,1,77.0000023498536,2|8,3:2|0:0,0:0:0:0:
488,103,10995,1,0,0:0:0:0:
443,243,11145,6,0,P|377:198|423:125,1,154.000004699707,6|2,3:2|3:2,0:0:0:0:
471,262,11595,2,0,P|460:317|458:360,2,77.0000023498536,0|8|0,3:2|0:0|0:0,0:0:0:0:
362,370,12045,6,0,B|311:362|291:360|291:360|264:379,1,77.0000023498536,6|0,3:2|0:0,0:2:0:0:
390,206,12345,2,0,B|339:214|319:216|319:216|314:212,1,77.0000023498536,2|8,3:2|0:2,0:0:0:0:
345,116,12645,1,2,3:2:0:0:
345,116,12795,1,8,0:2:0:0:
302,3,12945,6,0,P|237:23|173:34,1,115.50000352478,2|0,3:2|3:2,0:2:0:0:
151,28,13245,1,8,0:2:0:0:
72,112,13395,1,0,3:2:0:0:
172,169,13545,1,8,0:2:0:0:
72,112,13695,1,0,3:2:0:0:
22,242,13845,6,0,P|27:292|28:349,1,77.0000023498536,6|0,3:2|0:2,0:2:0:0:
178,258,14145,2,0,P|179:219|184:181,1,77.0000023498536,2|8,3:2|0:2,0:2:0:0:
120,332,14445,1,2,3:2:0:0:
120,332,14595,1,8,0:2:0:0:
257,374,14745,6,0,L|378:352,1,115.50000352478,2|0,3:2|0:2,0:2:0:0:
409,346,15045,1,8,0:2:0:0:
409,346,15345,1,8,0:2:0:0:
439,195,15645,5,8,0:0:0:0:
439,195,15720,1,8,0:0:0:0:
439,195,15795,1,8,0:3:0:0:
439,195,15870,1,8,0:3:0:0:
439,195,15945,2,0,L|445:144,3,38.5000011749268,8|8|8|8,0:3|0:3|0:3|0:3,0:0:0:0:
379,244,16245,5,14,0:0:0:0:
310,209,16395,1,12,0:0:0:0:
249,256,16545,2,0,P|254:306|256:359,1,77.0000023498536,14|8,0:0|0:0,0:0:0:0:
172,369,16845,1,8,0:0:0:0:
172,369,16995,1,8,0:0:0:0:
134,284,17145,1,10,0:0:0:0:
75,355,17295,1,8,0:0:0:0:
21,231,17445,5,14,0:0:0:0:
86,166,17595,2,0,P|145:179|183:186,1,77.0000023498536,0|0,3:0|3:0,0:0:0:0:
128,47,17895,2,0,B|63:14|63:14|16:79,1,154.000004699707,8|8,0:0|0:0,0:0:0:0:
204,101,18345,2,0,P|219:44|232:3,1,77.0000023498536,6|0,3:2|3:2,0:0:0:0:
312,54,18645,2,0,P|301:90|291:128,1,77.0000023498536,10|0,0:0|3:2,0:0:0:0:
383,114,18945,1,10,0:0:0:0:
383,114,19095,1,0,3:2:0:0:
324,237,19245,5,10,0:0:0:0:
324,237,19320,1,8,0:0:0:0:
324,237,19395,1,8,0:3:0:0:
324,237,19470,1,8,0:3:0:0:
324,237,19545,2,0,L|273:239,3,38.5000011749268,8|8|8|8,0:3|0:3|0:3|0:3,0:0:0:0:
372,300,19845,5,12,0:0:0:0:
423,242,19995,1,12,0:0:0:0:
489,280,20145,2,0,P|484:333|479:369,1,77.0000023498536,14|8,0:0|0:0,0:0:0:0:
332,373,20445,1,8,0:0:0:0:
332,373,20595,1,10,0:0:0:0:
261,313,20745,1,8,0:0:0:0:
334,257,20895,1,8,0:0:0:0:
214,172,21045,6,0,P|153:167|117:164,1,77.0000023498536,14|0,0:0|3:2,0:0:0:0:
190,89,21345,1,0,3:2:0:0:
166,251,21495,1,10,0:0:0:0:
194,334,21645,2,0,P|133:329|97:326,1,77.0000023498536,8|0,0:0|3:2,0:0:0:0:
27,231,21945,5,10,0:0:0:0:
27,231,22095,1,0,3:2:0:0:
107,184,22245,1,0,3:2:0:0:
103,161,22320,1,0,3:2:0:0:
100,138,22395,1,0,3:2:0:0:
97,115,22470,1,0,3:2:0:0:
94,91,22545,2,0,P|83:25|76:-10,1,77.0000023498536,8|0,0:0|3:2,0:0:0:0:
240,144,22845,5,8,0:0:0:0:
240,144,22920,1,8,0:0:0:0:
240,144,22995,1,8,0:3:0:0:
240,144,23070,1,8,0:3:0:0:
240,144,23145,2,0,P|276:122|284:123,3,38.5000011749268,8|8|8|8,0:3|0:3|0:3|0:3,0:0:0:0:
226,221,23445,5,14,0:0:0:0:
268,285,23595,1,12,0:0:0:0:
221,346,23745,2,0,B|198:338|164:335|164:335|137:347,1,77.0000023498536,14|8,0:0|0:0,0:0:0:0:
95,206,24045,1,8,0:0:0:0:
95,206,24195,1,8,0:0:0:0:
75,115,24345,1,10,0:0:0:0:
31,267,24495,1,8,0:0:0:0:
185,230,24645,6,0,L|337:255,1,154.000004699707,14|0,0:0|3:0,0:0:0:0:
403,190,25095,1,8,0:0:0:0:
489,157,25245,2,0,P|482:211|481:255,1,77.0000023498536,2|8,3:2|0:0,0:0:0:0:
322,162,25545,2,0,P|319:123|313:85,1,77.0000023498536,6|0,3:2|3:2,0:0:0:0:
232,126,25845,1,10,0:0:0:0:
232,126,25995,1,0,3:2:0:0:
298,256,26145,2,0,P|336:250|374:247,1,77.0000023498536,10|0,0:0|3:2,0:0:0:0:
232,339,26445,5,8,0:0:0:0:
232,339,26520,1,8,0:0:0:0:
232,339,26595,1,8,0:3:0:0:
232,339,26670,1,8,0:3:0:0:
232,339,26745,2,0,L|172:332,3,38.5000011749268,8|8|8|8,0:3|0:3|0:3|0:3,0:0:0:0:
121,370,27045,5,12,0:0:0:0:
60,321,27195,1,12,0:0:0:0:
94,252,27345,2,0,P|80:196|74:168,1,77.0000023498536,14|8,0:0|0:0,0:0:0:0:
170,28,27645,1,8,0:0:0:0:
170,28,27795,1,10,0:0:0:0:
85,66,27945,1,8,0:0:0:0:
246,71,28095,1,8,0:0:0:0:
163,179,28245,5,14,0:0:0:0:
162,271,28395,2,0,P|166:338|166:369,1,77.0000023498536,0|2,3:2|3:2,0:0:0:0:
246,223,28695,1,8,0:0:0:0:
76,219,28845,1,10,0:0:0:0:
246,223,28995,1,0,3:2:0:0:
301,149,29145,6,0,P|355:173|402:178,1,77.0000023498536,12|0,0:0|3:2,0:0:0:0:
449,123,29445,1,12,0:0:0:0:
485,207,29595,1,8,0:0:0:0:
384,65,29745,5,12,0:0:0:0:
432,273,29895,1,8,0:0:0:0:
475,188,30067,5,2,0:3:0:0:
379,204,30367,1,0,0:0:0:0:
379,204,30517,1,0,0:0:0:0:
379,204,30667,1,0,0:0:0:0:
475,188,30967,5,2,0:0:0:0:
379,204,31267,1,0,0:0:0:0:
379,204,31417,1,0,0:0:0:0:
379,204,31567,1,0,0:0:0:0:
475,188,31867,5,2,0:0:0:0:
379,204,32167,1,0,0:0:0:0:
379,204,32317,1,0,0:0:0:0:
379,204,32445,2,0,L|376:245,3,26.2500010013581,2|2|2|2,0:3|0:3|0:3|0:3,0:0:0:0:
483,238,32745,6,0,L|508:244,3,26.2500010013581,4|4|4|4,0:3|0:3|0:3|0:3,0:0:0:0:
468,144,33045,2,0,L|493:138,3,26.2500010013581,4|4|4|4,0:3|0:3|0:3|0:3,0:0:0:0:
396,66,33345,5,4,0:3:0:0:
370,70,33420,1,4,0:3:0:0:
344,74,33495,1,4,0:3:0:0:
318,78,33570,1,4,0:3:0:0:
293,83,33645,6,0,B|189:108|189:108|157:56,1,154.000004699707,6|0,3:2|3:2,0:0:0:0:
79,43,34095,1,0,3:2:0:0:
79,43,34245,2,0,P|17:38|-19:36,1,77.0000023498536,0|0,0:0|3:0,0:0:0:0:
92,209,34545,6,0,P|174:185|159:102,1,154.000004699707,10|0,0:0|0:0,0:0:0:0:
38,146,34995,2,0,P|51:207|53:254,1,77.0000023498536,8|0,0:0|0:0,0:0:0:0:
14,305,35295,1,0,0:0:0:0:
133,374,35445,6,0,P|218:349|285:334,1,154.000004699707,6|0,3:2|3:2,0:0:0:0:
339,262,35895,2,0,P|402:255|419:358,1,154.000004699707,2|0,3:2|3:2,0:0:0:0:
365,384,36345,1,10,0:0:0:0:
433,234,36570,1,8,0:0:0:0:
433,234,36645,1,8,0:0:0:0:
379,158,36795,1,10,0:0:0:0:
471,154,36945,1,8,0:0:0:0:
379,158,37095,1,8,0:0:0:0:
436,1,37245,6,0,B|431:24|431:23|426:78,1,77.0000023498536,6|0,3:2|0:0,0:0:0:0:
320,224,37545,2,0,B|274:210|274:210|306:84,1,154.000004699707,2|8,3:2|0:0,0:0:0:0:
142,10,38145,2,0,P|78:50|94:129,1,154.000004699707,6|0,3:2|3:2,0:0:0:0:
31,194,38595,2,0,P|72:228|117:226,1,77.0000023498536,2|8,3:2|0:0,0:0:0:0:
172,180,38895,1,0,0:0:0:0:
225,82,39045,6,0,L|384:122,1,154.000004699707,6|0,3:2|3:2,0:0:0:0:
455,74,39495,2,0,P|465:111|474:162,1,77.0000023498536,2|8,3:2|0:0,0:0:0:0:
321,203,39795,1,0,0:0:0:0:
395,349,39945,2,0,B|471:326|471:326|443:224,2,154.000004699707,6|2|8,3:2|3:2|0:0,0:0:0:0:
85,349,40845,6,0,P|165:359|196:364,1,77.0000023498536,6|0,3:2|0:2,0:2:0:0:
31,219,41145,2,0,P|69:214|108:210,1,77.0000023498536,2|8,3:2|0:2,0:2:0:0:
63,128,41445,1,2,3:2:0:0:
63,128,41595,1,8,0:2:0:0:
11,18,41745,2,0,B|109:27|109:27|140:34,1,115.50000352478,2|0,3:2|3:2,0:2:0:0:
158,51,42045,1,8,0:2:0:0:
270,22,42195,1,0,3:2:0:0:
281,136,42345,1,8,0:2:0:0:
270,22,42495,1,0,3:2:0:0:
172,168,42645,6,0,B|188:217|194:262,1,77.0000023498536,6|0,3:2|0:0,0:2:0:0:
48,117,42945,2,0,B|32:166|26:211,1,77.0000023498536,2|8,3:2|0:2,0:0:0:0:
278,180,43245,1,2,3:2:0:0:
278,180,43395,1,8,0:2:0:0:
380,76,43545,2,0,B|392:123|403:187|403:187|394:223,1,115.50000352478,2|0,3:2|0:2,0:2:0:0:
391,226,43845,1,8,0:2:0:0:
391,226,44145,1,8,0:2:0:0:
281,150,44445,5,8,0:0:0:0:
281,150,44520,1,8,0:0:0:0:
281,150,44595,1,8,0:3:0:0:
281,150,44670,1,8,0:3:0:0:
281,150,44745,2,0,L|275:201,3,38.5000011749268,8|8|8|8,0:3|0:3|0:3|0:3,0:0:0:0:
341,101,45045,5,14,0:0:0:0:
410,136,45195,1,12,0:0:0:0:
471,89,45345,2,0,P|466:39|464:-14,1,77.0000023498536,14|8,0:0|0:0,0:0:0:0:
495,212,45645,1,8,0:0:0:0:
495,212,45795,1,8,0:0:0:0:
410,250,45945,1,10,0:0:0:0:
481,309,46095,1,8,0:0:0:0:
348,376,46245,5,14,0:0:0:0:
283,311,46395,2,0,P|296:252|303:214,1,77.0000023498536,0|0,3:0|3:0,0:0:0:0:
263,74,46695,2,0,B|194:106|194:106|229:175,1,154.000004699707,8|8,0:0|0:0,0:0:0:0:
387,253,47145,2,0,P|444:238|485:225,1,77.0000023498536,6|0,3:2|3:2,0:0:0:0:
434,145,47445,2,0,P|398:156|360:166,1,77.0000023498536,10|0,0:0|3:2,0:0:0:0:
374,74,47745,1,10,0:0:0:0:
374,74,47895,1,0,3:2:0:0:
247,20,48045,5,10,0:0:0:0:
247,20,48120,1,8,0:0:0:0:
247,20,48195,1,8,0:3:0:0:
247,20,48270,1,8,0:3:0:0:
247,20,48345,2,0,L|298:22,3,38.5000011749268,8|8|8|8,0:3|0:3|0:3|0:3,0:0:0:0:
199,83,48645,5,12,0:0:0:0:
148,25,48795,1,12,0:0:0:0:
82,63,48945,2,0,P|87:116|92:152,1,77.0000023498536,14|8,0:0|0:0,0:0:0:0:
153,254,49245,1,8,0:0:0:0:
153,254,49395,1,10,0:0:0:0:
93,325,49545,1,8,0:0:0:0:
37,252,49695,1,8,0:0:0:0:
109,101,49845,6,0,P|104:162|101:198,1,77.0000023498536,14|0,0:0|3:2,0:0:0:0:
23,129,50145,1,0,3:2:0:0:
171,14,50295,1,10,0:0:0:0:
245,68,50445,2,0,P|283:64|321:61,1,77.0000023498536,8|0,0:0|3:2,0:0:0:0:
205,159,50745,5,10,0:0:0:0:
205,159,50895,1,0,3:2:0:0:
257,234,51045,1,0,3:2:0:0:
280,238,51120,1,0,3:2:0:0:
303,241,51195,1,0,3:2:0:0:
326,244,51270,1,0,3:2:0:0:
350,247,51345,2,0,P|416:258|451:265,1,77.0000023498536,8|0,0:0|3:2,0:0:0:0:
463,167,51645,5,8,0:0:0:0:
463,167,51720,1,8,0:0:0:0:
463,167,51795,1,8,0:3:0:0:
463,167,51870,1,8,0:3:0:0:
463,167,51945,2,0,P|499:145|507:146,3,38.5000011749268,8|8|8|8,0:3|0:3|0:3|0:3,0:0:0:0:
349,79,52245,5,14,0:0:0:0:
285,121,52395,1,12,0:0:0:0:
224,74,52545,2,0,B|232:51|235:17|235:17|223:-10,1,77.0000023498536,14|8,0:0|0:0,0:0:0:0:
98,137,52845,1,8,0:0:0:0:
98,137,52995,1,8,0:0:0:0:
78,46,53145,1,10,0:0:0:0:
34,198,53295,1,8,0:0:0:0:
184,161,53445,6,0,L|209:313,1,154.000004699707,14|0,0:0|3:0,0:0:0:0:
129,359,53895,1,8,0:0:0:0:
287,382,54045,2,0,P|341:375|385:374,1,77.0000023498536,2|8,3:2|0:0,0:0:0:0:
375,211,54345,2,0,P|361:247|344:282,1,77.0000023498536,6|0,3:2|3:2,0:0:0:0:
435,316,54645,1,10,0:0:0:0:
435,316,54795,1,0,3:2:0:0:
278,208,54945,2,0,P|239:211|201:217,1,77.0000023498536,10|0,0:0|3:2,0:0:0:0:
175,339,55245,5,10,0:0:0:0:
175,339,55320,1,8,0:0:0:0:
175,339,55395,1,8,0:3:0:0:
175,339,55470,1,8,0:3:0:0:
175,339,55545,2,0,L|115:332,3,38.5000011749268,8|8|8|8,0:3|0:3|0:3|0:3,0:0:0:0:
68,378,55845,5,12,0:0:0:0:
3,321,55995,1,12,0:0:0:0:
40,253,56145,2,0,P|26:197|20:169,1,77.0000023498536,14|8,0:0|0:0,0:0:0:0:
141,24,56445,1,8,0:0:0:0:
141,24,56595,1,10,0:0:0:0:
188,103,56745,1,8,0:0:0:0:
42,36,56895,1,8,0:0:0:0:
256,16,57045,5,14,0:0:0:0:
319,83,57195,2,0,P|315:150|315:181,1,77.0000023498536,0|0,3:2|3:2,0:0:0:0:
456,140,57495,1,8,0:0:0:0:
411,58,57645,1,8,0:0:0:0:
456,140,57795,1,0,3:2:0:0:
338,257,57945,6,0,P|277:245|239:241,1,77.0000023498536,14|0,0:0|3:2,0:0:0:0:
188,353,58245,1,12,0:0:0:0:
114,331,58395,1,8,0:0:0:0:
142,154,58545,5,12,0:0:0:0:
167,258,58695,1,8,0:0:0:0:
18,361,58845,6,0,B|37:268|37:268|25:238|25:238|49:128,1,231.000007049561,6|0,3:2|0:0,0:0:0:0:
69,62,59445,1,8,0:0:0:0:
190,157,59745,2,0,P|257:142|286:138,1,77.0000023498536,2|0,3:2|0:0,0:0:0:0:
321,193,60045,2,0,P|384:184|387:93,1,154.000004699707,2|0,3:2|0:0,0:0:0:0:
417,333,60645,6,0,B|308:295|308:295|245:361|245:361|116:323,1,308.000009399414,10|4,0:0|3:2,0:0:0:0:
31,231,61545,2,0,L|45:144,1,77.0000023498536,2|0,0:0|0:0,0:0:0:0:
60,79,61845,1,10,0:0:0:0:
330,225,62445,6,0,P|365:237|408:207,1,77.0000023498536,14|0,0:0|3:0,0:0:0:0:
389,65,62745,2,0,P|354:53|311:83,1,77.0000023498536,8|0,0:0|3:0,0:0:0:0:
363,144,63045,1,8,0:0:0:0:
363,144,63195,1,0,3:0:0:0:
451,136,63345,5,10,0:0:0:0:
276,155,63495,1,0,3:0:0:0:
451,136,63645,1,8,0:0:0:0:
294,253,63795,2,0,P|241:240|204:231,1,77.0000023498536,2|8,3:2|0:0,0:0:0:0:
249,73,64095,1,0,3:0:0:0:
341,72,64245,6,0,P|351:129|364:183,1,77.0000023498536,14|0,0:0|3:0,0:0:0:0:
158,92,64545,2,0,P|165:54|172:16,1,77.0000023498536,8|0,0:0|3:0,0:0:0:0:
71,46,64845,1,8,0:0:0:0:
71,46,64995,1,0,3:0:0:0:
140,195,65145,6,0,P|198:179|219:178,1,77.0000023498536,10|0,0:0|3:0,0:0:0:0:
285,237,65445,1,8,0:0:0:0:
353,175,65595,1,0,3:0:0:0:
308,94,65745,1,8,0:0:0:0:
336,306,65895,1,0,3:0:0:0:
451,214,66045,6,0,L|435:54,1,154.000004699707,6|0,3:2|0:0,0:0:0:0:
509,4,66495,1,2,3:2:0:0:
451,214,66645,1,8,0:0:0:0:
276,43,66945,1,2,3:2:0:0:
276,43,67245,1,4,0:0:0:0:
32,243,67845,6,0,B|107:202|107:202|181:355,2,251.999992309571,6|6|6,3:2|3:2|3:2,0:0:0:0:
40,37,69645,6,0,P|102:49|128:55,1,83.9999974365235,14|0,0:0|3:0,0:0:0:0:
174,139,69945,2,0,P|224:132|261:130,1,83.9999974365235,8|0,0:0|3:0,0:0:0:0:
339,70,70245,1,8,0:0:0:0:
393,233,70395,1,0,3:0:0:0:
471,169,70545,6,0,P|463:105|458:73,1,83.9999974365235,10|0,0:0|3:0,0:0:0:0:
315,297,70845,2,0,P|323:361|328:393,1,83.9999974365235,8|0,0:0|3:0,0:0:0:0:
465,302,71145,1,8,0:0:0:0:
465,302,71295,1,0,3:0:0:0:
317,165,71445,6,0,P|271:157|211:146,1,83.9999974365235,14|0,0:0|3:0,0:0:0:0:
188,60,71745,2,0,P|146:67|105:74,1,83.9999974365235,8|0,0:0|3:0,0:0:0:0:
397,108,72045,2,0,P|414:175|422:205,1,83.9999974365235,8|0,0:0|3:0,0:0:0:0:
344,295,72345,5,14,0:0:0:0:
344,295,72495,1,8,0:0:0:0:
290,370,72645,5,8,0:0:0:0:
274,232,72795,1,8,0:0:0:0:
199,335,72945,5,8,0:0:0:0:
249,152,73095,1,8,0:0:0:0:
26,34,75045,6,0,P|78:49|114:59,1,70,4|0,1:2|0:0,0:0:0:0:
139,139,75473,2,0,P|183:130|227:123,1,70
248,98,75795,1,0,0:0:0:0:
248,98,75902,2,0,B|242:148|241:182,1,70,2|0,0:3|0:0,0:0:0:0:
333,8,76330,6,0,P|352:71|364:164,2,140,2|2|2,0:3|0:3|0:3,0:0:0:0:
483,228,77402,1,0,0:0:0:0:
483,228,77509,1,0,0:0:0:0:
483,228,77616,2,0,P|438:260|384:218,1,105,2|0,0:3|0:0,0:0:0:0:
370,217,78045,6,0,P|317:208|288:205,1,70,2|0,0:3|0:0,0:0:0:0:
264,296,78473,2,0,P|208:300|171:300,1,70,2|0,0:3|0:0,0:0:0:0:
121,374,78902,2,0,P|105:306|100:287,1,70,2|0,0:3|0:0,0:0:0:0:
0,384,79330,2,0,P|16:316|21:297,1,70,2|0,0:3|0:0,0:0:0:0:
11,217,79759,1,2,0:3:0:0:
215,323,79973,1,0,3:0:0:0:
148,251,80187,6,0,B|207:212|207:212|297:254,1,140,2|2,0:3|0:3,0:0:0:0:
352,295,80830,1,0,0:0:0:0:
415,220,81045,2,0,P|436:258|452:301,1,70,2|0,0:3|0:0,0:0:0:0:
444,133,81473,6,0,B|363:111|395:164|307:139,1,140,2|2,0:3|0:3,0:0:0:0:
249,80,82116,1,0,0:0:0:0:
351,12,82330,1,2,0:3:0:0:
308,139,82545,1,0,0:0:0:0:
183,22,82759,6,0,L|99:37,1,70,2|0,0:3|0:0,0:0:0:0:
24,113,83187,2,0,P|35:180|42:239,1,105,2|0,0:3|0:0,0:0:0:0:
32,251,83616,1,2,0:3:0:0:
159,184,83830,1,0,0:0:0:0:
107,325,84045,1,2,0:3:0:0:
58,153,84259,5,4,0:3:0:0:
58,153,84473,1,6,0:3:0:0:
58,153,84687,1,4,0:3:0:0:
58,153,84902,1,6,0:3:0:0:
58,153,85116,2,0,L|51:102,1,35,4|4,0:3|0:3,0:0:0:0:
139,24,85330,6,0,P|212:8|233:7,1,70,4|0,1:2|0:0,0:0:0:0:
297,118,85759,2,0,P|263:108|229:103,1,70,2|0,0:3|0:0,0:0:0:0:
145,206,86187,2,0,P|156:275|169:368,1,140,2|2,0:3|0:3,0:0:0:0:
277,312,86830,1,0,0:0:0:0:
277,312,86937,1,0,0:0:0:0:
277,312,87045,2,0,P|264:375|259:404,1,70,2|0,0:3|0:0,0:0:0:0:
350,247,87473,2,0,P|364:294|364:337,1,70,2|0,0:3|0:0,0:0:0:0:
261,203,87902,5,2,0:3:0:0:
261,203,88116,1,0,0:0:0:0:
330,133,88330,2,0,L|405:144,1,70,2|0,0:3|0:0,0:0:0:0:
340,34,88759,2,0,L|265:45,1,70,2|0,0:3|0:0,0:0:0:0:
141,10,89187,6,0,B|103:46|103:46|142:143,2,140,2|2|2,0:3|0:3|0:3,0:0:0:0:
404,76,90259,1,0,3:0:0:0:
456,10,90473,2,0,P|436:83|432:170,2,140,2|2|2,0:3|0:3|0:3,0:0:0:0:
442,265,91759,1,2,0:3:0:0:
381,322,91973,2,0,P|310:306|229:292,1,140
177,222,92616,1,2,0:3:0:0:
113,363,92830,1,0,0:0:0:0:
32,307,93045,2,0,P|20:254|8:215,1,70,2|0,0:3|0:0,0:0:0:0:
57,96,93473,6,0,P|112:77|151:162,1,140,2|2,0:3|0:3,0:0:0:0:
101,213,94116,1,0,0:0:0:0:
240,306,94330,1,2,0:3:0:0:
78,366,94545,5,4,0:3:0:0:
78,366,94759,1,6,0:3:0:0:
78,366,94973,1,4,0:3:0:0:
78,366,95187,1,6,0:3:0:0:
78,366,95402,2,0,L|126:372,1,35,4|4,0:3|0:3,0:0:0:0:
222,315,95616,6,0,P|210:253|200:216,1,70,4|0,1:2|0:0,0:0:0:0:
344,310,96045,2,0,P|336:344|330:378,1,70,2|0,3:0|3:0,0:0:0:0:
304,217,96473,2,0,B|362:198|362:198|394:213,1,70,2|0,3:0|3:0,0:0:0:0:
448,297,96902,5,2,3:0:0:0:
448,297,97116,1,0,3:0:0:0:
482,142,97330,1,2,3:0:0:0:
482,142,97545,1,0,3:0:0:0:
393,210,97759,1,2,3:0:0:0:
296,195,97973,1,0,3:0:0:0:
478,124,98187,5,8,0:0:0:0:
447,319,98402,1,0,3:0:0:0:
267,194,98616,1,8,0:0:0:0:
495,233,98830,1,0,3:0:0:0:
277,308,99045,1,8,0:0:0:0:
310,97,99259,1,0,3:0:0:0:
413,339,99473,6,0,L|510:352,3,70,2|2|2|2,0:3|0:3|0:3|0:3,0:0:0:0:
329,367,100348,6,0,P|300:288|365:235,1,178.500003404617,6|0,3:2|0:0,0:0:0:0:
450,260,100776,1,8,0:0:0:0:
351,62,100990,2,0,L|48:110,1,297.500005674362,6|0,3:2|0:0,0:0:0:0:
3,180,101633,2,0,B|24:260|46:355|46:355|158:246,1,297.500005674362,14|0,0:2|0:0,0:0:0:0:
200,217,102276,6,0,L|187:142,1,59.5000011348725,6|0,3:2|0:0,0:0:0:0:
175,44,102490,1,8,0:0:0:0:
175,44,102705,1,8,0:0:0:0:
32,90,102919,6,0,L|107:103,1,59.5000011348725,6|0,3:2|0:0,0:0:0:0:
271,7,103133,1,8,0:0:0:0:
271,7,103348,1,8,0:0:0:0:
384,168,103562,6,0,B|371:261|362:379|362:379|322:339|291:321,1,297.500005674362,6|0,3:2|0:0,0:0:0:0:
296,324,104205,6,0,P|219:319|152:312,2,140,4|0|0,1:2|0:0|0:0,0:0:0:0:
389,93,105490,6,0,L|402:153,3,35,12|8|8|8,0:0|0:3|0:3|0:3,0:0:0:0:
311,34,105797,2,0,L|298:94,3,35,8|8|8|8,0:0|0:3|0:3|0:3,0:0:0:0:
234,127,106105,1,8,0:0:0:0:
199,124,106182,1,8,0:3:0:0:
164,121,106259,1,8,0:3:0:0:
129,118,106336,1,8,0:3:0:0:
94,115,106413,6,0,L|33:107,3,35,4|8|8|8,0:3|0:3|0:3|0:3,0:0:0:0:
2,209,106720,2,0,L|63:201,3,35,4|8|8|8,0:3|0:3|0:3|0:3,0:0:0:0:
96,269,107028,1,4,0:3:0:0:
96,283,107105,1,8,0:3:0:0:
96,297,107182,1,8,0:3:0:0:
96,311,107259,1,8,0:3:0:0:
95,325,107336,2,0,L|86:369,3,35,12|8|8|8,0:0|0:3|0:3|0:3,0:0:0:0:
200,305,107643,2,0,L|193:271,3,35,8|8|8|8,0:0|0:3|0:3|0:3,0:0:0:0:
269,374,107951,2,0,P|318:367|335:365,1,35,8|8,0:0|0:3,0:0:0:0:
371,288,108105,2,0,P|322:281|305:279,1,35,8|8,0:3|0:3,0:0:0:0:
278,200,108259,5,4,0:3:0:0:
274,186,108336,1,8,0:3:0:0:
275,172,108413,1,8,0:3:0:0:
280,159,108490,1,8,0:3:0:0:
287,147,108566,2,0,P|298:125|298:105,3,35,4|8|8|8,0:3|0:3|0:3|0:3,0:0:0:0:
388,82,108874,2,0,P|377:60|377:40,3,35,4|8|8|8,0:3|0:3|0:3|0:3,0:0:0:0:
477,26,109182,6,0,B|492:95|501:171|501:171|474:242,1,178.500003404617,6|0,3:2|0:0,0:0:0:0:
438,273,109610,1,8,0:0:0:0:
299,86,109824,2,0,P|220:78|265:256,1,297.500005674362,6|0,3:2|0:0,0:0:0:0:
297,267,110467,2,0,B|377:238|496:213|496:213|472:264|447:299,1,297.500005674362,14|0,0:0|0:0,0:0:0:0:
403,368,111110,6,0,P|342:359|305:359,1,59.5000011348725,6|0,3:2|0:0,0:0:0:0:
177,376,111324,1,8,0:0:0:0:
177,376,111539,1,8,0:0:0:0:
372,266,111753,6,0,P|381:205|381:168,1,59.5000011348725,6|0,3:2|0:0,0:0:0:0:
323,92,111967,1,8,0:0:0:0:
323,92,112182,1,8,0:0:0:0:
149,9,112396,6,0,B|30:142|30:142|171:207,1,297.500005674362,6|0,3:2|0:0,0:0:0:0:
138,191,113032,6,0,P|140:239|50:254,2,140,4|0|0,1:2|0:0|0:0,0:0:0:0:
46,47,114317,5,12,0:0:0:0:
80,42,114393,1,8,0:3:0:0:
114,37,114470,1,8,0:3:0:0:
148,32,114547,1,8,0:3:0:0:
182,26,114624,2,0,L|203:78,3,35,8|8|8|8,0:0|0:3|0:3|0:3,0:0:0:0:
289,66,114932,2,0,L|268:118,3,35,8|8|8|8,0:0|0:3|0:3|0:3,0:0:0:0:
367,16,115240,5,0,3:0:0:0:
367,16,115393,1,0,3:0:0:0:
440,75,115547,1,0,3:0:0:0:
440,75,115701,1,0,3:0:0:0:
364,137,115855,1,0,3:0:0:0:
364,137,116009,1,0,3:0:0:0:
443,183,116163,6,0,L|501:172,3,35,12|8|8|8,0:0|0:3|0:3|0:3,0:0:0:0:
385,258,116470,2,0,L|327:247,3,35,8|8|8|8,0:0|0:3|0:3|0:3,0:0:0:0:
457,313,116778,1,8,0:0:0:0:
447,322,116855,1,8,0:3:0:0:
437,332,116932,1,8,0:3:0:0:
427,342,117009,1,8,0:3:0:0:
418,351,117086,6,0,L|362:344,3,35,8|0|8|0,3:0|0:0|3:0|0:0,0:0:0:0:
307,368,117393,1,8,3:0:0:0:
307,368,117547,1,8,3:0:0:0:
261,261,117701,1,8,3:0:0:0:
261,261,117855,1,8,3:0:0:0:
169,357,118009,6,0,P|153:288|147:262,1,70,2|0,0:3|0:0,0:0:0:0:
53,297,118530,2,0,P|69:228|75:202,1,70,2|0,0:0|0:0,0:0:0:0:
10,151,119052,2,0,P|58:99|76:79,1,70,2|0,0:0|0:0,0:0:0:0:
176,11,119574,6,0,P|253:19|343:42,2,140,2|2|2,0:0|0:0|0:0,0:0:0:0:
443,134,121139,6,0,B|460:169|460:169|441:210,1,70,6|0,3:2|0:0,0:0:0:0:
296,303,121399,2,0,B|283:275|283:275|300:240,1,70,4|0,3:2|0:0,0:0:0:0:
455,291,121660,2,0,P|420:286|386:282,1,70,4|0,3:2|0:0,0:0:0:0:
283,145,121921,2,0,P|317:150|352:154,1,70,4|0,3:2|0:0,0:0:0:0:
213,203,122182,2,0,P|191:160|213:125,1,70,4|0,3:2|0:0,0:0:0:0:
422,96,122443,2,0,P|444:139|422:174,1,70,4|0,3:2|0:0,0:0:0:0:
227,297,122704,6,0,P|174:290|138:289,1,70,14|0,0:0|3:0,0:0:0:0:
145,295,122899,1,0,3:0:0:0:
132,301,122965,1,8,0:0:0:0:
68,246,123095,2,0,P|61:186|56:154,1,70,8|0,0:0|3:0,0:0:0:0:
17,103,123356,1,0,3:0:0:0:
65,35,123486,6,0,P|126:29|162:27,1,70,0|0,3:0|3:0,0:0:0:0:
185,169,123747,2,0,P|164:140|144:112,1,70,0|0,3:0|3:0,0:0:0:0:
223,3,124008,1,0,3:0:0:0:
223,3,124139,1,0,3:0:0:0:
301,129,124269,6,0,P|280:207|272:294,2,140,6|0|0,3:2|3:2|3:2,0:0:0:0:
376,78,124921,1,0,3:2:0:0:
435,170,125052,5,10,0:0:0:0:
435,170,125182,2,0,P|480:162|523:156,1,70,0|0,3:2|0:0,0:0:0:0:
346,295,125443,2,0,P|301:287|258:281,1,70,2|0,3:2|0:0,0:0:0:0:
444,264,125704,1,0,3:2:0:0:
321,150,125834,6,0,P|260:157|164:162,1,140,2|0,3:2|3:2,0:0:0:0:
112,102,126225,2,0,P|103:62|142:29,1,70,2|0,0:0|3:2,0:0:0:0:
172,175,126486,1,0,3:2:0:0:
102,234,126617,1,10,0:0:0:0:
102,234,126747,2,0,B|43:218|43:218|3:211,1,70,0|0,3:2|0:0,0:0:0:0:
145,335,127008,2,0,P|217:322|226:237,1,140,2|0,3:2|3:2,0:0:0:0:
191,178,127399,5,4,3:2:0:0:
191,178,127599,1,4,3:2:0:0:
387,134,127799,5,4,3:2:0:0:
387,134,127999,1,4,3:2:0:0:
168,67,128199,5,12,0:0:0:0:
168,67,128399,1,4,3:2:0:0:
338,234,128599,5,4,3:2:0:0:
338,234,128799,1,4,3:2:0:0:
287,11,128999,5,4,3:2:0:0:
287,11,129199,1,4,3:2:0:0:
177,210,129399,5,4,3:2:0:0:
177,210,129599,1,4,3:2:0:0:
379,79,129799,5,12,0:0:0:0:
164,40,129999,1,4,3:2:0:0:
356,180,130199,5,12,0:0:0:0:
172,14,130399,1,4,3:2:0:0:
63,114,130599,6,0,P|71:185|74:266,2,140,6|0|0,3:2|3:2|3:2,0:0:0:0:
9,40,131265,1,0,3:2:0:0:
157,9,131399,1,10,0:0:0:0:
157,9,131532,2,0,P|215:18|251:27,1,70,0|0,3:2|0:0,0:0:0:0:
288,87,131799,2,0,P|322:80|357:75,1,70,0|0,3:2|0:0,0:0:0:0:
430,22,132065,1,0,3:2:0:0:
378,165,132199,6,0,P|399:244|404:329,2,140,0|0|2,3:2|3:2|3:2,0:0:0:0:
290,187,132865,1,0,3:2:0:0:
399,72,132999,1,10,0:0:0:0:
399,72,133132,2,0,P|444:85|485:88,1,70,0|0,3:2|0:0,0:0:0:0:
503,239,133399,2,0,P|458:252|417:255,1,70,0|0,3:2|0:0,0:0:0:0:
361,201,133665,1,0,3:2:0:0:
288,315,133799,6,0,P|226:288|214:221,1,140,2|0,3:2|3:2,0:0:0:0:
317,72,134332,1,0,3:2:0:0:
394,24,134465,1,0,3:2:0:0:
409,137,134599,5,10,0:0:0:0:
409,137,134732,2,0,L|400:208,1,70,0|0,3:2|0:0,0:0:0:0:
478,253,134999,2,0,L|487:324,1,70,0|0,3:2|0:0,0:0:0:0:
412,373,135265,1,0,3:2:0:0:
317,303,135399,2,0,P|250:296|175:289,1,140,0|0,3:2|3:2,0:0:0:0:
39,170,135932,2,0,P|49:119|53:94,1,70,2|0,3:2|3:2,0:0:0:0:
13,18,136199,5,10,0:0:0:0:
13,18,136332,1,0,3:2:0:0:
102,2,136465,1,4,0:3:0:0:
147,81,136599,1,4,0:3:0:0:
218,16,136732,5,8,3:2:0:0:
184,160,136865,1,8,3:2:0:0:
234,235,136999,6,0,P|290:218|371:199,2,140,4|2|2,3:2|3:2|3:2,0:0:0:0:
216,324,137665,1,0,3:2:0:0:
106,262,137799,1,10,0:0:0:0:
106,262,137932,2,0,P|95:307|91:340,1,70,0|0,3:2|0:0,0:0:0:0:
211,220,138199,2,0,P|205:185|196:151,1,70,0|0,3:2|0:0,0:0:0:0:
127,92,138465,1,0,3:2:0:0:
221,18,138599,6,0,L|296:37,1,70,0|0,3:2|0:0,0:0:0:0:
382,100,138865,2,0,P|424:51|508:49,1,140,2|2,3:2|3:2,0:0:0:0:
472,132,139265,1,0,3:2:0:0:
386,216,139399,1,10,0:0:0:0:
386,216,139532,2,0,P|403:273|410:313,1,70,0|0,3:2|0:0,0:0:0:0:
297,157,139799,2,0,P|280:214|273:254,1,70,0|0,3:2|0:0,0:0:0:0:
187,177,140065,1,0,3:2:0:0:
187,177,140199,6,0,P|111:166|39:162,1,140,6|0,3:2|3:2,0:0:0:0:
8,79,140728,1,0,0:0:0:0:
37,254,140904,1,2,3:2:0:0:
37,254,141257,2,0,L|27:304,4,35,2|2|2|2|0,3:3|0:3|0:3|0:3|3:2,0:0:0:0:
120,292,141787,2,0,P|165:278|261:274,1,140,2|0,0:0|0:0,0:0:0:0:
300,193,142316,2,0,P|360:222|385:279,1,105,2|0,3:2|0:0,0:0:0:0:
386,279,142669,1,0,3:2:0:0:
459,214,142846,2,0,P|478:254|483:302,1,70,0|2,0:0|3:2,0:0:0:0:
450,74,143199,6,0,B|392:66|392:66|372:79|372:79|292:69,1,140,2|0,0:3|0:0,0:0:0:0:
238,20,143728,2,0,P|171:26|149:82,1,105,2|0,3:2|0:0,0:0:0:0:
150,81,144081,1,0,3:2:0:0:
212,147,144257,1,0,0:0:0:0:
58,93,144434,1,2,3:2:0:0:
58,93,144787,2,0,L|47:133,4,35,2|2|2|2|2,3:3|0:3|0:3|0:3|3:3,0:0:0:0:
13,200,145316,2,0,B|21:257|21:257|36:344,1,140,2|0,0:0|0:0,0:0:0:0:
121,367,145846,6,0,P|164:365|190:329,1,70,2|0,3:2|0:0,0:0:0:0:
189,320,146110,1,0,0:0:0:0:
189,320,146199,1,0,3:2:0:0:
278,339,146375,2,0,P|273:282|253:259,1,70,0|2,0:0|3:2,0:0:0:0:
152,216,146728,1,2,0:3:0:0:
152,216,146816,1,2,0:3:0:0:
152,216,146904,2,0,L|79:206,1,70,0|0,3:2|0:0,0:0:0:0:
15,106,147257,5,14,3:2:0:0:
22,73,147346,1,0,0:0:0:0:
42,47,147434,1,0,3:0:0:0:
72,31,147522,1,0,3:0:0:0:
105,28,147610,1,8,3:2:0:0:
176,74,147787,1,8,0:0:0:0:
296,19,147963,2,0,P|287:86|282:187,1,167.999994873047,10|2,3:2|3:3,0:0:0:0:
299,215,148404,1,2,0:3:0:0:
321,240,148493,2,0,P|313:290|311:309,1,41.9999987182618,2|2,0:3|0:3,0:0:0:0:
249,339,148669,1,2,3:3:0:0:
249,339,148846,6,0,P|180:307|99:367,1,167.999994873047,10|8,0:0|0:0,0:0:0:0:
34,192,149375,2,0,P|95:198|114:226,1,83.9999974365235,10|8,3:2|0:0,0:0:0:0:
103,245,149640,1,8,0:0:0:0:
103,245,149728,1,8,3:2:0:0:
46,98,149904,1,8,0:0:0:0:
136,34,150081,1,8,3:3:0:0:
169,37,150169,1,8,0:3:0:0:
202,40,150257,1,8,0:3:0:0:
235,43,150346,1,8,0:3:0:0:
268,46,150434,6,0,P|310:34|320:33,1,41.9999987182618,8|8,3:3|0:0,0:0:0:0:
402,83,150610,1,8,0:0:0:0:
402,83,150699,1,8,0:0:0:0:
402,83,150787,6,0,L|408:130,3,41.9999987182618,8|8|8|8,3:3|0:3|0:3|0:3,0:0:0:0:
491,155,151140,2,0,L|483:199,3,41.9999987182618,4|4|4|8,3:3|0:3|0:3|0:0,0:0:0:0:
400,240,151493,2,0,P|333:220|224:205,1,167.999994873047,10|2,3:2|3:3,0:0:0:0:
206,222,151934,1,2,0:3:0:0:
178,240,152022,2,0,L|121:231,1,41.9999987182618,2|2,0:3|0:3,0:0:0:0:
57,184,152199,1,2,3:3:0:0:
57,184,152375,2,0,B|51:257|51:257|28:287|28:287|23:376,1,167.999994873047,10|8,0:0|0:0,0:0:0:0:
142,376,152904,6,0,P|203:359|236:358,1,83.9999974365235,10|8,3:2|0:0,0:0:0:0:
241,329,153169,1,8,0:0:0:0:
241,329,153257,1,8,3:2:0:0:
178,234,153434,1,8,0:0:0:0:
327,277,153610,6,0,P|336:335|339:365,1,83.9999974365235,12|0,0:0|3:0,0:0:0:0:
355,187,153873,2,0,P|353:245|351:275,1,83.9999974365235,8|0,0:0|3:0,0:0:0:0:
398,103,154138,2,0,P|386:160|379:189,1,83.9999974365235,8|0,0:0|3:0,0:0:0:0:
455,28,154403,2,0,P|433:82|421:110,1,83.9999974365235,8|0,0:0|3:0,0:0:0:0:
484,211,154667,5,0,1:0:0:0:
120,71,159842,5,4,3:2:0:0:
256,192,160003,12,4,161136,3:2:0:0:
63,43,162106,5,10,0:0:0:0:
63,43,162429,6,0,P|114:26|200:16,2,125.999996154785,6|2|10,3:2|3:2|0:0,0:0:0:0:
37,76,162996,2,0,P|42:151|42:194,1,83.9999974365235,0|0,3:2|3:2,0:0:0:0:
112,238,163320,1,0,3:2:0:0:
112,238,163401,2,0,P|149:231|169:228,1,41.9999987182618,10|0,0:0|0:0,0:0:0:0:
201,168,163564,2,0,P|221:171|242:175,1,41.9999987182618,2|0,3:2|0:0,0:0:0:0:
309,229,163726,6,0,P|352:208|352:156,1,83.9999974365235,6|0,3:2|0:0,0:0:0:0:
350,134,163969,2,0,P|351:88|352:49,1,83.9999974365235,2|0,3:2|3:2,0:0:0:0:
387,27,164212,1,10,0:0:0:0:
387,27,164293,1,0,3:2:0:0:
254,22,164456,1,0,3:2:0:0:
134,19,164618,1,0,3:2:0:0:
134,19,164699,2,0,B|131:65|131:65|138:84|138:84|134:157,1,125.999996154785,10|0,0:0|0:0,0:0:0:0:
105,173,165023,6,0,P|189:161|264:152,2,125.999996154785,6|2|10,3:2|3:2|0:0,0:0:0:0:
75,204,165591,1,8,0:0:0:0:
137,330,165753,1,0,3:2:0:0:
137,330,165834,1,0,0:0:0:0:
137,330,165915,1,0,3:2:0:0:
137,330,165996,2,0,P|192:320|208:318,1,41.9999987182618,10|0,0:0|0:0,0:0:0:0:
241,261,166158,2,0,P|261:264|282:268,1,41.9999987182618,2|0,3:2|0:0,0:0:0:0:
340,346,166320,6,0,P|401:321|404:307,1,83.9999974365235,6|0,3:2|0:0,0:0:0:0:
390,270,166564,2,0,L|384:180,1,83.9999974365235,2|0,3:2|3:2,0:0:0:0:
372,145,166807,2,0,L|385:89,1,41.9999987182618,10|0,0:0|3:2,0:0:0:0:
298,89,166969,2,0,L|285:33,1,41.9999987182618,0|0,0:0|3:2,0:0:0:0:
248,162,167131,2,0,L|208:120,1,41.9999987182618,0|0,0:0|3:2,0:0:0:0:
156,59,167293,6,0,L|85:50,2,55.9999982910157,10|8|8,0:0|0:3|0:3,0:0:0:0:
32,3,167618,6,0,B|67:52|67:52|43:165,1,167.999994873047,6|2,3:2|0:0,0:0:0:0:
35,198,168023,1,0,3:2:0:0:
35,198,168104,2,0,L|90:184,1,41.9999987182618,8|0,0:0|3:2,0:0:0:0:
139,257,168266,2,0,P|210:263|240:269,1,83.9999974365235,2|0,0:0|0:0,0:0:0:0:
186,166,168591,1,10,0:0:0:0:
181,350,168753,1,0,3:2:0:0:
334,253,168915,6,0,P|328:198|317:123,2,125.999996154785,6|0|8,3:2|3:2|0:0,0:0:0:0:
403,332,169564,1,2,0:0:0:0:
443,324,169645,1,0,3:2:0:0:
473,295,169726,1,0,0:0:0:0:
481,254,169807,1,0,3:2:0:0:
464,216,169888,1,10,0:0:0:0:
354,156,170050,1,0,0:0:0:0:
460,92,170212,5,4,3:2:0:0:
460,92,171270,1,8,0:0:0:0:
424,88,171359,1,8,0:0:0:0:
389,84,171447,1,8,0:0:0:0:
354,80,171535,1,8,0:0:0:0:
319,76,171623,1,8,0:0:0:0:
319,76,171800,6,0,P|336:127|346:256,1,167.999994873047,4|0,3:2|3:2,0:0:0:0:
446,257,172329,2,0,P|419:327|390:350,1,83.9999974365235,0|0,3:2|0:0,0:0:0:0:
382,344,172594,1,0,3:2:0:0:
382,344,172682,1,8,0:0:0:0:
250,224,172859,1,0,3:2:0:0:
268,195,172947,1,8,0:0:0:0:
291,170,173035,2,0,L|383:163,1,83.9999974365235,0|0,3:2|0:0,0:0:0:0:
404,147,173300,1,0,3:2:0:0:
404,147,173388,1,8,0:0:0:0:
257,69,173653,1,8,0:0:0:0:
257,69,173741,2,0,P|197:59|112:50,1,125.999996154785,0|0,3:2|3:2,0:0:0:0:
101,65,174094,2,0,P|106:136|112:221,1,125.999996154785,8|0,0:0|0:0,0:0:0:0:
110,224,174447,1,0,3:2:0:0:
202,282,174623,6,0,P|251:272|260:197,1,125.999996154785,2|8,3:3|0:0,0:0:0:0:
241,181,174976,1,0,3:2:0:0:
291,359,175153,2,0,P|360:346|446:345,1,125.999996154785,2|0,3:3|3:0,0:0:0:0:
435,316,175506,2,0,P|454:250|433:223,1,83.9999974365235,8|0,0:0|0:0,0:0:0:0:
423,218,175770,1,0,3:0:0:0:
423,218,175859,1,0,3:0:0:0:
129,328,176123,1,0,3:2:0:0:
129,328,176212,2,0,P|117:267|98:189,1,125.999996154785,8|8,0:0|0:0,0:0:0:0:
70,195,176564,2,0,P|59:145|89:116,1,83.9999974365235,0|0,3:2|0:0,0:0:0:0:
108,109,176829,1,0,3:2:0:0:
108,109,176917,1,8,0:0:0:0:
186,59,177094,2,0,L|176:5,1,41.9999987182618,8|8,0:0|0:0,0:0:0:0:
268,90,177270,6,0,P|253:152|249:220,1,125.999996154785,6|2,3:2|3:2,0:0:0:0:
274,235,177623,1,8,0:0:0:0:
354,171,177800,1,2,0:0:0:0:
354,171,177888,1,0,0:0:0:0:
354,171,177976,1,2,3:2:0:0:
220,159,178153,2,0,P|167:149|72:132,1,125.999996154785,2|8,3:3|0:0,0:0:0:0:
62,130,178506,1,0,3:2:0:0:
94,307,178682,2,0,P|135:292|142:234,1,83.9999974365235,0|0,3:2|0:0,0:0:0:0:
126,230,178947,1,0,3:2:0:0:
126,230,179035,1,8,0:0:0:0:
9,355,179212,1,0,0:0:0:0:
229,323,179388,6,0,P|314:336|367:351,1,125.999996154785,0|0,3:2|3:2,0:0:0:0:
382,329,179741,1,8,0:0:0:0:
327,244,179917,1,0,0:0:0:0:
426,225,180094,2,0,P|431:161|441:91,1,125.999996154785,0|0,3:2|3:2,0:0:0:0:
456,70,180447,1,8,0:0:0:0:
337,13,180623,2,0,L|349:60,1,41.9999987182618,0|8,0:0|0:0,0:0:0:0:
264,104,180800,6,0,P|213:93|226:22,1,125.999996154785,2|2,3:2|3:2,0:0:0:0:
247,18,181153,1,8,0:0:0:0:
347,137,181329,1,2,0:0:0:0:
252,196,181506,1,2,3:2:0:0:
390,222,181682,2,0,B|383:269|383:269|372:356,1,125.999996154785,2|8,0:3|0:0,0:0:0:0:
404,358,182035,1,0,3:2:0:0:
499,201,182212,2,0,L|481:310,1,83.9999974365235,2|0,3:3|0:0,0:0:0:0:
495,314,182476,1,0,3:2:0:0:
495,314,182564,1,8,0:0:0:0:
420,139,182741,1,0,0:0:0:0:
420,139,182829,1,0,3:2:0:0:
420,139,182917,2,0,P|351:124|283:109,1,125.999996154785,0|0,3:2|3:2,0:0:0:0:
263,115,183270,1,8,0:0:0:0:
213,30,183447,1,0,0:0:0:0:
113,170,183623,6,0,P|55:179|25:182,1,83.9999974365235,12|0,0:2|0:0,0:0:0:0:
203,198,183887,2,0,P|144:196|114:194,1,83.9999974365235,12|0,0:0|0:0,0:0:0:0:
287,241,184152,2,0,P|229:229|200:222,1,83.9999974365235,12|0,0:0|0:0,0:0:0:0:
362,298,184417,2,0,P|307:276|279:264,1,83.9999974365235,12|0,0:0|0:0,0:0:0:0:
233,89,184681,5,2,1:2:0:0:
233,89,185402,2,0,P|172:66|81:45,2,157.500006008148,2|2|2,0:0|0:0|0:0,0:0:0:0:
379,218,187562,6,0,P|432:211|472:209,1,70,6|0,3:2|0:0,0:0:0:0:
318,366,187829,2,0,P|265:359|225:357,1,70,4|0,3:2|0:0,0:0:0:0:
448,298,188097,2,0,B|463:330|463:330|444:365,1,70,4|0,3:2|0:0,0:0:0:0:
267,270,188365,2,0,B|252:238|252:238|271:203,1,70,4|0,3:2|0:0,0:0:0:0:
229,377,188633,2,0,P|194:377|170:353,1,70,4|0,3:2|0:0,0:0:0:0:
274,116,188901,2,0,P|308:115|332:139,1,70,4|0,3:2|0:0,0:0:0:0:
143,211,189169,6,0,B|139:155|134:117,1,70,8|0,0:0|3:0,0:0:0:0:
120,117,189370,1,0,3:0:0:0:
120,117,189437,1,8,0:0:0:0:
163,38,189570,2,0,P|223:31|255:29,1,70,8|8,0:0|0:0,0:0:0:0:
81,3,189838,1,0,3:0:0:0:
21,81,189972,2,0,B|34:147|34:147|34:180,1,70,0|0,3:0|3:0,0:0:0:0:
121,232,190240,2,0,B|108:298|108:298|108:301,1,70,0|0,3:0|3:0,0:0:0:0:
26,239,190508,1,0,3:0:0:0:
26,239,190642,1,0,3:2:0:0:
133,128,190776,6,0,P|222:150|278:159,2,140,6|0|0,3:2|3:2|3:2,0:0:0:0:
84,50,191445,1,0,3:2:0:0:
201,182,191579,1,10,0:0:0:0:
201,182,191713,2,0,P|213:249|217:275,1,70,0|0,3:2|0:0,0:0:0:0:
350,211,191981,2,0,P|355:176|362:142,1,70,2|0,3:2|0:0,0:0:0:0:
310,66,192249,1,0,3:2:0:0:
412,13,192383,6,0,P|468:19|478:107,1,140,2|0,3:2|3:2,0:0:0:0:
444,172,192785,2,0,P|455:235|463:264,1,70,2|0,0:0|3:2,0:0:0:0:
320,247,193053,1,0,3:2:0:0:
410,350,193187,1,10,0:0:0:0:
410,350,193320,2,0,L|488:337,1,70,0|0,3:2|0:0,0:0:0:0:
309,268,193588,2,0,L|231:255,2,70,2|0|0,3:2|0:0|3:2,0:0:0:0:
377,181,193980,5,4,3:2:0:0:
377,181,194180,1,4,3:2:0:0:
209,90,194380,5,4,3:2:0:0:
209,90,194580,1,4,3:2:0:0:
386,39,194780,5,12,0:0:0:0:
386,39,194980,1,4,3:2:0:0:
262,199,195180,5,4,3:2:0:0:
262,199,195380,1,4,3:2:0:0:
452,121,195580,5,4,3:2:0:0:
452,121,195780,1,4,3:2:0:0:
239,64,195980,5,4,3:2:0:0:
239,64,196180,1,4,3:2:0:0:
373,238,196380,5,12,0:0:0:0:
365,42,196580,1,4,3:2:0:0:
270,247,196780,5,12,0:0:0:0:
378,66,196980,1,4,3:2:0:0:
240,4,197180,6,0,L|92:20,2,140,6|0|2,3:2|3:2|3:2,0:0:0:0:
290,79,197846,1,0,3:2:0:0:
163,162,197980,1,10,0:0:0:0:
163,162,198113,2,0,P|178:222|179:244,1,70,0|0,3:2|0:0,0:0:0:0:
74,319,198380,2,0,P|79:285|90:252,1,70,0|0,3:2|0:0,0:0:0:0:
261,176,198646,1,0,3:2:0:0:
270,277,198780,6,0,P|253:315|158:311,2,140,0|0|2,3:2|3:2|3:2,0:0:0:0:
192,229,199446,1,0,3:2:0:0:
345,189,199580,1,10,0:0:0:0:
345,189,199713,2,0,L|417:203,1,70,0|0,3:2|0:0,0:0:0:0:
475,135,199980,2,0,B|451:48|451:48|396:77,1,140,0|0,3:2|3:2,0:0:0:0:
322,95,200380,5,4,3:2:0:0:
322,95,200580,1,4,3:2:0:0:
400,314,200780,5,4,3:2:0:0:
400,314,200980,1,4,3:2:0:0:
178,222,201180,5,12,0:0:0:0:
178,222,201380,1,4,3:2:0:0:
410,189,201580,5,4,3:2:0:0:
410,189,201780,1,4,3:2:0:0:
242,322,201980,5,4,3:2:0:0:
242,322,202180,1,4,3:2:0:0:
276,118,202380,5,4,3:2:0:0:
276,118,202580,1,4,3:2:0:0:
111,192,202780,5,12,0:0:0:0:
328,231,202980,1,4,3:2:0:0:
163,71,203180,5,12,0:0:0:0:
331,252,203380,1,4,3:2:0:0:
235,363,203580,6,0,P|227:300|210:211,2,140,4|2|2,3:2|3:2|3:2,0:0:0:0:
325,366,204246,1,0,3:2:0:0:
138,297,204380,1,10,0:0:0:0:
138,297,204513,2,0,L|66:284,1,70,0|0,3:2|0:0,0:0:0:0:
182,129,204780,2,0,L|250:141,1,70,0|0,3:2|0:0,0:0:0:0:
158,211,205046,1,0,3:2:0:0:
92,84,205180,6,0,P|144:47|235:43,2,140,0|2|2,3:2|3:2|3:2,0:0:0:0:
47,163,205846,1,0,3:2:0:0:
142,246,205980,1,10,0:0:0:0:
142,246,206113,2,0,L|131:323,1,70,0|0,3:2|0:0,0:0:0:0:
232,383,206380,2,0,L|223:314,2,70,0|0|0,3:2|0:0|3:2,0:0:0:0:
344,356,206780,5,4,3:2:0:0:
344,356,206980,1,4,3:2:0:0:
208,171,207180,5,4,3:2:0:0:
208,171,207380,1,4,3:2:0:0:
432,129,207580,5,12,0:0:0:0:
432,129,207780,1,4,3:2:0:0:
233,296,207980,5,4,3:2:0:0:
233,296,208180,1,4,3:2:0:0:
301,61,208380,5,4,3:2:0:0:
301,61,208580,1,4,3:2:0:0:
450,251,208780,5,4,3:2:0:0:
450,251,208980,1,4,3:2:0:0:
179,168,209180,5,12,0:0:0:0:
433,67,209380,1,4,3:2:0:0:
284,283,209580,5,12,0:0:0:0:
425,41,209780,1,4,3:2:0:0:
507,214,209980,5,4,3:2:0:0:
256,192,210180,12,0,216380,0:0:0:0:
