osu file format v14

[General]
AudioFilename: audio.mp3
AudioLeadIn: 0
PreviewTime: 119443
Countdown: 0
SampleSet: Soft
StackLeniency: 0.6
Mode: 0
LetterboxInBreaks: 0
WidescreenStoryboard: 1

[Editor]
Bookmarks: 97348,101633,115701
DistanceSpacing: 1.3
BeatDivisor: 4
GridSize: 16
TimelineZoom: 1.3

[Metadata]
Title:Missed Injections
TitleUnicode:Missed Injections
Artist:Hail the Sun
ArtistUnicode:Hail the Sun
Creator:Hobbes2
Version:Hard
Source:
Tags:English Rock progressive alternative Wake post hardcore math
BeatmapID:2573712
BeatmapSetID:1236409

[Difficulty]
HPDrainRate:3
CircleSize:3.7
OverallDifficulty:6
ApproachRate:8
SliderMultiplier:1.2
SliderTickRate:1

[Events]
//Background and Video events
0,0,"missed injections.png",0,0
//Break Periods
2,140399,146507
2,154603,159092
//Storyboard Layer 0 (Background)
//Storyboard Layer 1 (Fail)
//Storyboard Layer 2 (Pass)
//Storyboard Layer 3 (Foreground)
//Storyboard Layer 4 (Overlay)
//Storyboard Sound Samples

[TimingPoints]
1263,300,3,2,1,40,1,0
4845,300,3,2,1,40,1,0
4845,-100,3,2,1,60,0,0
30063,-100,3,2,1,40,0,0
30067,300,3,2,1,40,1,0
32445,300,3,2,1,40,1,0
32745,-100,3,2,1,50,0,0
33663,-100,3,2,1,60,0,0
75045,428.571428571429,3,2,1,50,1,0
75045,-83.3333333333333,3,2,1,50,0,0
100348,428.571428571429,3,2,1,60,1,0
100348,-71.4285714285714,3,2,1,60,0,0
104205,-71.4285714285714,3,2,1,50,0,0
105490,307.692307692308,3,2,1,60,1,0
109182,428.571428571429,3,2,1,60,1,0
109182,-71.4285714285714,3,2,1,60,0,0
113032,428.571428571429,3,2,1,50,1,0
114317,307.692307692308,3,2,1,60,1,0
118009,521.739130434783,3,2,1,40,1,0
121139,260.869565217391,3,2,1,60,1,0
121334,-100,3,2,1,5,0,0
121399,-100,3,2,1,60,0,0
121595,-100,3,2,1,5,0,0
121660,-100,3,2,1,60,0,0
121856,-100,3,2,1,5,0,0
121921,-100,3,2,1,60,0,0
122117,-100,3,2,1,5,0,0
122182,-100,3,2,1,60,0,0
122378,-100,3,2,1,5,0,0
122443,-100,3,2,1,60,0,0
122639,-100,3,2,1,5,0,0
122704,-100,3,2,1,60,0,0
127399,400,4,2,1,60,1,0
130599,266.666666666667,3,2,1,60,1,0
140199,352.941176470588,5,2,1,50,1,0
153609,264.705882430796,4,2,1,60,1,0
154667,323.450134770889,4,2,1,60,1,0
162429,324.324324324324,4,2,1,60,1,0
170212,352.941176470588,4,2,1,60,1,0
183623,264.705960207635,4,2,1,60,1,0
184682,480,3,2,1,40,1,0
187562,267.857142857143,3,2,1,60,1,0
187762,-100,3,2,1,5,0,0
187829,-100,3,2,1,60,0,0
188030,-100,3,2,1,5,0,0
188097,-100,3,2,1,60,0,0
188298,-100,3,2,1,5,0,0
188365,-100,3,2,1,60,0,0
188566,-100,3,2,1,5,0,0
188633,-100,3,2,1,60,0,0
188834,-100,3,2,1,5,0,0
188901,-100,3,2,1,60,0,0
189102,-100,3,2,1,5,0,0
189169,-100,3,2,1,60,0,0
193980,400,4,2,1,60,1,0
197180,266.666666666667,3,2,1,60,1,0
200380,400,4,2,1,60,1,0
203580,266.666666666667,3,2,1,60,1,0
206780,400,4,2,1,60,1,0
216380,-100,4,2,1,5,0,0

[Colours]
Combo1 : 203,130,247
Combo2 : 128,255,255
Combo3 : 128,255,128
Combo4 : 255,128,128
Combo5 : 255,170,255

[HitObjects]
48,84,4845,6,0,P|96:40|169:50,1,120,6|0,3:2|3:2,0:0:0:0:
207,98,5295,2,0,P|210:161|213:228,1,120,2|0,3:2|3:0,0:0:0:0:
173,292,5745,1,10,0:0:0:0:
423,319,6195,1,10,0:0:0:0:
345,91,6645,6,0,B|285:80|285:80|253:93|253:93|152:75,1,180,6|2,3:2|3:2,0:0:0:0:
26,286,7545,2,0,P|85:259|116:251,1,90,10|8,0:0|0:0,0:0:0:0:
146,232,7845,2,0,P|192:252|225:265,1,60,8|10,0:0|0:0,0:0:0:0:
284,231,8145,1,8,0:0:0:0:
284,231,8295,1,8,0:0:0:0:
336,296,8445,6,0,P|325:236|369:186,1,120,6|2,3:2|3:2,0:0:0:0:
441,206,8895,1,0,3:2:0:0:
441,206,9045,1,8,0:0:0:0:
352,63,9345,2,0,L|233:48,1,120,6|0,3:2|3:2,0:0:0:0:
167,100,9795,1,2,3:2:0:0:
167,100,9945,1,8,0:0:0:0:
91,250,10245,6,0,P|51:221|28:214,2,60,6|0|2,3:2|0:0|3:2,0:0:0:0:
118,330,10695,2,0,P|128:257|151:191,1,120,2|0,3:2|0:0,0:0:0:0:
203,155,11145,2,0,P|240:176|254:197,1,60,6|0,3:2|0:0,0:0:0:0:
333,173,11445,2,0,P|333:215|322:238,1,60,2|0,3:2|3:2,0:0:0:0:
253,273,11745,1,8,0:0:0:0:
393,364,12045,6,0,P|445:354|468:274,2,120,6|2|2,3:2|3:2|3:2,0:2:0:0:
315,332,12795,1,8,0:2:0:0:
239,368,12945,2,0,P|169:353|134:350,1,90,2|0,3:2|3:2,0:2:0:0:
109,361,13245,1,8,0:2:0:0:
50,301,13395,2,0,P|55:252|58:225,1,60,0|8,3:2|0:2,0:0:0:0:
15,167,13695,1,0,3:2:0:0:
59,95,13845,6,0,P|97:105|143:123,1,60,6|0,3:2|0:2,0:2:0:0:
203,16,14145,2,0,P|174:23|146:33,1,60,2|8,3:2|0:2,0:2:0:0:
200,134,14445,2,0,P|190:162|183:191,1,60,2|8,3:2|0:2,0:2:0:0:
233,258,14745,2,0,P|298:265|330:234,1,90,2|0,3:2|0:2,0:2:0:0:
330,213,15045,1,8,0:2:0:0:
391,56,15345,1,8,0:2:0:0:
481,197,15645,5,8,0:0:0:0:
481,197,15720,1,8,0:0:0:0:
481,197,15795,1,8,0:3:0:0:
425,260,15945,2,0,P|384:251|351:249,1,60,8|8,0:3|0:3,0:0:0:0:
300,301,16245,1,14,0:0:0:0:
243,238,16395,1,12,0:0:0:0:
170,280,16545,6,0,L|181:364,1,60,14|8,0:0|0:0,0:0:0:0:
95,242,16845,2,0,L|102:182,1,60,8|8,0:0|0:0,0:0:0:0:
169,130,17145,1,10,0:0:0:0:
169,130,17295,1,8,0:0:0:0:
230,214,17445,6,0,B|334:255|309:180|412:228,1,180,14|8,0:0|0:0,0:0:0:0:
468,170,18045,2,0,P|425:131|416:118,1,60,2|8,3:2|0:0,0:0:0:0:
392,51,18345,6,0,P|337:36|310:48,1,60,6|0,3:2|3:2,0:0:0:0:
276,95,18645,1,10,0:0:0:0:
276,95,18795,1,0,3:2:0:0:
195,70,18945,2,0,L|180:-2,1,60,10|0,0:0|3:2,0:0:0:0:
79,31,19245,6,0,P|72:73|70:79,3,30,10|8|8|8,0:0|0:0|0:3|0:3,0:0:0:0:
54,100,19545,2,0,P|56:114|57:129,3,30,8|8|8|8,0:3|0:3|0:3|0:3,0:0:0:0:
75,171,19845,2,0,P|66:208|61:241,1,60,12|12,0:0|0:0,0:0:0:0:
108,306,20145,6,0,P|152:285|183:279,1,60,14|8,0:0|0:0,0:0:0:0:
224,216,20445,1,8,0:0:0:0:
224,216,20595,1,10,0:0:0:0:
293,298,20745,2,0,L|281:374,1,60,8|8,0:0|0:0,0:0:0:0:
392,338,21045,6,0,P|383:270|387:213,1,120,14|0,0:0|3:2,0:0:0:0:
428,136,21495,2,0,P|465:174|488:188,1,60,10|8,0:0|0:0,0:0:0:0:
370,213,21795,1,0,3:2:0:0:
310,151,21945,2,0,P|320:88|322:77,1,60,10|0,0:0|3:2,0:0:0:0:
253,30,22245,1,0,3:2:0:0:
253,30,22320,1,0,3:2:0:0:
253,30,22395,1,0,3:2:0:0:
178,80,22545,2,0,P|138:69|112:65,1,60,8|0,0:0|3:2,0:0:0:0:
86,150,22845,6,0,L|122:157,3,30,8|8|8|8,0:0|0:0|0:3|0:3,0:0:0:0:
149,185,23145,2,0,L|185:178,3,30,8|8|8|8,0:3|0:3|0:3|0:3,0:0:0:0:
210,210,23445,2,0,P|248:200|283:198,1,60,14|12,0:0|0:0,0:0:0:0:
331,133,23745,5,14,0:0:0:0:
331,133,23895,1,8,0:0:0:0:
397,194,24045,2,0,L|386:266,1,60,8|8,0:0|0:0,0:0:0:0:
487,175,24345,2,0,L|477:115,1,60,10|8,0:0|0:0,0:0:0:0:
391,43,24645,6,0,B|316:58|316:58|291:122,1,120,14|0,0:0|3:0,0:0:0:0:
211,110,25095,1,8,0:0:0:0:
211,110,25245,2,0,P|151:88|138:86,1,60,2|8,3:2|0:0,0:0:0:0:
115,170,25545,2,0,P|175:192|188:194,1,60,6|0,3:2|3:2,0:0:0:0:
261,184,25845,1,10,0:0:0:0:
261,184,25995,1,0,3:2:0:0:
234,269,26145,2,0,P|256:329|258:342,1,60,10|0,0:0|3:2,0:0:0:0:
335,367,26445,6,0,L|379:361,3,30,8|8|8|8,0:0|0:0|0:3|0:3,0:0:0:0:
389,325,26745,2,0,L|418:329,3,30,8|8|8|8,0:3|0:3|0:3|0:3,0:0:0:0:
459,347,27045,2,0,P|464:301|466:273,1,60,12|12,0:0|0:0,0:0:0:0:
416,211,27345,6,0,P|366:200|337:194,1,60,14|8,0:0|0:0,0:0:0:0:
408,124,27645,1,8,0:0:0:0:
411,34,27795,2,0,P|361:47|341:48,1,60,10|8,0:0|0:0,0:0:0:0:
302,122,28095,1,8,0:0:0:0:
235,61,28245,6,0,L|221:-3,1,60,14|0,0:0|3:2,0:0:0:0:
132,130,28545,2,0,L|146:66,1,60,2|8,3:2|0:0,0:0:0:0:
54,78,28845,1,10,0:0:0:0:
54,78,28995,1,0,3:2:0:0:
22,183,29145,2,0,P|77:200|91:209,1,60,12|0,0:0|3:2,0:0:0:0:
109,286,29445,1,12,0:0:0:0:
188,244,29595,1,8,0:0:0:0:
226,325,29745,1,12,0:0:0:0:
145,365,29895,1,8,0:0:0:0:
60,66,32445,6,0,L|70:30,3,30,2|2|2|2,0:3|0:3|0:3|0:3,0:0:0:0:
88,93,32745,2,0,L|130:83,11,30,4|4|4|4|4|4|4|4|8|8|8|8,0:3|0:3|0:3|0:3|0:3|0:3|0:3|0:3|0:3|0:3|0:3|0:3,0:0:0:0:
160,97,33645,6,0,P|139:156|125:228,1,120,6|0,3:2|3:2,0:0:0:0:
169,285,34095,2,0,P|248:268|361:263,1,180,0|10,3:2|0:0,0:0:0:0:
484,50,34995,1,8,0:0:0:0:
232,54,35445,6,0,P|258:124|270:183,1,120,6|0,3:2|3:2,0:0:0:0:
205,225,35895,2,0,P|116:209|84:204,1,120,2|0,3:2|3:2,0:0:0:0:
28,143,36345,2,0,P|37:101|91:87,1,90,10|8,0:0|0:0,0:0:0:0:
117,96,36645,1,8,0:0:0:0:
180,41,36795,2,0,P|229:31|261:28,2,60,10|8|8,0:0|0:0|0:0,0:0:0:0:
202,122,37245,6,0,B|202:174|202:174|205:207,1,60,6|0,3:2|0:0,0:0:0:0:
286,184,37545,2,0,P|266:248|256:321,1,120,2|8,3:2|0:0,0:0:0:0:
414,360,38145,6,0,P|459:338|449:262,1,120,6|0,3:2|3:2,0:0:0:0:
386,232,38595,2,0,P|403:159|436:105,1,120,2|0,3:2|0:0,0:0:0:0:
501,84,39045,1,6,3:2:0:0:
345,21,39345,1,0,3:2:0:0:
345,21,39495,2,0,B|298:28|298:28|252:91,1,120,2|0,3:2|0:0,0:0:0:0:
199,149,39945,6,0,P|220:180|229:221,1,60,6|0,3:2|0:0,0:0:0:0:
143,210,40245,2,0,P|129:259|107:285,1,60,2|0,3:2|3:2,0:0:0:0:
58,213,40545,1,8,0:0:0:0:
8,52,40845,6,0,L|149:29,2,120,6|2|2,3:2|3:2|3:2,0:2:0:0:
30,132,41595,1,8,0:2:0:0:
93,186,41745,2,0,P|81:240|74:291,1,90,2|0,3:2|3:2,0:2:0:0:
86,315,42045,1,8,0:2:0:0:
150,368,42195,2,0,P|203:354|218:356,1,60,0|8,3:2|0:2,0:0:0:0:
277,307,42495,1,0,3:2:0:0:
277,307,42645,6,0,B|303:256|303:256|269:182,1,120,6|2,3:2|3:2,0:2:0:0:
204,154,43095,1,8,0:2:0:0:
204,154,43245,2,0,L|216:89,1,60,2|8,3:2|0:2,0:0:0:0:
288,54,43545,1,2,3:2:0:0:
123,21,43845,1,8,0:2:0:0:
288,54,44145,1,8,0:2:0:0:
450,131,44445,6,0,L|444:175,3,30,8|8|8|8,0:0|0:0|0:3|0:3,0:0:0:0:
408,185,44745,2,0,L|412:214,3,30,8|8|8|8,0:3|0:3|0:3|0:3,0:0:0:0:
430,255,45045,2,0,P|384:260|356:262,1,60,14|12,0:0|0:0,0:0:0:0:
314,332,45345,6,0,P|252:297|186:289,1,120,14|8,0:0|0:0,0:0:0:0:
122,326,45795,1,8,0:0:0:0:
122,326,45945,2,0,P|103:273|98:247,1,60,10|8,0:0|0:0,0:0:0:0:
25,221,46245,6,0,P|38:193|123:167,1,120,14|0,0:0|3:0,0:0:0:0:
193,116,46695,1,8,0:0:0:0:
272,157,46845,2,0,P|273:200|272:233,1,60,2|8,3:2|0:0,0:0:0:0:
330,286,47145,2,0,P|379:270|405:269,1,60,6|0,3:2|3:2,0:0:0:0:
331,375,47445,2,0,P|282:359|256:358,1,60,10|0,0:0|3:2,0:0:0:0:
191,322,47745,1,10,0:0:0:0:
191,322,47895,1,0,3:2:0:0:
133,250,48045,6,0,P|144:206|146:201,3,30,10|8|8|8,0:0|0:0|0:3|0:3,0:0:0:0:
111,185,48345,2,0,P|100:141|98:136,3,30,8|8|8|8,0:3|0:3|0:3|0:3,0:0:0:0:
111,111,48645,2,0,B|154:109|154:109|179:106,1,60,12|12,0:0|0:0,0:0:0:0:
231,39,48945,6,0,P|258:81|267:111,1,60,14|8,0:0|0:0,0:0:0:0:
349,108,49245,2,0,P|337:154|329:193,1,60,8|10,0:0|0:0,0:0:0:0:
266,226,49545,1,8,0:0:0:0:
266,226,49695,1,8,0:0:0:0:
330,289,49845,6,0,P|384:277|453:272,1,120,14|0,0:0|3:2,0:0:0:0:
485,189,50295,2,0,B|494:138|494:138|499:103,1,60,10|8,0:0|0:0,0:0:0:0:
442,56,50595,1,0,3:2:0:0:
365,103,50745,2,0,B|366:111|366:111|375:162,1,60,10|0,0:0|3:2,0:0:0:0:
293,200,51045,1,0,3:2:0:0:
293,200,51120,1,0,3:2:0:0:
293,200,51195,1,0,3:2:0:0:
318,286,51345,1,8,0:0:0:0:
142,324,51645,6,0,P|98:313|93:311,3,30,8|8|8|8,0:0|0:0|0:3|0:3,0:0:0:0:
77,346,51945,2,0,P|33:357|28:359,3,30,8|8|8|8,0:3|0:3|0:3|0:3,0:0:0:0:
3,346,52245,2,0,B|1:303|1:303|-2:278,1,60,14|12,0:0|0:0,0:0:0:0:
10,196,52545,6,0,P|43:192|72:185,1,60,14|8,0:0|0:0,0:0:0:0:
85,97,52845,2,0,P|136:109|159:117,1,60,8|8,0:0|0:0,0:0:0:0:
194,185,53145,1,10,0:0:0:0:
194,185,53295,1,8,0:0:0:0:
254,118,53445,6,0,B|275:158|275:158|280:183,2,60,14|0|0,0:0|3:0|3:0,0:0:0:0:
346,110,53895,2,0,P|321:164|304:233,1,120,8|8,0:0|0:0,0:0:0:0:
362,292,54345,1,6,3:2:0:0:
199,369,54645,1,10,0:0:0:0:
199,369,54795,1,0,3:2:0:0:
138,302,54945,2,0,P|145:262|152:221,1,60,10|0,0:0|3:2,0:0:0:0:
171,155,55245,6,0,P|215:166|220:168,3,30,10|8|8|8,0:0|0:0|0:3|0:3,0:0:0:0:
236,133,55545,2,0,P|280:122|285:120,3,30,8|8|8|8,0:3|0:3|0:3|0:3,0:0:0:0:
310,133,55845,2,0,B|312:176|312:176|315:201,1,60,12|12,0:0|0:0,0:0:0:0:
385,247,56145,6,0,L|449:234,1,60,14|8,0:0|0:0,0:0:0:0:
376,332,56445,2,0,L|312:319,1,60,8|10,0:0|0:0,0:0:0:0:
251,381,56745,2,0,L|213:319,1,60,8|8,0:0|0:0,0:0:0:0:
150,271,57045,6,0,P|168:223|249:222,1,120,14|0,0:0|3:2,0:0:0:0:
296,148,57495,1,8,0:0:0:0:
366,203,57645,2,0,P|416:186|442:169,1,60,8|0,0:0|3:2,0:0:0:0:
444,95,57945,5,14,0:0:0:0:
444,95,58095,1,0,3:2:0:0:
374,37,58245,2,0,P|332:26|296:19,1,60,12|8,0:0|0:0,0:0:0:0:
244,77,58545,2,0,P|238:107|230:136,1,60,12|8,0:0|0:0,0:0:0:0:
151,178,58845,6,0,B|145:226|93:299|93:299|157:285|211:283,1,240,6|8,3:2|0:0,0:0:0:0:
362,354,59745,1,2,3:2:0:0:
362,354,60045,2,0,P|373:312|405:240,1,120,2|0,3:2|0:0,0:0:0:0:
488,82,60645,6,0,B|402:65|402:65|362:82|362:82|253:61,1,240,10|4,0:0|3:2,0:0:0:0:
78,94,61545,1,2,0:0:0:0:
78,94,61845,2,0,P|88:139|90:227,1,120,10|0,0:0|0:0,0:0:0:0:
203,353,62445,6,0,P|235:345|264:338,1,60,14|0,0:0|3:0,0:0:0:0:
324,273,62745,1,8,0:0:0:0:
410,296,62895,2,0,P|422:345|431:375,2,60,0|8|0,3:0|0:0|3:0,0:0:0:0:
477,235,63345,6,0,B|492:175|492:175|467:120,1,120,10|8,0:0|0:0,0:0:0:0:
386,82,63795,2,0,P|342:78|320:77,1,60,2|8,3:2|0:0,0:0:0:0:
247,121,64095,1,0,3:0:0:0:
168,76,64245,6,0,P|183:29|193:3,1,60,14|0,0:0|3:0,0:0:0:0:
93,126,64545,2,0,P|84:98|75:70,1,60,8|0,0:0|3:0,0:0:0:0:
10,7,64845,1,8,0:0:0:0:
19,186,65145,6,0,P|67:169|149:159,1,120,10|8,0:0|0:0,0:0:0:0:
201,97,65595,2,0,P|241:145|244:167,1,60,0|8,3:0|0:0,0:0:0:0:
314,191,65895,1,0,3:0:0:0:
314,191,66045,6,0,P|281:258|266:323,1,120,6|0,3:2|0:0,0:0:0:0:
339,359,66495,2,0,P|377:344|415:342,1,60,2|8,3:2|0:0,0:0:0:0:
218,377,66945,2,0,P|176:364|82:360,1,120,2|4,3:2|0:0,0:0:0:0:
211,54,67845,6,0,B|279:50|279:50|283:177,2,180,6|6|6,3:2|3:2|3:2,0:0:0:0:
11,309,69645,6,0,P|62:298|94:298,1,60,14|0,0:0|3:0,0:0:0:0:
115,219,69945,2,0,P|153:230|178:244,1,60,8|0,0:0|3:0,0:0:0:0:
208,321,70245,1,8,0:0:0:0:
208,321,70395,1,0,3:0:0:0:
280,373,70545,6,0,L|408:348,1,120,10|8,0:0|0:0,0:0:0:0:
485,328,70995,1,0,3:0:0:0:
430,256,71145,2,0,P|442:219|453:186,1,60,8|0,0:0|3:0,0:0:0:0:
447,108,71445,6,0,B|400:110|400:110|365:113,1,60,14|0,0:0|3:0,0:0:0:0:
336,35,71745,2,0,B|300:23|300:23|268:10,1,60,8|0,0:0|3:0,0:0:0:0:
209,71,72045,2,0,B|204:122|204:122|198:140,1,60,8|0,0:0|3:0,0:0:0:0:
141,198,72345,5,14,0:0:0:0:
141,198,72495,1,8,0:0:0:0:
199,266,72645,1,8,0:0:0:0:
199,266,72795,1,8,0:0:0:0:
282,231,72945,1,8,0:0:0:0:
282,231,73095,1,8,0:0:0:0:
49,100,75045,6,0,B|168:67|159:145|258:108,1,215.999993408203,4|0,1:2|0:0,0:0:0:0:
328,46,75902,1,2,0:3:0:0:
476,159,76330,2,0,P|463:242|456:329,2,143.999995605469,2|2|2,0:3|0:3|0:3,0:0:0:0:
296,212,77616,5,2,0:3:0:0:
296,212,78045,2,0,P|290:254|289:295,1,71.9999978027344,2|0,0:3|0:0,0:0:0:0:
231,357,78473,2,0,P|196:350|161:345,1,71.9999978027344,2|0,0:3|0:0,0:0:0:0:
70,371,78902,2,0,B|21:333|21:333|57:248,2,143.999995605469,2|2|2,0:3|0:3|0:3,0:0:0:0:
128,298,79973,1,0,3:0:0:0:
200,373,80187,6,0,B|258:354|348:355,1,143.999995605469,2|2,0:3|0:3,0:0:0:0:
436,192,81045,1,2,0:3:0:0:
436,192,81473,6,0,P|381:142|299:183,1,143.999995605469,2|2,0:3|0:3,0:0:0:0:
189,293,82330,1,2,0:3:0:0:
189,293,82545,1,0,0:0:0:0:
189,293,82759,2,0,B|123:302|123:302|105:308,1,71.9999978027344,2|0,0:3|0:0,0:0:0:0:
122,210,83187,2,0,B|116:208|116:208|50:199,1,71.9999978027344,2|0,0:3|0:0,0:0:0:0:
9,115,83616,2,0,P|25:67|113:55,1,143.999995605469,2|2,0:3|0:3,0:0:0:0:
174,119,84259,5,4,0:3:0:0:
236,49,84473,1,6,0:3:0:0:
302,115,84687,1,4,0:3:0:0:
236,49,84902,1,6,0:3:0:0:
243,188,85116,1,4,0:3:0:0:
243,188,85223,1,4,0:3:0:0:
243,188,85330,6,0,P|232:257|228:344,2,143.999995605469,4|2|2,1:2|0:3|0:3,0:0:0:0:
427,153,86616,1,2,0:3:0:0:
278,39,87045,1,2,0:3:0:0:
278,39,87473,2,0,P|233:53|125:18,1,143.999995605469,2|2,0:3|0:3,0:0:0:0:
3,121,88330,6,0,P|24:176|28:191,1,71.9999978027344,2|0,0:3|0:0,0:0:0:0:
119,204,88759,2,0,P|108:259|101:305,1,71.9999978027344,2|0,0:3|0:0,0:0:0:0:
171,341,89187,2,0,B|221:297|221:297|294:350,2,143.999995605469,2|2|2,0:3|0:3|0:3,0:0:0:0:
127,258,90259,1,0,3:0:0:0:
172,176,90473,6,0,P|233:204|320:229,1,143.999995605469,2|2,0:3|0:3,0:0:0:0:
424,80,91330,1,2,0:3:0:0:
464,262,91759,1,2,0:3:0:0:
464,262,91973,2,0,B|395:227|395:227|317:252,1,143.999995605469
256,303,92616,2,0,P|278:364|284:394,1,71.9999978027344,2|0,0:3|0:0,0:0:0:0:
185,364,93045,1,2,0:3:0:0:
20,275,93473,2,0,P|32:202|44:121,1,143.999995605469,2|2,0:3|0:3,0:0:0:0:
108,65,94116,2,0,P|133:111|157:154,1,71.9999978027344,0|2,0:0|0:3,0:0:0:0:
206,194,94545,5,4,0:3:0:0:
274,259,94759,1,6,0:3:0:0:
215,331,94973,1,4,0:3:0:0:
274,259,95187,1,6,0:3:0:0:
143,272,95402,1,4,0:3:0:0:
143,272,95509,1,4,0:3:0:0:
143,272,95616,1,4,1:2:0:0:
429,363,96045,6,0,B|444:318|444:318|453:293,1,71.9999978027344,2|0,3:0|3:0,0:0:0:0:
484,207,96473,2,0,P|474:167|469:126,1,71.9999978027344,2|0,3:0|3:0,0:0:0:0:
400,73,96902,5,2,3:0:0:0:
400,73,97116,1,0,3:0:0:0:
331,164,97330,2,0,P|268:152|238:151,1,71.9999978027344,2|0,3:0|3:0,0:0:0:0:
244,244,97759,2,0,P|307:256|337:257,1,71.9999978027344,2|0,3:0|3:0,0:0:0:0:
408,251,98187,5,8,0:0:0:0:
458,171,98402,1,0,3:0:0:0:
368,144,98616,1,8,0:0:0:0:
368,144,98830,1,0,3:0:0:0:
335,56,99045,1,8,0:0:0:0:
261,113,99259,1,0,3:0:0:0:
203,39,99473,6,0,P|153:35|110:33,1,71.9999978027344,2|2,0:3|0:3,0:0:0:0:
52,84,99902,2,0,P|63:182|63:182,1,71.9999978027344,2|2,0:3|0:3,0:0:0:0:
128,240,100348,6,0,B|171:253|209:219|209:219|253:252|309:235,1,167.999994873047,6|8,3:2|0:0,0:0:0:0:
335,143,100990,2,0,P|314:226|317:364,1,209.999993591309,6|0,3:2|0:0,0:0:0:0:
314,349,101633,1,14,0:2:0:0:
493,63,102276,5,6,3:2:0:0:
393,18,102490,1,8,0:0:0:0:
405,126,102705,1,8,0:0:0:0:
308,75,102919,5,6,3:2:0:0:
405,126,103133,1,8,0:0:0:0:
325,201,103348,1,8,0:0:0:0:
228,150,103562,6,0,B|153:140|106:137|106:137|126:194|62:243,1,209.999993591309,6|0,3:2|0:0,0:0:0:0:
88,218,104205,1,4,1:2:0:0:
357,85,105490,5,12,0:0:0:0:
357,85,105566,1,8,0:3:0:0:
357,85,105643,1,8,0:3:0:0:
425,143,105797,2,0,P|460:133|465:131,3,30,8|8|8|8,0:0|0:3|0:3|0:3,0:0:0:0:
484,169,106105,2,0,P|494:204|496:209,3,30,8|8|8|8,0:0|0:3|0:3|0:3,0:0:0:0:
478,241,106413,6,0,B|441:258|441:258|410:272,1,60,4|8,0:3|0:3,0:0:0:0:
355,325,106720,2,0,P|292:299|277:296,1,60,4|8,0:3|0:3,0:0:0:0:
217,264,107028,2,0,P|206:310|199:348,1,60,4|8,0:3|0:3,0:0:0:0:
113,334,107336,5,12,0:0:0:0:
113,334,107413,1,8,0:3:0:0:
113,334,107490,1,8,0:3:0:0:
55,265,107643,2,0,L|81:224,3,30,8|8|8|8,0:0|0:3|0:3|0:3,0:0:0:0:
60,195,107951,2,0,L|86:154,3,30,8|8|8|8,0:0|0:3|0:3|0:3,0:0:0:0:
61,126,108259,6,0,P|91:94|128:95,1,60,4|8,0:3|0:3,0:0:0:0:
170,28,108566,2,0,B|217:45|217:45|230:72,1,60,4|8,0:3|0:3,0:0:0:0:
262,135,108874,2,0,P|256:180|253:221,1,60,4|8,0:3|0:3,0:0:0:0:
322,255,109182,6,0,P|371:242|494:210,1,167.999994873047,6|8,3:2|0:0,0:0:0:0:
487,103,109824,2,0,P|464:49|337:68,1,209.999993591309,6|0,3:2|0:0,0:0:0:0:
336,68,110467,1,14,0:0:0:0:
78,38,111110,5,6,3:2:0:0:
45,125,111324,1,8,0:0:0:0:
97,203,111539,1,8,0:0:0:0:
190,195,111753,5,6,3:2:0:0:
223,108,111967,1,8,0:0:0:0:
171,30,112182,1,8,0:0:0:0:
96,86,112396,6,0,L|108:303,1,209.999993591309,6|0,3:2|0:0,0:0:0:0:
107,295,113032,1,4,1:2:0:0:
281,302,114317,5,12,0:0:0:0:
281,302,114393,1,8,0:3:0:0:
281,302,114470,1,8,0:3:0:0:
317,226,114624,2,0,L|359:224,3,30,8|8|8|8,0:0|0:3|0:3|0:3,0:0:0:0:
371,189,114932,2,0,L|400:190,3,30,8|8|8|8,0:0|0:3|0:3|0:3,0:0:0:0:
437,168,115240,6,0,P|441:133|438:94,1,60,0|0,3:0|3:0,0:0:0:0:
371,58,115547,2,0,P|308:48|291:45,1,60,0|0,3:0|3:0,0:0:0:0:
255,111,115855,1,0,3:0:0:0:
255,111,116009,1,0,3:0:0:0:
188,59,116163,6,0,L|194:21,3,30,12|8|8|8,0:0|0:3|0:3|0:3,0:0:0:0:
142,44,116470,2,0,L|147:74,3,30,8|8|8|8,0:0|0:3|0:3|0:3,0:0:0:0:
100,74,116778,2,0,L|106:36,3,30,8|8|8|8,0:0|0:3|0:3|0:3,0:0:0:0:
58,94,117086,6,0,P|69:129|74:159,1,60,8|8,3:0|3:0,0:0:0:0:
25,221,117393,2,0,P|46:261|53:280,1,60,8|8,3:0|3:0,0:0:0:0:
45,366,117701,1,8,3:0:0:0:
45,366,117855,1,8,3:0:0:0:
130,368,118009,1,2,0:3:0:0:
143,48,119574,6,0,P|43:37|7:34,2,120,2|2|2,0:0|0:0|0:0,0:0:0:0:
453,77,121139,5,6,3:2:0:0:
419,205,121399,1,4,3:2:0:0:
321,113,121660,1,4,3:2:0:0:
395,133,121921,1,4,3:2:0:0:
264,165,122182,1,4,3:2:0:0:
291,33,122443,1,4,3:2:0:0:
335,216,122704,6,0,P|315:285|299:343,1,120,14|8,0:0|0:0,0:0:0:0:
229,360,123095,2,0,B|188:344|188:344|161:338,1,60,8|0,0:0|3:0,0:0:0:0:
98,354,123356,1,0,3:0:0:0:
98,354,123486,6,0,B|87:288|87:288|146:253,1,120,0|0,3:0|3:0,0:0:0:0:
206,228,123878,1,0,3:0:0:0:
206,228,124008,2,0,P|201:198|190:170,1,60,0|0,3:0|3:0,0:0:0:0:
127,124,124269,6,0,B|64:115|64:115|0:107,2,120,6|0|0,3:2|3:2|3:2,0:0:0:0:
249,26,125052,1,10,0:0:0:0:
249,26,125182,2,0,P|261:74|261:96,1,60,0|0,3:2|0:0,0:0:0:0:
338,98,125443,2,0,P|327:151|318:179,1,60,2|0,3:2|0:0,0:0:0:0:
282,222,125704,1,0,3:2:0:0:
282,222,125834,6,0,P|313:200|392:207,2,120,2|0|0,3:2|3:2|3:2,0:0:0:0:
252,296,126486,1,0,3:2:0:0:
182,329,126617,1,10,0:0:0:0:
182,329,126747,2,0,L|53:312,2,120,0|2|0,3:2|3:2|3:2,0:0:0:0:
256,368,127399,5,4,3:2:0:0:
352,368,127599,1,4,3:2:0:0:
352,272,127799,1,4,3:2:0:0:
448,272,127999,1,4,3:2:0:0:
448,176,128199,2,0,L|448:112,1,60,12|4,0:0|3:2,0:0:0:0:
352,176,128599,1,4,3:2:0:0:
256,176,128799,1,4,3:2:0:0:
256,272,128999,1,4,3:2:0:0:
352,272,129199,1,4,3:2:0:0:
352,368,129399,1,4,3:2:0:0:
448,368,129599,1,4,3:2:0:0:
448,272,129799,5,12,0:0:0:0:
448,272,129999,1,4,3:2:0:0:
448,176,130199,1,12,0:0:0:0:
448,176,130399,1,4,3:2:0:0:
349,127,130599,6,0,P|370:35|379:5,2,120,6|0|0,3:2|3:2|3:2,0:0:0:0:
271,134,131265,1,0,3:2:0:0:
271,134,131399,2,0,P|224:120|207:116,1,60,10|0,0:0|3:2,0:0:0:0:
93,17,131799,1,0,3:2:0:0:
6,146,132065,1,0,3:2:0:0:
6,146,132199,6,0,L|17:265,2,120,0|0|2,3:2|3:2|3:2,0:0:0:0:
62,90,132865,1,0,3:2:0:0:
110,156,132999,1,10,0:0:0:0:
110,156,133132,2,0,P|148:133|227:123,1,120,0|0,3:2|3:2,0:0:0:0:
371,77,133665,1,0,3:2:0:0:
371,77,133799,6,0,P|376:143|380:218,2,120,2|0|0,3:2|3:2|3:2,0:0:0:0:
437,36,134465,1,0,3:2:0:0:
437,36,134599,2,0,P|457:66|474:104,1,60,10|0,0:0|3:2,0:0:0:0:
486,242,134999,1,0,3:2:0:0:
373,349,135265,1,0,3:2:0:0:
373,349,135399,6,0,P|307:344|236:341,2,120,0|0|2,3:2|3:2|3:2,0:0:0:0:
438,307,136065,1,0,3:2:0:0:
438,307,136199,2,0,P|449:250|453:223,1,60,10|0,0:0|3:2,0:0:0:0:
399,188,136465,2,0,P|342:173|331:171,1,60,4|4,0:3|0:3,0:0:0:0:
264,189,136732,1,8,3:2:0:0:
215,250,136865,1,8,3:2:0:0:
292,264,136999,5,4,3:2:0:0:
159,346,137265,2,0,P|107:336|36:321,1,120,2|2,3:2|3:2,0:0:0:0:
13,248,137665,1,0,3:2:0:0:
13,248,137799,2,0,P|17:171|106:145,1,180,10|0,0:0|3:2,0:0:0:0:
241,219,138465,1,0,3:2:0:0:
241,219,138599,6,0,P|245:281|248:340,2,120,0|2|2,3:2|3:2|3:2,0:0:0:0:
292,160,139265,1,0,3:2:0:0:
236,104,139399,1,10,0:0:0:0:
236,104,139532,2,0,P|180:97|104:88,2,120,0|0|0,3:2|3:2|3:2,0:0:0:0:
292,50,140199,5,6,3:2:0:0:
96,27,147257,6,0,B|88:91|88:91|76:216,1,180,14|8,3:2|0:0,0:0:0:0:
123,282,147963,1,10,3:2:0:0:
284,361,148316,2,0,L|325:344,4,30,2|2|2|2|2,3:3|0:3|0:3|0:3|3:3,0:0:0:0:
193,365,148846,2,0,P|208:312|222:242,1,120,10|8,0:0|0:0,0:0:0:0:
179,168,149375,2,0,P|115:155|103:153,1,60,10|8,3:2|0:0,0:0:0:0:
78,172,149640,1,8,0:0:0:0:
78,172,149728,2,0,P|69:122|60:89,1,60,8|8,3:2|0:0,0:0:0:0:
112,35,150081,2,0,P|152:18|211:59,1,120,8|8,3:3|3:3,0:0:0:0:
236,144,150610,1,8,0:0:0:0:
236,144,150699,1,8,0:0:0:0:
236,144,150787,6,0,P|232:176|223:269,1,120,8|4,3:3|3:3,0:0:0:0:
288,325,151316,1,4,0:3:0:0:
288,325,151493,1,10,3:2:0:0:
414,197,151846,2,0,L|424:156,4,30,2|2|2|2|2,3:3|0:3|0:3|0:3|3:3,0:0:0:0:
334,240,152375,2,0,P|258:216|219:204,1,120,10|8,0:0|0:0,0:0:0:0:
149,261,152904,2,0,P|130:220|116:194,1,60,10|8,3:2|0:0,0:0:0:0:
80,192,153169,1,8,0:0:0:0:
80,192,153257,2,0,B|82:149|82:149|86:117,1,60,8|8,3:2|0:0,0:0:0:0:
170,46,153610,5,12,0:0:0:0:
311,157,153873,5,8,0:0:0:0:
277,12,154138,5,8,0:0:0:0:
204,196,154403,5,8,0:0:0:0:
42,90,159842,6,0,B|117:29|117:29|304:216,1,360,4|0,3:2|0:0,0:0:0:0:
402,383,161136,2,0,L|469:85,1,300,4|0,3:2|0:0,0:0:0:0:
403,27,162106,1,10,0:0:0:0:
253,126,162429,6,0,B|202:117|202:117|171:85,2,90,6|2|10,3:2|3:2|0:0,0:0:0:0:
283,155,162996,2,0,P|288:204|288:238,2,60,0|0|0,3:2|3:2|3:2,0:0:0:0:
318,133,163401,1,10,0:0:0:0:
390,176,163564,1,2,3:2:0:0:
458,128,163726,6,0,P|458:70|443:55,1,60,6|0,3:2|0:0,0:0:0:0:
424,46,163969,2,0,P|348:29|317:23,1,90,2|10,3:2|0:0,0:0:0:0:
295,37,164293,2,0,P|248:39|219:47,1,60,0|0,3:2|3:2,0:0:0:0:
155,15,164618,1,0,3:2:0:0:
155,15,164699,2,0,P|104:34|85:90,1,90,10|0,0:0|0:0,0:0:0:0:
108,98,165023,6,0,B|107:175|107:175|106:209,1,90,6|2,3:2|3:2,0:0:0:0:
66,262,165429,1,0,3:2:0:0:
66,262,165510,2,0,P|76:303|85:355,2,90,10|0|10,0:0|3:2|0:0,0:0:0:0:
9,199,166158,1,2,3:2:0:0:
74,145,166320,6,0,P|118:151|143:156,1,60,6|0,3:2|0:0,0:0:0:0:
171,136,166564,2,0,P|212:134|233:131,1,60,2|0,3:2|3:2,0:0:0:0:
265,108,166807,1,10,0:0:0:0:
326,164,166969,1,0,0:0:0:0:
388,108,167131,1,0,0:0:0:0:
388,108,167293,2,0,P|382:63|377:32,1,60,10|0,0:0|0:0,0:0:0:0:
478,110,167618,6,0,P|463:162|463:185,1,60,6|0,3:2|0:0,0:0:0:0:
411,234,167942,2,0,P|437:287|443:305,1,60,2|8,0:0|0:0,0:0:0:0:
388,355,168266,2,0,P|350:349|311:346,1,60,2|0,0:0|0:0,0:0:0:0:
263,292,168591,2,0,P|229:299|183:309,1,60,10|0,0:0|3:2,0:0:0:0:
131,261,168915,6,0,P|119:318|105:387,2,120,6|0|2,3:2|0:0|0:0,0:0:0:0:
50,113,169888,1,10,0:0:0:0:
50,113,170050,1,0,0:0:0:0:
114,58,170212,5,4,3:2:0:0:
355,205,171270,2,0,L|407:198,4,30,8|8|8|8|8,0:0|0:0|0:0|0:0|0:0,0:0:0:0:
285,263,171800,6,0,P|225:243|167:238,1,120,4|0,3:2|3:2,0:0:0:0:
97,293,172329,2,0,B|73:239|73:239|53:200,1,90,0|0,3:2|3:2,0:0:0:0:
16,195,172682,2,0,P|29:150|32:110,1,60,8|0,0:0|3:2,0:0:0:0:
26,91,172947,1,8,0:0:0:0:
26,91,173035,1,0,3:2:0:0:
148,33,173300,1,0,3:2:0:0:
148,33,173388,2,0,B|208:42|208:42|240:30,1,90,8|8,0:0|0:0,0:0:0:0:
280,26,173741,2,0,P|275:75|277:135,1,90,0|0,3:2|3:2,0:0:0:0:
300,153,174094,1,8,0:0:0:0:
479,146,174447,5,0,3:2:0:0:
469,234,174623,2,0,P|458:282|455:315,1,60,2|0,3:3|0:0,0:0:0:0:
430,329,174888,1,8,0:0:0:0:
430,329,174976,1,0,3:2:0:0:
345,361,175153,2,0,P|282:339|210:346,2,120,2|8|0,3:3|0:0|3:2,0:0:0:0:
434,260,176123,1,0,3:2:0:0:
434,260,176212,2,0,L|447:123,1,120,8|0,0:0|3:2,0:0:0:0:
346,48,176829,1,0,3:2:0:0:
346,48,176917,2,0,B|292:36|292:36|267:35,1,60,8|8,0:0|0:0,0:0:0:0:
249,60,177182,1,8,0:0:0:0:
249,60,177270,6,0,P|270:124|280:163,1,90,6|2,3:2|3:2,0:0:0:0:
315,166,177623,2,0,P|298:216|281:296,1,120,8|2,0:0|3:2,0:0:0:0:
221,347,178153,2,0,P|189:337|135:323,1,90,2|8,3:3|0:0,0:0:0:0:
94,344,178506,1,0,3:2:0:0:
25,286,178682,2,0,P|31:247|103:229,2,120,0|8|0,3:2|0:0|3:2,0:0:0:0:
137,361,179653,1,0,3:2:0:0:
137,361,179741,6,0,P|177:341|214:326,1,60,8|0,0:0|0:0,0:0:0:0:
278,355,180094,2,0,P|287:312|296:273,1,60,0|0,3:2|0:0,0:0:0:0:
324,266,180359,1,0,3:2:0:0:
324,266,180447,2,0,P|304:212|305:195,1,60,8|0,0:0|0:0,0:0:0:0:
330,173,180712,1,8,0:0:0:0:
330,173,180800,6,0,P|392:168|454:164,1,120,2|8,3:2|0:0,0:0:0:0:
485,81,181329,1,2,0:0:0:0:
413,26,181506,1,2,3:2:0:0:
337,74,181682,2,0,P|268:85|249:88,1,90,2|8,0:3|0:0,0:0:0:0:
206,69,182035,1,0,3:2:0:0:
131,17,182212,1,2,3:3:0:0:
47,48,182388,2,0,P|49:97|51:134,1,60,0|8,0:0|0:0,0:0:0:0:
33,196,182741,1,0,0:0:0:0:
122,176,182917,2,0,P|129:242|133:270,1,90,0|0,3:2|3:2,0:0:0:0:
163,298,183270,2,0,P|200:270|217:262,1,60,8|0,0:0|0:0,0:0:0:0:
292,337,183623,5,12,0:2:0:0:
323,160,183887,5,12,0:0:0:0:
399,354,184152,5,12,0:0:0:0:
431,177,184417,5,12,0:0:0:0:
94,203,187562,5,6,3:2:0:0:
193,99,187829,1,4,3:2:0:0:
235,237,188097,1,4,3:2:0:0:
171,176,188365,1,4,3:2:0:0:
138,316,188633,1,4,3:2:0:0:
171,176,188901,1,4,3:2:0:0:
350,195,189169,6,0,P|404:176|476:167,1,120,8|8,0:0|0:0,0:0:0:0:
496,95,189570,1,8,0:0:0:0:
496,95,189704,2,0,B|459:79|459:79|416:72,1,60,8|0,0:0|3:0,0:0:0:0:
379,25,189972,6,0,P|315:41|264:70,1,120,0|0,3:0|3:0,0:0:0:0:
192,44,190374,1,0,3:0:0:0:
192,44,190508,2,0,P|181:81|173:116,1,60,0|0,3:0|3:2,0:0:0:0:
123,160,190776,6,0,L|-3:138,2,120,6|0|0,3:2|3:2|3:2,0:0:0:0:
158,229,191445,1,0,3:2:0:0:
235,257,191579,1,10,0:0:0:0:
235,257,191713,2,0,P|240:318|242:393,2,120,0|2|0,3:2|3:2|3:2,0:0:0:0:
279,191,192383,6,0,P|315:161|389:196,1,120,2|0,3:2|3:2,0:0:0:0:
441,230,192785,2,0,B|427:309|427:309|426:364,1,120,2|0,0:0|3:2,0:0:0:0:
349,365,193187,1,10,0:0:0:0:
349,365,193320,2,0,P|282:351|232:341,2,120,0|2|0,3:2|3:2|3:2,0:0:0:0:
336,272,193980,5,4,3:2:0:0:
336,176,194180,1,4,3:2:0:0:
240,176,194380,1,4,3:2:0:0:
144,176,194580,1,4,3:2:0:0:
144,80,194780,2,0,L|144:16,1,60,12|4,0:0|3:2,0:0:0:0:
240,80,195180,1,4,3:2:0:0:
240,176,195380,1,4,3:2:0:0:
144,176,195580,1,4,3:2:0:0:
48,176,195780,1,4,3:2:0:0:
48,80,195980,1,4,3:2:0:0:
144,80,196180,1,4,3:2:0:0:
144,176,196380,5,12,0:0:0:0:
144,176,196580,1,4,3:2:0:0:
144,272,196780,1,12,0:0:0:0:
144,272,196980,1,4,3:2:0:0:
233,344,197180,6,0,P|306:326|353:321,1,120,6|0,3:2|3:2,0:0:0:0:
397,172,197713,2,0,P|440:185|466:193,1,60,2|0,3:2|3:2,0:0:0:0:
492,121,197980,1,10,0:0:0:0:
492,121,198113,2,0,P|449:68|387:58,1,120,0|0,3:2|3:2,0:0:0:0:
250,99,198646,1,0,3:2:0:0:
250,99,198780,6,0,P|273:156|284:226,2,120,0|0|2,3:2|3:2|3:2,0:0:0:0:
173,86,199446,1,0,3:2:0:0:
125,23,199580,2,0,B|80:12|80:12|40:8,2,60,10|0|0,0:0|3:2|0:0,0:0:0:0:
66,89,199980,2,0,P|61:146|54:209,1,120,0|0,3:2|3:2,0:0:0:0:
48,304,200380,5,4,3:2:0:0:
144,304,200580,1,4,3:2:0:0:
240,304,200780,1,4,3:2:0:0:
336,304,200980,1,4,3:2:0:0:
336,208,201180,2,0,L|336:144,1,60,12|4,0:0|3:2,0:0:0:0:
240,208,201580,1,4,3:2:0:0:
144,208,201780,1,4,3:2:0:0:
48,208,201980,1,4,3:2:0:0:
48,112,202180,1,4,3:2:0:0:
144,112,202380,1,4,3:2:0:0:
240,112,202580,1,4,3:2:0:0:
336,112,202780,5,12,0:0:0:0:
336,112,202980,1,4,3:2:0:0:
336,208,203180,1,12,0:0:0:0:
336,208,203380,1,4,3:2:0:0:
255,296,203580,6,0,P|187:275|123:259,2,120,4|2|2,3:2|3:2|3:2,0:0:0:0:
308,352,204246,1,0,3:2:0:0:
354,289,204380,1,10,0:0:0:0:
354,289,204513,2,0,B|405:298|405:298|413:379,2,120,0|0|0,3:2|3:2|3:2,0:0:0:0:
293,239,205180,6,0,P|307:191|314:160,1,60,0|0,3:2|0:0,0:0:0:0:
247,133,205446,2,0,P|195:127|170:130,1,60,2|0,3:2|0:0,0:0:0:0:
145,61,205713,2,0,P|192:44|207:42,1,60,2|0,3:2|3:2,0:0:0:0:
270,5,205980,1,10,0:0:0:0:
270,5,206113,2,0,B|361:6|361:6|397:33,2,120,0|0|0,3:2|3:2|3:2,0:0:0:0:
272,96,206780,5,4,3:2:0:0:
272,192,206980,1,4,3:2:0:0:
176,192,207180,1,4,3:2:0:0:
176,96,207380,1,4,3:2:0:0:
272,192,207580,2,0,L|272:256,1,60,12|4,0:0|3:2,0:0:0:0:
272,352,207980,1,4,3:2:0:0:
368,352,208180,1,4,3:2:0:0:
464,352,208380,1,4,3:2:0:0:
368,352,208580,1,4,3:2:0:0:
368,256,208780,1,4,3:2:0:0:
368,160,208980,1,4,3:2:0:0:
272,256,209180,5,12,0:0:0:0:
272,256,209380,1,4,3:2:0:0:
192,160,209580,1,12,0:0:0:0:
192,160,209780,1,4,3:2:0:0:
272,64,209980,5,4,3:2:0:0:
256,192,210180,12,0,216380,0:0:0:0:
