osu file format v14

[General]
AudioFilename: audio.mp3
AudioLeadIn: 0
PreviewTime: 70341
Countdown: 0
SampleSet: Normal
StackLeniency: 0.2
Mode: 0
LetterboxInBreaks: 0
WidescreenStoryboard: 0

[Editor]
Bookmarks: 69069
DistanceSpacing: 0.8
BeatDivisor: 4
GridSize: 32
TimelineZoom: 2.4

[Metadata]
Title:Euphoria
TitleUnicode:ユーフォリア
Artist:Haiiro Logic
ArtistUnicode:灰色Logic
Creator:Painketsu
Version:Ketsu
Source:
Tags:Poison×Sugar×Toxic M3-40 深冬 Doujin Metal
BeatmapID:1478509
BeatmapSetID:698064

[Difficulty]
HPDrainRate:4.3
CircleSize:4
OverallDifficulty:8.8
ApproachRate:9.6
SliderMultiplier:1.9
SliderTickRate:1

[Events]
//Background and Video events
0,0,"bg.png",0,0
//Break Periods
2,202312,207864
//Storyboard Layer 0 (Background)
//Storyboard Layer 1 (Fail)
//Storyboard Layer 2 (Pass)
//Storyboard Layer 3 (Foreground)
//Storyboard Sound Samples

[TimingPoints]
1765,260.869565217391,4,1,1,65,1,0
10112,-100,4,1,1,65,0,0
14286,-133.333333333333,4,1,1,65,0,0
14482,-133.333333333333,4,2,1,5,0,0
14547,-100,4,1,1,65,0,0
18460,-100,4,1,1,65,0,0
26417,-133.333333333333,4,1,1,65,0,0
26808,-100,4,1,1,65,0,0
35156,-100,4,1,1,55,0,0
68156,-57.1428571428571,4,1,1,65,0,0
68417,-66.6666666666667,4,1,1,65,0,0
71417,-80,4,1,1,65,0,0
71808,-66.6666666666667,4,1,1,65,0,0
76634,-100,4,1,1,65,0,0
76895,-66.6666666666667,4,1,1,65,0,0
88112,-80,4,1,1,65,0,0
88634,-66.6666666666667,4,1,1,65,0,0
100112,-66.6666666666667,4,1,1,55,0,0
100373,-66.6666666666667,4,1,1,65,0,0
100895,-66.6666666666667,4,1,1,70,0,0
101417,-66.6666666666667,4,1,1,75,0,0
101938,-66.6666666666667,4,1,1,80,0,0
102199,-66.6666666666667,4,1,1,65,0,0
109895,-100,4,1,1,65,0,0
110286,-66.6666666666667,4,1,1,65,0,0
124895,-133.333333333333,4,1,1,65,0,0
125678,-100,4,1,1,65,0,0
151895,-57.1428571428571,4,1,1,65,0,0
152286,-66.6666666666667,4,1,1,65,0,0
154895,-80,4,1,1,65,0,0
155286,-66.6666666666667,4,1,1,65,0,0
160112,-105.263157894737,4,1,1,65,0,0
160373,-66.6666666666667,4,1,1,65,0,0
171591,-80,4,1,1,65,0,0
171982,-66.6666666666667,4,1,1,65,0,0
183591,-66.6666666666667,4,1,1,55,0,0
183852,-66.6666666666667,4,1,1,65,0,0
184374,-66.6666666666667,4,1,1,70,0,0
184896,-66.6666666666667,4,1,1,75,0,0
185417,-66.6666666666667,4,1,1,80,0,0
185678,-66.6666666666667,4,1,1,65,0,0
216721,-133.333333333333,4,1,1,65,0,0
216851,-133.333333333333,4,2,1,5,0,0
217112,-133.333333333333,4,1,1,65,0,0
217243,-133.333333333333,4,2,1,5,0,0
217504,-133.333333333333,4,1,1,65,0,0
217764,-80,4,1,1,65,0,0
218678,-66.6666666666667,4,1,1,65,0,0
221678,-80,4,1,1,65,0,0
222069,-66.6666666666667,4,1,1,65,0,0
226895,-100,4,1,1,65,0,0
227156,-66.6666666666667,4,1,1,65,0,0
243591,-100,4,1,1,65,0,0
243851,-66.6666666666667,4,1,1,65,0,0
250373,-66.6666666666667,4,1,1,55,0,0
250634,-66.6666666666667,4,1,1,65,0,0
251156,-66.6666666666667,4,1,1,70,0,0
251678,-66.6666666666667,4,1,1,75,0,0
252199,-66.6666666666667,4,1,1,80,0,0
252460,-66.6666666666667,4,1,1,65,0,0
260156,-100,4,1,1,65,0,0
260547,-66.6666666666667,4,1,1,65,0,0

[HitObjects]
256,192,1765,5,2,0:3:0:0:
392,111,3591,5,0,0:0:0:0:
369,310,3851,1,0,0:0:0:0:
351,135,5678,5,0,0:0:0:0:
334,274,5938,1,0,0:0:0:0:
322,152,7764,5,0,0:0:0:0:
311,249,8024,1,0,0:0:0:0:
269,87,8547,1,0,0:0:0:0:
241,301,9069,1,0,0:0:0:0:
196,35,9330,5,0,0:0:0:0:
150,319,9591,1,0,0:0:0:0:
118,0,9851,1,0,0:0:0:0:
75,369,10112,6,0,P|68:302|94:250,1,95
103,220,10373,2,0,P|113:265|104:312,1,95
76,276,10634,2,0,P|66:229|76:183,1,95
102,127,10895,2,0,P|112:172|103:219,1,95
76,183,11156,2,0,P|66:136|76:90,1,95
175,0,11417,2,0,P|185:46|175:92,1,95
209,280,11678,2,0,P|199:233|209:187,1,95
297,35,11938,2,0,P|307:80|298:127,1,95
255,361,12199,6,0,L|255:242,1,95,2|0,0:0|0:0,0:0:0:0:
287,332,12460,2,0,L|287:214,1,106.875004076958
323,296,12721,2,0,L|323:178,1,106.875004076958
363,253,12982,2,0,L|363:147,1,106.875004076958
409,112,13243,2,0,L|409:219,1,106.875004076958
113,245,13504,2,0,L|113:138,1,106.875004076958
442,77,13764,2,0,L|442:184,1,106.875004076958
79,272,14025,2,0,L|79:165,1,95
159,300,14286,6,0,L|29:299,1,106.875004076958,4|0,0:0|0:0,0:0:0:0:
234,212,14547,2,0,L|340:212,1,106.875004076958
139,328,14808,2,0,L|9:327,1,106.875004076958
258,181,15069,2,0,L|364:181,1,106.875004076958
122,354,15330,2,0,L|-7:353,1,106.875004076958
288,148,15591,2,0,L|394:148,1,106.875004076958
489,112,15851,6,0,P|496:186|462:225,1,95
284,369,16112,1,0,0:0:0:0:
245,166,16243,1,0,0:0:0:0:
241,141,16308,1,0,0:0:0:0:
235,116,16373,1,0,0:0:0:0:
245,166,16895,5,2,0:0:0:0:
250,197,17417,1,8,0:0:0:0:
311,47,17547,1,8,0:0:0:0:
311,47,17612,1,8,0:0:0:0:
311,47,17678,1,8,0:0:0:0:
127,169,17808,1,8,0:0:0:0:
348,171,17938,1,8,0:0:0:0:
117,33,18069,1,8,0:0:0:0:
339,280,18199,1,8,0:0:0:0:
215,45,18330,1,0,0:0:0:0:
216,384,18460,6,0,B|211:340|234:307|234:307|216:273|216:273|216:176,1,190,12|8,0:3|0:0,0:0:0:0:
311,48,18851,1,0,0:0:0:0:
339,280,18982,1,0,0:0:0:0:
149,132,19112,1,0,0:0:0:0:
459,109,19243,1,8,0:0:0:0:
339,375,19373,2,0,L|339:247,1,95
332,61,19634,5,0,0:0:0:0:
220,239,19764,1,8,0:0:0:0:
466,219,19895,1,0,0:0:0:0:
236,0,20025,2,0,L|236:95,1,95
466,314,20286,2,0,L|466:219,1,95,8|0,0:0|0:0,0:0:0:0:
142,81,20547,5,0,0:0:0:0:
253,262,20678,1,0,0:0:0:0:
332,70,20808,1,8,0:0:0:0:
162,224,20938,2,0,P|153:286|165:325,1,95
413,109,21199,2,0,P|421:62|412:16,1,95,0|8,0:0|0:0,0:0:0:0:
299,332,21460,2,0,P|343:281|275:187,1,190
67,223,21851,6,0,L|180:224,1,95,8|0,0:0|0:0,0:0:0:0:
316,101,22112,2,0,P|265:99|218:124,1,95
148,148,22373,2,0,P|145:101|164:57,1,95,8|0,0:0|0:0,0:0:0:0:
287,329,22634,2,0,L|82:330,1,190,4|8,0:0|0:0,0:0:0:0:
90,128,23025,5,0,0:0:0:0:
234,226,23156,1,0,0:0:0:0:
41,239,23286,1,0,0:0:0:0:
287,164,23417,2,0,P|317:248|299:281,1,95,8|0,0:0|0:0,0:0:0:0:
218,116,23678,2,0,P|275:83|326:89,1,95,8|0,0:0|0:0,0:0:0:0:
126,133,23938,6,0,L|149:35,1,95,8|0,0:0|0:0,0:0:0:0:
115,218,24199,2,0,L|94:119,1,95,8|0,0:0|0:0,0:0:0:0:
137,290,24460,2,0,L|76:209,1,95,8|0,0:0|0:0,0:0:0:0:
287,322,24721,2,0,L|67:313,1,190,4|2,0:0|0:0,0:0:0:0:
269,188,25112,2,0,P|301:253|248:364,1,190,8|2,0:0|0:0,0:0:0:0:
208,149,25504,2,0,P|274:109|268:186,1,190,8|0,0:0|0:0,0:0:0:0:
155,243,25895,1,0,0:0:0:0:
372,191,26025,2,0,L|501:194,1,95
370,74,26286,5,8,0:0:0:0:
372,191,26417,2,0,L|372:386,1,178.12500679493,8|0,0:0|0:0,0:0:0:0:
448,330,26808,6,0,L|448:225,1,95,12|0,0:0|0:0,0:0:0:0:
277,132,27069,1,0,0:0:0:0:
125,219,27199,2,0,B|203:219|203:219|248:239|248:239|341:239,1,190
330,56,27591,2,0,P|244:44|184:137,1,190,8|0,0:0|0:0,0:0:0:0:
190,315,27982,1,0,0:0:0:0:
277,132,28112,2,0,L|294:259,1,95,8|0,0:0|0:0,0:0:0:0:
324,324,28373,6,0,P|376:286|378:235,1,95,8|0,0:0|0:0,0:0:0:0:
209,75,28634,2,0,P|189:128|203:191,1,95,8|0,0:0|0:0,0:0:0:0:
474,267,28895,2,0,P|449:195|313:197,1,190,4|0,0:0|0:0,0:0:0:0:
193,327,29286,6,0,B|180:364|180:364|220:378|220:378|272:245,1,190,8|0,0:0|0:0,0:0:0:0:
184,56,29678,2,0,L|185:266,1,190,8|0,0:0|0:0,0:0:0:0:
274,169,30069,1,0,0:0:0:0:
26,290,30199,2,0,L|129:293,1,95,8|0,0:0|0:0,0:0:0:0:
438,235,30460,6,0,P|378:248|335:238,1,95,8|0,0:0|0:0,0:0:0:0:
91,48,30721,2,0,P|137:42|183:55,1,95,8|0,0:0|0:0,0:0:0:0:
289,336,30982,2,0,P|246:234|291:151,1,190,12|0,0:0|0:0,0:0:0:0:
336,7,31373,2,0,P|354:65|333:116,1,95,8|0,0:0|0:0,0:0:0:0:
274,166,31634,1,0,0:0:0:0:
424,146,31764,2,0,P|436:224|364:194,1,190,8|0,0:0|0:0,0:0:0:0:
263,59,32156,6,0,L|130:59,1,95,8|0,0:0|0:0,0:0:0:0:
2,174,32417,1,0,0:0:0:0:
169,302,32547,2,0,P|194:240|182:201,1,95,8|0,0:0|0:0,0:0:0:0:
103,7,32808,2,0,P|78:69|90:108,1,95,8|0,0:0|0:0,0:0:0:0:
116,372,33069,2,0,P|177:389|226:363,1,95,8|0,0:0|0:0,0:0:0:0:
274,293,33330,1,8,0:0:0:0:
176,125,33460,1,0,0:0:0:0:
0,269,33591,6,0,L|215:232,1,190,12|0,0:0|0:0,0:0:0:0:
413,192,33982,1,8,0:0:0:0:
275,384,34112,2,0,P|266:313|281:282,1,95
411,97,34373,2,0,L|413:231,1,95,8|0,0:0|0:0,0:0:0:0:
351,337,34634,1,8,0:3:0:0:
284,193,34764,1,8,0:0:0:0:
475,291,34895,1,0,0:3:0:0:
184,290,35025,1,8,0:3:0:0:
500,172,35156,6,0,P|435:196|399:186,1,95,10|0,0:3|0:0,0:0:0:0:
272,78,35417,1,0,0:0:0:0:
438,111,35547,1,0,0:0:0:0:
438,111,35938,5,8,0:0:0:0:
438,111,36460,5,8,0:0:0:0:
312,176,36721,1,0,0:0:0:0:
316,57,36851,1,0,0:0:0:0:
196,113,36982,1,8,0:0:0:0:
196,113,37243,5,0,0:0:0:0:
217,7,37504,1,0,0:0:0:0:
207,223,37634,1,0,0:0:0:0:
207,223,38025,5,8,0:0:0:0:
215,231,38547,1,8,0:0:0:0:
309,298,38808,5,0,0:0:0:0:
313,193,38938,1,0,0:0:0:0:
200,333,39069,1,8,0:0:0:0:
200,333,39330,5,0,0:0:0:0:
114,245,39591,1,0,0:0:0:0:
176,135,39721,1,0,0:0:0:0:
176,135,40112,5,8,0:0:0:0:
181,129,40634,1,8,0:0:0:0:
252,49,40895,1,0,0:0:0:0:
287,152,41025,1,0,0:0:0:0:
147,29,41156,1,8,0:0:0:0:
147,29,41417,5,0,0:0:0:0:
141,39,41678,1,0,0:0:0:0:
58,117,41808,1,0,0:0:0:0:
109,226,42199,5,8,0:0:0:0:
116,234,42721,1,8,0:0:0:0:
168,329,42982,1,0,0:0:0:0:
234,226,43112,1,0,0:0:0:0:
298,324,43243,1,8,0:0:0:0:
298,324,43504,5,2,0:0:0:0:
304,315,43764,1,0,0:0:0:0:
369,224,43895,1,0,0:0:0:0:
365,214,44286,5,8,0:0:0:0:
359,202,44808,1,8,0:0:0:0:
301,83,45069,1,0,0:0:0:0:
430,95,45199,1,0,0:0:0:0:
237,197,45330,1,8,0:0:0:0:
237,197,45591,5,0,0:0:0:0:
228,203,45851,1,8,0:0:0:0:
135,288,45982,1,0,0:0:0:0:
135,288,46373,1,8,0:0:0:0:
101,167,46895,5,8,0:0:0:0:
112,159,47156,1,0,0:0:0:0:
210,81,47286,1,0,0:0:0:0:
92,49,47417,1,8,0:0:0:0:
92,49,47678,5,0,0:0:0:0:
97,54,47938,1,8,0:0:0:0:
220,200,48069,1,0,0:0:0:0:
220,200,48460,5,8,0:0:0:0:
227,205,48982,1,8,0:0:0:0:
235,210,49243,1,0,0:0:0:0:
344,281,49373,1,0,0:0:0:0:
218,330,49504,1,8,0:0:0:0:
218,330,49764,5,2,0:0:0:0:
224,322,50025,1,8,0:0:0:0:
349,172,50156,1,0,0:0:0:0:
339,166,50417,1,0,0:0:0:0:
330,161,50482,1,0,0:0:0:0:
321,155,50547,1,10,0:0:0:0:
349,172,50808,5,8,0:0:0:0:
226,228,50938,1,8,0:0:0:0:
434,223,51069,1,8,0:0:0:0:
407,123,51199,1,8,0:0:0:0:
353,310,51330,1,8,0:0:0:0:
451,234,51460,5,0,0:0:0:0:
426,109,51591,1,0,0:0:0:0:
353,310,51851,6,0,L|232:318,1,95,4|0,0:0|0:0,0:0:0:0:
81,326,52112,1,0,0:0:0:0:
168,232,52243,2,0,P|180:298|72:318,1,190,8|0,0:0|0:0,0:0:0:0:
101,168,52634,2,0,P|159:137|202:146,1,95,8|0,0:0|0:0,0:0:0:0:
261,202,52895,1,8,0:0:0:0:
168,232,53025,1,0,0:0:0:0:
186,139,53156,1,0,0:0:0:0:
260,306,53286,2,0,P|171:336|81:310,1,190,8|0,0:0|0:0,0:0:0:0:
332,256,53678,6,0,P|350:333|327:370,1,95,8|0,0:0|0:0,0:0:0:0:
261,201,53938,2,0,P|335:168|424:247,1,190,8|0,0:0|0:0,0:0:0:0:
185,267,54330,2,0,P|162:205|189:153,1,95,8|0,0:0|0:0,0:0:0:0:
224,103,54591,1,0,0:0:0:0:
185,267,54721,2,0,L|-17:275,1,190,12|0,0:0|0:0,0:0:0:0:
188,366,55243,6,0,L|203:272,1,95,2|0,0:0|0:0,0:0:0:0:
218,181,55504,2,0,L|233:274,1,95,2|0,0:0|0:0,0:0:0:0:
259,384,55764,6,0,L|274:290,1,95,2|0,0:0|0:0,0:0:0:0:
293,187,56025,2,0,L|308:280,1,95,14|0,0:0|0:0,0:0:0:0:
380,348,56286,1,0,0:0:0:0:
387,354,56417,2,0,B|430:265|355:240|412:130,1,190,8|0,0:0|0:0,0:0:0:0:
474,119,56808,2,0,P|487:183|465:227,1,95,8|0,0:0|0:0,0:0:0:0:
235,146,57069,2,0,P|315:114|402:184,1,190,8|0,0:0|0:0,0:0:0:0:
383,184,57395,1,0,0:0:0:0:
374,195,57460,2,0,B|339:117|415:96|364:-7,1,190,8|0,0:0|0:0,0:0:0:0:
287,52,57851,6,0,L|193:47,1,95,8|0,0:0|0:0,0:0:0:0:
45,160,58112,2,0,L|235:146,1,190,8|0,0:0|0:0,0:0:0:0:
443,232,58504,2,0,P|383:280|327:267,1,95,8|0,0:0|0:0,0:0:0:0:
295,230,58764,1,0,0:0:0:0:
382,91,58895,2,0,L|368:285,1,190,12|0,0:0|0:0,0:0:0:0:
266,336,59286,1,0,0:0:0:0:
185,249,59417,2,0,L|185:201,1,47.5,8|0,0:0|0:0,0:0:0:0:
84,179,59547,1,0,0:0:0:0:
84,179,59612,1,0,0:0:0:0:
84,179,59678,2,0,L|85:285,1,95,8|0,0:0|0:0,0:0:0:0:
167,354,59938,5,8,0:0:0:0:
171,114,60069,1,8,0:0:0:0:
287,347,60199,6,0,L|287:128,1,190,12|0,0:0|0:0,0:0:0:0:
288,6,60591,1,0,0:0:0:0:
386,145,60721,1,0,0:0:0:0:
223,73,60851,1,0,0:0:0:0:
404,27,60982,2,0,L|398:153,1,95,8|0,0:0|0:0,0:0:0:0:
270,248,61243,6,0,P|204:255|173:241,1,95,2|0,0:0|0:0,0:0:0:0:
0,130,61504,2,0,P|45:120|91:133,1,95,2|0,0:0|0:0,0:0:0:0:
132,359,61764,1,8,0:0:0:0:
40,203,61895,1,0,0:0:0:0:
270,248,62025,2,0,L|263:368,1,95
208,153,62286,2,0,P|276:139|380:242,1,190,8|0,0:0|0:0,0:0:0:0:
378,368,62678,5,0,0:0:0:0:
373,379,62808,2,0,P|351:321|371:274,1,95,8|0,0:0|0:0,0:0:0:0:
446,260,63069,2,0,P|468:202|448:155,1,95
380,82,63330,5,8,0:0:0:0:
382,210,63460,1,0,0:0:0:0:
460,60,63591,2,0,P|418:9|361:2,1,95
184,44,63851,5,8,0:0:0:0:
372,90,63982,1,0,0:0:0:0:
298,0,64112,1,0,0:0:0:0:
233,232,64243,1,0,0:0:0:0:
487,60,64373,1,12,0:0:0:0:
507,56,64634,5,0,0:0:0:0:
447,180,64764,1,0,0:0:0:0:
384,303,64895,1,8,0:0:0:0:
384,303,65156,5,0,0:0:0:0:
300,177,65286,1,0,0:0:0:0:
493,265,65417,1,0,0:0:0:0:
284,370,65547,1,0,0:0:0:0:
472,355,65678,1,0,0:0:0:0:
283,282,65808,1,0,0:0:0:0:
417,217,65938,5,8,0:0:0:0:
200,333,66069,1,0,0:0:0:0:
189,82,66199,1,0,0:0:0:0:
383,366,66460,5,4,0:0:0:0:
383,362,66982,5,2,0:0:0:0:
383,360,67373,5,0,0:0:0:0:
382,350,67438,1,0,0:0:0:0:
381,340,67504,1,10,0:0:0:0:
374,228,67634,1,8,0:0:0:0:
298,353,67764,1,8,0:0:0:0:
461,290,67895,1,10,0:0:0:0:
232,271,68025,1,8,0:0:0:0:
405,139,68156,2,0,B|464:68|296:-2|328:137|226:93|226:93|201:137,1,249.375002378225,2|0,0:0|0:0,0:0:0:0:
147,114,68417,6,0,P|140:18|226:104,1,285.000010871888,12|0,0:3|0:0,0:0:0:0:
132,342,68808,2,0,L|111:191,1,142.500005435944,8|0,0:0|0:0,0:0:0:0:
427,61,69069,2,0,L|407:202,1,142.500005435944,8|0,0:0|0:0,0:0:0:0:
234,375,69330,1,8,0:0:0:0:
306,60,69460,1,8,0:0:0:0:
468,280,69591,2,0,P|403:305|338:278,1,142.500005435944,6|0,0:0|0:0,0:0:0:0:
200,22,69851,5,10,0:0:0:0:
512,131,69982,1,0,0:0:0:0:
234,134,70112,2,0,L|389:135,1,142.500005435944,8|0,0:0|0:0,0:0:0:0:
118,104,70373,5,10,0:0:0:0:
241,334,70504,1,10,0:0:0:0:
376,38,70634,2,0,B|354:92|354:92|377:134|377:134|302:240|392:340,1,285.000010871888,12|0,0:0|0:0,0:0:0:0:
489,169,71025,1,0,0:0:0:0:
179,17,71156,2,0,P|89:2|38:34,1,142.500005435944,8|0,0:0|0:0,0:0:0:0:
121,281,71417,2,0,B|188:312|241:287|241:287|241:309|241:309|293:274|363:294,1,237.5,12|0,0:0|0:0,0:0:0:0:
481,349,71808,5,0,0:0:0:0:
190,205,71938,1,12,0:0:0:0:
498,209,72069,1,0,0:0:0:0:
161,57,72199,1,12,0:0:0:0:
313,380,72330,1,0,0:0:0:0:
306,24,72460,1,12,0:0:0:0:
152,384,72591,1,0,0:0:0:0:
482,153,72721,6,0,P|390:107|182:164,1,285.000010871888,12|8,0:3|0:0,0:0:0:0:
88,288,73112,1,0,0:0:0:0:
300,210,73243,1,0,0:0:0:0:
55,144,73373,1,0,0:0:0:0:
55,144,73438,1,0,0:0:0:0:
55,144,73504,1,8,0:0:0:0:
203,288,73634,1,0,0:0:0:0:
195,17,73764,2,0,B|175:77|206:126|206:126|208:169|180:208|180:208|210:251|201:330,1,285.000010871888,4|8,0:0|0:0,0:0:0:0:
277,64,74156,5,0,0:0:0:0:
144,345,74286,2,0,P|243:361|281:309,1,142.500005435944,8|0,0:0|0:0,0:0:0:0:
317,10,74547,2,0,L|294:195,1,142.500005435944,8|0,0:0|0:0,0:0:0:0:
379,340,74808,2,0,P|378:264|294:362,1,285.000010871888,12|0,0:0|0:0,0:0:0:0:
485,282,75199,2,0,P|459:206|379:159,1,142.500005435944,8|0,0:0|0:0,0:0:0:0:
161,107,75460,1,0,0:0:0:0:
489,384,75591,2,0,L|479:79,1,285.000010871888,8|0,0:0|0:0,0:0:0:0:
270,42,75982,5,0,0:0:0:0:
311,215,76112,1,8,0:0:0:0:
395,29,76243,1,0,0:0:0:0:
395,29,76308,1,0,0:0:0:0:
395,29,76373,1,8,0:0:0:0:
386,332,76504,1,8,0:0:0:0:
211,206,76634,6,0,P|255:137|351:117,1,142.5
421,150,76895,2,0,P|369:186|196:72,1,285.000010871888,12|0,0:0|0:0,0:0:0:0:
54,8,77286,2,0,L|49:154,1,142.500005435944,8|0,0:0|0:0,0:0:0:0:
39,342,77547,1,0,0:0:0:0:
274,40,77678,2,0,P|201:14|124:40,1,142.500005435944,8|0,0:0|0:0,0:0:0:0:
2,247,77938,1,8,0:0:0:0:
291,179,78069,1,0,0:0:0:0:
140,29,78199,1,8,0:0:0:0:
194,309,78330,1,0,0:0:0:0:
365,111,78460,2,0,P|298:87|230:102,1,142.500005435944,8|0,0:0|0:0,0:0:0:0:
29,165,78721,6,0,P|108:190|196:149,1,142.500005435944,8|0,0:0|0:0,0:0:0:0:
320,3,78982,2,0,P|389:-12|324:124,1,285.000010871888,8|0,0:0|0:0,0:0:0:0:
129,35,79373,1,8,0:0:0:0:
368,60,79504,1,0,0:0:0:0:
160,254,79634,1,0,0:0:0:0:
239,0,79764,2,0,L|234:147,1,142.500005435944,8|0,0:0|0:0,0:0:0:0:
228,340,80025,5,8,0:0:0:0:
310,166,80156,1,2,0:0:0:0:
248,361,80286,1,2,0:0:0:0:
338,179,80417,1,0,0:0:0:0:
436,308,80547,6,0,P|357:320|292:248,1,142.500005435944,12|0,0:0|0:0,0:0:0:0:
194,127,80808,2,0,P|106:108|42:137,1,142.500005435944,4|0,0:0|0:0,0:0:0:0:
308,286,81069,2,0,B|353:262|354:201|310:167|310:167|348:89|308:0,1,285.000010871888,12|0,0:0|0:0,0:0:0:0:
253,366,81460,2,0,P|350:375|404:328,1,142.500005435944,8|0,0:0|0:0,0:0:0:0:
413,107,81721,1,0,0:0:0:0:
92,240,81851,2,0,L|265:236,1,142.500005435944,8|0,0:0|0:0,0:0:0:0:
491,191,82112,1,8,0:0:0:0:
135,99,82243,1,0,0:0:0:0:
384,352,82373,2,0,L|382:191,1,142.500005435944,8|0,0:0|0:0,0:0:0:0:
251,14,82634,5,8,0:0:0:0:
176,346,82764,1,0,0:0:0:0:
414,43,82895,2,0,L|262:42,1,142.500005435944,8|0,0:0|0:0,0:0:0:0:
43,115,83156,5,8,0:0:0:0:
353,165,83286,1,8,0:0:0:0:
4,200,83417,1,8,0:0:0:0:
191,261,83547,1,8,0:0:0:0:
161,0,83678,2,0,L|159:162,1,142.500005435944
172,274,83938,1,0,0:0:0:0:
274,136,84069,5,2,0:0:0:0:
273,239,84199,1,8,0:0:0:0:
177,181,84330,1,2,0:0:0:0:
274,136,84460,1,8,0:0:0:0:
372,193,84591,5,2,0:0:0:0:
187,88,84721,1,8,0:0:0:0:
165,300,84851,1,10,0:0:0:0:
280,30,84982,1,8,0:0:0:0:
260,384,85112,2,8,B|309:324|237:271|289:222|289:222|247:150|301:79,1,285.000010871888,12|0,0:3|0:0,0:0:0:0:
498,110,85504,2,0,L|346:153,1,142.500005435944,8|0,0:0|0:0,0:0:0:0:
62,86,85764,2,0,P|144:54|226:82,1,142.500005435944,8|0,0:0|0:0,0:0:0:0:
379,245,86025,5,8,0:0:0:0:
293,13,86156,1,8,0:0:0:0:
359,382,86286,2,0,P|384:302|368:215,1,142.500005435944,4|0,0:0|0:0,0:0:0:0:
284,22,86547,2,0,L|270:183,1,142.500005435944,8|0,0:0|0:0,0:0:0:0:
148,378,86808,2,0,L|135:236,1,142.500005435944,8|0,0:0|0:0,0:0:0:0:
379,85,87069,5,8,0:0:0:0:
289,301,87199,1,8,0:0:0:0:
293,40,87330,2,0,P|307:170|438:171,1,285.000010871888,4|0,0:0|0:0,0:0:0:0:
512,92,87721,1,10,0:0:0:0:
424,284,87851,2,0,P|333:296|252:239,1,142.500005435944,8|0,0:0|0:0,0:0:0:0:
131,14,88112,2,0,B|84:82|129:149|129:149|89:203|121:279,1,237.5,12|0,0:0|0:0,0:0:0:0:
282,53,88504,1,0,0:0:0:0:
172,374,88634,5,10,0:0:0:0:
36,151,88764,1,0,0:0:0:0:
366,166,88895,1,10,0:0:0:0:
115,247,89025,1,0,0:0:0:0:
377,54,89156,1,10,0:0:0:0:
267,384,89286,1,0,0:0:0:0:
78,54,89417,2,0,P|208:8|326:79,1,285.000010871888,12|8,0:3|0:0,0:0:0:0:
409,252,89808,5,0,0:0:0:0:
199,107,89938,1,0,0:0:0:0:
465,136,90069,1,0,0:0:0:0:
267,270,90199,5,8,0:0:0:0:
337,83,90330,1,8,0:0:0:0:
338,337,90460,2,0,P|253:360|187:324,1,142.500005435944,8|0,0:0|0:0,0:0:0:0:
102,101,90721,2,0,L|135:259,1,142.500005435944,8|0,0:0|0:0,0:0:0:0:
438,366,90982,2,0,P|425:293|359:239,1,142.500005435944,10|0,0:0|0:0,0:0:0:0:
36,239,91243,2,0,L|204:242,1,142.500005435944,10|0,0:0|0:0,0:0:0:0:
340,73,91504,6,0,P|271:187|407:233,1,285.000010871888,12|0,0:0|0:0,0:0:0:0:
413,15,91895,2,0,P|336:-14|268:7,1,142.500005435944,8|0,0:0|0:0,0:0:0:0:
123,137,92156,1,0,0:0:0:0:
447,323,92286,2,0,P|496:223|338:177,1,285.000010871888,8|2,0:0|0:0,0:0:0:0:
145,300,92678,1,0,0:0:0:0:
398,242,92808,1,2,0:0:0:0:
242,95,92938,1,0,0:0:0:0:
294,326,93069,5,8,0:0:0:0:
122,144,93199,1,8,0:0:0:0:
393,97,93330,1,8,0:0:0:0:
402,102,93591,6,0,B|426:125|426:125|418:276,1,142.500005435944,4|0,0:0|0:0,0:0:0:0:
213,377,93851,1,0,0:0:0:0:
251,0,93982,2,0,L|239:142,1,142.500005435944,8|0,0:0|0:0,0:0:0:0:
311,335,94243,1,0,0:0:0:0:
85,229,94373,1,8,0:0:0:0:
333,117,94504,1,0,0:0:0:0:
35,305,94634,6,0,P|-8:239|168:201,1,285.000010871888,8|2,0:0|0:0,0:0:0:0:
291,351,95025,1,0,0:0:0:0:
405,177,95156,1,2,0:0:0:0:
180,298,95286,1,0,0:0:0:0:
477,250,95417,2,0,P|499:165|462:98,1,142.500005435944,10|0,0:0|0:0,0:0:0:0:
91,86,95678,6,0,L|84:238,1,142.500005435944,12|0,0:0|0:0,0:0:0:0:
315,189,95938,1,0,0:0:0:0:
163,21,96069,2,0,P|67:1|-14:49,1,142.500005435944,8|0,0:0|0:0,0:0:0:0:
282,304,96330,1,0,0:0:0:0:
306,60,96460,2,0,P|286:139|328:199,1,142.500005435944,8|0,0:0|0:0,0:0:0:0:
454,278,96721,5,0,0:0:0:0:
473,248,96786,1,0,0:0:0:0:
477,212,96851,1,0,0:0:0:0:
463,178,96917,1,0,0:0:0:0:
444,147,96982,2,0,P|415:63|444:13,1,142.500005435944,8|0,0:0|0:0,0:0:0:0:
392,219,97243,1,2,0:0:0:0:
501,82,97373,1,0,0:0:0:0:
380,229,97504,6,0,L|234:232,1,142.500005435944,8|0,0:0|0:0,0:0:0:0:
186,124,97764,2,0,P|241:236|121:220,1,285.000010871888,12|0,0:0|0:0,0:0:0:0:
113,58,98156,2,0,P|195:30|276:79,1,142.500005435944,8|0,0:0|0:0,0:0:0:0:
365,244,98417,1,0,0:0:0:0:
62,64,98547,2,0,P|191:5|317:68,1,285.000010871888,8|0,0:0|0:0,0:0:0:0:
156,239,98938,1,0,0:0:0:0:
323,0,99069,2,0,L|307:182,1,142.500005435944,8|0,0:0|0:0,0:0:0:0:
201,343,99330,1,8,0:0:0:0:
170,69,99460,1,0,0:0:0:0:
328,383,99591,2,0,L|314:226,1,142.500005435944,8|0,0:0|0:0,0:0:0:0:
188,151,99851,5,4,0:0:0:0:
357,231,99982,1,8,0:0:0:0:
148,267,100112,1,8,0:0:0:0:
286,133,100243,1,8,0:0:0:0:
233,352,100373,5,4,0:0:0:0:
382,131,100504,5,8,0:0:0:0:
129,358,100634,1,8,0:0:0:0:
334,327,100764,1,8,0:0:0:0:
40,182,100895,5,4,0:0:0:0:
323,336,101025,1,8,0:0:0:0:
9,312,101156,1,8,0:0:0:0:
202,164,101286,1,8,0:0:0:0:
123,365,101417,5,4,0:0:0:0:
361,92,101547,1,8,0:0:0:0:
5,144,101678,1,8,0:0:0:0:
391,287,101808,1,8,0:0:0:0:
195,32,101938,6,0,L|187:352,1,285.000010871888,12|12,0:3|0:0,0:0:0:0:
399,152,102330,1,0,0:0:0:0:
49,270,102460,1,8,0:0:0:0:
298,306,102591,1,8,0:0:0:0:
76,50,102721,1,8,0:0:0:0:
167,384,102851,2,0,L|170:231,1,142.500005435944,2|0,0:0|0:0,0:0:0:0:
259,12,103112,5,0,0:0:0:0:
13,161,103243,1,8,0:0:0:0:
377,235,103373,1,0,0:0:0:0:
164,9,103504,2,0,L|166:192,1,142.500005435944,10|0,0:0|0:0,0:0:0:0:
385,380,103764,2,0,L|383:237,1,142.500005435944,10|0,0:0|0:0,0:0:0:0:
300,7,104025,1,10,0:0:0:0:
231,236,104156,1,2,0:0:0:0:
422,84,104286,1,2,0:0:0:0:
150,166,104417,6,0,P|131:255|176:342,1,142.500005435944,10|0,0:0|0:0,0:0:0:0:
492,157,104678,2,0,P|511:89|496:20,1,142.500005435944,10|0,0:0|0:0,0:0:0:0:
57,380,104938,2,0,P|146:400|243:239,1,285.000010871888,10|0,0:0|0:0,0:0:0:0:
174,53,105330,2,0,L|162:236,1,142.500005435944,8|0,0:0|0:0,0:0:0:0:
346,267,105591,6,0,P|306:188|232:168,1,142.500005435944,8|0,0:0|0:0,0:0:0:0:
347,373,105851,2,0,P|417:346|433:252,1,142.500005435944,8|0,0:0|0:0,0:0:0:0:
412,51,106112,2,0,L|425:231,1,142.500005435944,12|0,0:0|0:0,0:0:0:0:
32,105,106373,2,0,B|131:105|131:105|204:81|204:81|318:81,1,285.000010871888
512,222,106764,1,0,0:0:0:0:
199,225,106895,6,10,L|203:78,1,142.500005435944,10|0,0:0|0:0,0:0:0:0:
275,309,107156,2,0,P|195:345|131:319,1,142.500005435944,10|0,0:0|0:0,0:0:0:0:
349,118,107417,1,0,0:0:0:0:
423,248,107547,1,0,0:0:0:0:
17,351,107678,2,0,P|97:315|161:341,1,142.500005435944,8|0,0:0|0:0,0:0:0:0:
340,383,107938,2,0,P|376:303|350:239,1,142.500005435944,8|0,0:0|0:0,0:0:0:0:
157,17,108199,6,0,L|159:201,1,142.500005435944,8|2,0:0|0:0,0:0:0:0:
283,304,108460,1,2,0:0:0:0:
78,72,108591,2,0,L|80:256,1,142.500005435944,8|2,0:0|0:0,0:0:0:0:
344,168,108851,1,2,0:0:0:0:
0,144,108982,2,0,L|2:328,1,142.500005435944,8|0,0:0|0:0,0:0:0:0:
158,172,109243,1,0,0:0:0:0:
178,29,109373,1,0,0:0:0:0:
134,313,109504,2,0,L|278:307,1,142.500005435944,8|0,0:0|0:0,0:0:0:0:
451,193,109764,1,8,0:0:0:0:
249,154,109895,6,0,P|235:212|378:236,1,237.5,8|0,0:0|0:0,0:0:0:0:
451,193,110286,2,0,L|455:352,1,142.500005435944,12|0,0:0|0:0,0:0:0:0:
512,117,110547,1,0,0:0:0:0:
380,343,110678,2,0,P|304:369|225:333,1,142.500005435944,8|0,0:0|0:0,0:0:0:0:
85,169,110938,1,0,0:0:0:0:
313,55,111069,2,0,P|340:126|307:199,1,142.500005435944,8|0,0:0|0:0,0:0:0:0:
134,339,111330,1,0,0:0:0:0:
246,114,111460,1,0,0:0:0:0:
253,345,111591,1,2,0:0:0:0:
128,74,111721,1,0,0:0:0:0:
478,148,111851,6,0,P|398:172|331:146,1,142.500005435944,8|0,0:0|0:0,0:0:0:0:
198,27,112112,2,0,P|169:112|218:194,1,142.500005435944,8|0,0:0|0:0,0:0:0:0:
395,87,112373,2,0,P|311:39|353:152,1,285.000010871888,12|0,0:0|0:0,0:0:0:0:
422,312,112764,2,0,P|450:227|417:151,1,142.500005435944,8|0,0:0|0:0,0:0:0:0:
198,27,113025,1,0,0:0:0:0:
214,238,113156,2,0,L|356:240,1,142.500005435944,8|0,0:0|0:0,0:0:0:0:
109,54,113417,6,0,P|148:111|247:102,1,142.500005435944,2|0,0:0|0:0,0:0:0:0:
28,0,113678,2,0,P|17:70|59:152,1,142.500005435944,2|0,0:0|0:0,0:0:0:0:
83,283,113938,2,0,P|106:212|53:248,1,142.500005435944,2|0,0:0|0:0,0:0:0:0:
30,361,114199,2,0,P|104:372|187:334,1,142.500005435944,10|0,0:0|0:0,0:0:0:0:
237,96,114460,6,0,L|230:294,1,142.500005435944,12|0,0:0|0:0,0:0:0:0:
281,358,114721,1,0,0:0:0:0:
351,112,114851,2,0,P|290:73|202:87,1,142.500005435944,8|0,0:0|0:0,0:0:0:0:
309,256,115112,1,0,0:0:0:0:
439,169,115243,2,0,P|444:82|394:16,1,142.500005435944,8|0,0:0|0:0,0:0:0:0:
262,161,115504,1,0,0:0:0:0:
415,261,115634,2,0,P|510:236|536:180,1,142.500005435944,8|0,0:0|0:0,0:0:0:0:
222,76,115895,1,0,0:0:0:0:
401,384,116025,6,0,P|427:311|397:232,1,142.500005435944,8|0,0:0|0:0,0:0:0:0:
151,4,116286,2,0,P|125:77|155:156,1,142.500005435944,8|0,0:0|0:0,0:0:0:0:
332,316,116547,1,8,0:0:0:0:
220,93,116678,1,0,0:0:0:0:
217,327,116808,1,0,0:0:0:0:
312,54,116938,1,0,0:0:0:0:
54,331,117069,2,0,L|226:328,1,142.500005435944,12|0,0:0|0:0,0:0:0:0:
397,212,117330,5,0,0:0:0:0:
216,184,117460,2,0,L|217:350,1,142.500005435944,8|0,0:0|0:0,0:0:0:0:
388,332,117721,1,0,0:0:0:0:
132,40,117851,2,0,L|131:225,1,142.500005435944,8|0,0:0|0:0,0:0:0:0:
128,331,118112,5,8,0:0:0:0:
313,199,118243,1,8,0:0:0:0:
37,182,118373,1,8,0:0:0:0:
280,300,118504,1,8,0:0:0:0:
278,100,118634,1,2,0:0:0:0:
281,107,120460,5,0,0:0:0:0:
290,118,120591,1,0,0:0:0:0:
299,128,120721,1,0,0:0:0:0:
354,198,121504,5,0,0:0:0:0:
239,268,122286,1,0,0:0:0:0:
241,89,122808,1,4,0:0:0:0:
249,99,124633,5,0,0:0:0:0:
258,110,124764,1,0,0:0:0:0:
267,122,124895,2,0,L|326:190,1,71.2500027179719
231,207,125156,2,0,L|290:275,1,71.2500027179719
191,312,125417,2,0,L|250:380,1,71.2500027179719
66,154,125678,6,0,L|132:234,1,95
338,334,125938,2,0,L|277:260,1,95
83,29,126199,2,0,L|149:109,1,95
237,365,126460,1,0,0:0:0:0:
200,174,126591,1,0,0:0:0:0:
200,174,126982,6,0,L|320:173,1,95,4|0,0:0|0:0,0:0:0:0:
429,172,127243,1,8,0:0:0:0:
412,323,127373,2,0,P|372:255|435:169,1,190
506,321,127764,2,0,L|376:323,1,95,8|0,0:0|0:0,0:0:0:0:
272,326,128025,1,0,0:0:0:0:
272,326,128286,6,0,L|271:200,1,95,8|0,0:0|0:0,0:0:0:0:
268,102,128547,1,0,0:0:0:0:
363,205,128678,1,0,0:0:0:0:
191,154,128808,2,0,P|183:64|205:31,1,95,8|0,0:0|0:0,0:0:0:0:
457,96,129069,2,0,L|240:102,1,190,0|8,0:0|0:0,0:0:0:0:
55,116,129460,1,0,0:0:0:0:
139,219,129591,2,0,P|191:235|242:222,1,95
107,49,129851,2,0,P|63:34|17:41,1,95,8|0,0:0|0:0,0:0:0:0:
77,264,130112,6,0,P|114:179|27:113,1,190,0|8,0:0|0:0,0:0:0:0:
29,341,130504,2,0,P|93:352|136:333,1,95
212,258,130764,1,0,0:0:0:0:
210,141,130895,2,0,L|210:47,1,95,8|0,0:0|0:0,0:0:0:0:
224,350,131156,2,0,P|292:301|265:193,1,190,0|8,0:0|0:0,0:0:0:0:
122,250,131547,2,0,P|188:266|229:246,1,95
210,141,131808,1,0,0:0:0:0:
62,190,131938,2,0,P|32:269|123:340,1,190,8|0,0:0|0:0,0:0:0:0:
251,329,132330,5,0,0:0:0:0:
308,151,132460,2,0,L|312:19,1,95,8|0,0:0|0:0,0:0:0:0:
216,55,132721,1,0,0:0:0:0:
411,129,132851,1,0,0:0:0:0:
302,240,132982,2,0,L|180:242,1,95,8|0,0:0|0:0,0:0:0:0:
308,151,133243,2,0,P|385:210|359:315,1,190,4|2,0:0|0:0,0:0:0:0:
251,329,133634,1,0,0:0:0:0:
236,329,133895,5,0,0:0:0:0:
226,329,133960,1,0,0:0:0:0:
216,330,134025,2,0,L|85:327,1,95,4|0,0:0|0:0,0:0:0:0:
24,276,134286,5,8,0:0:0:0:
105,333,134417,1,0,0:0:0:0:
83,105,134547,1,8,0:0:0:0:
49,190,134678,1,0,0:0:0:0:
186,79,134808,1,8,0:0:0:0:
118,17,134938,1,8,0:0:0:0:
168,160,135069,1,8,0:0:0:0:
200,0,135199,1,8,0:0:0:0:
264,141,135330,6,0,L|263:272,1,95,4|0,0:0|0:0,0:0:0:0:
266,382,135591,1,2,0:0:0:0:
359,324,135721,2,0,P|378:265|366:217,1,95,8|0,0:0|0:0,0:0:0:0:
415,149,135982,1,0,0:0:0:0:
372,233,136112,2,0,P|431:243|483:219,1,95,8|0,0:0|0:0,0:0:0:0:
462,66,136373,2,0,P|416:54|370:65,1,95,8|0,0:0|0:0,0:0:0:0:
294,152,136634,2,0,P|248:162|202:151,1,95,0|8,0:0|0:0,0:0:0:0:
102,19,136895,1,0,0:0:0:0:
250,76,137025,1,0,0:0:0:0:
130,198,137156,2,0,P|120:127|170:76,1,142.5,8|0,0:0|0:0,0:0:0:0:
202,151,137417,6,0,P|220:204|204:273,1,95,8|0,0:0|0:0,0:0:0:0:
138,343,137678,1,0,0:0:0:0:
216,242,137808,2,0,P|296:228|349:246,1,95,8|0,0:0|0:0,0:0:0:0:
406,323,138069,1,0,0:0:0:0:
308,230,138199,2,0,B|307:34|307:34|347:132,1,285,12|0,0:0|0:0,0:0:0:0:
421,239,138721,5,2,0:0:0:0:
453,78,138851,1,0,0:0:0:0:
306,34,138982,1,2,0:0:0:0:
437,157,139112,1,0,0:0:0:0:
379,54,139243,2,0,L|348:155,1,95,10|0,0:0|0:0,0:0:0:0:
289,245,139504,6,0,P|262:175|356:148,1,190,4|8,0:0|0:0,0:0:0:0:
354,306,139895,2,0,P|310:333|253:325,1,95
149,253,140156,1,0,0:0:0:0:
354,306,140286,2,0,L|473:305,1,95,8|0,0:0|0:0,0:0:0:0:
149,253,140547,2,0,L|54:253,1,95,8|0,0:0|0:0,0:0:0:0:
0,348,140808,1,0,0:0:0:0:
216,318,140938,2,0,P|240:270|160:161,1,190,8|0,0:0|0:0,0:0:0:0:
91,74,141330,2,0,L|90:200,1,95,8|0,0:0|0:0,0:0:0:0:
173,19,141591,6,0,P|132:-10|-7:30,1,190,8|8,0:0|0:0,0:0:0:0:
184,108,141982,2,0,P|254:74|264:30,1,95,8|0,0:0|0:0,0:0:0:0:
324,2,142243,1,0,0:0:0:0:
320,143,142373,2,0,B|320:347|320:347|350:263,1,285,12|0,0:0|0:0,0:0:0:0:
409,193,142895,1,0,0:0:0:0:
423,342,143025,5,0,0:0:0:0:
436,322,143091,1,0,0:0:0:0:
449,302,143156,1,8,0:0:0:0:
501,211,143286,1,8,0:0:0:0:
347,270,143417,1,8,0:0:0:0:
470,118,143547,1,8,0:0:0:0:
508,362,143678,2,0,L|370:352,1,95,4|0,0:0|0:0,0:0:0:0:
269,320,143938,2,0,P|257:259|290:197,1,95,8|0,0:0|0:0,0:0:0:0:
368,97,144199,1,0,0:0:0:0:
347,270,144330,1,0,0:0:0:0:
283,83,144460,6,0,P|315:31|376:17,1,95,8|0,0:0|0:0,0:0:0:0:
471,116,144721,1,0,0:0:0:0:
403,200,144851,1,0,0:0:0:0:
368,97,144982,1,8,0:0:0:0:
505,217,145112,1,0,0:0:0:0:
303,177,145243,2,0,L|188:151,1,95,2|0,0:0|0:0,0:0:0:0:
175,60,145504,6,0,L|178:186,1,95,8|0,0:0|0:0,0:0:0:0:
187,332,145764,2,0,P|215:262|119:282,1,190,4|8,0:0|0:0,0:0:0:0:
69,369,146156,1,0,0:0:0:0:
285,357,146286,2,0,P|308:291|286:240,1,95
265,180,146547,1,8,0:0:0:0:
219,294,146678,1,0,0:0:0:0:
344,137,146808,2,0,P|295:96|183:148,1,190,2|8,0:0|0:0,0:0:0:0:
393,228,147199,1,0,0:0:0:0:
408,54,147330,5,8,0:0:0:0:
344,137,147460,2,8,L|476:138,1,95
512,227,147721,1,0,0:0:0:0:
502,54,147851,2,0,L|377:53,1,95,4|0,0:0|0:0,0:0:0:0:
286,45,148112,1,2,0:0:0:0:
344,137,148243,1,2,0:0:0:0:
222,134,148373,2,0,L|156:50,1,95,8|0,0:0|0:0,0:0:0:0:
170,214,148634,2,0,P|239:230|286:202,1,95
77,39,148895,1,2,0:0:0:0:
79,151,149025,1,2,0:0:0:0:
171,308,149156,6,0,L|170:214,1,95,6|0,0:0|0:0,0:0:0:0:
78,150,149417,2,0,L|80:245,1,95,6|0,0:0|0:0,0:0:0:0:
85,371,149678,1,2,0:0:0:0:
85,371,149938,5,8,0:0:0:0:
129,368,150025,1,0,0:0:0:0:
173,363,150112,1,0,0:0:0:0:
217,359,150199,1,0,0:0:0:0:
261,355,150286,1,0,0:0:0:0:
305,351,150373,1,0,0:0:0:0:
398,327,150460,5,8,0:0:0:0:
354,324,150547,1,0,0:0:0:0:
310,319,150634,1,0,0:0:0:0:
266,315,150721,1,0,0:0:0:0:
222,311,150808,1,0,0:0:0:0:
178,307,150895,1,0,0:0:0:0:
93,240,150982,5,2,0:0:0:0:
176,129,151243,5,2,0:0:0:0:
178,307,151373,1,2,0:0:0:0:
142,50,151634,5,2,0:0:0:0:
353,230,151895,6,0,P|430:253|499:212,1,166.250001585484,12|0,0:3|0:0,0:0:0:0:
496,13,152156,1,0,0:0:0:0:
499,212,152286,2,0,L|502:367,1,142.500005435944,8|0,0:0|0:0,0:0:0:0:
222,230,152547,2,0,L|219:87,1,142.500005435944,8|0,0:0|0:0,0:0:0:0:
397,66,152808,1,8,0:0:0:0:
290,297,152938,1,8,0:0:0:0:
135,45,153069,6,0,P|233:2|295:36,1,142.500005435944,12|0,0:3|0:0,0:0:0:0:
375,200,153330,1,8,0:0:0:0:
89,184,153460,1,0,0:0:0:0:
355,0,153591,1,8,0:0:0:0:
145,288,153721,1,0,0:0:0:0:
221,87,153851,5,8,0:0:0:0:
194,384,153982,1,8,0:0:0:0:
304,130,154112,2,0,P|307:57|136:59,1,285.000010871888,10|0,0:0|0:0,0:0:0:0:
85,255,154504,1,0,0:0:0:0:
377,186,154634,2,0,P|404:107|374:25,1,142.500005435944,10|0,0:0|0:0,0:0:0:0:
117,148,154895,2,0,L|98:408,1,237.5,14|0,0:0|0:0,0:0:0:0:
381,190,155286,5,2,0:0:0:0:
131,60,155417,1,14,0:0:0:0:
220,362,155547,1,0,0:0:0:0:
465,133,155678,1,12,0:0:0:0:
141,149,155808,1,0,0:0:0:0:
443,357,155938,1,12,0:0:0:0:
441,13,156069,1,0,0:0:0:0:
333,311,156199,2,0,P|275:223|353:59,1,285.000010871888,12|8,0:3|0:0,0:0:0:0:
465,133,156591,5,0,0:0:0:0:
163,148,156721,1,0,0:0:0:0:
372,200,156851,1,0,0:0:0:0:
212,48,156982,5,8,0:0:0:0:
218,277,157112,1,8,0:0:0:0:
448,144,157243,2,0,P|379:112|278:167,1,142.500005435944,8|0,0:0|0:0,0:0:0:0:
148,332,157504,2,0,P|217:364|318:309,1,142.500005435944,8|0,0:0|0:0,0:0:0:0:
230,79,157764,6,0,P|212:169|255:225,1,142.500005435944,12|0,0:0|0:0,0:0:0:0:
484,384,158025,2,0,L|465:242,1,142.500005435944,8|0,0:0|0:0,0:0:0:0:
144,44,158286,2,0,P|121:189|227:313,1,285.000010871888,14|0,0:0|0:0,0:0:0:0:
429,130,158678,6,0,P|341:115|275:168,1,142.500005435944,8|0,0:0|0:0,0:0:0:0:
289,331,158938,1,0,0:0:0:0:
495,199,159069,2,0,P|515:117|477:57,1,142.500005435944,8|0,0:0|0:0,0:0:0:0:
269,23,159330,1,0,0:0:0:0:
325,229,159460,1,0,0:0:0:0:
325,229,159525,1,0,0:0:0:0:
325,229,159591,1,10,0:0:0:0:
364,41,159721,5,0,0:0:0:0:
63,165,159851,1,8,0:0:0:0:
325,229,159982,1,8,0:0:0:0:
175,81,160112,6,0,P|169:149|196:229,1,135.374996385098
156,352,160373,2,0,B|132:270|187:213|187:213|149:125|188:51,1,285.000010871888,12|0,0:0|0:0,0:0:0:0:
398,298,160764,6,0,P|311:331|233:295,1,142.500005435944,8|0,0:0|0:0,0:0:0:0:
63,165,161025,1,0,0:0:0:0:
319,78,161156,2,0,L|314:234,1,142.500005435944,8|0,0:0|0:0,0:0:0:0:
195,384,161417,2,0,P|171:298|213:228,1,142.500005435944,8|0,0:0|0:0,0:0:0:0:
406,27,161678,1,8,0:0:0:0:
258,313,161808,1,0,0:0:0:0:
228,89,161938,1,8,0:0:0:0:
337,233,162069,1,0,0:0:0:0:
156,39,162199,6,0,P|245:1|313:44,1,142.500005435944,8|0,0:0|0:0,0:0:0:0:
416,297,162460,2,0,P|327:335|259:292,1,142.500005435944,8|0,0:0|0:0,0:0:0:0:
98,133,162721,1,0,0:0:0:0:
370,132,162851,2,0,L|538:130,1,142.500005435944,8|0,0:0|0:0,0:0:0:0:
209,249,163112,1,0,0:0:0:0:
370,131,163243,6,0,P|398:67|379:0,1,142.500005435944,8|0,0:0|0:0,0:0:0:0:
215,252,163504,2,0,P|187:316|206:384,1,142.500005435944,8|0,0:0|0:0,0:0:0:0:
316,63,163764,1,0,0:0:0:0:
289,335,163895,1,0,0:0:0:0:
301,45,164025,2,0,L|126:36,1,142.500005435944,8|0,0:0|0:0,0:0:0:0:
314,353,164286,2,0,P|351:279|325:202,1,142.500005435944,8|0,0:0|0:0,0:0:0:0:
34,57,164547,6,0,P|90:147|141:20,1,285.000010871888,12|0,0:0|0:0,0:0:0:0:
27,65,164938,2,0,L|31:244,1,142.500005435944,8|0,0:0|0:0,0:0:0:0:
40,341,165199,1,2,0:0:0:0:
65,330,165264,1,2,0:0:0:0:
91,317,165330,2,0,P|132:242|117:174,1,142.500005435944,10|0,0:0|0:0,0:0:0:0:
20,73,165591,1,0,0:0:0:0:
273,311,165721,1,0,0:0:0:0:
123,45,165851,2,0,L|124:226,1,142.500005435944,8|0,0:0|0:0,0:0:0:0:
96,323,166112,1,0,0:0:0:0:
443,68,166243,1,0,0:0:0:0:
126,193,166373,6,0,L|291:192,1,142.500005435944,8|0,0:0|0:0,0:0:0:0:
480,181,166634,1,8,0:0:0:0:
317,312,166764,1,8,0:0:0:0:
443,68,166895,1,8,0:0:0:0:
452,331,167025,1,0,0:0:0:0:
269,49,167156,2,0,L|268:213,1,142.500005435944,4|8,0:0|0:0,0:0:0:0:
203,344,167417,5,8,0:0:0:0:
402,192,167547,1,8,0:0:0:0:
140,246,167678,1,4,0:0:0:0:
331,300,167808,1,8,0:0:0:0:
80,325,167938,1,8,0:0:0:0:
268,191,168069,1,8,0:0:0:0:
200,361,168199,5,12,0:0:0:0:
290,165,168330,1,8,0:0:0:0:
63,334,168460,1,8,0:0:0:0:
433,202,168591,2,0,B|466:134|418:62|418:62|343:98|268:38,1,285.000010871888,14|0,0:3|0:0,0:0:0:0:
37,117,168982,2,0,L|203:124,1,142.500005435944,8|0,0:0|0:0,0:0:0:0:
433,202,169243,2,0,L|267:209,1,142.500005435944,8|0,0:0|0:0,0:0:0:0:
96,271,169504,5,8,0:0:0:0:
487,17,169634,1,8,0:0:0:0:
215,146,169764,2,0,P|190:237|217:288,1,142.500005435944,12|0,0:0|0:0,0:0:0:0:
512,263,170025,2,0,P|532:196|505:131,1,142.500005435944,8|0,0:0|0:0,0:0:0:0:
255,11,170286,5,8,0:0:0:0:
360,311,170417,1,0,0:0:0:0:
389,38,170547,5,8,0:0:0:0:
138,372,170678,1,8,0:0:0:0:
155,104,170808,2,0,P|267:104|192:219,1,285.000010871888,12|0,0:0|0:0,0:0:0:0:
21,203,171199,1,2,0:0:0:0:
319,22,171330,2,0,P|366:72|369:142,1,142.500005435944,8|0,0:0|0:0,0:0:0:0:
199,375,171591,6,0,B|235:303|193:235|193:235|236:183|191:102,1,237.5,12|0,0:0|0:0,0:0:0:0:
136,19,171982,1,2,0:0:0:0:
302,323,172112,1,14,0:0:0:0:
31,112,172243,1,0,0:0:0:0:
418,166,172373,1,12,0:0:0:0:
54,302,172504,1,0,0:0:0:0:
330,38,172634,1,12,0:0:0:0:
364,354,172764,1,0,0:0:0:0:
167,0,172895,6,0,L|169:172,1,142.500005435944,14|0,0:3|0:0,0:0:0:0:
250,336,173156,2,0,P|285:290|276:192,1,142.500005435944,8|0,0:0|0:0,0:0:0:0:
65,40,173417,1,8,0:0:0:0:
200,252,173547,1,0,0:0:0:0:
340,87,173678,5,8,0:0:0:0:
34,227,173808,1,8,0:0:0:0:
392,163,173938,2,0,P|433:95|413:32,1,142.500005435944,8|0,0:0|0:0,0:0:0:0:
151,330,174199,2,0,P|245:331|293:272,1,142.500005435944,8|0,0:0|0:0,0:0:0:0:
36,93,174460,2,0,P|15:183|61:253,1,142.500005435944,12|0,0:0|0:0,0:0:0:0:
339,234,174721,2,0,P|258:211|213:248,1,142.500005435944,8|0,0:0|0:0,0:0:0:0:
394,332,174982,6,0,P|446:249|309:125,1,285.000010871888,14|0,0:0|0:0,0:0:0:0:
136,229,175373,1,8,0:0:0:0:
339,234,175504,1,0,0:0:0:0:
176,2,175634,1,0,0:0:0:0:
169,308,175764,2,0,P|223:220|71:182,1,285.000010871888,12|8,0:0|0:0,0:0:0:0:
56,348,176156,5,0,0:0:0:0:
331,115,176286,1,8,0:0:0:0:
132,233,176417,1,0,0:0:0:0:
250,87,176547,1,8,0:0:0:0:
222,384,176678,1,8,0:0:0:0:
91,161,176808,2,0,P|177:162|208:279,1,213.750008153916,8|0,0:0|0:0,0:0:0:0:
314,380,177069,6,0,L|313:203,1,142.500005435944,14|0,0:0|0:0,0:0:0:0:
285,0,177330,1,0,0:0:0:0:
289,384,177460,2,0,B|289:198,1,142.500005435944,8|0,0:0|0:0,0:0:0:0:
354,58,177721,1,0,0:0:0:0:
412,332,177851,2,0,P|493:312|508:235,1,142.500005435944,8|0,0:0|0:0,0:0:0:0:
264,85,178112,2,0,P|321:144|427:118,1,142.500005435944,8|0,0:0|0:0,0:0:0:0:
497,64,178373,2,0,L|344:61,1,142.500005435944,10|0,0:0|0:0,0:0:0:0:
84,72,178634,5,10,0:0:0:0:
304,242,178764,1,0,0:0:0:0:
192,25,178895,2,0,P|175:108|224:170,1,142.500005435944,8|0,0:0|0:0,0:0:0:0:
307,384,179156,2,0,L|303:201,1,142.500005435944,12|0,0:0|0:0,0:0:0:0:
270,88,179417,1,0,0:0:0:0:
303,241,179547,2,0,P|392:192|390:96,1,142.500005435944,8|0,0:0|0:0,0:0:0:0:
407,3,179808,5,0,0:0:0:0:
207,248,179938,2,0,P|259:329|329:334,1,142.500005435944,8|0,0:0|0:0,0:0:0:0:
302,139,180199,1,10,0:0:0:0:
281,119,180264,1,2,0:0:0:0:
254,106,180330,1,2,0:0:0:0:
225,105,180395,1,2,0:0:0:0:
198,115,180460,2,0,P|111:114|70:65,1,142.500005435944,2|0,0:0|0:0,0:0:0:0:
156,39,180721,1,2,0:0:0:0:
233,195,180851,1,2,0:0:0:0:
171,29,180982,6,0,P|251:13|330:38,1,142.500005435944,8|0,0:0|0:0,0:0:0:0:
232,337,181243,2,0,L|233:174,1,142.500005435944,12|0,0:0|0:0,0:0:0:0:
436,88,181504,1,0,0:0:0:0:
356,241,181634,2,0,P|284:281|216:247,1,142.500005435944,8|0,0:0|0:0,0:0:0:0:
106,180,181895,1,0,0:0:0:0:
408,184,182025,2,0,P|455:285|356:238,1,285.000010871888,12|0,0:0|0:0,0:0:0:0:
393,18,182417,1,0,0:0:0:0:
412,242,182547,6,0,L|403:73,1,142.500005435944,8|0,0:0|0:0,0:0:0:0:
343,354,182808,2,0,P|441:374|509:320,1,142.500005435944,8|0,0:0|0:0,0:0:0:0:
331,63,183069,2,0,P|289:130|390:78,1,285.000010871888,8|0,0:0|0:0,0:0:0:0:
226,24,183460,1,8,0:0:0:0:
350,118,183591,1,8,0:0:0:0:
143,151,183721,1,8,0:0:0:0:
239,33,183851,6,0,L|249:179,1,142.500005435944,12|8,0:0|0:0,0:0:0:0:
266,348,184112,1,8,0:0:0:0:
124,284,184243,1,8,0:0:0:0:
390,249,184373,5,12,0:0:0:0:
111,301,184504,1,8,0:0:0:0:
411,259,184634,1,8,0:0:0:0:
273,375,184764,1,8,0:0:0:0:
219,37,184895,1,12,0:0:0:0:
250,266,185025,1,8,0:0:0:0:
352,118,185156,1,8,0:0:0:0:
63,176,185286,1,8,0:0:0:0:
372,119,185417,6,0,L|533:96,1,142.500005435944,14|0,0:0|0:0,0:0:0:0:
240,356,185678,2,0,P|183:311|198:198,1,142.500005435944,10|0,0:0|0:0,0:0:0:0:
213,23,185938,1,2,0:0:0:0:
264,255,186069,1,0,0:0:0:0:
0,111,186199,2,0,L|180:108,1,142.500005435944,8|0,0:0|0:0,0:0:0:0:
458,168,186460,1,2,0:0:0:0:
192,167,186591,1,0,0:0:0:0:
473,0,186721,2,0,L|475:142,1,142.500005435944,10|0,0:0|0:0,0:0:0:0:
377,262,186982,5,2,0:0:0:0:
145,80,187112,1,0,0:0:0:0:
335,29,187243,2,0,P|343:98|295:147,1,142.500005435944,10|0,0:0|0:0,0:0:0:0:
60,256,187504,2,0,B|181:257|181:257|240:228|240:228|298:249|352:226,1,285.000010871888,2|10,0:0|0:0,0:0:0:0:
474,144,187895,1,0,0:0:0:0:
254,79,188025,1,2,0:0:0:0:
476,264,188156,1,0,0:0:0:0:
292,0,188286,2,0,P|220:3|168:63,1,142.500005435944,10|0,0:0|0:0,0:0:0:0:
227,304,188547,6,0,L|228:154,1,142.500005435944,2|0,0:0|0:0,0:0:0:0:
292,0,188808,1,10,0:0:0:0:
315,241,188938,1,0,0:0:0:0:
128,83,189069,1,2,0:0:0:0:
382,34,189199,1,0,0:0:0:0:
315,241,189330,2,0,P|260:167|272:106,1,142.500005435944,10|0,0:0|0:0,0:0:0:0:
457,234,189591,2,0,L|280:242,1,142.500005435944,6|0,0:0|0:0,0:0:0:0:
115,194,189851,2,0,P|111:291|179:338,1,142.500005435944,10|0,0:0|0:0,0:0:0:0:
295,368,190112,1,2,0:0:0:0:
190,244,190243,1,0,0:0:0:0:
316,382,190373,6,0,L|314:211,1,142.500005435944,10|0,0:0|0:0,0:0:0:0:
219,30,190634,2,0,L|218:110,1,71.2500027179719,2|0,0:0|0:0,0:0:0:0:
313,213,190764,1,0,0:0:0:0:
313,213,190830,1,0,0:0:0:0:
313,213,190895,2,0,L|314:107,1,71.2500027179719,10|0,0:0|0:0,0:0:0:0:
307,14,191025,1,0,0:0:0:0:
393,135,191156,1,2,0:0:0:0:
204,196,191286,1,2,0:0:0:0:
409,22,191417,1,10,0:0:0:0:
403,264,191547,1,2,0:0:0:0:
218,101,191678,6,0,L|395:101,1,142.500005435944,2|0,0:0|0:0,0:0:0:0:
467,326,191938,2,0,P|383:353|314:287,1,142.500005435944,10|0,0:0|0:0,0:0:0:0:
329,307,192134,1,0,0:0:0:0:
322,293,192199,2,0,P|245:265|216:286,1,71.2500027179719,2|0,0:0|0:0,0:0:0:0:
163,319,192330,2,0,P|240:347|269:326,1,71.2500027179719
168,227,192460,2,0,P|90:252|71:328,1,142.500005435944,10|0,0:0|0:0,0:0:0:0:
237,174,192721,2,0,L|237:6,1,142.500005435944,2|0,0:0|0:0,0:0:0:0:
107,114,192982,1,10,0:0:0:0:
333,136,193112,1,0,0:0:0:0:
136,20,193243,5,8,0:0:0:0:
323,238,193373,2,0,P|420:228|328:141,1,285.000010871888,8|0,0:0|0:0,0:0:0:0:
168,227,193764,2,0,B|149:268|149:268|197:371,1,142.500005435944,14|0,0:0|0:0,0:0:0:0:
326,330,194025,1,2,0:0:0:0:
226,150,194156,2,0,P|144:137|80:190,1,142.500005435944,8|2,0:0|0:0,0:0:0:0:
35,275,194417,1,0,0:0:0:0:
276,244,194547,2,0,P|322:169|187:45,1,285.000010871888,10|2,0:0|0:0,0:0:0:0:
19,48,194938,1,0,0:0:0:0:
207,42,195069,6,0,L|383:45,1,142.500005435944,10|0,0:0|0:0,0:0:0:0:
512,152,195330,2,0,L|336:155,1,142.500005435944,10|0,0:0|0:0,0:0:0:0:
133,241,195591,2,0,L|309:244,1,142.500005435944,8|0,0:0|0:0,0:0:0:0:
511,343,195851,2,0,L|206:350,1,285.000010871888,14|2,0:0|0:0,0:0:0:0:
67,311,196243,2,0,P|37:228|211:186,1,285.000010871888,8|0,0:0|0:0,0:0:0:0:
240,264,196634,2,0,P|288:185|163:43,1,285.000010871888,8|2,0:0|0:0,0:0:0:0:
64,51,197025,1,0,0:0:0:0:
188,44,197156,2,0,L|330:41,1,142.500005435944,10|0,0:0|0:0,0:0:0:0:
183,159,197417,2,0,L|41:162,1,142.500005435944,10|0,0:0|0:0,0:0:0:0:
240,264,197678,2,0,L|382:261,1,142.500005435944,10|0,0:0|0:0,0:0:0:0:
157,329,197938,6,0,B|115:257|184:160|184:160|133:92|194:17,1,285.000010871888,14|2,0:0|0:0,0:0:0:0:
252,95,198330,1,0,0:0:0:0:
76,147,198460,1,2,0:0:0:0:
259,207,198591,1,0,0:0:0:0:
259,207,198656,1,0,0:0:0:0:
259,207,198721,2,0,B|278:243|278:243|259:369,1,142.500005435944,10|0,0:0|0:0,0:0:0:0:
169,119,198982,1,2,0:0:0:0:
354,154,199112,1,0,0:0:0:0:
176,274,199243,6,0,L|22:280,1,142.500005435944,10|0,0:0|0:0,0:0:0:0:
277,78,199504,1,2,0:0:0:0:
259,100,199569,1,0,0:0:0:0:
250,127,199634,1,0,0:0:0:0:
252,155,199699,1,0,0:0:0:0:
266,179,199764,5,2,0:0:0:0:
282,202,199830,1,0,0:0:0:0:
287,229,199895,1,0,0:0:0:0:
281,256,199960,1,0,0:0:0:0:
261,276,200025,2,0,B|232:310|232:310|362:315,1,142.500005435944,10|0,0:0|0:0,0:0:0:0:
429,320,200286,1,2,0:0:0:0:
375,229,200417,1,0,0:0:0:0:
317,338,200547,6,0,L|493:344,1,142.500005435944,8|0,0:0|0:0,0:0:0:0:
490,229,200808,1,10,0:0:0:0:
418,131,200938,1,0,0:0:0:0:
361,242,201069,1,8,0:0:0:0:
502,213,201199,1,8,0:0:0:0:
482,65,201330,2,0,B|412:22|342:73|342:73|300:66|240:92,1,213.750008153916,2|0,0:0|0:0,0:0:0:0:
312,151,201591,2,0,P|241:149|291:1,1,285.000010871888,8|0,0:0|0:0,0:0:0:0:
181,358,202112,5,2,0:0:0:0:
256,192,208373,5,2,0:0:0:0:
325,286,208895,1,0,0:0:0:0:
370,179,209417,1,0,0:0:0:0:
299,83,209938,5,0,0:0:0:0:
256,192,210199,1,0,0:0:0:0:
216,289,210330,1,0,0:0:0:0:
211,302,210395,1,0,0:0:0:0:
206,315,210460,1,0,0:0:0:0:
184,100,210721,5,0,0:0:0:0:
318,278,210982,1,0,0:0:0:0:
124,206,211243,1,0,0:0:0:0:
361,184,211504,1,0,0:0:0:0:
80,325,211764,1,0,0:0:0:0:
309,95,212025,1,0,0:0:0:0:
319,379,212286,1,0,0:0:0:0:
0,102,212547,5,4,0:0:0:0:
236,16,212808,1,0,0:0:0:0:
166,253,213069,1,0,0:0:0:0:
118,0,213330,1,0,0:0:0:0:
383,101,213591,1,0,0:0:0:0:
14,181,213851,5,0,0:0:0:0:
133,135,213982,1,0,0:0:0:0:
247,97,214112,1,0,0:0:0:0:
107,251,214373,1,0,0:0:0:0:
162,35,214634,5,8,0:0:0:0:
170,62,214721,1,0,0:0:0:0:
179,89,214808,1,0,0:0:0:0:
189,115,214895,1,0,0:0:0:0:
199,141,214982,1,0,0:0:0:0:
210,166,215069,1,0,0:0:0:0:
219,192,215156,1,0,0:0:0:0:
230,217,215243,1,0,0:0:0:0:
240,243,215330,1,0,0:0:0:0:
273,322,215417,5,8,0:0:0:0:
283,296,215504,1,0,0:0:0:0:
294,271,215591,1,0,0:0:0:0:
303,245,215678,1,0,0:0:0:0:
314,220,215765,1,0,0:0:0:0:
324,194,215852,1,0,0:0:0:0:
334,168,215939,1,0,0:0:0:0:
343,141,216026,1,0,0:0:0:0:
351,114,216113,1,0,0:0:0:0:
363,80,216199,5,8,0:0:0:0:
427,148,216330,1,8,0:0:0:0:
414,9,216460,1,8,0:0:0:0:
505,85,216591,1,8,0:0:0:0:
267,98,216721,6,0,L|173:89,1,71.2500027179719,2|0,0:0|0:0,0:0:0:0:
196,179,217112,2,0,L|102:170,1,71.2500027179719,2|0,0:0|0:0,0:0:0:0:
128,276,217504,1,2,0:0:0:0:
318,196,217634,5,0,0:0:0:0:
318,196,217699,1,0,0:0:0:0:
318,196,217764,2,0,L|319:273,1,59.375,8|0,0:0|0:0,0:0:0:0:
236,363,217895,2,0,L|235:303,1,59.375,8|0,0:0|0:0,0:0:0:0:
148,188,218025,2,8,L|149:276,1,59.375,8|0,0:0|0:0,0:0:0:0:
58,369,218156,2,0,L|59:238,1,118.75,8|0,0:0|0:0,0:0:0:0:
412,247,218417,2,0,L|414:373,1,118.75,8|0,0:0|0:0,0:0:0:0:
58,369,218678,6,0,L|59:48,1,285.000010871888,14|0,0:3|0:0,0:0:0:0:
469,123,219069,6,0,L|298:145,1,142.500005435944,8|0,0:0|0:0,0:0:0:0:
0,17,219330,2,0,L|156:-1,1,142.500005435944,8|0,0:0|0:0,0:0:0:0:
496,64,219591,5,10,0:0:0:0:
45,103,219721,1,8,0:0:0:0:
264,352,219851,2,0,B|308:329|308:329|292:278|321:227,1,142.500005435944,8|0,0:0|0:0,0:0:0:0:
395,26,220112,1,8,0:0:0:0:
380,292,220243,1,0,0:0:0:0:
164,83,220373,2,0,B|150:148|150:148|218:203,1,142.500005435944,10|0,0:0|0:0,0:0:0:0:
388,296,220634,5,8,0:0:0:0:
43,282,220764,1,8,0:0:0:0:
170,0,220895,2,0,P|229:-17|312:148,1,285.000010871888,12|0,0:0|0:0,0:0:0:0:
100,369,221286,1,0,0:0:0:0:
232,76,221417,2,0,P|325:64|381:120,1,142.500005435944,8|0,0:0|0:0,0:0:0:0:
84,382,221678,6,0,B|64:338|80:303|80:303|30:213|100:112,1,237.5,12|0,0:0|0:0,0:0:0:0:
261,7,222069,1,0,0:0:0:0:
334,334,222199,1,14,0:0:0:0:
161,0,222330,1,0,0:0:0:0:
381,209,222460,1,12,0:0:0:0:
69,70,222591,1,0,0:0:0:0:
144,382,222721,1,12,0:0:0:0:
256,0,222851,1,0,0:0:0:0:
351,336,222982,6,0,P|385:200|329:71,1,285.000010871888,14|8,0:3|0:0,0:0:0:0:
50,10,223373,1,0,0:0:0:0:
256,286,223504,1,0,0:0:0:0:
256,16,223634,1,0,0:0:0:0:
101,283,223764,5,8,0:0:0:0:
251,37,223895,1,8,0:0:0:0:
254,285,224025,2,0,P|339:383|446:309,1,285.000010871888,12|0,0:0|0:0,0:0:0:0:
146,18,224417,1,0,0:0:0:0:
389,112,224547,2,0,P|439:161|456:230,1,142.500005435944,8|0,0:0|0:0,0:0:0:0:
56,230,224808,2,0,P|72:161|122:112,1,142.500005435944,8|0,0:0|0:0,0:0:0:0:
295,268,225069,6,0,P|178:291|213:177,1,285.000010871888,12|0,0:0|0:0,0:0:0:0:
380,230,225460,2,0,P|379:300|342:360,1,142.500005435944,12|0,0:0|0:0,0:0:0:0:
107,360,225721,1,0,0:0:0:0:
391,108,225851,2,0,P|431:244|387:380,1,285.000010871888,12|0,0:0|0:0,0:0:0:0:
79,356,226243,1,0,0:0:0:0:
167,152,226373,2,0,L|310:155,1,142.500005435944,8|0,0:0|0:0,0:0:0:0:
512,150,226634,5,8,0:0:0:0:
275,352,226764,1,8,0:0:0:0:
94,77,226895,2,0,P|74:194|98:244,1,142.5
106,274,227156,6,0,P|143:217|18:242,1,285.000010871888,14|0,0:0|0:0,0:0:0:0:
118,381,227547,2,0,P|202:338|228:260,1,142.500005435944,8|0,0:0|0:0,0:0:0:0:
248,70,227808,1,0,0:0:0:0:
298,356,227938,2,0,P|307:262|251:205,1,142.500005435944,8|0,0:0|0:0,0:0:0:0:
180,65,228199,2,0,P|272:131|278:9,1,285.000010871888,8|8,0:0|0:0,0:0:0:0:
57,50,228591,1,0,0:0:0:0:
370,217,228721,1,8,0:0:0:0:
248,70,228851,1,0,0:0:0:0:
303,278,228982,6,0,P|395:303|460:245,1,142.500005435944,8|0,0:0|0:0,0:0:0:0:
141,57,229243,2,0,P|181:142|345:113,1,285.000010871888,8|0,0:0|0:0,0:0:0:0:
425,48,229634,2,0,P|445:144|410:200,1,142.500005435944,8|0,0:0|0:0,0:0:0:0:
225,323,229895,1,0,0:0:0:0:
252,26,230025,2,0,B|249:195,1,142.500005435944,8|0,0:0|0:0,0:0:0:0:
384,361,230286,5,8,0:0:0:0:
385,166,230417,1,0,0:0:0:0:
403,343,230547,1,0,0:0:0:0:
407,74,230678,1,0,0:0:0:0:
419,325,230808,6,0,P|437:241|404:185,1,142.500005435944,12|0,0:0|0:0,0:0:0:0:
348,3,231069,2,0,P|321:68|342:135,1,142.500005435944,8|0,0:0|0:0,0:0:0:0:
347,268,231330,2,0,B|303:337|203:309|202:226|202:226|133:228|104:148,1,285.000010871888,12|0,0:0|0:0,0:0:0:0:
58,110,231721,2,0,P|28:188|62:267,1,142.500005435944,12|0,0:0|0:0,0:0:0:0:
164,371,231982,1,0,0:0:0:0:
139,83,232112,2,0,P|91:28|10:40,1,142.500005435944,12|0,0:0|0:0,0:0:0:0:
46,257,232373,5,8,0:0:0:0:
286,88,232504,1,0,0:0:0:0:
114,187,232634,2,0,L|296:188,1,142.500005435944,8|0,0:0|0:0,0:0:0:0:
451,199,232895,1,8,0:0:0:0:
281,305,233025,1,0,0:0:0:0:
426,41,233156,2,0,L|425:186,1,142.500005435944,8|0,0:0|0:0,0:0:0:0:
403,346,233417,5,0,0:0:0:0:
474,215,233547,1,8,0:0:0:0:
332,208,233678,1,0,0:0:0:0:
512,316,233808,1,0,0:0:0:0:
287,322,233938,2,0,L|104:316,1,142.500005435944,12|0,0:0|0:0,0:0:0:0:
124,330,234199,5,0,0:0:0:0:
195,219,234330,1,0,0:0:0:0:
74,221,234460,1,12,0:0:0:0:
229,329,234591,1,0,0:0:0:0:
141,135,234721,1,12,0:0:0:0:
8,316,234851,1,0,0:0:0:0:
143,122,234982,5,12,0:0:0:0:
243,347,235112,1,8,0:0:0:0:
0,326,235243,1,8,0:0:0:0:
191,58,235373,2,0,P|227:142|74:177,1,285.000010871888,12|0,0:3|0:0,0:0:0:0:
290,55,235764,2,0,L|497:64,1,142.500005435944,8|0,0:0|0:0,0:0:0:0:
185,311,236025,2,0,L|-22:320,1,142.500005435944,8|0,0:0|0:0,0:0:0:0:
82,60,236286,5,8,0:0:0:0:
340,233,236417,1,8,0:0:0:0:
42,317,236547,2,0,P|27:227|64:149,1,142.500005435944,12|0,0:3|0:0,0:0:0:0:
355,76,236808,2,0,L|352:250,1,142.500005435944,8|0,0:0|0:0,0:0:0:0:
125,384,237069,2,0,L|127:241,1,142.500005435944,8|0,0:0|0:0,0:0:0:0:
242,67,237330,5,8,0:0:0:0:
260,292,237460,1,8,0:0:0:0:
0,63,237591,2,0,P|122:1|242:67,1,285.000010871888,12|0,0:0|0:0,0:0:0:0:
351,323,237982,1,0,0:0:0:0:
463,39,238112,2,0,P|396:17|331:42,1,142.500005435944,8|0,0:0|0:0,0:0:0:0:
131,287,238373,6,0,P|40:219|169:226,1,285.000010871888,12|0,0:0|0:0,0:0:0:0:
274,343,238764,1,2,0:0:0:0:
106,230,238895,1,14,0:0:0:0:
302,110,239025,1,0,0:0:0:0:
103,367,239156,1,12,0:0:0:0:
225,49,239286,1,0,0:0:0:0:
21,384,239417,1,12,0:0:0:0:
313,23,239547,1,0,0:0:0:0:
48,304,239678,6,0,B|19:255|42:216|42:216|-15:117|55:96|26:20,1,285.000010871888,12|8,0:3|0:0,0:0:0:0:
181,351,240069,1,0,0:0:0:0:
303,15,240199,1,0,0:0:0:0:
117,251,240330,1,0,0:0:0:0:
416,134,240460,5,8,0:0:0:0:
111,132,240591,1,8,0:0:0:0:
317,335,240721,2,0,P|380:364|447:345,1,142.500005435944,8|0,0:0|0:0,0:0:0:0:
176,65,240982,2,0,P|112:35|45:55,1,142.500005435944,8|0,0:0|0:0,0:0:0:0:
0,313,241243,2,0,L|174:298,1,142.500005435944,12|0,0:0|0:0,0:0:0:0:
450,23,241504,2,0,L|308:36,1,142.500005435944,8|0,0:0|0:0,0:0:0:0:
0,313,241764,6,0,P|120:365|196:258,1,285.000010871888,12|2,0:0|0:0,0:0:0:0:
235,23,242156,2,0,P|197:135|321:91,1,285.000010871888,12|2,0:0|0:0,0:0:0:0:
103,22,242547,2,0,P|88:134|213:261,1,285.000010871888,12|0,0:0|0:0,0:0:0:0:
490,155,242938,1,0,0:0:0:0:
195,255,243069,2,0,L|338:257,1,142.500005435944,8|0,0:0|0:0,0:0:0:0:
396,149,243330,5,8,0:0:0:0:
128,327,243460,1,8,0:0:0:0:
247,56,243591,2,0,P|277:167|246:222,1,142.5
156,226,243851,6,0,P|244:184|330:324,1,285.000010871888,12|0,0:0|0:0,0:0:0:0:
86,301,244243,2,0,P|59:210|96:136,1,142.500005435944,8|0,0:0|0:0,0:0:0:0:
202,52,244504,1,0,0:0:0:0:
155,352,244634,2,0,P|70:386|9:351,1,142.500005435944,8|0,0:0|0:0,0:0:0:0:
288,0,244895,2,0,B|313:70|269:135|269:135|319:204|281:300,1,285.000010871888,8|10,0:0|0:0,0:0:0:0:
202,52,245286,1,0,0:0:0:0:
371,242,245417,1,10,0:0:0:0:
135,164,245547,1,0,0:0:0:0:
428,160,245678,6,0,P|462:249|424:317,1,142.500005435944,10|0,0:0|0:0,0:0:0:0:
40,216,245938,2,0,P|144:164|225:320,1,285.000010871888,12|0,0:0|0:0,0:0:0:0:
283,382,246330,2,0,L|283:222,1,142.500005435944,8|0,0:0|0:0,0:0:0:0:
293,28,246591,1,0,0:0:0:0:
135,260,246721,2,0,L|135:100,1,142.500005435944,8|0,0:0|0:0,0:0:0:0:
385,0,246982,2,0,P|378:83|202:82,1,285.000010871888,8|10,0:0|0:0,0:0:0:0:
112,0,247373,5,0,0:0:0:0:
11,219,247504,2,0,P|96:268|175:223,1,142.500005435944,10|0,0:0|0:0,0:0:0:0:
373,175,247764,2,0,P|305:158|240:183,1,142.500005435944,8|0,0:0|0:0,0:0:0:0:
441,294,248025,2,0,P|486:221|378:50,1,285.000010871888,12|0,0:0|0:0,0:0:0:0:
140,206,248417,2,0,P|204:280|279:274,1,142.500005435944,12|0,0:0|0:0,0:0:0:0:
390,175,248678,1,0,0:0:0:0:
203,113,248808,2,0,P|117:99|36:154,1,142.500005435944,12|0,0:0|0:0,0:0:0:0:
320,359,249069,5,0,0:0:0:0:
376,159,249199,1,0,0:0:0:0:
150,362,249330,2,0,L|338:361,1,142.500005435944,8|0,0:0|0:0,0:0:0:0:
338,82,249591,2,0,P|285:151|332:238,1,142.500005435944,8|0,0:0|0:0,0:0:0:0:
411,384,249851,2,0,P|440:300|279:293,1,285.000010871888,12|0,0:0|0:0,0:0:0:0:
201,365,250243,1,8,0:0:0:0:
201,110,250373,1,8,0:0:0:0:
359,320,250504,1,8,0:0:0:0:
292,0,250634,6,0,L|292:157,1,142.500005435944,12|8,0:0|0:0,0:0:0:0:
131,333,250895,1,8,0:0:0:0:
396,131,251025,1,8,0:0:0:0:
119,347,251156,5,12,0:0:0:0:
175,16,251286,1,8,0:0:0:0:
463,295,251417,1,8,0:0:0:0:
67,132,251547,1,8,0:0:0:0:
480,309,251678,1,12,0:0:0:0:
323,28,251808,1,8,0:0:0:0:
253,378,251938,1,8,0:0:0:0:
459,40,252069,1,8,0:0:0:0:
49,363,252199,2,0,L|48:221,1,142.500005435944,12|0,0:3|0:0,0:0:0:0:
339,35,252460,6,0,L|341:178,1,142.500005435944,8|0,0:0|0:0,0:0:0:0:
124,361,252721,1,8,0:0:0:0:
217,17,252851,1,8,0:0:0:0:
498,243,252982,1,0,0:0:0:0:
124,228,253112,2,0,B|179:227|179:227|209:247|209:247|296:242,1,142.500005435944,8|0,0:0|0:0,0:0:0:0:
512,245,253373,1,0,0:0:0:0:
134,104,253504,1,8,0:0:0:0:
413,310,253634,1,0,0:0:0:0:
274,0,253764,6,0,L|273:152,1,142.500005435944,8|0,0:0|0:0,0:0:0:0:
267,384,254025,1,8,0:0:0:0:
380,13,254156,1,0,0:0:0:0:
125,325,254286,5,8,0:0:0:0:
389,113,254417,1,8,0:0:0:0:
108,333,254547,1,8,0:0:0:0:
422,207,254678,2,0,P|478:126|468:62,1,142.500005435944,8|0,0:0|0:0,0:0:0:0:
116,28,254938,2,0,P|68:79|61:149,1,142.500005435944,8|0,0:0|0:0,0:0:0:0:
225,384,255199,2,0,B|224:322|224:322|242:280|242:280|222:225|222:225|245:173|245:173|228:131|250:85,1,285.000010871888,12|0,0:0|0:0,0:0:0:0:
294,0,255591,5,8,0:0:0:0:
341,356,255721,1,0,0:0:0:0:
176,13,255851,1,8,0:0:0:0:
485,108,255982,1,0,0:0:0:0:
71,60,256112,1,8,0:0:0:0:
510,5,256243,1,0,0:0:0:0:
27,250,256373,2,0,P|136:327|247:253,1,285.000010871888,12|0,0:0|0:0,0:0:0:0:
320,55,256764,5,0,0:0:0:0:
68,85,256895,1,0,0:0:0:0:
339,273,257025,1,0,0:0:0:0:
202,74,257156,2,0,L|59:75,1,142.500005435944,8|0,0:0|0:0,0:0:0:0:
330,258,257417,2,0,P|374:204|363:136,1,142.500005435944,8|0,0:0|0:0,0:0:0:0:
181,274,257678,2,0,L|324:273,1,142.500005435944,8|0,0:0|0:0,0:0:0:0:
12,264,257938,5,8,0:0:0:0:
133,370,258069,1,0,0:0:0:0:
124,98,258199,1,8,0:0:0:0:
27,275,258330,1,0,0:0:0:0:
213,134,258460,2,0,P|204:52|34:101,1,285.000010871888,12|0,0:0|0:0,0:0:0:0:
205,243,258851,2,0,P|292:205|303:116,1,142.500005435944,8|0,0:0|0:0,0:0:0:0:
324,9,259112,1,0,0:0:0:0:
321,188,259243,2,0,L|321:367,1,142.500005435944,8|0,0:0|0:0,0:0:0:0:
213,134,259504,5,0,0:0:0:0:
430,238,259634,1,0,0:0:0:0:
196,347,259764,1,0,0:0:0:0:
326,180,259895,1,0,0:0:0:0:
335,169,259960,1,0,0:0:0:0:
344,158,260025,1,8,0:0:0:0:
478,85,260156,5,8,0:0:0:0:
388,238,260286,2,0,P|315:268|238:209,1,142.5
214,167,260547,6,0,P|172:250|215:328,1,142.500005435944,12|0,0:0|0:0,0:0:0:0:
334,384,260808,1,0,0:0:0:0:
296,113,260938,2,0,P|211:80|135:122,1,142.500005435944,8|0,0:0|0:0,0:0:0:0:
9,202,261199,1,0,0:0:0:0:
311,210,261330,2,0,P|389:144|283:7,1,285.000010871888,8|0,0:0|0:0,0:0:0:0:
79,109,261721,5,0,0:0:0:0:
311,210,261851,2,0,L|465:213,1,142.500005435944,8|0,0:0|0:0,0:0:0:0:
193,382,262112,2,0,P|165:293|196:242,1,142.500005435944,8|0,0:0|0:0,0:0:0:0:
233,4,262373,2,0,P|254:70|225:133,1,142.500005435944,8|0,0:0|0:0,0:0:0:0:
46,293,262634,2,0,P|141:214|143:358,1,285.000010871888,12|0,0:0|0:0,0:0:0:0:
0,376,263025,1,8,0:0:0:0:
0,147,263156,1,0,0:0:0:0:
120,296,263286,1,0,0:0:0:0:
131,24,263417,6,0,L|130:179,1,142.500005435944,8|0,0:0|0:0,0:0:0:0:
237,373,263678,1,0,0:0:0:0:
283,119,263808,1,0,0:0:0:0:
186,293,263938,1,8,0:0:0:0:
129,54,264069,1,0,0:0:0:0:
237,373,264199,2,0,P|279:295|241:217,1,142.500005435944,8|0,0:0|0:0,0:0:0:0:
222,42,264460,2,0,P|319:27|383:74,1,142.500005435944,8|0,0:0|0:0,0:0:0:0:
409,251,264721,6,0,L|249:245,1,142.500005435944,12|0,0:0|0:0,0:0:0:0:
68,251,264982,1,0,0:0:0:0:
448,337,265112,2,0,P|502:268|470:182,1,142.500005435944,8|0,0:0|0:0,0:0:0:0:
387,38,265373,1,0,0:0:0:0:
226,336,265504,2,0,P|177:286|177:216,1,142.500005435944,8|0,0:0|0:0,0:0:0:0:
288,6,265764,1,0,0:0:0:0:
177,216,265895,2,0,P|68:233|39:77,1,285.000010871888,8|0,0:0|0:0,0:0:0:0:
251,152,266286,2,0,P|263:255|215:290,1,142.500005435944,8|0,0:0|0:0,0:0:0:0:
160,121,266547,2,0,P|228:41|316:50,1,142.500005435944,8|0,0:0|0:0,0:0:0:0:
502,109,266808,6,0,L|328:108,1,142.500005435944,8|8,0:0|0:0,0:0:0:0:
82,66,267069,1,8,0:0:0:0:
355,232,267199,1,8,0:0:0:0:
259,35,267330,2,0,L|258:197,1,142.500005435944,4|0,0:0|0:0,0:0:0:0:
268,380,267591,1,8,0:0:0:0:
457,232,267721,1,8,0:0:0:0:
107,313,267851,2,0,B|166:313|166:313|201:294|201:294|301:294,1,142.500005435944,12|0,0:0|0:0,0:0:0:0:
462,374,268112,6,0,L|455:206,1,142.500005435944,8|8,0:0|0:0,0:0:0:0:
370,86,268373,1,8,0:0:0:0:
370,86,268438,1,8,0:0:0:0:
370,86,268504,2,0,L|368:188,1,71.2500027179719,8|0,0:0|0:0,0:0:0:0:
371,320,268634,1,8,0:0:0:0:
187,29,268764,1,8,0:0:0:0:
192,384,268895,1,12,0:0:0:0:
256,192,269156,12,0,272938,0:0:0:0:
