osu file format v14

[General]
AudioFilename: audio.mp3
AudioLeadIn: 0
PreviewTime: 48934
Countdown: 0
SampleSet: Soft
StackLeniency: 0.8
Mode: 0
LetterboxInBreaks: 0
WidescreenStoryboard: 0

[Editor]
DistanceSpacing: 0.8
BeatDivisor: 8
GridSize: 32
TimelineZoom: 3.099999

[Metadata]
Title:Ai La La
TitleUnicode:爱啦啦
Artist:Hai Nan
ArtistUnicode:海楠
Creator:Yusomi
Version:Hard
Source:
Tags:
BeatmapID:1420041
BeatmapSetID:671645

[Difficulty]
HPDrainRate:4
CircleSize:4
OverallDifficulty:6
ApproachRate:7
SliderMultiplier:1.9
SliderTickRate:1

[Events]
//Background and Video events
0,0,"Konachan.com - 254912 2girls animal_ears aqua_eyes aqua_hair blonde_hair blue_eyes collar dress game_cg karakara karakara_2 long_hair lucia_haynes necklace p19 twintails.png",0,0
//Break Periods
2,57176,64076
2,137176,144076
//Storyboard Layer 0 (Background)
//Storyboard Layer 1 (Fail)
//Storyboard Layer 2 (Pass)
//Storyboard Layer 3 (Foreground)
//Storyboard Sound Samples

[TimingPoints]
976,500,4,2,0,60,1,0
16976,-90.9090909090909,4,2,0,60,0,0
19976,-74.0740740740741,4,2,0,60,0,0
20976,-90.9090909090909,4,2,0,60,0,0
23976,-74.0740740740741,4,2,0,60,0,0
24976,-90.9090909090909,4,2,0,60,0,0
27976,-74.0740740740741,4,2,0,60,0,0
28976,-90.9090909090909,4,2,0,60,0,0
35976,-74.0740740740741,4,2,0,60,0,0
36976,-90.9090909090909,4,2,0,60,0,0
39976,-74.0740740740741,4,2,0,60,0,0
40976,-90.9090909090909,4,2,0,60,0,0
43976,-74.0740740740741,4,2,0,60,0,0
44976,-90.9090909090909,4,2,0,60,0,0
46976,-74.0740740740741,4,2,0,60,0,0
47976,-90.9090909090909,4,2,0,60,0,0
48976,-83.3333333333333,4,2,0,60,0,1
56976,-83.3333333333333,4,2,0,60,0,0
64976,-90.9090909090909,4,2,0,60,0,0
67976,-68.9655172413793,4,2,0,60,0,0
68976,-90.9090909090909,4,2,0,60,0,0
71976,-68.9655172413793,4,2,0,60,0,0
72976,-90.9090909090909,4,2,0,60,0,0
75976,-68.9655172413793,4,2,0,60,0,0
76976,-90.9090909090909,4,2,0,60,0,0
83976,-68.9655172413793,4,2,0,60,0,0
84976,-90.9090909090909,4,2,0,60,0,0
87976,-68.9655172413793,4,2,0,60,0,0
88976,-90.9090909090909,4,2,0,60,0,0
91976,-68.9655172413793,4,2,0,60,0,0
92976,-90.9090909090909,4,2,0,60,0,0
94976,-68.9655172413793,4,2,0,60,0,0
95976,-90.9090909090909,4,2,0,60,0,0
96976,-133.333333333333,4,2,0,60,0,0
104976,-90.9090909090909,4,2,0,60,0,0
107976,-68.9655172413793,4,2,0,60,0,0
108976,-90.9090909090909,4,2,0,60,0,0
120976,-90.9090909090909,4,2,0,60,0,0
123976,-68.9655172413793,4,2,0,60,0,0
124976,-90.9090909090909,4,2,0,60,0,0
127976,-68.9655172413793,4,2,0,60,0,0
128976,-90.9090909090909,4,2,0,60,0,0
131976,-68.9655172413793,4,2,0,60,0,0
132976,-90.9090909090909,4,2,0,60,0,0
134976,-68.9655172413793,4,2,0,60,0,0
135976,-90.9090909090909,4,2,0,60,0,0
136976,-133.333333333333,4,2,0,37,0,0
144976,-83.3333333333333,4,2,0,60,0,1
160976,-80,4,2,0,60,0,0
170976,-76.9230769230769,4,2,0,85,0,0

[Colours]
Combo1 : 255,149,157
Combo2 : 255,227,170
Combo3 : 255,159,255
Combo4 : 194,121,255
Combo5 : 150,254,252
Combo6 : 217,255,147
SliderTrackOverride : 90,17,60

[HitObjects]
87,56,976,6,0,P|68:102|80:157,1,95,2|0,0:0|0:0,0:0:0:0:
231,145,1476,2,0,P|237:99|219:56,1,95,2|0,0:0|0:0,0:0:0:0:
153,112,1976,1,2,0:0:0:0:
153,202,2226,1,2,0:0:0:0:
75,247,2476,1,8,0:0:0:0:
152,291,2726,1,0,0:0:0:0:
231,248,2976,6,0,P|262:282|309:294,1,95,2|0,0:0|0:0,0:0:0:0:
309,204,3476,2,0,P|269:167|231:158,1,95,8|0,0:0|0:0,0:0:0:0:
153,202,3976,1,2,0:0:0:0:
244,355,4476,2,0,P|306:307|379:304,1,142.5,8|0,0:0|0:0,0:0:0:0:
394,265,4976,6,0,P|412:218|409:168,1,95,2|0,0:0|0:0,0:0:0:0:
399,85,5476,2,0,L|305:92,1,95,8|0,0:0|0:0,0:0:0:0:
215,80,5976,1,2,0:0:0:0:
125,68,6226,1,2,0:0:0:0:
113,158,6476,1,8,0:0:0:0:
203,170,6726,1,0,0:0:0:0:
292,181,6976,6,0,L|387:175,1,95,2|0,0:0|0:0,0:0:0:0:
459,121,7476,1,8,0:0:0:0:
470,211,7726,1,0,0:0:0:0:
481,301,7976,2,0,P|463:343|412:374,1,95,2|8,0:0|0:0,0:0:0:0:
393,288,8476,1,8,0:0:0:0:
393,288,8601,1,0,0:0:0:0:
393,288,8726,1,8,0:0:0:0:
357,198,8976,6,0,P|318:225|300:268,1,95,2|0,0:0|0:0,0:0:0:0:
321,355,9476,2,0,L|225:351,1,95,8|0,0:0|0:0,0:0:0:0:
95,199,9976,2,0,P|133:225|152:268,1,95,2|0,0:0|0:0,0:0:0:0:
131,355,10476,2,0,L|227:351,1,95,8|0,0:0|0:0,0:0:0:0:
305,208,10976,5,0,0:0:0:0:
226,165,11226,1,0,0:0:0:0:
149,120,11476,1,8,0:0:0:0:
305,119,11726,1,0,0:0:0:0:
227,75,11976,2,0,P|262:40|310:30,1,95,2|2,0:0|0:0,0:0:0:0:
384,163,12476,2,0,P|349:198|301:208,1,95,8|0,0:0|0:0,0:0:0:0:
308,298,12976,5,2,0:0:0:0:
393,325,13226,1,0,0:0:0:0:
483,321,13476,2,0,L|486:202,1,95,8|0,0:0|0:0,0:0:0:0:
308,298,13976,1,2,0:0:0:0:
223,325,14226,1,2,0:0:0:0:
133,321,14476,2,0,L|130:202,1,95,8|0,0:0|0:0,0:0:0:0:
132,6,14976,5,8,0:0:0:0:
67,70,15226,1,0,0:0:0:0:
131,135,15476,1,2,0:0:0:0:
196,71,15726,1,0,0:0:0:0:
286,72,15976,2,0,L|395:75,1,95,2|8,0:0|0:0,0:0:0:0:
463,110,16476,2,0,P|408:153|329:149,1,142.5,8|0,0:0|0:0,0:0:0:0:
289,161,16976,6,0,L|307:274,1,104.500003189087,2|0,0:0|0:0,0:0:0:0:
416,344,17476,2,0,L|399:240,1,104.500003189087,8|0,0:0|0:0,0:0:0:0:
328,358,17976,2,0,P|271:358|227:336,1,104.500003189087,2|2,0:0|0:0,0:0:0:0:
143,298,18476,2,0,P|86:298|42:320,1,104.500003189087,8|0,0:0|0:0,0:0:0:0:
29,225,18976,1,2,0:0:0:0:
58,135,19226,1,0,0:0:0:0:
151,126,19476,1,8,0:0:0:0:
114,212,19726,1,0,0:0:0:0:
58,135,19976,6,0,B|31:96|37:47|37:47|60:12,2,128.250000489235,2|2|8,0:0|0:0|0:0,0:0:0:0:
151,126,20726,1,8,0:0:0:0:
300,156,20976,6,0,L|421:149,1,104.500003189087
463,76,21476,1,0,0:0:0:0:
387,20,21726,1,0,0:0:0:0:
301,60,21976,2,0,P|249:48|188:72,1,104.500003189087,2|0,0:0|0:0,0:0:0:0:
201,156,22476,2,0,P|250:170|300:157,1,104.500003189087,8|0,0:0|0:0,0:0:0:0:
343,241,22976,1,0,0:0:0:0:
253,268,23226,1,0,0:0:0:0:
163,242,23476,2,0,P|167:306|196:343,1,104.500003189087,8|0,0:0|0:0,0:0:0:0:
360,340,23976,6,0,B|394:353|423:338|423:338|445:359|484:358,2,128.250000489235,2|8|8,0:0|0:0|0:0,0:0:0:0:
266,346,24726,1,2,0:0:0:0:
371,157,24976,6,0,P|391:216|383:264,1,104.500003189087,2|0,0:0|0:0,0:0:0:0:
191,262,25476,2,0,P|186:210|205:162,1,104.500003189087,8|0,0:0|0:0,0:0:0:0:
285,78,25976,2,0,L|291:227,1,104.500003189087,2|2,0:0|0:0,0:0:0:0:
290,276,26476,2,0,L|126:253,1,156.750004783631,8|0,0:0|0:0,0:0:0:0:
90,270,26976,6,0,P|59:310|55:382,1,104.500003189087,2|0,0:0|0:0,0:0:0:0:
144,351,27476,2,0,L|258:365,1,104.500003189087,8|0,0:0|0:0,0:0:0:0:
336,330,27976,6,0,B|363:316|396:321|396:321|429:310|450:278,2,128.250000489235,2|2|8,0:0|0:0|0:0,0:0:0:0:
376,242,28726,1,8,0:0:0:0:
480,105,28976,6,0,P|492:160|475:224,1,104.500003189087,2|0,0:0|0:0,0:0:0:0:
327,153,29476,2,0,P|318:101|330:51,1,104.500003189087,8|0,0:0|0:0,0:0:0:0:
242,15,29976,1,2,0:0:0:0:
242,15,30226,1,2,0:0:0:0:
153,46,30476,2,0,L|9:29,1,104.500003189087,8|0,0:0|0:0,0:0:0:0:
79,123,30976,5,2,0:0:0:0:
114,209,31226,1,0,0:0:0:0:
148,296,31476,1,8,0:0:0:0:
54,281,31726,1,0,0:0:0:0:
206,224,31976,5,2,0:0:0:0:
182,383,32226,1,8,0:0:0:0:
240,311,32476,1,8,0:0:0:0:
240,311,32601,1,0,0:0:0:0:
240,311,32726,1,8,0:0:0:0:
317,364,32976,6,0,P|361:387|412:379,1,104.500003189087,2|0,0:0|0:0,0:0:0:0:
484,316,33476,2,0,B|497:269|497:269|478:215,1,104.500003189087,8|0,0:0|0:0,0:0:0:0:
393,176,33976,1,2,0:0:0:0:
402,269,34226,1,2,0:0:0:0:
314,232,34476,2,0,P|265:214|216:229,1,104.500003189087,8|0,0:0|0:0,0:0:0:0:
214,323,34976,5,2,0:0:0:0:
127,287,35226,1,0,0:0:0:0:
37,316,35476,2,0,P|53:231|57:201,1,104.500003189087,8|0,0:0|0:0,0:0:0:0:
28,124,35976,6,0,B|14:93|29:60|29:60|60:45|73:6,2,128.250000489235,2|2|8,0:0|0:0|0:0,0:0:0:0:
111,105,36726,1,8,0:0:0:0:
256,32,36976,6,0,P|311:17|359:33,1,104.500003189087,2|0,0:0|0:0,0:0:0:0:
405,113,37476,2,0,P|355:127|306:112,1,104.500003189087,8|0,0:0|0:0,0:0:0:0:
211,114,37976,1,2,0:0:0:0:
260,194,38226,1,2,0:0:0:0:
165,194,38476,1,8,0:0:0:0:
211,275,38726,1,0,0:0:0:0:
116,274,38976,6,0,P|132:328|171:363,1,104.500003189087,2|0,0:0|0:0,0:0:0:0:
260,355,39476,2,0,L|373:352,1,104.500003189087,8|0,0:0|0:0,0:0:0:0:
454,321,39976,6,0,B|470:272|470:240|470:240|442:217|430:199,2,128.250000489235,2|8|8,0:0|0:0|0:0,0:0:0:0:
376,268,40726,1,2,0:0:0:0:
486,133,40976,6,0,P|499:52|501:23,1,104.500003189087,2|0,0:0|0:0,0:0:0:0:
356,57,41476,2,0,P|361:108|370:160,1,104.500003189087,8|0,0:0|0:0,0:0:0:0:
295,216,41976,2,0,L|157:191,1,104.500003189087,2|0,0:0|0:0,0:0:0:0:
33,243,42476,2,0,P|103:247|155:330,1,156.750004783631,8|0,0:0|0:0,0:0:0:0:
157,358,42976,2,0,L|295:333,1,104.500003189087,2|0,0:0|0:0,0:0:0:0:
333,280,43476,2,0,P|387:295|415:338,1,104.500003189087,8|0,0:0|0:0,0:0:0:0:
471,257,43976,6,0,B|456:218|460:192|460:192|483:167|483:117,2,128.250000489235,2|2|8,0:0|0:0|0:0,0:0:0:0:
499,339,44726,1,8,0:0:0:0:
333,280,44976,6,0,L|227:269,1,104.500003189087,2|0,0:0|0:0,0:0:0:0:
184,186,45476,2,0,L|287:175,1,104.500003189087,8|0,0:0|0:0,0:0:0:0:
381,161,45976,1,2,0:0:0:0:
381,161,46226,1,2,0:0:0:0:
311,97,46476,2,0,L|205:86,1,104.500003189087,8|0,0:0|0:0,0:0:0:0:
121,44,46976,6,0,B|82:52|47:42|47:42|13:61|6:100,2,128.250000489235,2|2|8,0:0|0:0|0:0,0:0:0:0:
79,129,47726,1,0,0:0:0:0:
5,187,47976,5,2,0:0:0:0:
167,164,48226,1,8,0:0:0:0:
93,222,48476,1,8,0:0:0:0:
93,222,48601,1,0,0:0:0:0:
93,222,48726,1,8,0:0:0:0:
39,322,48976,6,0,P|91:347|164:339,1,113.999996520996,2|0,0:0|0:0,0:0:0:0:
240,303,49476,2,0,L|364:315,1,113.999996520996,8|0,0:0|0:0,0:0:0:0:
413,230,49976,2,0,L|299:219,1,113.999996520996,2|2,0:0|0:0,0:0:0:0:
210,166,50476,2,0,L|158:52,1,113.999996520996,8|0,0:0|0:0,0:0:0:0:
60,52,50976,6,0,L|107:155,1,113.999996520996,2|0,0:0|0:0,0:0:0:0:
139,251,51476,2,0,P|115:330|136:378,1,113.999996520996,8|0,0:0|0:0,0:0:0:0:
218,318,51976,1,2,0:0:0:0:
319,300,52226,1,2,0:0:0:0:
416,332,52476,2,0,P|456:251|430:165,1,170.999994781494,8|0,0:0|0:0,0:0:0:0:
405,135,52976,5,2,0:0:0:0:
222,40,53476,2,0,P|165:22|101:40,1,113.999996520996,8|0,0:0|0:0,0:0:0:0:
46,111,53976,2,0,L|159:109,1,113.999996520996,2|2,0:0|0:0,0:0:0:0:
259,132,54476,2,0,P|277:189|259:253,1,113.999996520996,8|0,0:0|0:0,0:0:0:0:
188,308,54976,6,0,L|189:194,1,113.999996520996,2|0,0:0|0:0,0:0:0:0:
159,108,55476,1,8,0:0:0:0:
93,182,55726,1,0,0:0:0:0:
62,88,55976,1,2,0:0:0:0:
225,34,56226,1,8,0:0:0:0:
257,129,56476,1,8,0:0:0:0:
257,129,56601,1,0,0:0:0:0:
257,129,56726,1,8,0:0:0:0:
62,88,56976,5,4,0:0:0:0:
220,213,64976,6,0,P|277:218|344:192,1,104.500003189087,2|0,0:0|0:0,0:0:0:0:
415,216,65476,2,0,P|465:197|499:144,1,104.500003189087,8|0,0:0|0:0,0:0:0:0:
408,121,65976,2,0,P|357:107|306:113,1,104.500003189087,2|2,0:0|0:0,0:0:0:0:
212,122,66476,1,8,0:0:0:0:
123,93,66726,1,0,0:0:0:0:
33,122,66976,6,0,L|40:240,1,104.500003189087,2|0,0:0|0:0,0:0:0:0:
120,273,67476,1,8,0:0:0:0:
183,342,67726,1,0,0:0:0:0:
276,346,67976,6,0,B|292:296|289:254|289:254|262:203,2,137.750004203797,2|2|8,0:0|0:0|0:0,0:0:0:0:
365,377,68726,1,8,0:0:0:0:
473,325,68976,6,0,P|495:278|490:213,1,104.500003189087,2|0,0:0|0:0,0:0:0:0:
445,145,69476,2,0,P|411:180|399:237,1,104.500003189087,8|0,0:0|0:0,0:0:0:0:
369,322,69976,2,0,P|327:289|304:244,1,104.500003189087,2|2,0:0|0:0,0:0:0:0:
319,153,70476,1,8,0:0:0:0:
409,128,70726,1,0,0:0:0:0:
464,52,70976,6,0,L|348:43,1,104.500003189087,2|0,0:0|0:0,0:0:0:0:
276,87,71476,2,0,P|227:61|174:60,1,104.500003189087,8|0,0:0|0:0,0:0:0:0:
126,143,71976,6,0,B|86:145|57:121|57:121|13:133|0:159,2,137.750004203797,2|8|8,0:0|0:0|0:0,0:0:0:0:
57,211,72726,1,2,0:0:0:0:
7,352,72976,6,0,P|57:326|107:328,1,104.500003189087,2|0,0:0|0:0,0:0:0:0:
178,269,73476,2,0,L|298:280,1,104.500003189087,8|0,0:0|0:0,0:0:0:0:
358,333,73976,2,0,L|478:322,1,104.500003189087,2|2,0:0|0:0,0:0:0:0:
500,237,74476,2,0,P|419:195|333:217,1,156.750004783631,8|0,0:0|0:0,0:0:0:0:
315,227,74976,6,0,L|191:208,1,104.500003189087,2|0,0:0|0:0,0:0:0:0:
129,256,75476,2,0,P|87:278|29:273,1,104.500003189087,8|0,0:0|0:0,0:0:0:0:
67,186,75976,6,0,B|73:158|61:128|61:128|66:109|66:109|53:82|57:51,2,137.750004203797,2|2|8,0:0|0:0|0:0,0:0:0:0:
31,273,76726,1,8,0:0:0:0:
184,298,76976,6,0,L|308:308,1,104.500003189087,2|0,0:0|0:0,0:0:0:0:
347,379,77476,2,0,P|337:328|355:279,1,104.500003189087,8|0,0:0|0:0,0:0:0:0:
421,212,77976,1,2,0:0:0:0:
421,212,78226,1,2,0:0:0:0:
375,130,78476,2,0,P|393:83|382:28,1,104.500003189087,8|0,0:0|0:0,0:0:0:0:
299,73,78976,5,2,0:0:0:0:
213,112,79226,1,0,0:0:0:0:
120,95,79476,1,8,0:0:0:0:
181,23,79726,1,0,0:0:0:0:
152,184,79976,5,2,0:0:0:0:
27,79,80226,1,8,0:0:0:0:
68,168,80476,1,8,0:0:0:0:
68,168,80601,1,0,0:0:0:0:
68,168,80726,1,8,0:0:0:0:
30,254,80976,6,0,P|29:324|56:363,1,104.500003189087,2|0,0:0|0:0,0:0:0:0:
139,348,81476,2,0,P|160:301|154:249,1,104.500003189087,8|0,0:0|0:0,0:0:0:0:
231,195,81976,1,2,0:0:0:0:
323,211,82226,1,2,0:0:0:0:
384,282,82476,2,0,P|389:333|368:380,1,104.500003189087,8|0,0:0|0:0,0:0:0:0:
289,328,82976,6,0,P|267:281|273:229,1,104.500003189087,2|0,0:0|0:0,0:0:0:0:
353,180,83476,2,0,P|372:125|377:60,1,104.500003189087,8|0,0:0|0:0,0:0:0:0:
459,18,83976,6,0,B|467:44|481:63|481:63|461:103|472:153,2,137.750004203797,2|2|8,0:0|0:0|0:0,0:0:0:0:
377,79,84726,1,8,0:0:0:0:
238,30,84976,6,0,P|180:10|123:-2,1,104.500003189087,2|0,0:0|0:0,0:0:0:0:
89,81,85476,2,0,P|136:134|172:165,1,104.500003189087,8|0,0:0|0:0,0:0:0:0:
248,120,85976,1,2,0:0:0:0:
236,213,86226,1,2,0:0:0:0:
147,244,86476,2,0,P|81:242|43:209,1,104.500003189087,8|0,0:0|0:0,0:0:0:0:
13,306,86976,6,0,P|65:355|119:369,1,104.500003189087,2|0,0:0|0:0,0:0:0:0:
183,333,87476,1,8,0:0:0:0:
274,355,87726,1,0,0:0:0:0:
365,314,87976,6,0,B|410:291|455:298|455:298|504:322,2,137.750004203797,2|8|8,0:0|0:0|0:0,0:0:0:0:
433,383,88726,1,2,0:0:0:0:
285,266,88976,6,0,P|236:242|183:242,1,104.500003189087,2|0,0:0|0:0,0:0:0:0:
99,277,89476,2,0,L|93:160,1,104.500003189087,8|0,0:0|0:0,0:0:0:0:
181,136,89976,2,0,L|186:240,1,104.500003189087,2|2,0:0|0:0,0:0:0:0:
196,334,90476,2,0,P|282:322|368:358,1,156.750004783631,8|0,0:0|0:0,0:0:0:0:
387,367,90976,6,0,L|395:255,1,104.500003189087,2|0,0:0|0:0,0:0:0:0:
473,211,91476,2,0,L|465:99,1,104.500003189087,8|0,0:0|0:0,0:0:0:0:
505,12,91976,6,0,B|468:36|426:37|426:37|401:22|372:22,2,137.750004203797,2|2|8,0:0|0:0|0:0,0:0:0:0:
465,106,92726,1,8,0:0:0:0:
297,58,92976,6,0,P|249:77|177:69,1,104.500003189087,2|0,0:0|0:0,0:0:0:0:
108,43,93476,2,0,P|80:87|73:138,1,104.500003189087,8|0,0:0|0:0,0:0:0:0:
166,161,93976,1,2,0:0:0:0:
166,161,94226,1,2,0:0:0:0:
99,227,94476,2,0,L|93:338,1,104.500003189087,8|0,0:0|0:0,0:0:0:0:
188,368,94976,6,0,B|169:321|185:291|185:291|213:280|226:248,2,137.750004203797,2|2|8,0:0|0:0|0:0,0:0:0:0:
267,335,95726,1,0,0:0:0:0:
350,377,95976,5,2,0:0:0:0:
308,252,96226,1,8,0:0:0:0:
393,300,96476,1,8,0:0:0:0:
393,300,96601,1,0,0:0:0:0:
393,300,96726,1,8,0:0:0:0:
466,240,96976,6,0,P|486:170|459:84,1,142.500005435944,6|8,0:0|0:0,0:0:0:0:
357,43,97976,2,0,L|266:48,1,71.2500027179719,2|0,0:0|0:0,0:0:0:0:
208,56,98476,1,8,0:0:0:0:
111,132,98976,2,0,L|202:137,1,71.2500027179719,2|0,0:0|0:0,0:0:0:0:
260,141,99476,1,8,0:0:0:0:
357,218,99976,2,0,L|266:223,1,71.2500027179719,2|0,0:0|0:0,0:0:0:0:
208,233,100476,2,0,P|171:294|196:363,1,142.500005435944,8|2,0:0|0:0,0:0:0:0:
253,303,101476,5,8,0:0:0:0:
453,310,101976,2,0,P|417:318|387:343,1,71.2500027179719,2|0,0:0|0:0,0:0:0:0:
314,359,102476,1,8,0:0:0:0:
192,243,102976,2,0,P|228:251|258:276,1,71.2500027179719,2|0,0:0|0:0,0:0:0:0:
333,281,103476,1,8,0:0:0:0:
409,166,103976,1,2,0:0:0:0:
345,119,104226,1,8,0:0:0:0:
401,245,104476,2,0,P|441:240|470:218,1,71.2500027179719
329,41,104976,6,0,P|287:62|265:116,1,104.500003189087,2|0,0:0|0:0,0:0:0:0:
237,193,105476,2,0,L|122:201,1,104.500003189087,8|0,0:0|0:0,0:0:0:0:
104,281,105976,2,0,L|219:273,1,104.500003189087,2|2,0:0|0:0,0:0:0:0:
273,325,106476,2,0,P|336:317|383:344,1,104.500003189087,8|0,0:0|0:0,0:0:0:0:
508,271,106976,6,0,P|468:304|452:353,1,104.500003189087,2|0,0:0|0:0,0:0:0:0:
371,333,107476,2,0,L|363:209,1,104.500003189087,8|0,0:0|0:0,0:0:0:0:
435,180,107976,6,0,B|452:130|427:86|427:86|437:59|471:41,2,137.750004203797,2|2|8,0:0|0:0|0:0,0:0:0:0:
355,148,108726,1,8,0:0:0:0:
219,171,108976,6,0,P|163:192|115:182,1,104.500003189087,2|0,0:0|0:0,0:0:0:0:
39,161,109476,2,0,L|24:52,1,104.500003189087,8|0,0:0|0:0,0:0:0:0:
106,80,109976,2,0,L|120:183,1,104.500003189087,2|2,0:0|0:0,0:0:0:0:
126,267,110476,2,0,P|79:287|28:280,1,104.500003189087,8|0,0:0|0:0,0:0:0:0:
207,291,110976,6,0,P|258:297|305:277,1,104.500003189087,2|0,0:0|0:0,0:0:0:0:
382,312,111476,2,0,L|393:206,1,104.500003189087,8|0,0:0|0:0,0:0:0:0:
407,125,111976,1,2,0:0:0:0:
475,77,112226,1,8,0:0:0:0:
339,77,112476,1,8,0:0:0:0:
339,77,112601,1,0,0:0:0:0:
339,77,112726,1,8,0:0:0:0:
206,24,112976,6,0,P|162:9|95:19,1,104.500003189087,2|0,0:0|0:0,0:0:0:0:
12,124,113476,2,0,P|56:139|123:129,1,104.500003189087,8|0,0:0|0:0,0:0:0:0:
148,134,113851,1,0,0:0:0:0:
148,134,113976,2,0,L|178:258,1,104.500003189087,2|2,0:0|0:0,0:0:0:0:
32,347,114476,2,0,L|156:317,1,104.500003189087,8|2,0:0|0:0,0:0:0:0:
229,312,114976,5,2,0:0:0:0:
307,282,115226,1,0,0:0:0:0:
385,310,115476,1,8,0:0:0:0:
462,278,115726,1,0,0:0:0:0:
503,206,115976,2,0,P|500:117|491:81,1,104.500003189087,2|2,0:0|0:0,0:0:0:0:
432,48,116476,2,0,P|380:40|328:41,1,104.500003189087,8|8,0:0|0:0,0:0:0:0:
247,19,116976,5,2,0:0:0:0:
264,100,117226,1,0,0:0:0:0:
184,75,117476,2,0,L|126:71,2,52.2500015945435,8|0|0,0:0|0:0|0:0,0:0:0:0:
201,156,117976,2,0,L|143:152,2,52.2500015945435,2|0|2,0:0|0:0|0:0,0:0:0:0:
218,237,118476,2,0,L|160:233,2,52.2500015945435,8|0|0,0:0|0:0|0:0,0:0:0:0:
281,181,118976,5,2,0:0:0:0:
298,262,119226,1,0,0:0:0:0:
315,343,119476,2,0,P|356:322|380:268,1,104.500003189087,8|0,0:0|0:0,0:0:0:0:
235,318,119976,2,0,L|177:314,2,52.2500015945435,2|0|8,0:0|0:0|0:0,0:0:0:0:
119,353,120476,1,8,0:0:0:0:
126,334,120601,1,0,0:0:0:0:
131,316,120726,1,2,0:0:0:0:
134,296,120851,1,0,0:0:0:0:
135,278,120976,6,0,L|105:154,1,104.500003189087,2|0,0:0|0:0,0:0:0:0:
38,115,121476,2,0,P|37:47|68:10,1,104.500003189087,8|0,0:0|0:0,0:0:0:0:
125,82,121976,2,0,P|176:81|217:50,1,104.500003189087,2|2,0:0|0:0,0:0:0:0:
298,98,122476,2,0,L|419:107,1,104.500003189087,8|0,0:0|0:0,0:0:0:0:
474,44,122976,5,2,0:0:0:0:
493,136,123226,1,0,0:0:0:0:
419,194,123476,2,0,P|402:262|415:308,1,104.500003189087,8|0,0:0|0:0,0:0:0:0:
480,366,123976,6,0,B|448:342|418:343|418:343|383:360|334:340,2,137.750004203797,2|2|8,0:0|0:0|0:0,0:0:0:0:
495,282,124726,1,8,0:0:0:0:
296,280,124976,6,0,P|242:278|195:305,1,104.500003189087,2|0,0:0|0:0,0:0:0:0:
130,366,125476,2,0,L|18:358,1,104.500003189087,8|0,0:0|0:0,0:0:0:0:
10,265,125976,2,0,P|61:262|107:286,1,104.500003189087,2|2,0:0|0:0,0:0:0:0:
198,301,126476,2,0,L|206:189,1,104.500003189087,8|0,0:0|0:0,0:0:0:0:
113,177,126976,5,2,0:0:0:0:
68,94,127226,1,0,0:0:0:0:
112,10,127476,2,0,P|152:50|162:102,1,104.500003189087,8|0,0:0|0:0,0:0:0:0:
262,114,127976,6,0,B|310:103|360:103|360:103|360:78|371:55,2,137.750004203797,2|8|8,0:0|0:0|0:0,0:0:0:0:
291,31,128726,1,2,0:0:0:0:
441,100,128976,6,0,P|486:132|496:187,1,104.500003189087,2|0,0:0|0:0,0:0:0:0:
449,258,129476,2,0,L|464:373,1,104.500003189087,8|0,0:0|0:0,0:0:0:0:
374,328,129976,2,0,P|329:290|272:287,1,104.500003189087,2|2,0:0|0:0,0:0:0:0:
251,372,130476,2,0,L|230:208,1,156.750004783631,8|0,0:0|0:0,0:0:0:0:
222,169,130976,6,0,P|154:208|107:205,1,104.500003189087,2|0,0:0|0:0,0:0:0:0:
62,143,131476,2,0,P|62:64|88:25,1,104.500003189087,8|0,0:0|0:0,0:0:0:0:
165,18,131976,6,0,B|213:24|243:53|243:53|245:86|264:109,2,137.750004203797,2|2|8,0:0|0:0|0:0,0:0:0:0:
170,102,132726,1,2,0:0:0:0:
43,160,132976,6,0,P|31:216|48:269,1,104.500003189087,0|0,0:0|0:0,0:0:0:0:
1,344,133476,2,0,L|115:351,1,104.500003189087,8|0,0:0|0:0,0:0:0:0:
143,264,133976,1,2,0:0:0:0:
143,264,134226,1,2,0:0:0:0:
201,337,134476,2,0,P|256:311|305:317,1,104.500003189087,8|0,0:0|0:0,0:0:0:0:
396,352,134976,6,0,B|414:356|433:371|433:371|481:367|512:324,2,137.750004203797,2|2|8,0:0|0:0|0:0,0:0:0:0:
365,274,135726,1,0,0:0:0:0:
450,235,135976,1,2,0:0:0:0:
289,220,136226,1,8,0:0:0:0:
374,181,136476,1,8,0:0:0:0:
374,181,136601,1,0,0:0:0:0:
374,181,136726,1,8,0:0:0:0:
379,92,136976,5,4,0:0:0:0:
343,253,144976,6,0,P|337:194|289:130,1,113.999996520996,2|0,0:0|0:0,0:0:0:0:
215,105,145476,2,0,L|83:101,1,113.999996520996,8|0,0:0|0:0,0:0:0:0:
31,177,145976,2,0,L|144:180,1,113.999996520996,2|2,0:0|0:0,0:0:0:0:
232,234,146476,2,0,L|294:350,1,113.999996520996,8|0,0:0|0:0,0:0:0:0:
386,355,146976,6,0,L|331:254,1,113.999996520996,2|0,0:0|0:0,0:0:0:0:
321,152,147476,2,0,P|365:110|390:39,1,113.999996520996,8|0,0:0|0:0,0:0:0:0:
284,49,147976,1,2,0:0:0:0:
188,86,148226,1,2,0:0:0:0:
94,46,148476,2,0,P|161:110|180:195,1,170.999994781494,8|0,0:0|0:0,0:0:0:0:
169,233,148976,5,2,0:0:0:0:
16,370,149476,2,0,P|5:312|10:239,1,113.999996520996,8|0,0:0|0:0,0:0:0:0:
77,181,149976,2,0,P|94:237|97:306,1,113.999996520996,2|2,0:0|0:0,0:0:0:0:
166,369,150476,2,0,L|306:358,1,113.999996520996,8|0,0:0|0:0,0:0:0:0:
357,293,150976,6,0,P|305:273|229:282,1,113.999996520996,2|0,0:0|0:0,0:0:0:0:
190,190,151476,2,0,L|179:50,1,113.999996520996,8|0,0:0|0:0,0:0:0:0:
114,0,151976,2,0,P|94:52|103:128,1,113.999996520996,2|8,0:0|0:0,0:0:0:0:
89,211,152476,1,8,0:0:0:0:
89,211,152601,1,0,0:0:0:0:
89,211,152726,1,8,0:0:0:0:
110,311,152976,6,0,P|158:341|227:333,1,113.999996520996,2|0,0:0|0:0,0:0:0:0:
301,285,153476,2,0,L|310:171,1,113.999996520996,8|0,0:0|0:0,0:0:0:0:
406,133,153976,2,0,L|396:246,1,113.999996520996,2|2,0:0|0:0,0:0:0:0:
301,285,154476,2,0,P|243:255|178:267,1,113.999996520996,8|0,0:0|0:0,0:0:0:0:
97,229,154976,6,0,P|70:169|81:113,1,113.999996520996,2|0,0:0|0:0,0:0:0:0:
171,160,155476,1,8,0:0:0:0:
196,259,155726,1,0,0:0:0:0:
190,361,155976,2,0,L|55:356,1,113.999996520996,2|2,0:0|0:0,0:0:0:0:
37,262,156476,2,0,P|123:233|209:269,1,170.999994781494,8|0,0:0|0:0,0:0:0:0:
234,289,156976,5,2,0:0:0:0:
403,164,157476,2,0,L|408:286,1,113.999996520996,8|0,0:0|0:0,0:0:0:0:
376,375,157976,1,2,0:0:0:0:
313,293,158226,1,2,0:0:0:0:
501,275,158476,2,0,L|496:161,1,113.999996520996,8|0,0:0|0:0,0:0:0:0:
435,77,158976,6,0,P|403:113|393:179,1,113.999996520996,2|0,0:0|0:0,0:0:0:0:
294,206,159476,2,0,L|166:198,1,113.999996520996,8|0,0:0|0:0,0:0:0:0:
77,193,159976,1,2,0:0:0:0:
132,106,160226,1,8,0:0:0:0:
125,285,160476,1,8,0:0:0:0:
22,281,160726,1,2,0:0:0:0:
71,375,160976,6,0,B|192:317|192:399|317:344,1,237.5,2|8,0:0|0:0,0:0:0:0:
454,199,161976,2,0,B|378:153|378:153|390:315,1,237.5,2|8,0:0|0:0,0:0:0:0:
482,116,162976,2,0,B|369:48|369:48|333:95|264:93,1,237.5,2|0,0:0|0:0,0:0:0:0:
76,44,163976,2,0,B|24:68|14:115|14:115|65:165|59:241,1,237.5,2|8,0:0|0:0,0:0:0:0:
242,132,164976,6,0,L|89:118,1,118.75,2|0,0:0|0:0,0:0:0:0:
17,110,165476,1,8,0:0:0:0:
205,212,165976,2,0,L|358:198,1,118.75,2|2,0:0|0:0,0:0:0:0:
430,190,166476,1,8,0:0:0:0:
243,295,166976,2,0,L|90:281,1,118.75,2|0,0:0|0:0,0:0:0:0:
18,273,167476,1,8,0:0:0:0:
82,188,167726,1,0,0:0:0:0:
149,104,167976,1,2,0:0:0:0:
42,92,168226,5,8,0:0:0:0:
193,203,168476,1,8,0:0:0:0:
82,188,168726,1,2,0:0:0:0:
256,192,168976,12,4,170976,0:0:0:0:
