osu file format v14

[General]
AudioFilename: audio.mp3
AudioLeadIn: 0
PreviewTime: 48934
Countdown: 0
SampleSet: Soft
StackLeniency: 0.4
Mode: 0
LetterboxInBreaks: 0
WidescreenStoryboard: 0

[Editor]
DistanceSpacing: 1
BeatDivisor: 4
GridSize: 32
TimelineZoom: 2.899999

[Metadata]
Title:Ai La La
TitleUnicode:爱啦啦
Artist:Hai Nan
ArtistUnicode:海楠
Creator:Yusomi
Version:Expert
Source:
Tags:
BeatmapID:1420040
BeatmapSetID:671645

[Difficulty]
HPDrainRate:4
CircleSize:5
OverallDifficulty:8
ApproachRate:8
SliderMultiplier:1.9
SliderTickRate:1

[Events]
//Background and Video events
0,0,"Konachan.com - 254912 2girls animal_ears aqua_eyes aqua_hair blonde_hair blue_eyes collar dress game_cg karakara karakara_2 long_hair lucia_haynes necklace p19 twintails.png",0,0
//Break Periods
2,57176,64226
2,169051,170101
//Storyboard Layer 0 (Background)
//Storyboard Layer 1 (Fail)
//Storyboard Layer 2 (Pass)
//Storyboard Layer 3 (Foreground)
//Storyboard Sound Samples

[TimingPoints]
976,500,4,2,0,60,1,0
8476,-100,4,1,0,50,0,0
8726,-100,4,2,0,60,0,0
8976,-80,4,2,0,60,0,0
13101,-80,4,2,0,5,0,0
13226,-80,4,2,0,60,0,0
13351,-80,4,2,0,5,0,0
13476,-80,4,2,0,60,0,0
14101,-80,4,2,0,5,0,0
14226,-80,4,2,0,60,0,0
14351,-80,4,2,0,5,0,0
14476,-80,4,2,0,60,0,0
15101,-80,4,2,0,5,0,0
15226,-80,4,2,0,60,0,0
15351,-80,4,2,0,5,0,0
15476,-80,4,2,0,60,0,0
16976,-90.9090909090909,4,2,0,60,0,0
19976,-68.9655172413793,4,2,0,60,0,0
20976,-90.9090909090909,4,2,0,60,0,0
23976,-68.9655172413793,4,2,0,60,0,0
24976,-90.9090909090909,4,2,0,60,0,0
27976,-68.9655172413793,4,2,0,60,0,0
28976,-90.9090909090909,4,2,0,60,0,0
32476,-90.9090909090909,4,1,0,50,0,0
32726,-90.9090909090909,4,2,0,60,0,0
35976,-68.9655172413793,4,2,0,60,0,0
36976,-90.9090909090909,4,2,0,60,0,0
39976,-68.9655172413793,4,2,0,60,0,0
40976,-90.9090909090909,4,2,0,60,0,0
43976,-68.9655172413793,4,2,0,60,0,0
44976,-90.9090909090909,4,2,0,60,0,0
48476,-90.9090909090909,4,1,0,50,0,0
48726,-90.9090909090909,4,2,0,60,0,0
48976,-76.9230769230769,4,2,0,60,0,1
50476,-133.333333333333,4,2,0,60,0,1
50726,-76.9230769230769,4,2,0,60,0,1
52476,-76.9230769230769,4,2,0,60,0,1
52976,-76.9230769230769,4,2,0,60,0,1
54476,-133.333333333333,4,2,0,60,0,1
54726,-76.9230769230769,4,2,0,60,0,1
56476,-76.9230769230769,4,1,0,50,0,1
56726,-76.9230769230769,4,2,0,60,0,1
56976,-76.9230769230769,4,2,0,60,0,0
64976,-90.9090909090909,4,2,0,60,0,0
67976,-68.9655172413793,4,2,0,60,0,0
68976,-90.9090909090909,4,2,0,60,0,0
71976,-68.9655172413793,4,2,0,60,0,0
72976,-90.9090909090909,4,2,0,60,0,0
75976,-68.9655172413793,4,2,0,60,0,0
76976,-90.9090909090909,4,2,0,60,0,0
80476,-90.9090909090909,4,1,0,50,0,0
80726,-90.9090909090909,4,2,0,60,0,0
83976,-68.9655172413793,4,2,0,60,0,0
84976,-90.9090909090909,4,2,0,60,0,0
87976,-68.9655172413793,4,2,0,60,0,0
88976,-90.9090909090909,4,2,0,60,0,0
91976,-68.9655172413793,4,2,0,60,0,0
92976,-90.9090909090909,4,2,0,60,0,0
96476,-90.9090909090909,4,1,0,50,0,0
96726,-90.9090909090909,4,2,0,60,0,0
107976,-68.9655172413793,4,2,0,60,0,0
108976,-90.9090909090909,4,2,0,60,0,0
112476,-90.9090909090909,4,1,0,50,0,0
112726,-90.9090909090909,4,2,0,60,0,0
117101,-90.9090909090909,4,2,0,5,0,0
117226,-90.9090909090909,4,2,0,60,0,0
119101,-90.9090909090909,4,2,0,5,0,0
119226,-90.9090909090909,4,2,0,60,0,0
123976,-68.9655172413793,4,2,0,60,0,0
124976,-90.9090909090909,4,2,0,60,0,0
127976,-68.9655172413793,4,2,0,60,0,0
128976,-90.9090909090909,4,2,0,60,0,0
131976,-68.9655172413793,4,2,0,60,0,0
132976,-90.9090909090909,4,2,0,60,0,0
136476,-90.9090909090909,4,1,0,50,0,0
136726,-90.9090909090909,4,2,0,60,0,0
136976,-133.333333333333,4,2,0,37,0,0
144976,-76.9230769230769,4,2,0,60,0,1
146476,-133.333333333333,4,2,0,60,0,1
146726,-76.9230769230769,4,2,0,60,0,1
147976,-62.5,4,2,0,60,0,1
148226,-76.9230769230769,4,2,0,60,0,1
148476,-76.9230769230769,4,2,0,60,0,1
148976,-76.9230769230769,4,2,0,60,0,1
150476,-133.333333333333,4,2,0,60,0,1
150726,-76.9230769230769,4,2,0,60,0,1
151976,-62.5,4,2,0,60,0,1
152226,-76.9230769230769,4,2,0,60,0,1
152476,-76.9230769230769,4,1,0,50,0,1
152726,-76.9230769230769,4,2,0,60,0,1
154476,-133.333333333333,4,2,0,60,0,1
154726,-76.9230769230769,4,2,0,60,0,1
156476,-76.9230769230769,4,2,0,60,0,1
156976,-76.9230769230769,4,2,0,60,0,1
158476,-133.333333333333,4,2,0,60,0,1
158726,-76.9230769230769,4,2,0,60,0,1
160726,-58.8235294117647,4,1,0,60,0,1
160851,-58.8235294117647,4,2,0,5,0,1
160976,-80,4,2,0,60,0,0
163976,-68.9655172413793,4,2,0,60,0,0
164976,-80,4,2,0,60,0,0
165101,-80,4,2,0,5,0,0
165226,-80,4,2,0,60,0,0
165351,-80,4,2,0,5,0,0
165476,-66.6666666666667,4,2,0,60,0,0
165726,-80,4,2,0,60,0,0
166101,-80,4,2,0,5,0,0
166226,-80,4,2,0,60,0,0
166351,-80,4,2,0,5,0,0
166476,-66.6666666666667,4,2,0,60,0,0
166726,-80,4,2,0,60,0,0
167101,-80,4,2,0,5,0,0
167226,-80,4,2,0,60,0,0
167351,-80,4,2,0,5,0,0
167476,-66.6666666666667,4,2,0,60,0,0
167726,-80,4,2,0,60,0,0
170851,-80,4,1,0,40,0,0
170976,-76.9230769230769,4,2,0,85,0,0

[Colours]
Combo1 : 255,149,157
Combo2 : 255,227,170
Combo3 : 255,159,255
Combo4 : 194,121,255
Combo5 : 150,254,252
Combo6 : 217,255,147
SliderTrackOverride : 90,17,60

[HitObjects]
130,77,976,6,0,P|167:98|199:153,1,95,2|0,0:0|0:0,0:0:0:0:
212,267,1476,2,0,P|175:289|111:289,1,95,8|0,0:0|0:0,0:0:0:0:
63,265,1851,1,0,0:0:0:0:
63,265,1976,1,2,0:0:0:0:
137,206,2226,1,2,0:0:0:0:
231,199,2476,2,0,L|329:208,1,95
416,178,2976,5,2,0:0:0:0:
506,149,3226,1,0,0:0:0:0:
487,242,3476,1,8,0:0:0:0:
420,80,3726,2,0,B|420:81|359:68,1,47.5,0|0,0:0|0:0,0:0:0:0:
318,25,3976,2,0,P|271:20|205:50,1,95,2|2,0:0|0:0,0:0:0:0:
104,151,4476,2,0,L|141:155,5,31.6666666666667,8|0|0|8|0|0,0:0|0:0|0:0|0:0|0:0|0:0,0:0:0:0:
189,118,4976,6,0,P|204:78|190:15,1,95,2|0,0:0|0:0,0:0:0:0:
28,110,5476,2,0,P|20:156|35:200,1,95,8|0,0:0|0:0,0:0:0:0:
100,231,5851,1,2,0:0:0:0:
100,231,5976,1,0,0:0:0:0:
194,220,6226,1,2,0:0:0:0:
275,269,6476,1,8,0:0:0:0:
277,175,6726,1,2,0:0:0:0:
360,130,6976,5,2,0:0:0:0:
358,224,7226,2,0,L|406:214,1,47.5
436,308,7476,2,0,L|389:298,1,47.5,8|0,0:0|0:0,0:0:0:0:
318,381,7726,1,0,0:0:0:0:
318,381,7851,1,2,0:0:0:0:
318,381,7976,2,0,L|366:371,2,47.5
184,320,8476,5,4,0:0:0:0:
276,297,8601,1,4,0:0:0:0:
170,316,8726,1,4,0:0:0:0:
273,131,8976,6,0,B|334:122|329:156|391:142,1,118.75,2|0,0:0|0:0,0:0:0:0:
290,215,9476,1,8,0:0:0:0:
365,63,9726,1,0,0:0:0:0:
365,63,9851,1,2,0:0:0:0:
365,63,9976,2,0,P|368:30|368:0,1,59.375,2|0,0:0|0:0,0:0:0:0:
389,143,10226,1,2,0:0:0:0:
232,69,10476,1,8,0:0:0:0:
85,161,10726,2,0,P|81:193|82:224,1,59.375,0|0,0:0|0:0,0:0:0:0:
37,300,10976,6,0,L|121:289,1,59.375,2|0,0:0|0:0,0:0:0:0:
175,325,11226,2,0,P|206:320|237:300,1,59.375
286,241,11476,1,0,0:0:0:0:
286,241,11601,2,0,P|260:226|230:222,1,59.375
154,261,11851,1,2,0:0:0:0:
154,261,11976,2,0,B|141:217|151:182|151:182|151:158|140:130,2,118.75,2|2|8,0:0|0:0|0:0,0:0:0:0:
221,377,12726,1,0,0:0:0:0:
296,256,12976,6,0,L|368:251,1,59.375,2|0,0:0|0:0,0:0:0:0:
413,354,13226,2,0,L|362:322,1,59.375
419,163,13476,2,0,B|428:259|428:259|418:290,1,118.75,8|0,0:0|0:0,0:0:0:0:
355,251,13851,1,2,0:0:0:0:
323,187,13976,6,0,P|309:146|305:118,1,59.375,2|0,0:0|0:0,0:0:0:0:
391,46,14226,2,0,P|384:75|374:102,1,59.375,2|0,0:0|0:0,0:0:0:0:
231,50,14476,2,0,B|272:56|324:42|324:42|322:61|309:77,1,118.75,8|0,0:0|0:0,0:0:0:0:
212,143,14976,6,0,B|185:157|185:157|148:161,1,59.375,2|0,0:0|0:0,0:0:0:0:
118,50,15226,2,0,B|143:66|143:66|165:96,1,59.375,2|0,0:0|0:0,0:0:0:0:
103,233,15476,2,0,B|78:165|78:165|91:121,1,118.75,8|0,0:0|0:0,0:0:0:0:
47,57,15851,1,2,0:0:0:0:
65,127,15976,1,2,0:0:0:0:
95,313,16226,6,0,P|127:309|161:289,1,59.375,8|0,0:0|0:0,0:0:0:0:
201,193,16476,1,8,0:0:0:0:
185,224,16601,1,2,0:2:0:0:
179,259,16726,1,0,0:0:0:0:
183,294,16851,1,2,0:2:0:0:
198,326,16976,6,0,L|304:339,1,104.500003189087,2|0,0:0|0:0,0:0:0:0:
436,384,17476,1,8,0:0:0:0:
332,275,17726,1,0,0:0:0:0:
332,275,17851,1,2,0:0:0:0:
381,330,17976,2,0,P|383:279|389:210,1,104.500003189087,2|2,0:0|0:0,0:0:0:0:
443,100,18476,1,8,0:0:0:0:
507,243,18726,1,0,0:0:0:0:
417,177,18976,6,0,P|361:195|316:179,1,104.500003189087,2|0,0:0|0:0,0:0:0:0:
311,26,19476,2,0,P|351:59|364:109,1,104.500003189087,8|0,0:0|0:0,0:0:0:0:
319,181,19851,1,2,0:0:0:0:
278,105,19976,6,0,B|227:106|227:106|200:127|200:127|137:128,2,137.750004203797,2|2|8,0:0|0:0|0:0,0:0:0:0:
72,131,20726,1,2,0:0:0:0:
92,321,20976,6,0,P|88:256|77:195,1,104.500003189087,2|0,0:0|0:0,0:0:0:0:
35,371,21476,1,8,0:0:0:0:
208,298,21726,1,0,0:0:0:0:
208,298,21851,1,2,0:0:0:0:
158,353,21976,2,0,P|210:342|273:367,1,104.500003189087,2|2,0:0|0:0,0:0:0:0:
478,371,22476,1,8,0:0:0:0:
324,384,22726,1,0,0:0:0:0:
369,241,22976,6,0,P|371:313|383:347,1,104.500003189087,2|0,0:0|0:0,0:0:0:0:
493,300,23476,2,0,P|506:249|505:197,1,104.500003189087,8|0,0:0|0:0,0:0:0:0:
437,132,23851,1,2,0:0:0:0:
366,160,23976,6,0,B|326:161|301:140|301:140|267:137|236:160,2,137.750004203797,2|2|8,0:0|0:0|0:0,0:0:0:0:
285,217,24726,1,2,0:0:0:0:
512,36,24976,6,0,P|465:10|398:16,1,104.500003189087,2|0,0:0|0:0,0:0:0:0:
327,93,25476,2,0,L|203:101,1,104.500003189087,8|0,0:0|0:0,0:0:0:0:
140,137,25851,1,2,0:0:0:0:
181,196,25976,2,2,B|163:154|182:118|185:126|206:87|183:38,1,156.750004783631,2|0,0:0|0:0,0:0:0:0:
73,114,26476,2,2,P|127:89|60:58,1,156.750004783631,8|0,0:0|0:0,0:0:0:0:
11,81,26976,5,2,0:0:0:0:
185,43,27226,1,0,0:0:0:0:
354,97,27476,1,8,0:0:0:0:
257,0,27726,1,0,0:0:0:0:
257,0,27851,1,2,0:0:0:0:
255,77,27976,6,0,B|260:121|231:150|231:150|224:176|242:206,2,137.750004203797,2|2|8,0:0|0:0|0:0,0:0:0:0:
306,172,28726,1,2,0:0:0:0:
264,368,28976,6,0,L|155:346,1,104.500003189087,2|0,0:0|0:0,0:0:0:0:
10,307,29476,1,8,0:0:0:0:
130,217,29726,1,0,0:0:0:0:
130,217,29851,1,2,0:0:0:0:
70,262,29976,2,0,P|119:248|175:240,1,104.500003189087,2|2,0:0|0:0,0:0:0:0:
344,226,30476,2,0,L|242:205,1,104.500003189087,8|0,0:0|0:0,0:0:0:0:
415,193,30976,5,2,0:0:0:0:
237,283,31226,1,0,0:0:0:0:
70,173,31476,1,8,0:0:0:0:
241,204,31726,1,0,0:0:0:0:
241,204,31851,1,2,0:0:0:0:
242,125,31976,1,2,0:0:0:0:
210,380,32226,1,8,0:0:0:0:
48,309,32476,5,4,0:0:0:0:
143,324,32601,1,4,0:0:0:0:
35,316,32726,1,4,0:0:0:0:
137,76,32976,6,0,B|118:109|118:109|135:186,1,104.500003189087,2|0,0:0|0:0,0:0:0:0:
149,250,33476,1,8,0:0:0:0:
62,50,33726,1,0,0:0:0:0:
62,50,33851,1,2,0:0:0:0:
137,76,33976,2,0,L|261:70,1,104.500003189087,2|2,0:0|0:0,0:0:0:0:
375,21,34476,1,8,0:0:0:0:
491,99,34726,1,0,0:0:0:0:
380,119,34976,6,0,B|361:86|361:86|378:9,1,104.500003189087,2|0,0:0|0:0,0:0:0:0:
472,169,35476,2,0,L|445:295,1,104.500003189087,8|0,0:0|0:0,0:0:0:0:
413,327,35851,1,2,0:0:0:0:
485,362,35976,6,0,B|420:383|420:340|349:368,2,137.750004203797,2|2|8,0:0|0:0|0:0,0:0:0:0:
343,294,36726,1,2,0:0:0:0:
201,362,36976,6,0,L|197:258,1,104.500003189087,2|0,0:0|0:0,0:0:0:0:
310,156,37476,1,8,0:0:0:0:
413,273,37726,1,0,0:0:0:0:
413,273,37851,1,2,0:0:0:0:
459,220,37976,2,0,P|404:238|355:233,1,104.500003189087,2|2,0:0|0:0,0:0:0:0:
223,265,38476,1,8,0:0:0:0:
88,233,38726,1,0,0:0:0:0:
176,102,38976,6,0,P|172:153|194:207,1,104.500003189087,2|0,0:0|0:0,0:0:0:0:
252,331,39476,2,0,L|143:334,1,104.500003189087,8|0,0:0|0:0,0:0:0:0:
76,302,39851,1,2,0:0:0:0:
11,348,39976,6,0,B|43:334|49:287|49:287|31:259|41:219,2,137.750004203797,2|8|8,0:0|0:0|0:0,0:0:0:0:
117,245,40726,1,2,0:0:0:0:
106,69,40976,6,0,P|106:117|109:174,1,104.500003189087,2|0,0:0|0:0,0:0:0:0:
31,122,41476,1,8,0:0:0:0:
217,192,41726,1,0,0:0:0:0:
217,192,41851,1,2,0:0:0:0:
284,151,41976,2,2,B|332:129|367:142|367:142|372:178|401:202,1,156.750004783631,2|0,0:0|0:0,0:0:0:0:
504,121,42476,2,2,P|457:89|450:160,1,156.750004783631,8|0,0:0|0:0,0:0:0:0:
465,226,42976,5,2,0:0:0:0:
322,207,43226,1,0,0:0:0:0:
179,226,43476,1,8,0:0:0:0:
272,353,43726,1,0,0:0:0:0:
272,353,43851,1,2,0:0:0:0:
336,304,43976,6,0,B|303:329|268:323|268:323|242:301|204:304,2,137.750004203797,2|2|8,0:0|0:0|0:0,0:0:0:0:
140,324,44726,1,2,0:0:0:0:
471,384,44976,6,0,P|483:333|488:282,1,104.500003189087,2|0,0:0|0:0,0:0:0:0:
400,167,45476,1,8,0:0:0:0:
283,251,45726,1,0,0:0:0:0:
283,251,45851,1,2,0:0:0:0:
303,177,45976,2,0,P|308:228|320:279,1,104.500003189087,2|2,0:0|0:0,0:0:0:0:
235,354,46476,2,0,L|339:366,1,104.500003189087,8|0,0:0|0:0,0:0:0:0:
141,252,46976,5,2,0:0:0:0:
303,177,47226,1,0,0:0:0:0:
470,238,47476,1,8,0:0:0:0:
247,222,47726,1,0,0:0:0:0:
247,222,47851,1,0,0:0:0:0:
313,247,47976,1,2,0:0:0:0:
235,354,48226,1,8,0:0:0:0:
298,80,48476,5,4,0:0:0:0:
303,177,48601,1,4,0:0:0:0:
288,69,48726,1,4,0:0:0:0:
492,74,48976,6,0,P|422:30|378:40,1,123.499994346619,2|0,0:0|0:0,0:0:0:0:
241,149,49476,1,8,0:0:0:0:
64,102,49726,1,0,0:0:0:0:
146,74,49851,1,2,0:0:0:0:
130,160,49976,1,2,0:0:0:0:
130,160,50226,1,2,0:0:0:0:
253,224,50476,6,0,P|274:226|298:226,1,35.625001358986,8|0,0:0|0:0,0:0:0:0:
387,169,50726,1,0,0:0:0:0:
481,257,50976,1,2,0:0:0:0:
481,257,51226,1,0,0:0:0:0:
360,288,51476,5,8,0:0:0:0:
206,251,51726,1,0,0:0:0:0:
287,252,51851,1,2,0:0:0:0:
246,322,51976,1,2,0:0:0:0:
246,322,52226,1,2,0:0:0:0:
48,352,52476,5,2,0:0:0:0:
130,370,52601,1,2,0:0:0:0:
33,364,52726,1,2,0:0:0:0:
147,360,52851,1,2,0:0:0:0:
87,264,52976,5,6,0:0:0:0:
17,35,53476,6,0,P|71:77|123:70,1,123.499994346619,8|0,0:0|0:0,0:0:0:0:
203,74,53851,1,2,0:0:0:0:
125,51,53976,1,2,0:0:0:0:
317,109,54226,1,2,0:0:0:0:
205,38,54476,2,0,L|201:98,1,35.625001358986,8|0,0:0|0:0,0:0:0:0:
198,143,54726,1,0,0:0:0:0:
395,132,54976,5,2,0:0:0:0:
300,202,55226,1,0,0:0:0:0:
354,16,55476,1,8,0:0:0:0:
441,234,55726,1,0,0:0:0:0:
441,234,55851,1,2,0:0:0:0:
374,195,55976,1,2,0:0:0:0:
197,260,56226,1,8,0:0:0:0:
316,96,56476,5,4,0:0:0:0:
300,202,56601,1,4,0:0:0:0:
303,82,56726,1,4,0:0:0:0:
296,330,56976,5,2,0:0:0:0:
68,352,64976,6,0,P|46:279|60:219,1,104.500003189087,2|0,0:0|0:0,0:0:0:0:
115,209,65476,1,8,0:0:0:0:
149,351,65726,1,0,0:0:0:0:
149,351,65851,1,2,0:0:0:0:
222,324,65976,2,0,L|346:319,1,104.500003189087,2|2,0:0|0:0,0:0:0:0:
512,217,66476,1,8,0:0:0:0:
391,348,66726,1,0,0:0:0:0:
489,285,66976,6,0,P|439:273|382:278,1,104.500003189087,2|0,0:0|0:0,0:0:0:0:
166,239,67476,2,0,P|217:242|268:230,1,104.500003189087,8|0,0:0|0:0,0:0:0:0:
345,204,67851,1,2,0:0:0:0:
386,276,67976,6,0,B|373:206|410:211|392:138,2,137.750004203797,2|2|8,0:0|0:0|0:0,0:0:0:0:
379,74,68726,1,2,0:0:0:0:
221,136,68976,6,0,P|167:131|95:143,1,104.500003189087,2|0,0:0|0:0,0:0:0:0:
11,267,69476,1,8,0:0:0:0:
176,317,69726,1,0,0:0:0:0:
176,317,69851,1,2,0:0:0:0:
100,299,69976,2,0,L|84:179,1,104.500003189087,2|2,0:0|0:0,0:0:0:0:
24,85,70476,1,8,0:0:0:0:
180,64,70726,1,0,0:0:0:0:
0,16,70976,6,0,P|72:30|94:72,1,104.500003189087,2|0,0:0|0:0,0:0:0:0:
143,146,71476,2,0,L|255:150,1,104.500003189087,8|0,0:0|0:0,0:0:0:0:
320,119,71851,1,2,0:0:0:0:
381,174,71976,6,0,B|353:133|363:81|363:81|385:64|390:39,2,137.750004203797,2|8|8,0:0|0:0|0:0,0:0:0:0:
454,22,72726,1,2,0:0:0:0:
387,268,72976,6,0,L|492:278,1,104.500003189087,2|0,0:0|0:0,0:0:0:0:
321,225,73476,2,0,P|286:257|227:262,1,104.500003189087,8|0,0:0|0:0,0:0:0:0:
167,217,73851,1,2,0:0:0:0:
158,294,73976,2,2,B|132:292|113:268|113:268|141:218|116:166,1,156.750004783631,2|0,0:0|0:0,0:0:0:0:
1,241,74476,2,2,P|63:221|13:180,1,156.750004783631,8|0,0:0|0:0,0:0:0:0:
63,316,74976,5,2,0:0:0:0:
117,168,75226,1,0,0:0:0:0:
273,170,75476,1,8,0:0:0:0:
317,323,75726,1,0,0:0:0:0:
317,323,75851,1,2,0:0:0:0:
387,283,75976,6,0,B|343:295|302:274|302:274|224:285,2,137.750004203797,2|2|8,0:0|0:0|0:0,0:0:0:0:
181,293,76726,1,2,0:0:0:0:
445,230,76976,6,0,P|462:184|451:114,1,104.500003189087,2|0,0:0|0:0,0:0:0:0:
302,98,77476,1,8,0:0:0:0:
432,10,77726,1,0,0:0:0:0:
432,10,77851,1,2,0:0:0:0:
381,69,77976,2,0,L|372:184,1,104.500003189087,2|2,0:0|0:0,0:0:0:0:
259,226,78476,2,0,P|311:230|361:246,1,104.500003189087,8|0,0:0|0:0,0:0:0:0:
200,278,78976,5,2,0:0:0:0:
131,136,79226,1,0,0:0:0:0:
277,301,79476,1,8,0:0:0:0:
431,266,79726,1,0,0:0:0:0:
431,266,79851,1,2,0:0:0:0:
369,217,79976,1,2,0:0:0:0:
404,370,80226,1,8,0:0:0:0:
415,66,80476,5,4,0:0:0:0:
420,166,80601,1,4,0:0:0:0:
427,52,80726,1,4,0:0:0:0:
196,0,80976,6,0,P|205:54|168:108,1,104.500003189087,2|0,0:0|0:0,0:0:0:0:
26,238,81476,1,8,0:0:0:0:
105,89,81726,1,0,0:0:0:0:
105,89,81851,1,2,0:0:0:0:
138,160,81976,2,0,L|259:165,1,104.500003189087,2|2,0:0|0:0,0:0:0:0:
386,193,82476,1,8,0:0:0:0:
295,33,82726,1,0,0:0:0:0:
316,156,82976,6,0,P|374:124|430:117,1,104.500003189087,2|0,0:0|0:0,0:0:0:0:
382,261,83476,2,0,P|318:243|273:208,1,104.500003189087,8|0,0:0|0:0,0:0:0:0:
209,231,83851,1,2,0:0:0:0:
173,301,83976,6,0,B|176:259|160:227|160:227|155:188|174:156,2,137.750004203797,2|2|8,0:0|0:0|0:0,0:0:0:0:
242,164,84726,1,2,0:0:0:0:
485,336,84976,6,0,L|361:320,1,104.500003189087,2|0,0:0|0:0,0:0:0:0:
494,149,85476,1,8,0:0:0:0:
349,174,85726,1,0,0:0:0:0:
349,174,85851,1,2,0:0:0:0:
380,245,85976,2,0,P|434:259|485:238,1,104.500003189087,2|2,0:0|0:0,0:0:0:0:
429,16,86476,1,8,0:0:0:0:
428,183,86726,1,0,0:0:0:0:
477,109,86976,6,0,P|428:94|379:109,1,104.500003189087,2|0,0:0|0:0,0:0:0:0:
315,58,87476,2,0,L|210:47,1,104.500003189087,8|0,0:0|0:0,0:0:0:0:
138,77,87851,1,2,0:0:0:0:
81,26,87976,6,0,B|100:126|100:126|83:164,2,137.750004203797,2|8|8,0:0|0:0|0:0,0:0:0:0:
47,222,88726,1,2,0:0:0:0:
110,382,88976,6,0,P|84:335|99:266,1,104.500003189087,2|0,0:0|0:0,0:0:0:0:
186,192,89476,2,0,L|186:326,1,104.500003189087,8|0,0:0|0:0,0:0:0:0:
220,368,89851,1,2,0:0:0:0:
288,329,89976,2,2,P|372:333|426:283,1,156.750004783631,2|0,0:0|0:0,0:0:0:0:
320,199,90476,2,2,P|304:259|368:241,1,156.750004783631,8|0,0:0|0:0,0:0:0:0:
387,174,90976,5,2,0:0:0:0:
235,134,91226,1,0,0:0:0:0:
195,287,91476,1,8,0:0:0:0:
83,175,91726,1,0,0:0:0:0:
83,175,91851,1,2,0:0:0:0:
135,233,91976,6,0,B|118:195|128:160|128:160|154:137|151:95,2,137.750004203797,2|2|8,0:0|0:0|0:0,0:0:0:0:
131,26,92726,1,2,0:0:0:0:
64,313,92976,6,0,L|178:305,1,104.500003189087,2|0,0:0|0:0,0:0:0:0:
373,379,93476,1,8,0:0:0:0:
250,314,93726,1,0,0:0:0:0:
250,314,93851,1,2,0:0:0:0:
298,376,93976,2,0,P|298:327|280:273,1,104.500003189087,2|2,0:0|0:0,0:0:0:0:
327,115,94476,2,0,L|334:219,1,104.500003189087,8|0,0:0|0:0,0:0:0:0:
422,301,94976,5,2,0:0:0:0:
209,255,95226,1,0,0:0:0:0:
90,71,95476,1,8,0:0:0:0:
247,199,95726,1,0,0:0:0:0:
247,199,95851,1,2,0:0:0:0:
228,126,95976,1,2,0:0:0:0:
232,320,96226,1,8,0:0:0:0:
171,75,96476,5,4,0:0:0:0:
161,175,96601,1,4,0:0:0:0:
160,61,96726,1,4,0:0:0:0:
371,156,96976,5,2,0:0:0:0:
305,207,97476,5,8,0:0:0:0:
221,204,97726,1,0,0:0:0:0:
261,279,97976,1,0,0:0:0:0:
261,279,98226,1,0,0:0:0:0:
195,330,98476,5,8,0:0:0:0:
111,327,98726,1,0,0:0:0:0:
155,255,98976,1,0,0:0:0:0:
155,255,99226,1,0,0:0:0:0:
89,204,99476,5,8,0:0:0:0:
5,207,99726,1,0,0:0:0:0:
49,279,99976,1,0,0:0:0:0:
51,363,100226,1,0,0:0:0:0:
44,127,100476,6,0,L|43:77,5,34.8333343963623,8|0|0|0|0|0,0:0|0:0|0:0|0:0|0:0|0:0,0:0:0:0:
43,28,100976,5,2,0:0:0:0:
122,55,101476,5,8,0:0:0:0:
146,134,101726,1,0,0:0:0:0:
203,74,101976,1,0,0:0:0:0:
122,55,102226,1,0,0:0:0:0:
226,153,102476,5,8,0:0:0:0:
260,15,102726,1,0,0:0:0:0:
203,74,102976,1,0,0:0:0:0:
282,93,103226,1,0,0:0:0:0:
122,55,103476,5,8,0:0:0:0:
260,15,103726,1,0,0:0:0:0:
43,28,103976,1,0,0:0:0:0:
226,153,104226,1,8,0:0:0:0:
122,55,104476,5,8,0:0:0:0:
260,15,104726,1,0,0:0:0:0:
468,82,104976,5,0,0:0:0:0:
323,56,105226,1,0,0:0:0:0:
370,194,105476,1,8,0:0:0:0:
419,331,105726,2,0,P|437:303|452:279,1,52.2500015945435,0|2,0:0|0:0,0:0:0:0:
295,267,105976,5,2,0:0:0:0:
170,378,106226,1,2,0:0:0:0:
256,349,106476,1,8,0:0:0:0:
89,338,106726,1,0,0:0:0:0:
14,188,106976,5,2,0:0:0:0:
119,126,107226,1,0,0:0:0:0:
148,2,107476,1,8,0:0:0:0:
45,117,107726,2,0,P|36:86|35:60,1,52.2500015945435,0|2,0:0|0:0,0:0:0:0:
191,119,107976,6,0,B|249:112|249:112|264:93|264:93|332:85,2,137.750004203797,2|2|8,0:0|0:0|0:0,0:0:0:0:
309,167,108726,1,2,0:0:0:0:
169,314,108976,5,2,0:0:0:0:
171,188,109226,1,0,0:0:0:0:
102,83,109476,1,8,0:0:0:0:
108,250,109726,2,0,P|101:279|90:308,1,52.2500015945435,0|2,0:0|0:0,0:0:0:0:
9,384,109976,5,2,0:0:0:0:
63,181,110226,1,2,0:0:0:0:
234,59,110476,1,8,0:0:0:0:
0,149,110726,1,0,0:0:0:0:
164,120,110976,5,2,0:0:0:0:
328,91,111226,1,0,0:0:0:0:
356,254,111476,1,0,0:0:0:0:
234,93,111726,2,0,P|216:59|210:40,1,52.2500015945435,0|2,0:0|0:0,0:0:0:0:
226,169,111976,1,2,0:0:0:0:
204,376,112226,1,8,0:0:0:0:
266,248,112476,5,4,0:0:0:0:
163,266,112601,1,4,0:0:0:0:
279,263,112726,1,4,0:0:0:0:
47,269,112976,5,2,0:0:0:0:
128,203,113226,2,0,P|142:168|151:140,1,52.2500015945435
206,68,113476,2,0,P|220:102|233:129,1,52.2500015945435,8|0,0:0|0:0,0:0:0:0:
317,169,113726,2,0,L|382:172,1,52.2500015945435,0|2,0:0|0:0,0:0:0:0:
473,186,113976,2,0,L|486:117,1,52.2500015945435,2|0,0:0|0:0,0:0:0:0:
493,3,114226,1,0,0:0:0:0:
493,3,114351,1,2,0:0:0:0:
452,62,114476,2,0,L|465:131,1,52.2500015945435,8|0,0:0|0:0,0:0:0:0:
474,256,114726,1,0,0:0:0:0:
311,272,114976,6,0,P|318:214|315:152,1,104.500003189087,2|0,0:0|0:0,0:0:0:0:
351,333,115476,1,8,0:0:0:0:
246,330,115726,2,0,P|242:360|240:386,1,52.2500015945435,0|2,0:0|0:0,0:0:0:0:
141,331,115976,1,2,0:0:0:0:
36,329,116226,1,2,0:0:0:0:
113,258,116476,1,8,0:0:0:0:
217,252,116726,1,2,0:0:0:0:
321,246,116976,6,0,L|319:318,1,52.2500015945435,2|0,0:0|0:0,0:0:0:0:
398,175,117226,1,0,0:0:0:0:
238,131,117476,1,8,0:0:0:0:
186,138,117601,1,0,0:0:0:0:
271,170,117726,2,0,P|307:174|336:171,1,52.2500015945435,0|2,0:0|0:0,0:0:0:0:
426,80,117976,5,2,0:0:0:0:
464,44,118101,1,0,0:0:0:0:
376,66,118226,1,2,0:0:0:0:
477,181,118476,1,8,0:0:0:0:
459,230,118601,1,0,0:0:0:0:
481,318,118726,1,0,0:0:0:0:
319,298,118976,6,0,L|347:254,1,52.2500015945435,2|0,0:0|0:0,0:0:0:0:
362,384,119226,1,0,0:0:0:0:
169,303,119476,1,8,0:0:0:0:
88,369,119726,2,0,P|75:346|59:325,1,52.2500015945435,0|2,0:0|0:0,0:0:0:0:
49,173,119976,1,2,0:0:0:0:
67,124,120101,1,0,0:0:0:0:
45,36,120226,1,8,0:0:0:0:
187,157,120476,5,0,0:0:0:0:
310,109,120601,1,0,0:0:0:0:
169,87,120726,1,0,0:0:0:0:
272,171,120851,1,0,0:0:0:0:
238,106,120976,5,0,0:0:0:0:
389,148,121226,1,0,0:0:0:0:
413,302,121476,2,0,P|363:294|309:292,1,104.500003189087,8|0,0:0|0:0,0:0:0:0:
230,300,121851,1,2,0:0:0:0:
302,270,121976,1,2,0:0:0:0:
149,203,122226,1,2,0:0:0:0:
58,343,122476,2,0,P|112:341|161:333,1,104.500003189087,8|0,0:0|0:0,0:0:0:0:
216,213,122976,5,2,0:0:0:0:
165,121,123226,1,0,0:0:0:0:
61,141,123476,2,0,P|82:89|97:37,1,104.500003189087,8|0,0:0|0:0,0:0:0:0:
24,7,123851,1,2,0:0:0:0:
101,20,123976,6,0,B|167:7|167:40|246:22,2,137.750004203797,2|2|8,0:0|0:0|0:0,0:0:0:0:
308,37,124726,1,2,0:0:0:0:
165,121,124976,6,0,P|159:177|143:237,1,104.500003189087,2|0,0:0|0:0,0:0:0:0:
59,370,125476,1,8,0:0:0:0:
40,225,125726,1,0,0:0:0:0:
40,225,125851,1,2,0:0:0:0:
1,290,125976,2,0,B|40:298|40:298|113:287,1,104.500003189087,2|0,0:0|0:0,0:0:0:0:
217,195,126476,1,8,0:0:0:0:
356,239,126726,1,0,0:0:0:0:
246,363,126976,6,0,P|227:318|235:238,1,104.500003189087,2|0,0:0|0:0,0:0:0:0:
356,239,127476,2,0,P|375:284|367:364,1,104.500003189087,8|0,0:0|0:0,0:0:0:0:
445,375,127851,1,2,0:0:0:0:
451,297,127976,6,0,B|450:235|484:196|484:196|512:186,2,137.750004203797,2|8|8,0:0|0:0|0:0,0:0:0:0:
466,126,128726,1,2,0:0:0:0:
226,63,128976,6,0,P|273:45|345:42,1,104.500003189087,2|0,0:0|0:0,0:0:0:0:
153,34,129476,2,0,L|48:31,1,104.500003189087,8|0,0:0|0:0,0:0:0:0:
1,94,129851,1,2,0:0:0:0:
72,126,129976,2,2,B|161:123|161:123|183:153|171:199,1,156.750004783631,2|0,0:0|0:0,0:0:0:0:
124,268,130476,2,2,P|89:224|165:224,1,156.750004783631,8|0,0:0|0:0,0:0:0:0:
199,272,130976,5,2,0:0:0:0:
351,234,131226,1,0,0:0:0:0:
230,334,131476,1,8,0:0:0:0:
74,318,131726,1,0,0:0:0:0:
74,318,131851,1,2,0:0:0:0:
145,344,131976,6,0,B|163:338|184:338|184:338|235:350|288:350,2,137.750004203797,2|2|8,0:0|0:0|0:0,0:0:0:0:
338,305,132726,1,2,0:0:0:0:
485,173,132976,6,0,P|475:114|444:55,1,104.500003189087,2|0,0:0|0:0,0:0:0:0:
464,254,133476,1,8,0:0:0:0:
366,92,133726,1,0,0:0:0:0:
366,92,133851,1,2,0:0:0:0:
404,160,133976,2,0,P|383:207|375:259,1,104.500003189087,2|2,0:0|0:0,0:0:0:0:
267,330,134476,2,0,L|372:337,1,104.500003189087,8|0,0:0|0:0,0:0:0:0:
129,341,134976,5,2,0:0:0:0:
308,258,135226,1,0,0:0:0:0:
493,325,135476,1,8,0:0:0:0:
267,330,135726,1,0,0:0:0:0:
267,330,135851,1,2,0:0:0:0:
226,259,135976,1,2,0:0:0:0:
452,254,136226,1,8,0:0:0:0:
163,217,136476,5,4,0:0:0:0:
263,199,136601,1,4,0:0:0:0:
150,200,136726,1,4,0:0:0:0:
155,376,136976,6,0,P|196:324|271:332,1,142.500005435944,2|8,0:0|0:0,0:0:0:0:
372,383,137726,1,0,0:0:0:0:
442,369,137976,2,0,L|528:357,2,71.2500027179719,2|2|8,0:0|0:0|0:0,0:0:0:0:
361,270,138726,1,0,0:0:0:0:
291,258,138976,2,0,L|205:246,2,71.2500027179719,2|2|8,0:0|0:0|0:0,0:0:0:0:
410,174,139726,1,0,0:0:0:0:
414,104,139976,2,0,L|417:23,1,71.2500027179719,2|0,0:0|0:0,0:0:0:0:
312,102,140476,2,0,L|275:94,5,23.7500009059906,8|0|0|0|0|0,0:0|0:0|0:0|0:0|0:0|0:0,0:0:0:0:
322,31,140976,6,0,P|254:32|214:93,1,142.500005435944,2|8,0:0|0:0,0:0:0:0:
96,147,141726,2,0,L|84:63,1,71.2500027179719,0|2,0:0|0:0,0:0:0:0:
246,163,142226,1,2,0:0:0:0:
232,232,142476,2,0,L|221:302,1,71.2500027179719,8|0,0:0|0:0,0:0:0:0:
108,346,142976,6,0,P|74:333|39:332,1,71.2500027179719,2|2,0:0|0:0,0:0:0:0:
179,382,143476,2,0,P|214:380|247:368,1,71.2500027179719,8|0,0:0|0:0,0:0:0:0:
306,315,143976,2,0,P|341:316|374:328,1,71.2500027179719,2|2,0:0|0:0,0:0:0:0:
511,350,144476,2,0,P|477:362|442:364,1,71.2500027179719,8|0,0:0|0:0,0:0:0:0:
466,242,144976,6,0,P|478:181|469:121,1,123.499994346619,2|0,0:0|0:0,0:0:0:0:
294,65,145476,1,8,0:0:0:0:
120,122,145726,1,0,0:0:0:0:
174,62,145851,1,2,0:0:0:0:
199,139,145976,1,2,0:0:0:0:
199,139,146226,1,2,0:0:0:0:
253,247,146476,6,0,P|254:266|253:286,1,35.625001358986,8|0,0:0|0:0,0:0:0:0:
353,332,146726,1,0,0:0:0:0:
436,257,146976,1,2,0:0:0:0:
436,257,147226,1,0,0:0:0:0:
254,283,147476,5,8,0:0:0:0:
69,303,147726,1,0,0:0:0:0:
134,256,147851,1,2,0:0:0:0:
143,336,147976,6,0,B|159:300|149:260|149:260|114:228|112:187,1,152,2|2,0:0|0:0,0:0:0:0:
199,84,148476,5,2,0:0:0:0:
181,166,148601,1,2,0:0:0:0:
187,69,148726,1,2,0:0:0:0:
191,183,148851,1,2,0:0:0:0:
287,123,148976,5,6,0:0:0:0:
71,27,149476,6,0,B|34:108|34:108|39:155,1,123.499994346619,8|0,0:0|0:0,0:0:0:0:
40,223,149851,1,2,0:0:0:0:
60,145,149976,1,2,0:0:0:0:
69,358,150226,1,2,0:0:0:0:
147,250,150476,2,0,P|125:252|103:258,1,35.625001358986,8|0,0:0|0:0,0:0:0:0:
26,297,150726,1,2,0:0:0:0:
210,359,150976,5,2,0:0:0:0:
361,237,151226,1,0,0:0:0:0:
495,377,151476,1,8,0:0:0:0:
297,202,151726,1,0,0:0:0:0:
297,202,151851,1,2,0:0:0:0:
292,273,151976,6,0,B|236:273|200:243|200:243|184:271|194:301,1,152,2|2,0:0|0:0,0:0:0:0:
440,333,152476,5,4,0:0:0:0:
338,328,152601,1,4,0:0:0:0:
449,316,152726,1,4,0:0:0:0:
165,148,152976,6,0,P|234:132|295:147,1,123.499994346619,2|0,0:0|0:0,0:0:0:0:
497,103,153476,1,8,0:0:0:0:
409,233,153726,1,0,0:0:0:0:
361,168,153851,1,2,0:0:0:0:
440,155,153976,1,2,0:0:0:0:
440,155,154226,1,2,0:0:0:0:
418,310,154476,6,0,P|399:307|379:301,1,35.625001358986,8|0,0:0|0:0,0:0:0:0:
265,291,154726,1,0,0:0:0:0:
175,368,154976,1,2,0:0:0:0:
179,372,155226,1,0,0:0:0:0:
180,236,155476,5,8,0:0:0:0:
172,66,155726,1,0,0:0:0:0:
104,116,155851,1,2,0:0:0:0:
179,146,155976,1,2,0:0:0:0:
179,146,156226,1,2,0:0:0:0:
57,200,156476,5,2,0:0:0:0:
136,226,156601,1,2,0:0:0:0:
40,210,156726,1,2,0:0:0:0:
154,218,156851,1,2,0:0:0:0:
104,116,156976,5,6,0:0:0:0:
15,359,157476,6,0,B|45:337|45:337|87:333|135:357,1,123.499994346619,8|0,0:0|0:0,0:0:0:0:
204,329,157851,1,2,0:0:0:0:
123,333,157976,1,2,0:0:0:0:
300,381,158226,1,2,0:0:0:0:
408,335,158476,2,0,P|438:339|455:340,1,35.625001358986,8|0,0:0|0:0,0:0:0:0:
494,292,158726,1,0,0:0:0:0:
285,308,158976,5,2,0:0:0:0:
142,234,159226,1,0,0:0:0:0:
426,269,159476,1,8,0:0:0:0:
211,174,159726,1,0,0:0:0:0:
211,174,159851,1,2,0:0:0:0:
223,253,159976,1,2,0:0:0:0:
371,218,160226,1,8,0:0:0:0:
127,156,160476,1,8,0:0:0:0:
52,251,160726,6,2,B|42:290|42:290|62:328,1,80.750001540184,2|0,0:0|0:0,0:0:0:0:
54,337,160976,6,0,L|180:329,1,118.75,2|0,0:0|0:0,0:0:0:0:
255,361,161476,1,8,0:0:0:0:
398,298,161726,1,0,0:0:0:0:
423,313,161851,1,2,0:0:0:0:
361,362,161976,2,0,P|362:330|352:295,1,59.375,2|0,0:0|0:0,0:0:0:0:
309,241,162226,1,2,0:0:0:0:
361,120,162476,1,8,0:0:0:0:
234,256,162726,2,0,P|233:289|239:315,1,59.375
122,185,162976,6,0,P|162:199|179:222,1,59.375
336,177,163226,2,0,P|296:191|279:214,1,59.375
238,314,163476,2,0,P|239:281|233:255,1,59.375
224,159,163726,1,0,0:0:0:0:
221,129,163851,1,2,0:0:0:0:
298,119,163976,6,0,B|337:153|384:181|384:181|424:190,2,137.750004203797,2|2|8,0:0|0:0|0:0,0:0:0:0:
414,112,164726,1,2,0:0:0:0:
334,315,164976,6,0,B|304:308|304:308|268:316,1,59.375,2|0,0:0|0:0,0:0:0:0:
179,247,165226,2,0,B|172:217|172:217|180:181,1,59.375,0|0,0:0|0:0,0:0:0:0:
296,200,165476,2,0,P|255:243|254:192,1,142.500005435944,8|0,0:0|0:0,0:0:0:0:
218,130,165851,1,2,0:0:0:0:
156,93,165976,6,0,L|91:80,1,59.375,2|0,0:0|0:0,0:0:0:0:
35,180,166226,2,0,L|88:155,1,59.375,2|0,0:0|0:0,0:0:0:0:
72,19,166476,2,0,B|20:17|20:17|36:118,1,142.500005435944,8|0,0:0|0:0,0:0:0:0:
192,251,166976,6,0,P|176:292|170:329,1,59.375,2|0,0:0|0:0,0:0:0:0:
44,305,167226,2,0,P|27:264|5:233,1,59.375,0|0,0:0|0:0,0:0:0:0:
94,194,167476,2,0,B|119:217|121:252|121:252|101:288|112:342,1,142.500005435944,8|0,0:0|0:0,0:0:0:0:
165,371,167851,1,2,0:0:0:0:
96,350,167976,1,2,0:0:0:0:
249,300,168226,6,0,B|275:286|275:286|311:285,1,59.375,8|0,0:0|0:0,0:0:0:0:
413,319,168476,1,8,0:0:0:0:
438,334,168601,1,0,0:0:0:0:
376,383,168726,2,0,P|377:351|367:316,1,59.375,2|0,0:0|0:0,0:0:0:0:
256,160,170851,6,2,L|256:192,1,29.6875
256,224,170976,5,4,0:0:0:0:
