osu file format v14

[General]
AudioFilename: Untitled.mp3
AudioLeadIn: 0
PreviewTime: 48502
Countdown: 0
SampleSet: Normal
StackLeniency: 0.7
Mode: 0
LetterboxInBreaks: 0
WidescreenStoryboard: 0

[Editor]
DistanceSpacing: 1.2
BeatDivisor: 4
GridSize: 8
TimelineZoom: 1.5

[Metadata]
Title:My Hero! Up to you!
TitleUnicode:My Hero! Up to you!
Artist:Hagumi Nishizawa
ArtistUnicode:西沢はぐみ
Creator:Xexxar
Version:Normal
Source:世界を救うだけの簡単なお仕事
Tags:Sekai wo Sukuu Dake no Kantan na Oshigoto eroge visual novel opening op Anxient
BeatmapID:861004
BeatmapSetID:394270

[Difficulty]
HPDrainRate:3
CircleSize:3
OverallDifficulty:3
ApproachRate:4
SliderMultiplier:0.6
SliderTickRate:1

[Events]
//Background and Video events
Video,-123,"eroge5.avi"
0,0,"268_267.jpg",0,0
//Break Periods
//Storyboard Layer 0 (Background)
//Storyboard Layer 1 (Fail)
//Storyboard Layer 2 (Pass)
//Storyboard Layer 3 (Foreground)
//Storyboard Sound Samples

[TimingPoints]
377,357.142857142857,4,1,1,75,1,0
377,-83.3333333333333,4,1,1,75,0,0
1806,357.142857142857,4,1,1,75,1,0
1806,-76.9230769230769,4,1,1,75,0,0
13234,-81.9672131147541,4,3,1,75,0,0
18948,-90.9090909090909,4,3,1,75,0,0
24663,-81.9672131147541,4,3,1,75,0,0
30377,-76.9230769230769,4,1,1,75,0,0
36091,-78.125,4,3,1,75,0,0
46270,-71.4285714285714,4,3,1,75,0,0
48948,-68.9655172413793,4,1,1,75,0,1
60020,-68.9655172413793,4,1,1,75,0,0
60377,-68.9655172413793,4,1,1,75,0,1
65555,-66.6666666666667,4,1,1,75,0,0
66091,-66.6666666666667,4,1,1,75,0,1
71270,-64.5161290322581,4,1,1,75,0,0
71805,-64.5161290322581,4,1,1,75,0,1
75734,-71.4285714285714,4,1,1,75,0,0
75913,353.565114908662,4,1,1,75,1,1
77504,357.142857142857,4,1,1,75,1,1
77504,-71.4285714285714,4,1,1,75,0,1
78932,357.142857142857,4,1,1,75,1,0
78932,-71.4285714285714,4,1,1,75,0,0
89646,-83.3333333333333,4,1,1,75,0,0

[Colours]
Combo1 : 179,91,225
Combo2 : 232,164,96
Combo3 : 228,71,146
Combo4 : 43,217,117

[HitObjects]
146,115,377,6,0,L|133:199,2,71.9999978027345,0|0|0,2:0|2:0|2:0,2:0:0:0:
220,47,1448,1,8,0:0:0:0:
252,143,1806,6,0,P|319:169|340:170,1,77.9999964294435,4|8,0:0|0:0,0:0:0:0:
374,169,2341,2,0,L|457:168,1,77.9999964294435,4|8,0:1|0:0,0:0:0:0:
414,262,3055,2,0,P|423:297|415:348,1,77.9999964294435,4|0,0:0|0:0,0:0:0:0:
319,362,3770,2,0,L|237:367,1,77.9999964294435,12|0,0:0|0:0,0:0:0:0:
190,370,4305,2,0,P|161:370|138:362,1,38.9999982147218,8|0,0:3|0:0,0:0:0:0:
109,349,4663,1,4,0:0:0:0:
168,276,5020,6,0,P|189:243|198:197,1,77.9999964294435,8|8,0:0|0:0,0:0:0:0:
202,159,5555,2,0,P|203:116|214:82,1,77.9999964294435,0|12,0:0|0:0,0:0:0:0:
338,16,6448,2,0,L|382:11,2,38.9999982147218,8|0|12,0:0|0:0|0:1,0:0:0:0:
292,106,7163,2,0,P|292:137|299:158,1,38.9999982147218,0|8,0:0|0:0,0:0:0:0:
326,183,7520,6,0,P|348:226|350:261,1,77.9999964294435,4|8,0:0|0:0,0:0:0:0:
337,303,8055,2,0,L|247:326,1,77.9999964294435,4|8,0:1|0:0,0:0:0:0:
168,280,8770,2,0,P|125:272|86:284,1,77.9999964294435,12|0,0:1|0:0,0:0:0:0:
65,323,9305,2,0,P|61:346|60:364,2,38.9999982147218,0|12|0,0:0|0:0|0:0,0:0:0:0:
20,236,10020,1,0,0:0:0:0:
31,142,10377,6,0,P|74:112|111:106,1,77.9999964294435,8|8,0:0|0:0,0:0:0:0:
145,110,10913,2,0,L|235:126,1,77.9999964294435,4|0,0:0|0:0,0:0:0:0:
313,140,11627,1,0,0:0:0:0:
143,213,13234,6,0,L|69:229,1,73.199996984253,4|8,0:1|0:1,0:0:0:0:
73,316,13948,2,0,P|120:326|156:320,1,73.199996984253,0|8,0:0|0:1,0:0:0:0:
217,273,14663,2,0,P|262:284|290:300,1,73.199996984253,0|8,0:0|0:1,0:0:0:0:
353,351,15377,2,0,L|369:383,2,36.5999984921265,0|0|8,0:0|0:0|0:1,0:0:0:0:
368,264,16091,6,0,P|376:211|371:180,1,73.199996984253,4|8,0:0|0:1,0:0:0:0:
330,115,16805,2,0,P|331:75|349:45,2,73.199996984253,0|8|0,0:0|0:1|0:0,0:0:0:0:
287,192,17877,2,0,P|253:205|204:209,1,73.199996984253,8|0,0:1|0:0,0:0:0:0:
130,194,18591,1,8,0:1:0:0:
57,148,18948,6,0,P|45:96|79:18,2,132.00000402832,4|8|8,0:1|0:1|0:3,0:0:0:0:
76,231,20734,2,0,P|80:273|71:305,2,66.0000020141602,2|8|0,0:2|0:1|0:0,0:0:0:0:
140,174,21805,6,0,P|184:170|271:171,1,132.00000402832,4|8,0:1|0:1,0:0:0:0:
331,332,23234,2,0,P|377:337|407:328,1,66.0000020141602,2|8,0:2|0:0,0:0:0:0:
454,269,23948,2,0,L|466:238,2,33.0000010070801,8|2|8,0:1|0:2|0:1,0:0:0:0:
362,240,24663,6,0,P|350:197|355:154,1,73.199996984253,4|8,0:1|0:1,0:0:0:0:
413,97,25377,2,0,L|458:89,2,36.5999984921265,0|0|8,0:0|0:0|0:1,0:0:0:0:
318,82,26091,2,0,P|281:72|236:74,1,73.199996984253,0|8,0:0|0:1,0:0:0:0:
166,124,26805,2,0,P|150:163|154:200,2,73.199996984253,0|8|0,0:0|0:1|0:1,0:0:0:0:
244,178,27877,6,0,L|258:263,1,73.199996984253,8|0,0:1|0:0,0:0:0:0:
268,344,28591,1,8,0:1:0:0:
180,307,28948,2,0,P|156:288|135:250,1,73.199996984253,0|8,0:0|0:1,0:0:0:0:
110,159,29663,2,0,L|114:122,2,36.5999984921265,0|0|8,0:0|0:0|0:1,0:0:0:0:
49,230,30377,6,0,P|35:273|39:314,1,77.9999964294435,4|8,1:1|0:0,0:0:0:0:
55,348,30913,2,0,L|137:374,1,77.9999964294435,4|8,0:0|0:0,0:0:0:0:
200,311,31627,2,0,P|250:298|289:299,1,77.9999964294435,4|8,0:0|0:3,0:0:0:0:
320,313,32163,2,0,L|361:331,2,38.9999982147218,8|4|0,0:0|0:0|0:0,0:0:0:0:
324,219,32877,1,8,0:0:0:0:
254,156,33234,6,0,P|248:124|255:74,1,77.9999964294435,4|8,0:0|0:0,0:0:0:0:
175,27,33948,2,0,L|94:21,1,77.9999964294435,8|0,0:0|0:0,0:0:0:0:
50,21,34484,1,12,0:0:0:0:
76,112,34841,2,0,P|84:139|75:204,1,77.9999964294435,0|0,0:0|0:0,0:0:0:0:
71,234,35377,2,0,L|58:275,2,38.9999982147218,4|8|8,0:0|3:0|3:0,0:0:0:0:
174,219,36091,6,0,L|253:228,1,76.8,4|8,0:1|0:1,0:0:0:0:
325,171,36805,2,0,P|341:143|344:91,1,76.8,0|8,0:0|0:1,0:0:0:0:
281,32,37520,2,0,L|190:19,2,76.8,4|8|0,0:0|0:1|0:0,0:0:0:0:
370,11,38591,1,8,0:1:0:0:
449,57,38948,6,0,P|461:100|453:144,1,76.8,4|8,0:0|0:1,0:0:0:0:
396,201,39663,2,0,P|391:233|403:278,1,76.8,8|8,0:0|0:1,0:0:0:0:
335,340,40377,2,0,L|253:347,1,76.8,4|8,0:0|0:1,0:0:0:0:
185,290,41091,2,0,P|179:269|177:249,2,38.4,0|8|12,0:0|0:0|0:3,0:0:0:0:
269,254,41805,6,0,P|277:213|265:169,1,76.8,4|8,1:0|0:1,0:0:0:0:
214,105,42520,2,0,P|177:94|136:96,1,76.8,0|8,0:0|0:1,0:0:0:0:
67,153,43234,2,0,L|52:194,2,38.4,4|8|8,0:0|0:0|0:1,0:0:0:0:
49,62,43948,2,0,P|74:34|115:19,1,76.8,0|8,0:0|0:1,0:0:0:0:
199,19,44663,6,0,L|272:42,1,76.8,4|8,0:3|0:1,0:0:0:0:
314,123,45377,1,0,0:0:0:0:
341,160,45555,2,0,P|346:185|346:209,2,38.4,8|8|0,0:0|0:0|0:0,0:0:0:0:
440,102,46270,5,4,2:1:0:0:
460,200,46627,1,4,2:1:0:0:
479,298,46984,1,4,2:1:0:0:
456,214,48948,6,0,P|407:216|359:238,1,87.0000026550294,4|10,0:0|0:0,0:0:0:0:
315,317,49663,2,0,P|269:336|220:332,1,87.0000026550294,8|10,0:3|0:0,0:0:0:0:
159,260,50377,2,0,L|145:166,2,87.0000026550294,0|10|0,0:0|0:0|3:0,0:0:0:0:
154,312,51270,2,0,P|145:335|133:351,2,43.5000013275147,8|10|0,0:3|0:0|0:2,0:0:0:0:
29,217,52163,6,0,P|19:154|26:121,1,87.0000026550294,10|8,0:0|0:3,0:0:0:0:
96,58,52877,2,0,P|127:50|191:48,1,87.0000026550294,10|4,0:0|0:0,0:0:0:0:
269,104,53591,2,0,P|276:125|278:148,2,43.5000013275147,10|2|0,0:0|0:2|3:0,0:0:0:0:
288,55,54127,2,0,P|335:35|382:38,1,87.0000026550294,8|4,0:3|0:0,0:0:0:0:
420,51,54663,5,0,0:0:0:0:
421,158,55020,2,0,L|411:247,1,87.0000026550294,10|8,0:0|0:3,0:0:0:0:
325,304,55734,1,10,0:0:0:0:
239,363,56091,2,0,P|211:368|146:355,1,87.0000026550294,0|10,0:0|0:0,0:0:0:0:
82,282,56805,2,0,P|70:241|85:184,2,87.0000026550294,0|10|12,1:0|0:0|0:0,0:0:0:0:
176,236,57877,6,0,L|268:232,1,87.0000026550294,8|8,0:0|0:0,0:0:0:0:
315,229,58413,1,8,3:0:0:0:
374,143,58770,2,0,P|390:106|394:46,1,87.0000026550294,12|0,0:0|0:0,0:0:0:0:
291,66,59484,2,0,P|231:55|147:62,1,130.500003982544,0|0,0:0|0:0,0:0:0:0:
83,128,60377,6,0,L|70:222,1,87.0000026550294,4|10,0:0|0:0,0:0:0:0:
135,296,61091,2,0,P|175:313|227:313,1,87.0000026550294,8|10,0:3|0:0,0:0:0:0:
321,300,61805,2,0,P|350:303|372:312,2,43.5000013275147,4|0|10,0:0|0:0|0:0,0:0:0:0:
256,217,62520,2,0,P|249:180|252:159,2,43.5000013275147,0|8|10,3:0|0:3|0:0,0:0:0:0:
359,202,63234,6,0,P|378:168|380:106,1,87.0000026550294,4|10,0:0|0:0,0:0:0:0:
306,49,63948,2,0,L|209:35,1,87.0000026550294,8|10,0:3|0:0,0:0:0:0:
128,87,64663,2,0,P|113:125|115:177,1,87.0000026550294,4|10,0:0|0:0,0:0:0:0:
119,217,65198,2,0,L|133:310,1,87.0000026550294,0|8,3:0|0:3,0:0:0:0:
143,351,65734,1,10,0:0:0:0:
259,306,66091,6,0,L|364:292,1,90.0000034332277,4|10,0:0|0:0,0:0:0:0:
435,230,66805,2,0,P|450:187|441:131,1,90.0000034332277,10|10,0:0|0:0,0:0:0:0:
377,59,67520,2,0,P|331:45|284:50,1,90.0000034332277,4|10,0:0|0:0,0:0:0:0:
201,110,68234,2,0,P|161:119|109:110,1,90.0000034332277,10|10,0:0|0:0,0:0:0:0:
46,196,68948,6,0,P|37:246|51:295,1,90.0000034332277,4|10,0:0|0:0,0:0:0:0:
140,336,69663,2,0,L|188:334,1,45.0000017166138,10|8,0:0|0:3,0:0:0:0:
268,265,70198,2,0,L|283:213,2,45.0000017166138,12|12|8,0:3|0:0|0:0,0:0:0:0:
282,317,70734,2,0,P|322:343|417:344,1,135.000005149841,4|0,0:2|0:0,0:0:0:0:
459,325,71448,1,0,0:0:0:0:
417,221,71805,6,0,P|426:171|420:129,1,93.0000007095337,12|10,0:0|0:0,0:0:0:0:
335,56,72520,2,0,L|324:5,2,46.5000003547668,10|8|10,0:0|0:3|0:0,0:0:0:0:
298,161,73234,2,0,P|262:189|203:200,1,93.0000007095337,12|10,0:0|0:0,0:0:0:0:
109,170,73948,2,0,L|83:126,2,46.5000003547668,10|8|10,0:0|0:3|0:0,0:0:0:0:
110,281,74663,5,12,0:0:0:0:
199,347,75020,1,10,0:0:0:0:
310,337,75377,2,0,L|370:353,2,46.5000003547668,10|8|8,0:0|0:0|0:0,0:0:0:0:
287,297,75913,5,14,0:0:0:0:
117,249,77861,6,0,P|108:217|112:155,1,83.9999974365235,8|8,3:0|0:3,0:0:0:0:
119,117,78396,2,0,L|134:68,1,41.9999987182618,8|8,0:1|0:3,0:0:0:0:
214,19,78932,6,0,P|272:14|311:20,1,83.9999974365235,4|8,0:0|0:0,0:0:0:0:
346,28,79468,2,0,L|436:51,1,83.9999974365235,2|8,0:2|0:0,0:0:0:0:
414,148,80182,2,0,P|410:189|395:228,1,83.9999974365235,4|8,0:1|0:3,0:0:0:0:
322,303,80896,2,0,L|236:317,1,83.9999974365235,12|0,0:0|0:0,0:0:0:0:
189,326,81432,2,0,L|136:332,2,41.9999987182618,0|0|4,0:0|0:0|0:0,0:0:0:0:
196,225,82146,6,0,P|195:190|174:128,1,83.9999974365235,8|8,0:0|0:0,0:0:0:0:
162,96,82682,1,0,0:0:0:0:
74,146,83039,2,0,P|61:191|61:233,1,83.9999974365235,12|8,0:0|0:3,0:0:0:0:
70,277,83575,2,0,L|80:327,2,41.9999987182618,8|0|12,0:0|0:0|0:0,0:0:0:0:
170,280,84289,1,8,0:0:0:0:
244,211,84646,6,0,P|257:178|260:122,1,83.9999974365235,4|8,0:0|0:0,0:0:0:0:
299,97,85182,2,0,L|389:83,1,83.9999974365235,4|8,0:0|0:0,0:0:0:0:
457,150,85896,2,0,P|475:186|472:237,1,83.9999974365235,12|0,0:1|0:0,0:0:0:0:
461,277,86432,2,0,L|442:323,2,41.9999987182618,0|8|4,0:0|0:0|0:1,0:0:0:0:
372,228,87146,2,0,P|321:223|275:227,1,83.9999974365235,8|4,0:3|0:0,0:0:0:0:
168,317,88039,6,0,P|119:292|91:180,1,167.999994873047,4|12,0:0|0:0,0:0:0:0:
110,90,89111,2,0,L|123:35,1,41.9999987182618,8|8,0:3|0:0,0:0:0:0:
199,15,89646,2,0,P|243:8|280:14,1,71.9999978027344,4|0,0:0|0:0,0:0:0:0:
338,64,90361,6,0,L|354:110,1,35.9999989013672,12|12,0:3|0:3,0:0:0:0:
301,169,90896,2,0,L|304:210,1,35.9999989013672,12|12,0:3|0:1,0:0:0:0:
185,320,91789,2,0,P|153:322|134:320,1,35.9999989013672,12|8,0:3|0:3,0:0:0:0:
79,270,92325,2,0,P|68:243|66:222,1,35.9999989013672,8|12,0:3|0:0,0:0:0:0:
143,81,93218,6,0,L|190:78,1,35.9999989013672,12|12,0:3|0:3,0:0:0:0:
255,119,93754,2,0,L|302:116,1,35.9999989013672,8|12,0:3|0:0,0:0:0:0:
402,49,94468,1,12,0:0:0:0:
