osu file format v14

[General]
AudioFilename: Untitled.mp3
AudioLeadIn: 0
PreviewTime: 48502
Countdown: 0
SampleSet: None
StackLeniency: 0.5
Mode: 0
LetterboxInBreaks: 0
WidescreenStoryboard: 0

[Editor]
DistanceSpacing: 0.3
BeatDivisor: 4
GridSize: 8
TimelineZoom: 1.5

[Metadata]
Title:My Hero! Up to you!
TitleUnicode:My Hero! Up to you!
Artist:Hagumi Nishizawa
ArtistUnicode:西沢はぐみ
Creator:Xexxar
Version:Insane
Source:世界を救うだけの簡単なお仕事
Tags:Sekai wo Sukuu Dake no Kantan na Oshigoto eroge visual novel opening op Anxient
BeatmapID:858798
BeatmapSetID:394270

[Difficulty]
HPDrainRate:5.4
CircleSize:4
OverallDifficulty:7.8
ApproachRate:8.5
SliderMultiplier:1.2
SliderTickRate:1

[Events]
//Background and Video events
Video,-123,"eroge5.avi"
0,0,"184_183.jpg",0,0
//Break Periods
//Storyboard Layer 0 (Background)
//Storyboard Layer 1 (Fail)
//Storyboard Layer 2 (Pass)
//Storyboard Layer 3 (Foreground)
//Storyboard Sound Samples

[TimingPoints]
377,357.142857142857,4,1,1,75,1,0
1806,357.142857142857,4,1,1,75,1,0
1806,-66.6666666666667,4,1,1,75,0,0
2073,-66.6666666666667,4,1,1,5,0,0
2163,-76.9230769230769,4,1,1,75,0,0
7520,-76.9230769230769,4,1,1,75,0,0
7788,-76.9230769230769,4,1,1,75,0,0
7877,-76.9230769230769,4,1,1,75,0,0
13055,-76.9230769230769,4,1,1,55,0,0
13234,-81.9672131147541,4,3,1,75,0,0
18948,-90.9090909090909,4,3,1,75,0,0
24663,-81.9672131147541,4,3,1,75,0,0
30377,-76.9230769230769,4,1,1,75,0,0
36091,-78.125,4,3,1,75,0,0
48234,-78.125,4,1,1,75,0,0
48948,-59.8802395209581,4,1,1,75,0,1
49305,-68.9655172413793,4,1,1,75,0,1
60020,-68.9655172413793,4,1,1,75,0,0
60377,-62.5,4,1,1,75,0,1
60734,-68.9655172413793,4,1,1,75,0,1
65555,-66.6666666666667,4,1,1,75,0,0
66091,-66.6666666666667,4,1,1,75,0,1
71270,-64.5161290322581,4,1,1,75,0,0
71805,-64.5161290322581,4,1,1,75,0,1
75734,-71.4285714285714,4,1,1,75,0,0
75913,353.565114908662,4,1,1,75,1,1
77504,357.142857142857,4,1,1,75,1,1
77504,-71.4285714285714,4,1,1,75,0,1
77861,-111.111111111111,4,1,1,75,0,1
78575,-71.4285714285714,4,1,1,75,0,1
78932,357.142857142857,4,1,1,75,1,0
78932,-71.4285714285714,4,1,1,75,0,0
89646,-83.3333333333333,4,3,1,75,0,0

[Colours]
Combo1 : 179,91,225
Combo2 : 232,164,96
Combo3 : 228,71,146
Combo4 : 43,217,117

[HitObjects]
256,56,377,5,0,2:0:0:0:
256,140,734,1,0,2:0:0:0:
256,224,1091,1,0,2:0:0:0:
185,184,1269,5,8,2:3:0:0:
349,281,1448,1,8,0:0:0:0:
351,100,1626,1,0,2:0:0:0:
256,308,1806,6,0,P|212:328|96:326,1,135.000005149841,4|0,0:0|2:0,0:0:0:0:
95,326,2163,1,8,0:0:0:0:
161,175,2341,2,0,P|159:122|141:85,1,77.9999964294435,4|0,0:1|3:0,0:0:0:0:
134,256,2698,2,0,P|186:254|223:236,1,77.9999964294435,8|0,0:0|2:0,0:0:0:0:
328,284,3055,6,0,P|364:316|380:360,1,77.9999964294435,4|8,0:0|0:0,0:0:0:0:
289,201,3413,1,0,0:0:0:0:
246,342,3591,1,2,0:2:0:0:
296,179,3770,2,0,P|308:127|272:23,1,155.999992858887,12|0,0:0|0:0,0:0:0:0:
192,117,4305,1,8,0:3:0:0:
289,201,4484,1,0,0:0:0:0:
308,214,4573,1,8,0:0:0:0:
327,227,4663,6,0,P|369:237|412:228,1,77.9999964294435,4|0,0:0|0:0,0:0:0:0:
307,109,5020,1,8,0:0:0:0:
200,210,5198,2,0,L|219:286,1,77.9999964294435,0|8,0:0|0:0,0:0:0:0:
117,150,5555,2,0,P|117:109|146:55,1,77.9999964294435,0|0,0:0|0:0,0:0:0:0:
200,210,5913,6,0,P|150:245|46:226,1,155.999992858887,12|0,0:0|0:0,0:0:0:0:
117,150,6448,1,8,0:0:0:0:
157,43,6627,1,0,0:0:0:0:
226,134,6805,2,0,P|265:163|280:204,1,77.9999964294435,12|0,0:1|0:0,0:0:0:0:
224,312,7163,1,0,0:0:0:0:
342,247,7341,1,8,0:0:0:0:
355,227,7430,1,0,0:0:0:0:
361,204,7520,6,0,B|367:166|367:166|349:120|373:72,1,116.999994644165,4|0,0:0|0:0,0:0:0:0:
379,61,7877,1,8,0:0:0:0:
442,271,8055,2,0,P|407:299|344:309,1,77.9999964294435,4|0,0:1|2:0,0:0:0:0:
462,165,8413,2,0,L|476:71,1,77.9999964294435,8|0,0:0|2:0,0:0:0:0:
361,204,8770,6,0,P|306:218|255:213,1,77.9999964294435,12|0,0:1|0:0,0:0:0:0:
249,125,9127,1,0,0:0:0:0:
202,269,9305,2,0,L|221:351,1,77.9999964294435,0|12,0:0|0:0,0:0:0:0:
123,193,9663,1,0,0:0:0:0:
95,80,9841,1,0,0:0:0:0:
128,220,10020,1,8,0:3:0:0:
201,102,10198,1,0,0:0:0:0:
217,84,10288,1,8,0:0:0:0:
233,67,10377,6,0,B|253:49|253:49|312:45,1,77.9999964294435,4|0,0:0|0:0,0:0:0:0:
413,41,10734,1,8,0:0:0:0:
316,174,10913,2,0,L|214:180,1,77.9999964294435,4|8,0:0|0:1,0:0:0:0:
122,182,11270,1,0,0:0:0:0:
243,292,11448,1,0,0:0:0:0:
175,77,11627,5,4,0:0:0:0:
141,89,12520,5,8,0:0:0:0:
177,257,12698,1,8,3:0:0:0:
111,207,12877,1,8,3:0:0:0:
295,226,13055,1,8,0:0:0:0:
194,340,13234,6,0,L|107:351,1,73.199996984253,4|0,0:1|3:0,0:0:0:0:
33,269,13591,2,0,P|14:228|17:177,1,73.199996984253,8|0,0:1|0:0,0:0:0:0:
71,91,13948,2,0,L|158:80,1,73.199996984253,0|0,0:0|0:0,0:0:0:0:
264,23,14305,1,8,0:1:0:0:
254,164,14484,6,0,P|246:212|223:244,1,73.199996984253,0|0,0:2|0:0,0:0:0:0:
122,161,14841,1,0,0:0:0:0:
173,285,15020,1,8,0:1:0:0:
111,135,15198,2,0,P|120:95|148:60,1,73.199996984253,0|0,0:0|0:0,0:0:0:0:
262,45,15555,1,0,0:0:0:0:
254,164,15734,1,8,0:1:0:0:
264,6,15913,1,0,0:0:0:0:
345,130,16091,6,0,P|352:175|333:217,1,73.199996984253,4|0,0:0|0:0,0:0:0:0:
253,319,16448,2,0,L|178:331,1,73.199996984253,8|0,0:1|0:0,0:0:0:0:
265,231,16805,1,0,0:0:0:0:
391,323,16984,1,0,0:0:0:0:
236,214,17163,1,8,0:1:0:0:
454,267,17341,6,0,P|475:307|472:354,1,73.199996984253
412,182,17698,2,0,L|423:103,1,73.199996984253,0|8,0:0|0:1,0:0:0:0:
347,252,18055,2,0,P|316:285|307:331,1,73.199996984253,0|0,0:0|0:0,0:0:0:0:
391,323,18413,1,0,0:0:0:0:
415,169,18591,2,0,L|427:79,1,73.199996984253,8|0,0:1|0:0,0:0:0:0:
347,252,18948,6,0,P|303:272|211:277,1,132.00000402832,4|0,0:1|0:0,0:0:0:0:
92,138,19663,2,0,P|83:99|93:56,2,66.0000020141602,8|0|0,0:1|0:0|0:0,0:0:0:0:
69,228,20198,5,0,0:0:0:0:
167,98,20377,2,0,P|209:88|263:92,1,66.0000020141602,8|0,0:3|0:0,0:0:0:0:
92,138,20734,5,2,0:2:0:0:
270,93,20913,2,0,P|304:110|332:138,1,66.0000020141602,2|8,0:2|0:1,0:0:0:0:
332,281,21270,2,0,P|304:324|225:359,1,132.00000402832,2|0,0:2|0:0,0:0:0:0:
313,204,21805,6,0,P|377:216|411:271,1,132.00000402832,4|0,0:1|0:0,0:0:0:0:
162,317,22520,2,0,P|150:361|158:396,2,66.0000020141602,8|0|0,0:1|0:0|0:0,0:0:0:0:
225,240,23055,1,8,0:3:0:0:
182,140,23234,6,0,P|170:101|175:65,1,66.0000020141602,2|0,0:2|0:0,0:0:0:0:
144,217,23591,1,8,0:0:0:0:
285,132,23770,2,0,P|292:100|284:59,1,66.0000020141602,2|8,2:0|0:1,0:0:0:0:
230,10,24127,1,2,0:2:0:0:
230,10,24216,1,8,0:1:0:0:
230,10,24305,1,8,0:1:0:0:
182,140,24484,1,0,0:0:0:0:
364,22,24663,6,0,P|400:30|433:54,1,73.199996984253,4|0,0:1|0:0,0:0:0:0:
496,164,25020,2,0,L|488:248,1,73.199996984253,8|0,0:1|0:0,0:0:0:0:
372,144,25377,1,0,0:0:0:0:
364,240,25555,1,0,0:0:0:0:
252,128,25734,5,8,0:1:0:0:
248,240,25913,2,0,L|244:324,1,73.199996984253,0|0,0:0|0:0,0:0:0:0:
176,164,26270,2,0,P|168:128|192:64,1,73.199996984253,0|8,0:0|0:1,0:0:0:0:
268,20,26627,2,0,L|364:16,1,73.199996984253,0|0,0:0|0:0,0:0:0:0:
260,104,26984,1,0,0:0:0:0:
180,0,27163,1,8,0:1:0:0:
276,128,27341,1,0,0:0:0:0:
88,96,27520,6,0,P|60:124|40:164,1,73.199996984253,0|0,0:1|0:0,0:0:0:0:
68,288,27877,1,8,0:1:0:0:
128,172,28055,2,0,L|216:168,1,73.199996984253,2|0,0:2|0:0,0:0:0:0:
316,160,28413,1,0,0:0:0:0:
256,300,28591,2,0,P|200:324|168:320,1,73.199996984253,8|0,0:1|0:0,0:0:0:0:
328,244,28948,5,0,0:0:0:0:
256,100,29127,1,0,0:0:0:0:
196,248,29305,2,0,L|116:256,1,73.199996984253,8|0,0:1|0:0,0:0:0:0:
48,136,29663,1,0,0:0:0:0:
100,256,29841,1,0,0:0:0:0:
168,84,30020,1,8,0:1:0:0:
24,144,30198,1,0,0:0:0:0:
116,280,30377,6,0,L|208:272,1,77.9999964294435,4|0,1:1|0:0,0:0:0:0:
256,168,30734,1,8,0:0:0:0:
344,304,30913,2,0,P|344:352|328:388,1,77.9999964294435,4|0,0:0|0:0,0:0:0:0:
360,192,31270,5,8,0:0:0:0:
448,316,31448,1,0,0:0:0:0:
340,168,31627,2,0,P|328:116|344:68,1,77.9999964294435,4|0,0:0|0:0,0:0:0:0:
416,124,31984,5,8,0:3:0:0:
248,136,32163,1,8,0:0:0:0:
444,124,32341,2,0,P|488:140|512:164,1,77.9999964294435,4|0,0:0|0:0,0:0:0:0:
460,256,32698,5,0,0:0:0:0:
332,92,32877,1,8,0:0:0:0:
484,288,33055,1,0,0:0:0:0:
484,288,33145,1,8,0:0:0:0:
484,288,33234,2,0,P|496:332|488:368,1,77.9999964294435,4|0,0:0|0:0,0:0:0:0:
344,204,33591,5,8,0:0:0:0:
272,316,33770,1,0,0:0:0:0:
212,204,33948,1,8,0:0:0:0:
356,288,34127,2,0,P|360:332|344:376,1,77.9999964294435,4|0,0:0|0:0,0:0:0:0:
136,244,34484,2,0,P|124:196|140:156,1,77.9999964294435,12|0,0:0|0:0,0:0:0:0:
232,88,34841,1,0,0:0:0:0:
112,148,35020,2,0,P|64:160|24:152,1,77.9999964294435,0|0,0:0|0:0,0:0:0:0:
147,41,35377,5,4,0:0:0:0:
228,187,35555,1,8,3:0:0:0:
313,42,35734,1,8,3:0:0:0:
112,148,35913,1,8,3:0:0:0:
96,164,36002,1,8,0:1:0:0:
88,184,36091,6,0,P|84:220|100:272,1,76.8,4|0,0:1|0:0,0:0:0:0:
216,328,36448,1,8,0:1:0:0:
92,352,36627,1,0,0:0:0:0:
248,320,36805,2,0,B|264:316|264:316|340:328,1,76.8,0|8,0:0|0:0,0:0:0:0:
443,247,37163,1,8,0:1:0:0:
451,239,37252,1,0,0:0:0:0:
459,231,37341,6,0,P|483:191|483:151,1,76.8,0|4,0:0|0:0,0:0:0:0:
431,32,37698,1,0,0:0:0:0:
404,169,37877,1,8,0:1:0:0:
512,77,38055,1,0,0:0:0:0:
366,93,38234,1,0,0:0:0:0:
366,93,38323,1,0,0:0:0:0:
366,93,38413,2,0,P|320:89|285:94,1,76.8,8|8,0:3|0:1,0:0:0:0:
250,209,38770,1,0,0:0:0:0:
197,99,38948,6,0,P|210:44|248:14,1,76.8,4|0,0:0|0:0,0:0:0:0:
134,209,39305,2,0,P|88:224|46:219,1,76.8,8|0,0:1|0:0,0:0:0:0:
50,218,39573,1,0,0:0:0:0:
41,213,39663,1,8,0:0:0:0:
71,89,39841,1,0,0:3:0:0:
159,193,40020,1,8,0:1:0:0:
108,316,40198,6,0,L|29:325,1,76.8,0|4,0:0|0:0,0:0:0:0:
204,271,40555,1,0,0:0:0:0:
252,171,40734,1,8,0:1:0:0:
263,170,40823,1,0,0:0:0:0:
274,169,40913,2,0,P|305:165|333:171,2,38.4
232,26,41270,1,8,0:0:0:0:
394,57,41448,2,0,P|406:105|395:142,1,76.8,12|0,0:3|0:0,0:0:0:0:
339,251,41805,6,0,P|337:293|352:334,1,76.8,4|0,0:1|0:0,0:0:0:0:
472,274,42163,1,8,0:1:0:0:
403,159,42341,1,0,0:0:0:0:
403,159,42430,1,0,0:0:0:0:
403,159,42520,1,0,0:0:0:0:
278,80,42698,1,8,0:0:0:0:
426,67,42877,1,8,0:1:0:0:
283,165,43055,6,0,P|234:154|198:117,1,76.8,0|4,0:0|0:0,0:0:0:0:
184,18,43413,1,8,0:0:0:0:
114,199,43591,2,0,L|123:279,1,76.8,8|0,0:1|0:0,0:0:0:0:
228,355,43948,1,0,0:0:0:0:
228,355,44038,1,0,0:0:0:0:
228,355,44127,1,8,0:0:0:0:
48,286,44305,2,0,L|35:173,1,76.8,8|0,0:1|0:0,0:0:0:0:
104,84,44663,6,0,P|153:71|208:81,1,76.8,4|0,0:0|0:0,0:0:0:0:
294,168,45020,1,8,0:1:0:0:
296,190,45109,1,0,0:0:0:0:
298,212,45198,1,8,0:0:0:0:
300,235,45288,1,0,0:0:0:0:
302,257,45377,1,8,0:0:0:0:
374,141,45555,1,8,0:0:0:0:
305,275,45734,1,8,0:1:0:0:
219,120,45913,2,0,L|216:78,2,38.4,8|0|0,0:1|0:0|0:0,0:0:0:0:
194,255,46270,6,0,P|163:285|105:298,1,76.8,4|0,2:1|2:1,0:0:0:0:
402,149,46627,6,0,L|489:175,1,76.8,4|0,2:1|2:1,0:0:0:0:
212,30,46984,5,4,2:1:0:0:
338,76,48234,5,8,0:1:0:0:
391,260,48413,1,8,0:3:0:0:
235,152,48591,1,0,0:0:0:0:
204,146,48680,1,0,0:0:0:0:
173,145,48770,1,8,0:1:0:0:
143,153,48859,1,0,0:0:0:0:
122,170,48948,6,0,B|98:216|98:216|150:269|151:370,1,200.399993731384,4|10,0:0|0:0,0:0:0:0:
150,351,49663,1,8,0:3:0:0:
188,211,49841,1,8,0:3:0:0:
292,315,50020,2,0,B|383:325|383:325|431:302,1,130.500003982544,10|0,0:0|2:0,0:0:0:0:
439,295,50377,6,0,P|459:258|458:204,1,87.0000026550294,4|0,0:0|0:0,0:0:0:0:
333,222,50734,1,10,0:0:0:0:
390,98,50913,2,0,L|478:82,1,87.0000026550294,0|0,0:0|3:0,0:0:0:0:
304,117,51270,1,8,0:3:0:0:
330,32,51448,1,10,0:0:0:0:
341,199,51627,1,0,0:3:0:0:
224,82,51805,5,4,0:0:0:0:
178,251,51984,1,0,0:0:0:0:
178,251,52163,2,0,L|205:340,1,87.0000026550294,10|0,0:0|3:0,0:0:0:0:
85,212,52520,2,0,P|77:159|109:99,1,87.0000026550294,8|8,0:3|0:3,0:0:0:0:
213,92,52877,2,0,L|323:124,1,87.0000026550294,10|0,0:0|0:0,0:0:0:0:
375,235,53234,6,0,P|380:287|359:339,1,87.0000026550294,4|0,0:0|0:0,0:0:0:0:
383,144,53591,1,10,0:0:0:0:
298,275,53770,2,0,L|189:293,1,87.0000026550294,2|0,0:2|3:0,0:0:0:0:
114,196,54127,2,0,P|104:140|134:77,1,87.0000026550294,8|10,0:3|0:0,0:0:0:0:
119,285,54484,1,0,0:0:0:0:
271,359,54663,6,0,L|374:377,1,87.0000026550294,4|0,0:0|0:0,0:0:0:0:
262,215,55020,2,0,P|263:158|291:117,1,87.0000026550294,10|0,0:0|0:0,0:0:0:0:
352,295,55377,2,0,L|455:313,1,87.0000026550294,8|8,0:3|0:3,0:0:0:0:
506,191,55734,2,0,P|518:151|509:98,1,87.0000026550294,10|0,0:0|0:0,0:0:0:0:
368,29,56091,5,4,0:0:0:0:
431,143,56270,1,0,0:0:0:0:
356,7,56448,1,10,0:0:0:0:
337,167,56627,2,0,L|355:264,1,87.0000026550294,0|0,0:0|3:0,0:0:0:0:
254,104,56984,1,8,0:3:0:0:
239,207,57163,1,10,0:0:0:0:
337,167,57341,1,0,0:0:0:0:
173,124,57520,5,4,0:0:0:0:
348,81,57698,1,0,0:0:0:0:
237,20,57877,1,8,0:0:0:0:
426,42,58055,2,0,P|435:95|422:132,1,87.0000026550294,0|8,0:0|0:0,0:0:0:0:
260,202,58413,2,0,L|157:193,1,87.0000026550294,8|0,3:0|0:0,0:0:0:0:
345,310,58770,6,0,P|417:332|516:313,1,174.000005310059,12|0,0:0|0:0,0:0:0:0:
385,233,59305,1,8,0:0:0:0:
463,148,59484,2,0,L|481:63,1,87.0000026550294,0|4,0:0|0:0,0:0:0:0:
356,128,59841,1,0,0:0:0:0:
283,211,60020,1,0,0:0:0:0:
385,233,60198,1,0,0:0:0:0:
262,120,60377,6,0,B|223:104|223:104|158:126|72:125,1,192,4|10,0:0|0:0,0:0:0:0:
75,125,61091,1,8,0:3:0:0:
204,24,61270,1,8,0:3:0:0:
219,196,61448,2,0,B|227:272|227:272|273:315,1,130.500003982544,10|0,0:0|2:0,0:0:0:0:
288,328,61805,6,0,P|335:343|378:337,1,87.0000026550294,4|0,0:0|0:0,0:0:0:0:
301,235,62163,1,10,0:0:0:0:
460,192,62341,2,0,P|484:144|478:84,1,87.0000026550294,0|0,0:0|3:0,0:0:0:0:
331,26,62698,1,8,0:3:0:0:
482,85,62877,1,10,0:0:0:0:
317,114,63055,2,0,P|267:87|242:38,1,87.0000026550294,8|4,0:3|0:0,0:0:0:0:
250,63,63591,6,0,P|195:48|131:59,1,87.0000026550294,10|0,0:0|3:0,0:0:0:0:
152,53,63859,1,0,3:0:0:0:
140,59,63948,1,8,0:3:0:0:
240,152,64127,1,0,0:0:0:0:
116,192,64305,2,0,P|109:245|132:288,1,87.0000026550294,10|0,0:0|0:0,0:0:0:0:
216,344,64663,5,4,0:0:0:0:
196,228,64841,1,0,0:0:0:0:
220,372,65020,1,10,0:0:0:0:
280,248,65198,2,0,P|276:196|252:160,1,87.0000026550294,0|0,0:0|3:0,0:0:0:0:
132,92,65555,1,8,0:3:0:0:
252,44,65734,1,10,0:0:0:0:
100,104,65913,1,0,0:0:0:0:
284,32,66091,6,0,P|340:28|380:36,1,90.0000034332277,4|8,0:0|0:3,0:0:0:0:
437,178,66448,1,10,0:0:0:0:
398,45,66627,1,8,0:3:0:0:
341,186,66805,1,10,0:0:0:0:
410,19,66984,1,8,0:3:0:0:
260,146,67163,2,0,P|251:191|275:247,1,90.0000034332277,10|12,0:0|0:3,0:0:0:0:
371,316,67520,6,0,L|463:328,1,90.0000034332277,4|0,0:0|0:0,0:0:0:0:
265,335,67877,1,10,0:0:0:0:
350,228,68055,1,8,0:3:0:0:
252,354,68234,1,10,0:0:0:0:
259,186,68413,1,8,0:3:0:0:
371,316,68591,2,0,P|409:292|439:249,1,90.0000034332277,10|12,0:0|0:3,0:0:0:0:
450,136,68948,6,0,L|421:41,1,90.0000034332277,4|8,0:0|0:3,0:0:0:0:
267,26,69305,1,10,0:0:0:0:
407,34,69484,1,8,0:3:0:0:
300,149,69663,1,10,0:0:0:0:
259,0,69841,1,8,0:3:0:0:
219,165,70020,2,0,P|240:210|279:233,1,90.0000034332277,10|12,0:0|0:3,0:0:0:0:
176,69,70377,6,0,P|131:57|76:67,1,90.0000034332277,12|8,0:0|0:0,0:0:0:0:
219,165,70734,1,4,0:2:0:0:
33,183,70913,2,0,L|16:283,1,90.0000034332277,12|0,0:3|0:3,0:0:0:0:
168,300,71270,2,0,P|207:324|268:323,1,93.0000007095337,8|0,0:0|0:0,0:0:0:0:
115,232,71627,1,12,0:3:0:0:
333,295,71805,6,0,P|369:265|380:215,1,93.0000007095337,12|8,0:0|0:3,0:0:0:0:
291,89,72163,1,10,0:0:0:0:
299,219,72341,1,8,0:3:0:0:
398,55,72520,5,10,0:0:0:0:
291,89,72698,1,8,0:3:0:0:
304,297,72877,1,10,0:0:0:0:
359,153,73055,1,12,0:3:0:0:
369,355,73234,6,0,P|332:378|277:380,1,93.0000007095337,12|8,0:0|0:3,0:0:0:0:
105,233,73591,1,10,0:0:0:0:
157,354,73770,1,8,0:3:0:0:
172,153,73948,5,10,0:0:0:0:
52,299,74127,1,8,0:3:0:0:
40,169,74305,1,10,0:0:0:0:
59,373,74484,1,12,0:3:0:0:
102,106,74663,5,12,0:0:0:0:
158,263,74841,1,8,0:3:0:0:
186,61,75020,1,10,0:0:0:0:
154,294,75198,1,8,0:3:0:0:
275,62,75377,5,14,0:0:0:0:
316,299,75555,1,10,0:3:0:0:
316,299,75645,1,8,0:0:0:0:
316,299,75734,1,8,0:0:0:0:
459,106,75913,5,14,0:0:0:0:
390,100,77504,5,0,2:0:0:0:
369,181,77861,2,0,L|350:261,1,80.9999975280763,0|0,2:0|0:0,0:0:0:0:
350,259,78218,1,8,0:3:0:0:
312,120,78396,5,8,0:1:0:0:
290,322,78575,2,0,P|336:348|402:332,1,83.9999974365235,8|0,0:3|0:0,0:0:0:0:
213,265,78932,6,0,B|163:260|163:260|21:315,1,167.999994873047,4|8,0:0|0:0,0:0:0:0:
204,184,79468,2,0,P|216:134|209:95,1,83.9999974365235,2|0,0:2|0:0,0:0:0:0:
306,266,79825,2,0,L|320:355,1,83.9999974365235,8|0,0:0|3:0,0:0:0:0:
371,159,80182,1,4,0:1:0:0:
355,63,80361,5,8,0:0:0:0:
455,166,80539,2,0,P|437:215|408:236,1,83.9999974365235,0|0,0:0|0:0,0:0:0:0:
306,266,80896,2,0,L|205:273,1,83.9999974365235,12|0,0:0|0:0,0:0:0:0:
112,216,81254,1,0,0:0:0:0:
212,151,81432,1,0,0:0:0:0:
146,296,81611,1,0,0:0:0:0:
139,314,81700,1,8,0:0:0:0:
131,330,81789,6,0,P|97:354|48:358,1,83.9999974365235,4|0,0:0|0:0,0:0:0:0:
222,271,82146,2,0,L|319:287,1,83.9999974365235,8|0,0:0|0:0,0:0:0:0:
435,204,82504,2,0,P|467:170|483:116,1,83.9999974365235,8|0,0:0|0:0,0:0:0:0:
435,204,83039,6,0,L|455:295,2,83.9999974365235,12|0|8,0:0|0:0|0:3,0:0:0:0:
341,141,83575,2,0,P|327:98|339:43,1,83.9999974365235,8|0,0:0|0:0,0:0:0:0:
358,224,83932,1,12,0:0:0:0:
409,94,84111,1,0,0:0:0:0:
345,253,84289,1,8,0:0:0:0:
329,278,84379,1,0,0:0:0:0:
304,294,84468,1,8,0:0:0:0:
276,302,84557,1,0,0:0:0:0:
248,304,84646,6,0,B|200:296|200:296|66:314,1,167.999994873047,4|8,0:0|0:0,0:0:0:0:
24,180,85182,2,0,P|16:120|40:76,1,83.9999974365235,4|0,0:0|3:0,0:0:0:0:
181,18,85539,2,0,L|89:30,1,83.9999974365235,8|0,0:0|0:0,0:0:0:0:
252,112,85896,6,0,B|300:108|300:108|344:72|424:48,1,167.999994873047,12|0,0:1|0:0,0:0:0:0:
268,30,86432,1,0,0:0:0:0:
332,184,86611,1,8,0:0:0:0:
176,168,86789,2,0,P|134:168|72:188,1,83.9999974365235,4|0,0:1|0:0,0:0:0:0:
56,328,87146,1,8,0:3:0:0:
204,288,87325,1,0,0:0:0:0:
232,280,87414,1,8,0:0:0:0:
260,272,87504,6,0,P|320:268|352:276,1,83.9999974365235,4|8,0:0|0:3,0:0:0:0:
456,340,87861,1,0,0:0:0:0:
424,208,88039,2,0,P|436:160|468:120,2,83.9999974365235,4|8|0,0:0|0:0|0:0,0:0:0:0:
440,316,88575,1,0,0:0:0:0:
340,188,88754,1,12,0:0:0:0:
340,188,89111,5,8,0:3:0:0:
288,352,89289,2,0,L|192:368,1,83.9999974365235,8|0,0:0|0:0,0:0:0:0:
80,280,89646,1,4,0:0:0:0:
200,232,89825,1,0,0:0:0:0:
184,364,90004,1,0,0:0:0:0:
116,196,90182,1,0,0:0:0:0:
284,264,90361,5,12,0:3:0:0:
168,128,90539,2,0,P|132:114|75:118,1,71.9999978027344,12|0,0:3|0:0,0:0:0:0:
263,163,90896,5,12,0:3:0:0:
383,41,91075,2,0,L|473:56,1,71.9999978027344,12|0,0:1|0:0,0:0:0:0:
420,155,91432,2,0,P|421:190|439:226,1,71.9999978027344,8|8,0:3|0:3,0:0:0:0:
502,307,91789,5,12,0:3:0:0:
338,212,91968,2,0,P|292:209|255:215,1,71.9999978027344,8|0,0:3|0:0,0:0:0:0:
382,288,92325,5,8,0:3:0:0:
302,130,92504,2,0,P|294:93|302:52,1,71.9999978027344,12|0,0:1|0:0,0:0:0:0:
382,20,92861,2,0,L|457:9,1,71.9999978027344,8|8,0:3|0:3,0:0:0:0:
228,10,93218,5,12,0:3:0:0:
170,169,93396,2,0,L|177:247,1,71.9999978027344,12|0,0:3|0:0,0:0:0:0:
151,72,93754,5,8,0:3:0:0:
258,206,93932,2,0,L|265:284,1,71.9999978027344,12|0,0:1|0:1,0:1:0:0:
242,105,94289,5,8,0:3:0:0:
345,239,94468,1,12,0:1:0:0:
