osu file format v14

[General]
AudioFilename: Untitled.mp3
AudioLeadIn: 0
PreviewTime: 48502
Countdown: 0
SampleSet: Normal
StackLeniency: 0.5
Mode: 0
LetterboxInBreaks: 0
WidescreenStoryboard: 0

[Editor]
DistanceSpacing: 0.8
BeatDivisor: 4
GridSize: 8
TimelineZoom: 1.5

[Metadata]
Title:My Hero! Up to you!
TitleUnicode:My Hero! Up to you!
Artist:Hagumi Nishizawa
ArtistUnicode:西沢はぐみ
Creator:Xexxar
Version:Extra
Source:世界を救うだけの簡単なお仕事
Tags:Sekai wo Sukuu Dake no Kantan na Oshigoto eroge visual novel opening op Anxient
BeatmapID:863038
BeatmapSetID:394270

[Difficulty]
HPDrainRate:5.7
CircleSize:4.1
OverallDifficulty:8.4
ApproachRate:9
SliderMultiplier:1.3
SliderTickRate:1

[Events]
//Background and Video events
Video,-123,"eroge5.avi"
0,0,"020_019.jpg",0,0
//Break Periods
//Storyboard Layer 0 (Background)
//Storyboard Layer 1 (Fail)
//Storyboard Layer 2 (Pass)
//Storyboard Layer 3 (Foreground)
//Storyboard Sound Samples

[TimingPoints]
377,357.142857142857,4,1,1,75,1,0
1806,357.142857142857,4,1,1,75,1,0
1806,-66.6666666666667,4,1,1,75,0,0
2073,-66.6666666666667,4,1,1,5,0,0
2163,-76.9230769230769,4,1,1,75,0,0
7520,-76.9230769230769,4,1,1,75,0,0
7788,-76.9230769230769,4,1,1,75,0,0
7877,-76.9230769230769,4,1,1,75,0,0
13055,-76.9230769230769,4,1,1,55,0,0
13234,-81.9672131147541,4,3,1,75,0,0
18948,-90.9090909090909,4,3,1,75,0,0
24663,-81.9672131147541,4,3,1,75,0,0
30377,-76.9230769230769,4,1,1,75,0,0
36091,-78.125,4,3,1,75,0,0
48234,-78.125,4,1,1,75,0,0
48948,-59.8802395209581,4,1,1,75,0,1
49305,-68.9655172413793,4,1,1,75,0,1
60020,-68.9655172413793,4,1,1,75,0,0
60288,-68.9655172413793,4,1,1,5,0,0
60377,-62.5,4,1,1,75,0,1
60734,-68.9655172413793,4,1,1,75,0,1
65555,-66.6666666666667,4,1,1,75,0,0
66091,-67.5675675675676,4,1,1,75,0,1
71270,-64.5161290322581,4,1,1,75,0,0
71805,-64.5161290322581,4,1,1,75,0,1
75734,-71.4285714285714,4,1,1,75,0,0
75913,353.565114908662,4,1,1,75,1,1
77504,357.142857142857,4,1,1,75,1,1
77504,-71.4285714285714,4,1,1,75,0,1
77861,-111.111111111111,4,1,1,75,0,1
78575,-71.4285714285714,4,1,1,75,0,1
78932,357.142857142857,4,1,1,75,1,0
78932,-71.4285714285714,4,1,1,75,0,0
89646,-83.3333333333333,4,3,1,75,0,0

[Colours]
Combo1 : 179,91,225
Combo2 : 232,164,96
Combo3 : 228,71,146
Combo4 : 43,217,117

[HitObjects]
333,96,377,5,0,2:0:0:0:
307,175,734,1,0,2:0:0:0:
281,255,1091,1,0,2:0:0:0:
246,113,1269,5,8,2:3:0:0:
309,336,1448,1,8,0:0:0:0:
390,158,1626,1,0,2:0:0:0:
223,320,1806,6,0,P|177:336|68:326,1,146.250005578995,4|0,0:0|2:0,0:0:0:0:
54,320,2163,1,8,0:0:0:0:
138,145,2341,2,0,P|151:105|129:43,1,84.4999961318971,4|0,0:1|3:0,0:0:0:0:
288,254,2698,2,0,L|313:352,1,84.4999961318971,8|0,0:0|2:0,0:0:0:0:
247,114,3055,1,4,0:0:0:0:
399,242,3234,1,8,0:0:0:0:
203,210,3413,1,0,0:0:0:0:
422,136,3591,1,2,0:2:0:0:
173,221,3770,6,0,P|147:258|138:303,1,84.4999961318971,12|0,0:0|2:0,0:0:0:0:
99,126,4127,1,0,0:0:0:0:
223,290,4305,1,8,0:3:0:0:
268,85,4484,1,0,0:0:0:0:
286,62,4573,1,8,0:0:0:0:
304,38,4663,6,0,B|320:24|320:24|405:11,1,84.4999961318971,4|0,0:0|0:0,0:0:0:0:
165,12,5020,1,8,0:0:0:0:
438,104,5198,2,0,P|452:155|446:206,1,84.4999961318971,0|8,0:0|0:0,0:0:0:0:
286,334,5555,2,0,L|369:321,1,84.4999961318971,2|0,1:0|0:0,0:0:0:0:
154,308,5913,6,0,P|109:312|-22:269,1,168.999992263794,12|0,0:0|0:0,0:0:0:0:
228,248,6448,1,8,0:0:0:0:
35,147,6627,1,0,0:0:0:0:
257,260,6805,1,12,0:1:0:0:
186,113,6984,1,0,0:0:0:0:
353,126,7163,1,0,0:0:0:0:
379,147,7252,1,0,0:0:0:0:
400,172,7341,1,8,0:0:0:0:
412,203,7430,1,0,0:0:0:0:
420,235,7520,6,0,B|417:281|417:281|360:369,1,126.749994197846,4|0,0:0|0:0,0:0:0:0:
355,377,7877,1,8,0:0:0:0:
271,152,8055,2,0,P|272:101|297:60,1,84.4999961318971,4|0,0:1|2:0,0:0:0:0:
191,318,8413,2,0,L|87:334,1,84.4999961318971,8|0,0:0|2:0,0:0:0:0:
311,266,8770,1,12,0:1:0:0:
122,192,8948,6,0,L|17:207,1,84.4999961318971,0|0,0:0|0:0,0:0:0:0:
233,57,9305,1,0,0:0:0:0:
144,189,9484,1,12,0:0:0:0:
149,6,9663,1,0,0:0:0:0:
222,240,9841,1,0,0:0:0:0:
159,34,10020,1,8,0:3:0:0:
253,253,10198,1,0,0:0:0:0:
284,266,10288,1,8,0:0:0:0:
315,279,10377,6,0,P|357:285|419:266,1,84.4999961318971,4|0,0:0|0:0,0:0:0:0:
186,336,10734,1,8,0:0:0:0:
353,139,10913,2,0,L|446:131,1,84.4999961318971,4|8,0:0|0:1,0:0:0:0:
204,49,11270,1,0,0:0:0:0:
322,140,11448,1,0,0:0:0:0:
149,242,11627,5,4,0:0:0:0:
140,40,12520,5,8,0:0:0:0:
148,240,12698,1,8,3:0:0:0:
80,144,12877,5,8,3:0:0:0:
214,334,13055,1,8,0:0:0:0:
298,184,13234,6,0,P|309:140|299:94,1,79.2999967329408,4|0,0:1|3:0,0:0:0:0:
374,285,13591,1,8,0:1:0:0:
426,160,13770,1,0,0:0:0:0:
360,314,13948,1,0,0:0:0:0:
298,184,14127,1,0,0:0:0:0:
372,345,14305,1,8,0:1:0:0:
372,345,14484,1,0,0:2:0:0:
441,124,14663,5,0,0:0:0:0:
266,199,14841,1,0,0:0:0:0:
464,112,15020,2,0,P|483:69|483:32,1,79.2999967329408,8|0,0:1|0:0,0:0:0:0:
381,229,15377,1,0,0:0:0:0:
314,31,15555,1,0,0:0:0:0:
220,172,15734,1,8,0:1:0:0:
334,7,15913,1,0,0:0:0:0:
202,197,16091,6,0,P|163:218|119:218,1,79.2999967329408,4|0,0:0|0:0,0:0:0:0:
320,113,16448,2,0,P|344:151|346:192,1,79.2999967329408,8|0,0:1|0:0,0:0:0:0:
164,321,16805,1,0,0:0:0:0:
303,311,16984,1,0,0:0:0:0:
144,137,17163,1,8,0:1:0:0:
85,291,17341,6,0,P|82:340|101:376,1,79.2999967329408,0|0,0:0|0:0,0:0:0:0:
230,163,17698,2,0,P|233:114|214:78,1,79.2999967329408,0|8,0:0|0:1,0:0:0:0:
309,292,18055,1,0,0:0:0:0:
309,292,18234,1,0,0:0:0:0:
357,138,18413,1,0,0:0:0:0:
299,315,18591,1,8,0:1:0:0:
443,156,18770,1,0,0:0:0:0:
225,276,18948,6,0,B|181:286|181:286|138:272|59:276,1,143.000004364014,4|0,0:1|0:0,0:0:0:0:
57,62,19663,2,0,P|99:49|133:52,1,71.5000021820069,8|0,0:1|0:0,0:0:0:0:
182,208,20020,1,0,0:0:0:0:
157,52,20198,5,0,0:0:0:0:
265,229,20376,2,0,P|245:267|215:288,1,71.5000021820069,8|0,0:3|0:0,0:0:0:0:
243,57,20734,5,2,0:2:0:0:
324,305,20912,2,0,L|406:316,1,71.5000021820069,2|8,0:2|0:1,0:0:0:0:
502,209,21270,2,0,P|510:170|504:128,2,71.5000021820069,2|0|0,0:2|0:0|0:0,0:0:0:0:
394,314,21805,6,0,L|251:336,1,143.000004364014,4|0,0:1|0:0,0:0:0:0:
59,219,22520,2,0,P|42:181|49:127,1,71.5000021820069,8|0,0:1|0:0,0:0:0:0:
116,64,22877,1,0,0:0:0:0:
80,243,23055,5,8,0:3:0:0:
207,100,23234,2,0,L|299:88,1,71.5000021820069,2|0,0:2|0:0,0:0:0:0:
92,54,23591,5,8,0:0:0:0:
343,20,23770,2,0,P|366:53|376:91,1,71.5000021820069,2|8,2:0|0:1,0:0:0:0:
269,205,24127,1,2,0:2:0:0:
237,209,24216,1,8,0:1:0:0:
205,214,24305,1,8,0:1:0:0:
381,187,24484,1,0,0:0:0:0:
256,341,24663,6,0,P|217:355|152:352,1,79.2999967329408,4|0,0:1|0:0,0:0:0:0:
68,201,25020,1,8,0:1:0:0:
150,354,25198,1,0,0:0:0:0:
192,145,25377,1,0,0:0:0:0:
41,213,25555,1,0,0:0:0:0:
229,154,25734,1,8,0:1:0:0:
45,108,25913,1,0,0:0:0:0:
45,108,26091,5,0,0:0:0:0:
211,243,26270,1,0,0:0:0:0:
252,75,26448,1,8,0:1:0:0:
277,290,26627,2,0,P|241:318|191:323,1,79.2999967329408,0|0,0:0|0:0,0:0:0:0:
378,200,26984,2,0,L|472:217,1,79.2999967329408,0|8,0:0|0:1,0:0:0:0:
347,99,27341,1,0,0:0:0:0:
211,243,27520,6,0,L|122:251,1,79.2999967329408,0|0,0:1|0:0,0:0:0:0:
350,343,27877,1,8,0:1:0:0:
278,169,28055,1,2,0:2:0:0:
278,169,28234,1,0,0:0:0:0:
167,334,28413,2,0,P|115:338|80:326,1,79.2999967329408,0|8,0:0|0:1,0:0:0:0:
44,162,28770,1,0,0:0:0:0:
194,327,28948,5,0,0:0:0:0:
44,162,29127,1,0,0:0:0:0:
239,163,29305,1,8,0:1:0:0:
40,258,29484,1,0,0:0:0:0:
268,148,29663,5,0,0:0:0:0:
95,83,29841,1,0,0:0:0:0:
297,133,30020,1,8,0:1:0:0:
44,162,30198,1,0,0:0:0:0:
235,285,30377,6,0,P|279:295|339:287,1,84.4999961318971,4|0,1:1|0:0,0:0:0:0:
420,155,30734,1,8,0:0:0:0:
169,234,30913,6,0,P|152:273|162:325,1,84.4999961318971,4|0,0:0|0:0,0:0:0:0:
280,130,31270,1,8,0:0:0:0:
75,162,31448,1,0,0:0:0:0:
314,122,31627,6,0,P|369:122|409:145,1,84.4999961318971,4|0,0:0|0:0,0:0:0:0:
336,266,31984,1,8,0:3:0:0:
302,45,32163,1,8,0:0:0:0:
343,293,32341,6,0,P|375:314|433:310,1,84.4999961318971,4|0,0:0|0:0,0:0:0:0:
185,297,32698,1,0,0:0:0:0:
260,123,32877,1,0,0:0:0:0:
266,331,33055,1,0,0:0:0:0:
266,331,33144,1,8,0:0:0:0:
266,331,33233,5,0,0:0:0:0:
259,95,33413,1,0,0:0:0:0:
347,248,33591,1,8,0:0:0:0:
173,182,33770,1,0,0:0:0:0:
258,69,33948,1,8,0:0:0:0:
266,331,34127,1,4,0:0:0:0:
123,62,34484,5,12,0:0:0:0:
123,62,34841,5,0,0:0:0:0:
72,218,35020,2,0,P|69:265|86:304,1,84.4999961318971,0|0,0:0|0:0,0:0:0:0:
131,146,35377,1,4,0:0:0:0:
313,205,35555,1,8,3:0:0:0:
170,338,35734,1,8,3:0:0:0:
235,122,35913,1,8,3:0:0:0:
267,101,36002,1,8,0:1:0:0:
299,83,36091,6,0,P|343:77|404:94,1,83.2,4|0,0:1|0:0,0:0:0:0:
259,204,36448,1,8,0:1:0:0:
416,94,36627,1,0,0:0:0:0:
235,228,36805,1,0,0:0:0:0:
411,325,36984,1,8,0:0:0:0:
248,347,37163,1,8,0:1:0:0:
248,347,37252,1,0,0:0:0:0:
248,347,37341,1,0,0:0:0:0:
249,143,37520,5,4,0:0:0:0:
324,311,37698,1,0,0:0:0:0:
316,93,37877,1,8,0:1:0:0:
253,266,38055,1,0,0:0:0:0:
337,64,38234,1,0,0:0:0:0:
337,64,38323,1,0,0:0:0:0:
337,64,38413,1,8,0:3:0:0:
187,213,38591,2,0,P|136:227|77:219,1,83.2,8|0,0:1|0:0,0:0:0:0:
339,206,38948,6,0,L|436:228,1,83.2,4|0,0:0|0:0,0:0:0:0:
226,82,39305,1,8,0:1:0:0:
271,262,39484,1,0,0:0:0:0:
267,278,39573,1,0,0:0:0:0:
263,294,39663,1,8,0:0:0:0:
306,123,39841,1,0,0:3:0:0:
261,306,40020,2,0,P|233:345|203:368,1,83.2,8|0,0:1|0:0,0:0:0:0:
420,224,40377,5,12,0:3:0:0:
420,224,40555,1,0,0:0:0:0:
229,153,40734,2,0,P|225:105|250:59,1,83.2,8|0,0:1|0:0,0:0:0:0:
250,61,41002,1,0,0:0:0:0:
264,53,41091,1,0,0:0:0:0:
280,49,41180,1,0,0:0:0:0:
296,48,41270,1,8,0:0:0:0:
247,240,41448,2,0,L|266:329,1,83.2,12|0,0:3|0:0,0:0:0:0:
122,158,41805,6,0,P|108:107|119:58,1,83.2,4|0,0:1|0:0,0:0:0:0:
242,223,42163,1,8,0:1:0:0:
191,38,42341,1,0,0:0:0:0:
191,38,42430,1,0,0:0:0:0:
191,38,42520,1,0,0:0:0:0:
364,59,42698,1,8,0:0:0:0:
259,195,42877,1,8,0:1:0:0:
379,38,43055,6,0,P|424:22|465:26,1,83.2,0|4,0:0|0:0,0:0:0:0:
313,118,43413,1,8,0:0:0:0:
468,184,43591,1,8,0:1:0:0:
331,286,43770,1,0,0:0:0:0:
331,286,43859,1,0,0:0:0:0:
331,286,43948,1,0,0:0:0:0:
399,124,44127,1,8,0:0:0:0:
398,327,44305,2,0,P|361:362|311:363,1,83.2,8|0,0:1|0:0,0:0:0:0:
207,215,44663,6,0,L|185:113,1,83.2,12|0,0:3|0:0,0:0:0:0:
143,308,45020,1,8,0:1:0:0:
125,325,45109,1,0,0:0:0:0:
104,337,45198,1,8,0:0:0:0:
79,344,45288,1,0,0:0:0:0:
54,347,45377,1,8,0:0:0:0:
42,181,45555,5,8,0:0:0:0:
157,289,45734,1,8,0:1:0:0:
189,133,45913,1,8,0:1:0:0:
183,103,46002,1,8,0:1:0:0:
178,76,46091,1,8,0:1:0:0:
281,270,46270,6,0,P|283:321|260:368,1,83.2,4|0,2:1|2:1,0:0:0:0:
425,61,46627,6,0,L|528:46,1,83.2,4|0,2:1|2:1,0:0:0:0:
194,73,46984,5,4,2:1:0:0:
194,73,48234,5,8,0:1:0:0:
426,128,48413,1,8,0:3:0:0:
233,273,48591,1,0,0:0:0:0:
208,295,48680,1,0,0:0:0:0:
176,306,48770,1,8,0:1:0:0:
143,314,48859,1,0,0:0:0:0:
111,314,48948,6,0,B|72:285|72:285|99:213|50:88,1,217.099993209,4|10,0:0|0:0,0:0:0:0:
61,119,49663,1,8,0:3:0:0:
243,8,49841,1,0,0:3:0:0:
188,221,50020,2,0,B|205:256|205:256|253:259|313:294,1,141.375004314423,10|0,0:0|2:0,0:0:0:0:
325,302,50377,6,0,P|374:323|434:319,1,94.2500028762818,4|0,0:0|0:0,0:0:0:0:
303,123,50734,1,10,0:0:0:0:
230,346,50913,2,0,L|126:369,1,94.2500028762818,0|0,0:0|3:0,0:0:0:0:
47,158,51270,1,8,0:3:0:0:
161,263,51448,1,10,0:0:0:0:
10,311,51627,1,0,0:2:0:0:
162,156,51805,5,4,0:0:0:0:
162,156,51984,1,0,0:0:0:0:
219,359,52163,2,0,P|267:370|321:357,1,94.2500028762818,10|0,0:0|3:0,0:0:0:0:
392,208,52520,2,0,L|407:103,1,94.2500028762818,8|8,0:3|0:3,0:0:0:0:
294,255,52877,1,10,0:0:0:0:
426,324,53055,1,0,0:0:0:0:
248,156,53234,6,0,P|204:192|189:228,1,94.2500028762818,4|0,0:0|0:0,0:0:0:0:
138,68,53591,1,10,0:0:0:0:
131,291,53770,2,0,P|176:311|232:305,1,94.2500028762818,2|0,0:2|3:0,0:0:0:0:
333,174,54127,2,0,P|329:124|298:81,1,94.2500028762818,8|10,0:3|0:0,0:0:0:0:
138,68,54484,1,0,0:0:0:0:
324,275,54663,6,0,L|422:284,1,94.2500028762818,4|0,0:0|0:0,0:0:0:0:
229,188,55020,2,0,P|175:200|133:230,1,94.2500028762818,10|0,0:0|0:0,0:0:0:0:
392,180,55377,2,0,P|412:129|402:68,1,94.2500028762818,8|8,0:3|0:3,0:0:0:0:
213,273,55734,2,0,L|208:380,1,94.2500028762818,10|0,0:0|0:0,0:0:0:0:
131,152,56091,5,4,0:0:0:0:
301,214,56270,1,0,0:0:0:0:
99,134,56448,1,10,0:0:0:0:
316,75,56627,2,0,L|412:90,1,94.2500028762818,0|0,0:0|3:0,0:0:0:0:
406,292,56984,1,8,0:3:0:0:
317,174,57163,1,10,0:0:0:0:
458,157,57341,1,0,0:0:0:0:
304,283,57520,5,12,0:0:0:0:
304,283,57698,1,0,0:0:0:0:
331,63,57877,1,8,0:0:0:0:
226,154,58055,1,0,0:0:0:0:
362,39,58234,1,8,0:0:0:0:
321,203,58413,1,8,3:0:0:0:
148,117,58591,1,0,0:0:0:0:
348,217,58770,6,0,P|372:261|364:311,1,94.2500028762818,12|0,0:0|0:0,0:0:0:0:
139,348,59127,1,0,0:0:0:0:
275,276,59305,1,8,0:0:0:0:
109,365,59484,5,0,0:0:0:0:
139,234,59663,1,4,0:0:0:0:
10,274,59841,1,0,0:0:0:0:
162,225,60020,2,0,B|185:195|185:195|210:82,1,141.375004314423,0|0,0:0|0:0,0:0:0:0:
214,63,60377,6,0,B|242:43|277:39|277:39|298:50|298:50|349:59|417:38,1,208,4|10,0:0|0:0,0:0:0:0:
412,39,61091,1,8,0:3:0:0:
479,244,61270,1,8,0:3:0:0:
263,207,61448,2,0,P|191:193|98:228,1,141.375004314423,10|0,0:0|2:0,0:0:0:0:
113,233,61805,6,0,L|99:333,1,94.2500028762818,4|0,0:0|0:0,0:0:0:0:
68,118,62163,1,10,0:0:0:0:
214,292,62341,2,0,P|268:304|325:289,1,94.2500028762818,0|0,0:0|3:0,0:0:0:0:
378,131,62698,1,8,0:3:0:0:
325,279,62877,1,10,0:0:0:0:
418,128,63055,1,8,0:3:0:0:
223,143,63234,6,0,P|200:102|207:36,1,94.2500028762818,4|0,0:0|0:0,0:0:0:0:
162,255,63591,1,10,0:0:0:0:
162,255,63770,1,0,3:0:0:0:
279,83,63948,1,8,0:3:0:0:
86,158,64127,1,0,0:0:0:0:
305,73,64305,2,0,P|355:68|415:85,1,94.2500028762818,10|0,0:0|0:0,0:0:0:0:
463,241,64663,6,0,L|481:335,1,94.2500028762818,4|0,0:0|0:0,0:0:0:0:
385,179,65020,1,10,0:0:0:0:
313,353,65198,2,0,P|264:371|214:362,1,94.2500028762818,0|0,0:0|3:0,0:0:0:0:
123,211,65555,1,8,0:3:0:0:
195,361,65734,1,10,0:0:0:0:
110,186,65913,1,0,0:0:0:0:
284,256,66091,6,0,L|387:271,1,97.50000371933,4|0,0:0|0:0,0:0:0:0:
233,172,66448,1,10,0:0:0:0:
403,154,66627,1,8,0:3:0:0:
203,174,66805,1,10,0:0:0:0:
366,72,66984,1,8,0:3:0:0:
241,261,67163,2,0,P|170:264|128:231,1,96.2000023486329,10|12,0:0|0:3,0:0:0:0:
314,340,67520,6,0,L|421:349,1,96.2000023486329,4|0,0:0|0:0,0:0:0:0:
325,207,67877,1,10,0:0:0:0:
495,279,68055,1,8,0:3:0:0:
296,195,68234,1,10,0:0:0:0:
491,169,68413,1,8,0:3:0:0:
266,182,68591,2,0,P|241:132|246:77,1,96.2000023486329,10|12,0:0|0:3,0:0:0:0:
169,235,68948,6,0,L|152:336,1,96.2000023486329,4|8,0:0|0:3,0:0:0:0:
83,59,69305,1,10,0:0:0:0:
47,269,69484,1,8,0:3:0:0:
3,92,69663,1,10,0:0:0:0:
172,216,69841,1,8,0:3:0:0:
174,20,70020,2,0,P|222:10|277:12,1,96.2000023486329,10|12,0:0|0:3,0:0:0:0:
315,184,70377,6,0,L|328:294,1,96.2000023486329,12|8,0:0|0:0,0:0:0:0:
357,83,70734,1,4,0:2:0:0:
235,125,70913,1,12,0:3:0:0:
422,234,71091,1,0,0:0:0:0:
392,73,71270,1,8,0:0:0:0:
206,137,71448,1,0,0:0:0:0:
458,149,71627,1,12,0:3:0:0:
178,150,71805,6,0,L|76:190,1,100.750000768662,12|8,0:0|0:3,0:0:0:0:
259,201,72163,5,10,0:1:0:0:
227,5,72341,1,12,0:3:0:0:
334,166,72520,5,10,0:1:0:0:
195,31,72698,1,8,0:3:0:0:
414,144,72877,5,10,0:1:0:0:
160,51,73055,1,8,0:3:0:0:
498,136,73234,6,0,P|513:192|510:241,1,100.750000768662,12|8,0:1|0:3,0:0:0:0:
390,351,73591,5,10,0:1:0:0:
269,178,73770,1,8,0:3:0:0:
279,373,73948,5,10,0:1:0:0:
267,142,74127,1,12,0:3:0:0:
164,360,74305,5,10,0:1:0:0:
283,106,74484,1,12,0:3:0:0:
70,285,74663,5,12,0:1:0:0:
288,221,74841,1,8,0:3:0:0:
46,182,75020,5,10,0:1:0:0:
383,239,75198,1,8,0:3:0:0:
85,72,75377,5,14,0:0:0:0:
327,318,75555,1,10,0:3:0:0:
327,318,75645,1,8,0:0:0:0:
327,318,75734,1,8,0:0:0:0:
186,14,75913,5,14,0:0:0:0:
277,72,77504,5,0,2:0:0:0:
277,153,77861,2,0,L|277:266,1,87.7499973220826,0|8,2:0|0:0,2:0:0:0:
277,261,78218,1,8,0:3:0:0:
351,114,78396,5,8,0:1:0:0:
187,215,78575,1,8,0:3:0:0:
182,22,78754,1,0,0:0:0:0:
325,253,78932,6,0,P|378:271|514:265,1,181.999994445801,4|8,0:0|0:0,0:0:0:0:
270,193,79468,2,0,P|246:235|249:281,1,90.9999972229005,4|0,0:1|0:0,0:0:0:0:
347,158,79825,2,0,P|320:126|262:109,1,90.9999972229005,8|0,0:0|3:0,0:0:0:0:
75,242,80182,1,8,0:3:0:0:
200,149,80361,5,12,0:0:0:0:
40,262,80539,1,0,0:0:0:0:
115,119,80718,1,0,0:0:0:0:
183,314,80896,2,0,P|233:334|295:328,1,90.9999972229005,12|0,0:0|0:0,0:0:0:0:
466,273,81254,1,0,0:0:0:0:
304,332,81432,1,0,0:0:0:0:
335,164,81611,1,0,0:0:0:0:
338,136,81700,1,8,0:0:0:0:
341,110,81789,6,0,P|357:66|390:31,1,90.9999972229005,4|0,0:0|0:0,0:0:0:0:
248,123,82146,1,8,0:0:0:0:
487,157,82325,1,0,0:0:0:0:
348,302,82504,2,0,L|250:312,1,90.9999972229005,8|0,0:0|0:0,0:0:0:0:
348,302,83039,6,0,P|395:309|433:344,1,90.9999972229005,12|0,0:0|0:0,0:0:0:0:
299,210,83396,1,8,0:3:0:0:
362,382,83575,1,8,0:0:0:0:
393,178,83754,1,0,0:0:0:0:
207,245,83932,1,12,0:0:0:0:
427,196,84111,1,0,0:0:0:0:
216,96,84289,1,8,0:0:0:0:
186,81,84379,1,0,0:0:0:0:
153,76,84468,1,8,0:0:0:0:
121,80,84557,1,0,0:0:0:0:
94,95,84646,6,0,B|63:132|63:132|68:184|49:280,1,181.999994445801,4|8,0:0|0:0,0:0:0:0:
276,171,85182,2,0,P|310:124|311:87,1,90.9999972229005,4|0,0:0|3:0,0:0:0:0:
329,322,85539,2,0,L|421:341,1,90.9999972229005,8|0,0:0|0:0,0:0:0:0:
216,352,85896,1,12,0:1:0:0:
348,233,86075,5,8,0:0:0:0:
193,371,86254,1,0,0:0:0:0:
154,203,86432,1,0,0:0:0:0:
328,254,86611,1,8,0:0:0:0:
220,113,86789,1,4,0:1:0:0:
213,81,86879,1,0,0:0:0:0:
218,49,86968,2,0,B|235:27|235:27|322:5,1,90.9999972229005,0|8,0:0|0:3,0:0:0:0:
419,159,87325,1,0,0:0:0:0:
422,176,87414,1,8,0:0:0:0:
425,191,87504,6,0,B|427:209|427:209|411:286,1,90.9999972229005,4|8,0:0|0:3,0:0:0:0:
354,86,87861,1,0,0:0:0:0:
296,305,88039,2,0,P|243:330|191:328,1,90.9999972229005,4|8,0:0|0:0,0:0:0:0:
81,214,88396,2,0,L|53:111,1,90.9999972229005,0|0,0:0|0:0,0:0:0:0:
43,332,88754,1,12,0:0:0:0:
43,332,89111,5,8,0:3:0:0:
151,151,89289,2,0,P|199:130|273:155,1,90.9999972229005,8|0,0:0|0:0,0:0:0:0:
316,238,89646,1,4,0:0:0:0:
243,319,89825,1,0,0:0:0:0:
208,214,90004,1,0,0:0:0:0:
389,201,90182,1,0,0:0:0:0:
159,284,90361,5,12,0:3:0:0:
273,50,90539,2,0,L|379:38,1,77.999997619629,12|0,0:3|0:0,0:0:0:0:
159,14,90896,5,12,0:3:0:0:
271,240,91075,2,0,L|373:256,1,77.999997619629,12|0,0:1|0:0,0:0:0:0:
114,149,91432,2,0,P|89:189|90:227,1,77.999997619629,8|8,0:3|0:3,0:0:0:0:
209,341,91789,1,12,0:3:0:0:
274,155,91968,1,8,0:3:0:0:
274,155,92325,5,8,0:3:0:0:
334,363,92504,2,0,L|412:373,1,77.999997619629,12|0,0:1|0:0,0:0:0:0:
257,264,92861,1,8,0:3:0:0:
419,183,93039,1,8,0:3:0:0:
251,72,93218,2,0,L|161:81,1,77.999997619629,12|12,0:3|0:3,0:0:0:0:
354,101,93575,5,0,0:0:0:0:
218,163,93754,1,0,0:0:0:0:
375,277,93932,2,0,L|464:288,1,77.999997619629,12|12,0:1|0:0,0:0:0:0:
205,329,94289,5,8,0:3:0:0:
474,192,94468,1,12,0:1:0:0:
