osu file format v14

[General]
AudioFilename: Untitled.mp3
AudioLeadIn: 0
PreviewTime: 48502
Countdown: 0
SampleSet: Normal
StackLeniency: 0.7
Mode: 0
LetterboxInBreaks: 0
WidescreenStoryboard: 0

[Editor]
DistanceSpacing: 1.3
BeatDivisor: 4
GridSize: 8
TimelineZoom: 1.5

[Metadata]
Title:My Hero! Up to you!
TitleUnicode:My Hero! Up to you!
Artist:Hagumi Nishizawa
ArtistUnicode:西沢はぐみ
Creator:Xexxar
Version:Advanced
Source:世界を救うだけの簡単なお仕事
Tags:Sekai wo Sukuu Dake no Kantan na Oshigoto eroge visual novel opening op Anxient
BeatmapID:860670
BeatmapSetID:394270

[Difficulty]
HPDrainRate:4
CircleSize:3.5
OverallDifficulty:5
ApproachRate:6
SliderMultiplier:1
SliderTickRate:1

[Events]
//Background and Video events
Video,-123,"eroge5.avi"
0,0,"063_062.jpg",0,0
//Break Periods
//Storyboard Layer 0 (Background)
//Storyboard Layer 1 (Fail)
//Storyboard Layer 2 (Pass)
//Storyboard Layer 3 (Foreground)
//Storyboard Sound Samples

[TimingPoints]
377,357.142857142857,4,1,1,75,1,0
1806,357.142857142857,4,1,1,75,1,0
1806,-76.9230769230769,4,1,1,75,0,0
13055,-76.9230769230769,4,1,1,55,0,0
13234,-81.9672131147541,4,3,1,75,0,0
18948,-90.9090909090909,4,3,1,75,0,0
24663,-81.9672131147541,4,3,1,75,0,0
30377,-76.9230769230769,4,1,1,75,0,0
36091,-78.125,4,3,1,75,0,0
46270,-71.4285714285714,4,3,1,75,0,0
48234,-78.125,4,1,1,75,0,0
48948,-59.8802395209581,4,1,1,75,0,1
49305,-68.9655172413793,4,1,1,75,0,1
60020,-68.9655172413793,4,1,1,75,0,0
60377,-68.9655172413793,4,1,1,75,0,1
65555,-66.6666666666667,4,1,1,75,0,0
66091,-66.6666666666667,4,1,1,75,0,1
71270,-64.5161290322581,4,1,1,75,0,0
71805,-64.5161290322581,4,1,1,75,0,1
75734,-71.4285714285714,4,1,1,75,0,0
75913,353.565114908662,4,1,1,75,1,1
77504,357.142857142857,4,1,1,75,1,1
77504,-71.4285714285714,4,1,1,75,0,1
78932,357.142857142857,4,1,1,75,1,0
78932,-71.4285714285714,4,1,1,75,0,0
89646,-83.3333333333333,4,1,1,75,0,0

[Colours]
Combo1 : 179,91,225
Combo2 : 232,164,96
Combo3 : 228,71,146
Combo4 : 43,217,117

[HitObjects]
136,136,377,5,0,2:0:0:0:
141,149,734,1,0,2:0:0:0:
145,161,1091,2,0,L|167:218,1,50,0|8,2:0|2:3,2:0:0:0:
222,269,1448,2,0,P|255:274|294:267,1,50,8|0,0:0|2:0,0:0:0:0:
335,220,1806,6,0,P|344:177|333:81,1,129.999994049073,4|8,0:0|0:0,0:0:0:0:
286,31,2341,2,0,P|245:29|208:38,1,64.9999970245363,4|0,0:1|3:0,0:0:0:0:
167,89,2698,2,0,P|129:105|82:109,1,64.9999970245363,8|0,0:0|0:0,0:0:0:0:
28,95,3055,1,4,0:0:0:0:
3,171,3234,6,0,L|21:255,1,64.9999970245363,8|0,0:0|0:0,0:0:0:0:
43,307,3591,1,2,0:2:0:0:
95,249,3770,2,0,P|133:234|176:234,1,64.9999970245363,12|0,0:0|2:0,0:0:0:0:
232,251,4127,2,0,P|266:282|277:307,2,64.9999970245363,0|8|0,0:0|0:3|0:0,0:0:0:0:
211,175,4663,6,0,P|223:134|244:113,1,64.9999970245363,4|0,0:0|0:0,0:0:0:0:
306,80,5020,1,8,0:0:0:0:
374,116,5198,2,0,P|400:155|395:258,1,129.999994049073,0|0,0:0|0:0,0:0:0:0:
278,330,5913,6,0,L|119:312,1,129.999994049073,12|0,0:0|0:0,0:0:0:0:
89,265,6448,2,0,P|72:233|70:182,1,64.9999970245363,8|0,0:0|0:0,0:0:0:0:
77,127,6805,2,0,L|88:40,2,64.9999970245363,12|0|0,0:1|0:0|0:0,0:0:0:0:
140,172,7341,1,8,0:0:0:0:
218,175,7520,6,0,L|364:192,1,129.999994049073,4|8,0:0|0:0,0:0:0:0:
405,132,8055,2,0,P|428:97|425:45,1,64.9999970245363,4|0,0:1|2:0,0:0:0:0:
350,73,8413,2,0,P|324:132|328:155,1,64.9999970245363,8|0,0:0|0:1,0:0:0:0:
360,199,8770,1,12,0:0:0:0:
285,342,9127,6,0,L|209:339,1,64.9999970245363,0|0,0:0|0:0,0:0:0:0:
169,279,9484,2,0,P|158:231|167:197,2,64.9999970245363,12|0|0,0:0|0:0|0:0,0:0:0:0:
245,262,10020,2,0,L|313:264,1,64.9999970245363,8|0,0:3|0:0,0:0:0:0:
383,290,10377,6,0,P|417:313|432:334,2,64.9999970245363,4|0|8,0:0|0:0|0:0,0:0:0:0:
371,212,10913,2,0,P|385:169|362:65,1,129.999994049073,4|0,0:0|0:0,0:0:0:0:
310,41,11448,1,0,0:0:0:0:
310,41,11627,1,4,0:0:0:0:
153,72,12520,6,0,L|85:58,2,64.9999970245363,0|8|8,0:0|3:0|3:0,0:0:0:0:
226,119,13055,1,8,0:0:0:0:
230,205,13234,6,0,P|225:275|179:326,1,121.999994973755,4|8,0:1|0:1,0:0:0:0:
57,264,13948,2,0,P|58:205|97:150,1,121.999994973755,0|8,0:0|0:1,0:0:0:0:
170,119,14484,2,0,L|313:107,1,121.999994973755,0|0,0:2|0:0,0:0:0:0:
369,144,15020,2,0,P|391:174|401:209,1,60.9999974868775,8|0,0:1|0:0,0:0:0:0:
387,339,15555,2,0,P|353:338|312:323,2,60.9999974868775,0|8|0,0:0|0:1|0:0,0:0:0:0:
442,281,16091,6,0,B|409:265|409:265|319:254,1,121.999994973755,8|8,0:0|0:1,0:0:0:0:
257,211,16627,2,0,P|244:241|250:286,1,60.9999974868775,0|0,3:0|0:0,0:0:0:0:
247,348,16984,2,0,L|161:353,1,60.9999974868775,0|8,0:0|0:1,0:0:0:0:
102,332,17341,2,0,P|70:293|60:207,1,121.999994973755,0|0,0:0|0:0,0:0:0:0:
92,146,17877,1,8,0:1:0:0:
139,75,18055,2,0,L|285:63,1,121.999994973755,0|0,0:0|0:0,0:0:0:0:
345,54,18591,1,8,0:1:0:0:
399,175,18948,6,0,P|414:222|293:307,1,220.000006713867,4|8,0:1|0:1,0:0:0:0:
71,276,20377,1,8,0:0:0:0:
36,150,20734,2,0,P|44:117|57:92,1,55.0000016784668,2|2,0:2|0:2,0:0:0:0:
174,46,21270,2,0,P|228:45|293:63,1,110.000003356934,2|0,0:2|0:0,0:0:0:0:
311,141,21805,6,0,P|332:183|489:176,2,220.000006713867,4|8|2,0:1|0:1|0:2,0:0:0:0:
206,59,23591,2,0,P|168:51|137:51,1,55.0000016784668,8|2,0:0|2:0,0:0:0:0:
45,129,24127,2,0,P|29:187|39:245,1,110.000003356934,2|0,0:2|0:0,0:0:0:0:
90,293,24663,6,0,L|223:314,1,121.999994973755,4|8,0:1|0:1,0:0:0:0:
344,227,25377,2,0,L|368:151,1,60.9999974868775,0|0,0:0|0:0,0:0:0:0:
327,97,25734,2,0,L|351:21,1,60.9999974868775,8|0,0:1|0:0,0:0:0:0:
194,88,26270,2,0,P|165:96|121:100,2,60.9999974868775,0|8|0,0:0|0:1|0:0,0:0:0:0:
345,38,26984,2,0,P|387:27|414:30,2,60.9999974868775,0|8|0,0:0|0:1|0:0,0:0:0:0:
303,105,27520,6,0,P|285:156|299:242,1,121.999994973755,0|8,0:1|0:1,0:0:0:0:
336,287,28055,2,0,P|398:324|513:333,1,182.999992460633,2|8,0:2|0:1,0:0:0:0:
476,171,28948,1,0,0:0:0:0:
413,114,29127,2,0,P|374:104|342:102,2,60.9999974868775,0|8|0,0:0|0:1|0:0,0:0:0:0:
394,196,29663,2,0,P|348:210|322:206,1,60.9999974868775,0|0,0:0|0:0,0:0:0:0:
269,152,30020,2,0,P|254:115|257:79,1,60.9999974868775,8|0,0:1|0:0,0:0:0:0:
271,12,30377,6,0,P|223:7|131:23,1,129.999994049073,4|8,1:1|0:0,0:0:0:0:
83,79,30913,2,0,L|65:151,1,64.9999970245363,4|0,0:0|0:0,0:0:0:0:
125,203,31270,2,0,L|136:272,1,64.9999970245363,8|0,0:0|0:0,0:0:0:0:
185,335,31627,2,0,P|222:347|261:347,1,64.9999970245363,4|0,0:0|0:0,0:0:0:0:
300,282,31984,6,0,L|367:275,1,64.9999970245363,8|8,0:3|0:0,0:0:0:0:
446,254,32341,2,0,P|477:228|488:196,1,64.9999970245363,4|0,0:0|0:0,0:0:0:0:
492,121,32698,1,0,0:0:0:0:
430,62,32877,2,0,P|392:55|340:58,1,64.9999970245363,8|0,0:0|0:0,0:0:0:0:
289,90,33234,6,0,P|271:146|294:237,2,129.999994049073,4|8|8,0:0|0:0|0:0,0:0:0:0:
231,27,34127,2,0,L|93:14,1,129.999994049073,4|12,0:0|0:0,0:0:0:0:
23,164,34841,2,0,L|36:244,1,64.9999970245363,0|0,0:0|0:0,0:0:0:0:
159,340,35377,6,0,L|225:347,1,64.9999970245363,4|8,0:0|3:0,0:0:0:0:
289,293,35734,2,0,L|355:300,1,64.9999970245363,8|8,3:0|3:0,0:0:0:0:
424,255,36091,5,4,0:1:0:0:
363,100,36448,2,0,P|312:75|283:69,1,64,8|0,0:1|0:0,0:0:0:0:
221,76,36805,1,0,0:0:0:0:
259,150,36984,2,0,L|249:219,1,64,8|8,0:0|0:1,0:0:0:0:
210,286,37341,2,0,P|167:315|130:322,2,64,0|4|0,0:0|0:0|0:0,0:0:0:0:
293,285,37877,2,0,P|323:300|349:334,1,64,8|0,0:1|0:0,0:0:0:0:
484,233,38413,2,0,P|493:190|488:156,2,64,8|8|0,0:3|0:1|0:0,0:0:0:0:
408,267,38948,6,0,L|340:155,1,128,4|8,0:0|0:1,0:0:0:0:
294,88,39484,1,0,0:0:0:0:
259,163,39663,2,0,P|251:203|258:239,2,64,8|0|8,0:0|0:3|0:1,0:0:0:0:
211,94,40198,2,0,L|127:77,1,64,0|4,0:0|0:0,0:0:0:0:
66,64,40555,1,0,0:0:0:0:
91,143,40734,2,0,P|98:180|95:213,1,64,8|0,0:1|0:0,0:0:0:0:
76,287,41091,2,0,P|143:312|218:311,1,128,0|12,0:0|0:3,0:0:0:0:
354,373,41805,6,0,P|367:323|341:234,1,128,4|8,0:1|0:1,0:0:0:0:
283,96,42520,1,0,0:0:0:0:
208,132,42698,2,0,P|184:173|182:213,2,64,8|8|0,0:0|0:1|0:0,0:0:0:0:
214,48,43234,2,0,P|192:20|162:1,1,64,4|8,0:0|0:0,0:0:0:0:
85,13,43591,1,8,0:1:0:0:
208,132,43948,2,0,P|276:104|297:37,1,128,0|8,0:0|0:1,0:0:0:0:
264,220,44663,6,0,L|291:346,1,128,12|8,0:3|0:1,0:0:0:0:
369,370,45198,2,0,L|434:385,1,64,8|8,0:0|0:0,0:0:0:0:
494,329,45555,2,0,P|493:282|475:254,1,64,8|8,0:0|0:1,0:0:0:0:
441,196,45913,2,0,L|430:164,2,32,0|8|0,0:1|0:1|0:0,0:0:0:0:
350,210,46270,6,0,L|263:186,1,69.9999978637696,4|0,2:1|2:1,0:0:0:0:
196,221,46627,2,0,L|109:197,1,69.9999978637696,4|0,2:1|2:1,0:0:0:0:
67,134,46984,1,4,2:1:0:0:
80,152,48234,6,0,P|88:188|83:229,1,64,8|8,0:1|0:3,0:0:0:0:
127,301,48591,2,0,L|106:356,2,32,0|0|8,0:0|0:0|0:1,0:0:0:0:
217,271,48948,6,0,P|227:195|205:82,1,166.999994776154,4|10,0:0|0:0,0:0:0:0:
210,90,49663,2,0,L|304:108,2,72.5000022125245,8|8|10,0:3|0:3|0:0,0:0:0:0:
53,160,50377,2,0,P|33:217|45:313,1,145.000004425049,4|10,0:0|0:0,0:0:0:0:
114,346,50913,2,0,L|191:359,1,72.5000022125245,0|0,0:0|3:0,0:0:0:0:
251,300,51270,2,0,P|286:286|332:278,2,72.5000022125245,8|10|0,0:3|0:0|0:2,0:0:0:0:
168,272,51805,6,0,P|154:224|164:188,1,72.5000022125245,4|0,0:0|0:0,0:0:0:0:
185,119,52163,2,0,P|218:82|320:63,1,145.000004425049,10|8,0:0|0:3,0:0:0:0:
391,84,52698,1,8,0:3:0:0:
475,106,52877,2,0,L|502:274,1,145.000004425049,10|4,0:0|0:0,0:0:0:0:
347,335,53591,1,10,0:0:0:0:
269,294,53770,2,0,L|189:285,1,72.5000022125245,2|0,0:2|3:0,0:0:0:0:
127,232,54127,2,0,P|107:186|110:149,1,72.5000022125245,8|10,0:3|0:0,0:0:0:0:
137,82,54484,1,0,0:0:0:0:
223,93,54663,6,0,P|195:147|169:165,1,72.5000022125245,4|0,0:0|0:0,0:0:0:0:
106,164,55020,2,0,L|31:189,1,72.5000022125245,10|0,0:0|0:0,0:0:0:0:
23,273,55377,2,0,P|31:308|49:339,1,72.5000022125245,8|8,0:3|0:3,0:0:0:0:
129,374,55734,2,0,L|207:375,1,72.5000022125245,10|0,0:0|0:0,0:0:0:0:
279,335,56091,2,0,P|302:286|299:174,1,145.000004425049,4|10,0:0|0:0,0:0:0:0:
243,130,56627,2,0,P|247:74|339:23,1,145.000004425049,0|8,0:0|0:3,0:0:0:0:
326,109,57163,1,10,0:0:0:0:
388,169,57341,2,0,L|394:249,1,72.5000022125245
255,341,57877,6,0,L|173:354,2,72.5000022125245,8|0|8,0:0|0:0|0:0,0:0:0:0:
307,271,58413,2,0,P|304:229|290:186,1,72.5000022125245,8|0,3:0|0:0,0:0:0:0:
243,130,58770,2,0,P|201:119|86:136,1,145.000004425049,12|0,0:0|0:0,0:0:0:0:
55,203,59305,1,8,0:0:0:0:
9,277,59484,2,0,L|1:361,2,72.5000022125245,0|4|0,0:0|0:0|0:0,0:0:0:0:
95,285,60020,2,0,P|138:284|192:262,1,72.5000022125245,0|0,0:0|0:0,0:0:0:0:
236,209,60377,6,0,P|249:160|225:46,1,145.000004425049,4|10,0:0|0:0,0:0:0:0:
230,56,61091,2,0,L|135:40,2,72.5000022125245,8|8|10,0:3|0:3|0:0,0:0:0:0:
405,100,61805,2,0,L|428:258,1,145.000004425049,4|10,0:0|0:0,0:0:0:0:
393,324,62341,2,0,P|340:355|302:363,1,72.5000022125245,0|0,0:0|3:0,0:0:0:0:
245,334,62698,2,0,P|194:333|161:343,1,72.5000022125245,8|10,0:3|0:0,0:0:0:0:
97,380,63055,2,0,L|66:300,1,72.5000022125245,8|4,0:3|0:0,0:0:0:0:
7,149,63591,6,0,P|58:112|95:37,2,145.000004425049,10|8|10,0:0|0:3|0:0,0:0:0:0:
181,160,64663,2,0,L|352:109,1,145.000004425049,4|10,0:0|0:0,0:0:0:0:
404,138,65198,2,0,P|459:171|484:201,1,72.5000022125245,0|0,0:0|3:0,0:0:0:0:
442,263,65555,2,0,P|433:299|438:341,2,75.0000028610231,8|10|0,0:3|0:0|0:0,0:0:0:0:
464,176,66091,6,0,L|478:72,1,75.0000028610231,4|8,0:0|0:3,0:0:0:0:
370,119,66448,2,0,P|336:89|316:37,1,75.0000028610231,10|8,0:0|0:3,0:0:0:0:
271,155,66805,2,0,P|259:209|269:241,1,75.0000028610231,10|8,0:0|0:3,0:0:0:0:
172,172,67163,2,0,L|138:89,1,75.0000028610231,10|12,0:0|0:3,0:0:0:0:
71,179,67520,6,0,P|50:237|71:330,1,150.000005722046,4|10,0:0|0:0,0:0:0:0:
144,252,68055,1,8,0:3:0:0:
187,347,68234,2,0,L|278:358,1,75.0000028610231,10|8,0:0|0:3,0:0:0:0:
340,286,68591,2,0,P|366:242|373:205,1,75.0000028610231,10|12,0:0|0:3,0:0:0:0:
342,117,68948,6,0,P|345:75|367:30,2,75.0000028610231,4|8|10,0:0|0:3|0:0,0:0:0:0:
282,203,69484,1,8,0:3:0:0:
222,115,69663,2,0,L|233:13,1,75.0000028610231,10|8,0:0|0:3,0:0:0:0:
129,70,70020,2,0,P|98:102|86:143,1,75.0000028610231,10|12,0:0|0:3,0:0:0:0:
64,233,70377,6,0,L|43:327,1,75.0000028610231,12|8,0:0|0:0,0:0:0:0:
138,368,70734,1,4,0:2:0:0:
227,297,70913,2,0,P|273:289|313:307,1,75.0000028610231,12|0,0:3|0:0,0:0:0:0:
396,356,71270,2,0,P|457:321|468:221,1,155.000001182556,8|12,0:0|0:3,0:0:0:0:
382,173,71805,6,0,L|303:159,1,77.5000005912781,12|8,0:0|0:3,0:0:0:0:
218,237,72163,2,0,L|139:223,1,77.5000005912781,10|8,0:0|0:3,0:0:0:0:
61,138,72520,2,0,P|56:84|79:41,1,77.5000005912781,10|8,0:0|0:3,0:0:0:0:
163,2,72877,2,0,L|267:1,1,77.5000005912781,10|12,0:0|0:3,0:0:0:0:
319,86,73234,6,0,L|293:183,1,77.5000005912781,12|8,0:0|0:3,0:0:0:0:
315,276,73591,2,0,P|339:316|374:341,1,77.5000005912781,10|8,0:0|0:3,0:0:0:0:
475,306,73948,2,0,P|488:253|484:221,1,77.5000005912781,10|8,0:0|0:3,0:0:0:0:
417,136,74305,2,0,P|411:83|421:37,1,77.5000005912781,10|12,0:0|0:3,0:0:0:0:
311,16,74663,6,0,L|208:5,1,77.5000005912781,12|8,0:0|0:3,0:0:0:0:
150,83,75020,2,0,P|138:130|142:168,1,77.5000005912781,10|8,0:0|0:3,0:0:0:0:
171,270,75377,1,14,0:0:0:0:
274,217,75555,2,0,L|302:169,2,38.750000295639,10|8|8,0:3|0:0|0:0,0:0:0:0:
270,336,75913,5,14,0:0:0:0:
83,158,77504,6,0,L|60:12,2,139.999995727539,0|0|8,2:0|2:0|0:3,2:0:0:0:
100,239,78396,2,0,P|83:277|53:307,2,69.9999978637696,8|8|0,0:1|0:3|0:0,0:0:0:0:
163,184,78932,6,0,P|220:173|324:188,1,139.999995727539,4|8,0:0|0:0,0:0:0:0:
359,250,79468,2,0,P|365:294|353:341,1,69.9999978637696,2|0,0:2|0:0,0:0:0:0:
282,365,79825,2,0,L|192:371,1,69.9999978637696,8|0,0:0|3:0,0:0:0:0:
125,340,80182,2,0,P|100:287|100:253,1,69.9999978637696,8|12,0:3|0:0,0:0:0:0:
123,188,80539,2,0,P|127:141|114:97,2,69.9999978637696,0|0|12,0:0|0:0|0:0,0:0:0:0:
289,262,81254,2,0,L|384:271,2,69.9999978637696,0|0|0,0:0|0:0|0:0,0:0:0:0:
226,196,81789,6,0,P|219:142|234:111,1,69.9999978637696,4|0,0:0|0:0,0:0:0:0:
281,57,82146,2,0,P|313:38|357:33,1,69.9999978637696,8|0,0:0|0:0,0:0:0:0:
435,47,82504,2,0,L|512:62,1,69.9999978637696,8|0,0:0|0:0,0:0:0:0:
469,239,83039,6,0,L|392:224,1,69.9999978637696,12|0,0:0|0:0,0:0:0:0:
310,207,83396,1,8,0:3:0:0:
219,216,83575,2,0,P|182:241|165:268,2,69.9999978637696,8|0|12,0:0|0:0|0:0,0:0:0:0:
254,131,84111,2,0,P|254:89|243:59,1,69.9999978637696,0|8,0:0|0:0,0:0:0:0:
164,20,84468,1,8,0:0:0:0:
168,110,84646,6,0,L|9:140,1,139.999995727539,4|8,0:0|0:0,0:0:0:0:
21,226,85182,2,0,L|168:197,1,139.999995727539,4|8,0:0|0:0,0:0:0:0:
333,249,85896,2,0,B|366:223|357:181|357:181|348:135|382:113,1,139.999995727539,12|0,0:1|0:0,0:0:0:0:
460,121,86432,2,0,P|470:159|463:200,1,69.9999978637696,0|8,0:0|0:0,0:0:0:0:
428,271,86789,2,0,P|425:314|445:355,1,69.9999978637696,4|0,0:1|0:0,0:0:0:0:
356,384,87146,1,8,0:3:0:0:
274,342,87325,1,0,0:0:0:0:
194,296,87504,6,0,P|170:218|197:145,1,139.999995727539,4|0,0:0|0:0,0:0:0:0:
251,102,88039,2,0,L|400:77,1,139.999995727539,4|0,0:0|0:0,0:0:0:0:
469,242,88754,2,0,B|492:281|480:316|480:316|375:244|346:295|296:361|205:320,1,349.999989318848,12|4,0:0|0:0,0:0:0:0:
141,315,89825,2,0,P|105:310|76:312,2,59.9999981689454,0|0|0,0:0|0:0|0:0,0:0:0:0:
193,249,90361,5,12,0:3:0:0:
208,166,90539,1,12,0:3:0:0:
318,39,90896,1,12,0:3:0:0:
372,103,91075,2,0,P|380:136|380:175,1,59.9999981689454,12|0,0:1|0:0,0:0:0:0:
353,241,91432,2,0,L|361:318,1,59.9999981689454,8|8,0:3|0:3,0:0:0:0:
302,363,91789,5,12,0:3:0:0:
223,332,91968,1,8,0:3:0:0:
57,361,92325,1,8,0:3:0:0:
39,278,92504,2,0,P|43:241|53:205,1,59.9999981689454,12|0,0:0|0:0,0:0:0:0:
97,150,92861,2,0,P|94:105|81:71,2,59.9999981689454,8|8|12,0:3|0:3|0:3,0:0:0:0:
321,265,93754,5,8,0:3:0:0:
404,271,93932,1,12,0:0:0:0:
401,117,94289,5,8,0:3:0:0:
318,126,94468,1,12,0:1:0:0:
