osu file format v14

[General]
AudioFilename: audio.mp3
AudioLeadIn: 0
PreviewTime: 208924
Countdown: 0
SampleSet: Soft
StackLeniency: 0.7
Mode: 0
LetterboxInBreaks: 0
WidescreenStoryboard: 1

[Editor]
DistanceSpacing: 0.9
BeatDivisor: 4
GridSize: 8
TimelineZoom: 1.8

[Metadata]
Title:My Hero! Up to you!
TitleUnicode:My Hero! Up to you!
Artist:Hagumi Nishizawa
ArtistUnicode:西沢はぐみ
Creator:GodHacc
Version:Insane
Source:世界を救うだけの簡単なお仕事
Tags:sekai wo sukuu dake no kantan na oshigoto eroge visual novel video game opening op japanese pop jpop j-pop 槇ななり maki nanari jrock j-rock rock rosebleu sekasuku sksk A Simple Task Just to Save the World godhack
BeatmapID:3782347
BeatmapSetID:1840883

[Difficulty]
HPDrainRate:5.2
CircleSize:3.6
OverallDifficulty:8
ApproachRate:8.8
SliderMultiplier:1.6
SliderTickRate:1

[Events]
//Background and Video events
0,0,"lumine.png",0,0
//Break Periods
2,177722,188322
2,209151,216893
//Storyboard Layer 0 (Background)
//Storyboard Layer 1 (Fail)
//Storyboard Layer 2 (Pass)
//Storyboard Layer 3 (Foreground)
//Storyboard Layer 4 (Overlay)
//Storyboard Sound Samples

[TimingPoints]
380,357.142857142857,4,2,1,55,1,0
737,-125,4,2,1,55,0,0
1808,-100,4,2,1,75,0,0
13237,-111.111111111111,4,2,1,55,0,0
18951,-125,4,2,1,80,0,0
19665,-125,4,2,1,70,0,0
24665,-111.111111111111,4,2,1,55,0,0
30379,-100,4,2,1,80,0,0
36094,-111.111111111111,4,2,1,80,0,0
36272,-111.111111111111,4,2,1,55,0,0
46629,-111.111111111111,4,2,1,60,0,0
46987,-200,4,2,1,65,0,0
48237,-200,4,2,1,75,0,0
48951,-90.9090909090909,4,2,1,80,0,0
57522,-83.3333333333333,4,2,1,80,0,0
59129,-83.3333333333333,4,2,1,75,0,0
60379,-90.9090909090909,4,2,1,80,0,0
66094,-83.3333333333333,4,2,1,80,0,0
77522,-125,4,2,1,80,0,0
78951,-100,4,2,1,75,0,0
90379,-111.111111111111,4,2,1,55,0,0
96094,-125,4,2,1,80,0,0
96808,-125,4,2,1,70,0,0
101808,-111.111111111111,4,2,1,55,0,0
107522,-100,4,2,1,80,0,0
113237,-111.111111111111,4,2,1,80,0,0
113415,-111.111111111111,4,2,1,55,0,0
123772,-111.111111111111,4,2,1,60,0,0
124129,-200,4,2,1,65,0,0
125379,-200,4,2,1,75,0,0
126094,-90.9090909090909,4,2,1,80,0,0
134665,-83.3333333333333,4,2,1,80,0,0
136272,-83.3333333333333,4,2,1,75,0,0
137522,-90.9090909090909,4,2,1,80,0,0
143237,-83.3333333333333,4,2,1,80,0,0
154665,-90.9090909090909,4,2,1,80,0,0
166272,-100,4,2,1,80,0,0
166451,-100,4,2,1,70,0,0
170558,-83.3333333333333,4,2,1,70,0,0
170915,-76.9230769230769,4,2,1,70,0,0
171451,-100,4,2,1,70,0,0
176272,-83.3333333333333,4,2,1,70,0,0
176629,-76.9230769230769,4,2,1,70,0,0
176987,-71.4285714285714,4,2,1,70,0,0
177522,-71.4285714285714,4,2,1,55,0,0
188951,-125,4,2,1,55,0,0
191808,-100,4,2,1,70,0,0
194665,-111.111111111111,4,2,1,70,0,0
194844,-111.111111111111,4,2,1,55,0,0
205201,-111.111111111111,4,2,1,60,0,0
205558,-111.111111111111,4,2,1,65,0,0
207165,-111.111111111111,4,2,1,55,0,0
207522,-142.857142857143,4,2,1,55,0,0
208951,-142.857142857143,4,2,1,50,0,0
217522,-125,4,2,1,55,0,0
218951,-125,4,2,1,65,0,0
219487,-100,4,2,1,65,0,0
220379,-90.9090909090909,4,2,1,80,0,0
224308,-90.9090909090909,4,2,1,80,0,0
224486,-90.9090909090909,4,2,1,80,0,0
224665,-90.9090909090909,4,2,1,80,0,0
225290,-90.9090909090909,4,2,1,80,0,0
225558,-90.9090909090909,4,2,1,80,0,0
226094,-83.3333333333333,4,2,1,80,0,0
237522,-90.9090909090909,4,2,1,80,0,0
247701,-90.9090909090909,4,2,1,75,0,0
248951,-90.9090909090909,4,2,1,80,0,0
254665,-83.3333333333333,4,2,1,80,0,0
266094,-125,4,2,1,80,0,0
267522,-100,4,2,1,75,0,0
278951,-100,4,2,1,55,0,0
279308,-125,4,2,1,55,0,0

[Colours]
Combo1 : 221,160,78
Combo2 : 166,146,230
Combo3 : 190,210,231
Combo4 : 128,107,123

[HitObjects]
411,268,737,6,0,P|437:217|431:142,1,128,2|2,2:0|2:0,2:0:0:0:
347,80,1272,1,2,1:2:0:0:
458,0,1451,2,0,P|445:29|442:61,1,64,14|2,2:0|2:0,2:0:0:0:
352,198,1808,6,0,P|272:189|196:166,1,160,6|10,1:2|2:0,2:0:0:0:
15,120,2344,2,0,P|53:109|90:95,1,80,6|0,1:2|2:0,2:0:0:0:
207,24,2701,2,0,P|169:9|131:0,1,80,8|0,2:0|2:0,2:0:0:0:
256,170,3058,6,0,P|324:126|415:125,1,160,6|2,1:2|1:2,2:0:0:0:
446,3,3594,1,10,2:0:0:0:
512,149,3772,2,0,P|500:188|501:237,1,80,6|0,1:2|2:0,2:0:0:0:
335,193,4129,5,2,2:0:0:0:
389,299,4308,2,0,P|413:255|412:190,1,80,10|2,2:0|2:0,2:0:0:0:
420,208,4576,1,8,2:0:0:0:
420,208,4665,1,2,1:2:0:0:
279,128,4844,1,2,1:2:0:0:
354,32,5022,1,10,2:0:0:0:
210,202,5201,2,0,P|199:163|185:126,1,80,2|8,2:0|2:0,2:0:0:0:
232,24,5558,1,2,1:2:0:0:
232,24,5915,6,0,L|70:3,1,160,14|2,2:0|1:2,2:0:0:0:
95,164,6451,2,0,P|148:148|204:148,1,80,10|2,2:0|1:2,2:0:0:0:
366,47,6809,5,14,2:0:0:0:
405,202,6987,1,2,1:2:0:0:
279,114,7165,1,2,1:2:0:0:
190,271,7344,5,10,2:0:0:0:
190,271,7433,1,8,2:0:0:0:
190,271,7522,2,0,B|126:257|126:257|91:266|91:266|23:247,1,160,6|10,1:2|2:0,2:0:0:0:
126,382,8058,2,0,P|128:342|121:302,1,80,6|0,1:2|2:0,2:0:0:0:
308,187,8415,2,0,P|369:180|429:234,1,120,10|0,2:0|2:0,2:0:0:0:
431,243,8772,6,0,B|342:227|364:280|272:266,1,160,6|2,1:2|1:2,2:0:0:0:
147,174,9308,2,0,P|140:124|123:75,1,80,2|14,2:0|2:0,2:0:0:0:
237,276,9665,5,2,1:2:0:0:
45,183,9844,1,2,1:2:0:0:
237,276,10022,1,2,1:2:0:0:
82,338,10201,5,2,1:2:0:0:
82,338,10290,1,8,2:0:0:0:
82,338,10379,2,0,P|72:258|45:183,1,160,6|10,1:2|2:0,2:0:0:0:
167,74,10915,2,0,P|160:124|143:173,1,80,6|8,1:2|2:0,2:0:0:0:
237,276,11272,5,2,1:2:0:0:
362,196,11451,1,2,2:0:0:0:
424,347,11629,5,14,2:0:0:0:
426,347,12522,2,0,P|448:287|436:236,1,80,8|0,2:0|1:2,2:0:0:0:
487,170,12879,1,8,2:3:0:0:
487,170,13058,1,8,2:0:0:0:
355,126,13237,6,0,P|415:163|509:164,1,143.999995605469,4|10,1:2|2:0,2:0:0:0:
512,9,13772,1,0,1:2:0:0:
410,51,13951,2,0,P|336:32|263:25,1,143.999995605469,2|10,2:0|2:0,2:0:0:0:
83,127,14487,2,0,P|154:121|214:83,1,143.999995605469,2|2,1:2|2:0,2:0:0:0:
322,6,15022,1,10,2:0:0:0:
361,144,15201,1,2,1:2:0:0:
361,144,15558,2,0,P|371:187|374:232,1,71.9999978027344,2|8,2:0|2:0,2:0:0:0:
442,289,15915,6,0,P|371:263|299:257,1,143.999995605469,2|0,2:0|1:2,2:0:0:0:
201,384,16451,1,8,2:0:0:0:
332,348,16629,1,0,1:2:0:0:
332,348,16987,2,0,P|299:334|265:324,1,71.9999978027344,2|10,3:2|2:0,2:0:0:0:
99,224,17344,6,0,P|115:292|116:374,1,143.999995605469,2|2,2:0|2:0,2:0:0:0:
116,365,17879,1,8,2:0:0:0:
269,280,18058,2,0,P|337:300|404:328,1,143.999995605469,2|0,1:2|1:2,2:0:0:0:
399,229,18594,2,0,P|364:218|331:204,1,71.9999978027344,10|0,2:0|1:0,2:0:0:0:
162,135,18951,6,0,P|151:48|256:4,1,192,6|0,2:0|2:0,2:0:0:0:
336,123,19665,2,0,B|386:149|386:149|462:137|486:58,1,192,10|0,2:0|2:0,2:0:0:0:
407,3,20379,6,0,P|398:38|394:73,1,64,2|0,1:2|2:0,2:0:0:0:
484,181,20737,1,2,1:2:0:0:
484,181,20915,2,0,P|475:145|471:110,1,64,2|8,2:0|2:0,2:0:0:0:
335,204,21272,2,0,P|272:189|209:181,1,128,2|4,2:0|2:3,2:0:0:0:
133,67,21808,6,0,B|18:44|18:44|5:90|26:128,1,192,6|0,1:2|1:2,2:0:0:0:
120,206,22522,2,0,P|149:275|96:381,1,192,10|0,2:0|1:2,2:0:0:0:
2,310,23237,6,0,P|37:301|72:297,1,64,2|0,1:2|2:0,2:0:0:0:
149,191,23594,1,2,1:2:0:0:
149,191,23772,2,0,P|139:225|125:258,1,64,2|8,2:0|2:0,2:0:0:0:
180,376,24129,1,2,2:0:0:0:
180,376,24219,1,8,2:0:0:0:
180,376,24308,2,0,P|154:350|133:321,1,64,8|2,2:0|2:0,2:0:0:0:
55,210,24665,6,0,P|63:170|71:139,1,71.9999978027344,6|0,1:2|1:2,2:0:0:0:
188,32,25022,2,0,P|180:72|171:102,1,71.9999978027344,8|0,2:0|1:2,2:0:0:0:
274,213,25379,5,2,2:0:0:0:
322,67,25558,1,2,1:2:0:0:
274,213,25737,1,10,2:0:0:0:
471,127,25915,6,0,P|436:137|401:143,1,71.9999978027344,2|0,1:2|1:2,2:0:0:0:
373,285,26272,1,2,1:2:0:0:
373,285,26451,1,8,2:0:0:0:
496,347,26629,2,0,P|502:311|512:276,1,71.9999978027344,2|2,1:2|2:0,2:0:0:0:
356,214,26987,2,0,P|365:248|372:284,1,71.9999978027344,2|10,1:2|2:0,2:0:0:0:
271,384,27344,1,2,1:2:0:0:
189,287,27522,6,0,P|224:277|258:271,1,71.9999978027344,0|0,1:2|1:2,2:0:0:0:
201,195,27879,1,8,2:0:0:0:
100,348,28058,2,0,P|75:305|79:211,1,143.999995605469,2|0,1:2|1:2,2:0:0:0:
102,95,28594,2,0,P|68:105|31:111,1,71.9999978027344,8|0,2:0|1:2,2:0:0:0:
201,195,28951,6,0,B|280:172|262:221|349:201,1,143.999995605469,0|10,1:2|2:0,2:0:0:0:
467,117,29487,1,2,2:0:0:0:
358,44,29665,2,0,P|363:79|373:114,1,71.9999978027344,2|2,1:2|1:2,2:0:0:0:
442,216,30022,2,0,L|524:202,1,71.9999978027344,10|2,2:0|2:0,2:0:0:0:
378,328,30379,6,0,P|417:344|460:342,1,80,6|2,1:2|2:0,2:0:0:0:
329,229,30737,1,10,2:0:0:0:
189,359,30915,6,0,P|111:365|49:317,1,160,6|10,1:2|2:0,2:0:0:0:
234,251,31451,1,2,2:0:0:0:
96,128,31629,6,0,P|122:212|130:299,1,160,6|2,1:2|1:2,2:0:0:0:
262,170,32165,1,10,2:0:0:0:
189,359,32344,6,0,P|250:311|328:317,1,160,6|2,1:2|2:0,2:0:0:0:
424,205,32879,1,10,2:0:0:0:
286,85,33058,5,2,1:2:0:0:
286,85,33147,1,8,2:3:0:0:
286,85,33237,1,0,1:2:0:0:
204,229,33415,1,0,1:0:0:0:
96,128,33594,2,0,P|137:123|181:107,1,80,8|0,2:0|1:2,2:0:0:0:
295,188,33951,1,8,2:0:0:0:
359,21,34129,1,0,1:2:0:0:
359,21,34487,6,0,P|425:51|518:49,1,160,14|0,2:0|1:2,2:0:0:0:
512,51,35022,1,8,2:0:0:0:
413,188,35201,1,0,2:0:0:0:
259,67,35379,2,0,P|219:78|181:84,1,80,4|0,1:2|1:2,2:0:0:0:
55,218,35737,5,8,2:3:0:0:
55,218,35826,1,4,2:3:0:0:
55,218,35915,1,8,2:3:0:0:
55,218,36004,1,4,2:3:0:0:
55,218,36094,6,0,P|45:134|30:67,1,143.999995605469,4|10,1:2|2:0,2:0:0:0:
161,25,36629,1,2,1:2:0:0:
161,25,36719,1,0,1:2:0:0:
161,25,36808,2,0,P|150:65|144:103,1,71.9999978027344,2|2,1:2|1:2,2:0:0:0:
234,223,37165,2,0,P|243:189|250:153,1,71.9999978027344,8|2,2:0|1:2,2:0:0:0:
241,126,37433,5,0,1:2:0:0:
241,126,37522,2,0,P|306:110|362:58,1,143.999995605469,0|8,1:2|2:0,2:0:0:0:
512,137,38058,1,0,1:2:0:0:
461,14,38237,1,0,1:2:0:0:
461,14,38326,1,0,1:2:0:0:
461,14,38415,2,0,P|454:50|444:85,1,71.9999978027344,2|10,1:2|2:0,2:0:0:0:
383,266,38772,1,2,1:2:0:0:
510,230,38951,6,0,P|445:223|377:276,1,143.999995605469,0|10,1:2|2:0,2:0:0:0:
241,359,39487,1,2,1:2:0:0:
241,359,39576,1,0,1:2:0:0:
241,359,39665,1,2,1:2:0:0:
317,188,39844,2,0,P|307:222|300:257,1,71.9999978027344,2|8,1:2|2:0,2:0:0:0:
125,342,40201,5,2,1:2:0:0:
125,342,40290,1,0,1:2:0:0:
125,342,40379,2,0,P|90:332|55:325,1,71.9999978027344,0|2,1:2|1:2,2:0:0:0:
225,221,40737,2,0,P|190:230|155:237,1,71.9999978027344,10|0,2:0|1:2,2:0:0:0:
131,247,41005,1,0,1:2:0:0:
131,247,41094,1,0,1:2:0:0:
7,81,41272,5,0,1:2:0:0:
108,147,41451,1,10,2:0:0:0:
209,4,41629,1,2,1:2:0:0:
108,147,41808,6,0,P|177:150|228:102,1,143.999995605469,4|8,1:2|2:0,2:0:0:0:
363,69,42344,1,0,1:2:0:0:
363,69,42433,1,0,1:2:0:0:
363,69,42522,2,0,P|348:23|350:-17,1,71.9999978027344,0|2,1:2|1:2,2:0:0:0:
349,208,42879,5,10,2:0:0:0:
442,146,43058,1,2,1:2:0:0:
442,146,43147,1,0,1:2:0:0:
442,146,43237,2,0,P|477:156|512:162,1,71.9999978027344,0|0,1:2|1:2,2:0:0:0:
349,208,43594,2,0,P|359:243|365:278,1,71.9999978027344,8|2,2:0|1:2,2:0:0:0:
216,178,43951,5,2,1:2:0:0:
216,178,44040,1,0,1:2:0:0:
216,178,44129,1,0,1:2:0:0:
117,279,44308,2,0,P|151:269|187:262,1,71.9999978027344,10|2,2:0|1:2,2:0:0:0:
311,101,44665,6,0,P|376:142|467:139,1,143.999995605469,8|8,2:3|2:0,2:0:0:0:
512,69,45201,1,0,1:2:0:0:
512,69,45290,1,0,1:2:0:0:
512,69,45379,1,0,1:2:0:0:
401,6,45558,1,2,1:2:0:0:
441,145,45737,1,10,2:0:0:0:
311,101,45915,6,0,L|266:119,1,35.9999989013672,2|4,1:2|2:3,2:0:0:0:
350,209,46272,5,6,1:2:0:0:
219,355,46629,1,6,1:2:0:0:
151,137,46987,2,0,B|85:118|57:184|57:184|91:315,1,240,14|0,1:2|2:0,2:0:0:0:
87,302,48237,5,8,2:0:0:0:
239,196,48415,1,0,1:0:0:0:
329,361,48594,5,8,2:0:0:0:
365,356,48684,1,8,2:3:0:0:
400,349,48773,1,8,2:0:0:0:
435,342,48862,1,8,2:0:0:0:
473,335,48951,6,0,P|488:293|491:237,1,88.000002685547,14|0,1:0|2:0,2:0:0:0:
512,118,49308,2,0,P|470:133|414:136,1,88.000002685547,10|0,2:0|2:0,2:0:0:0:
279,86,49665,5,2,1:2:0:0:
408,187,49844,1,0,1:2:0:0:
379,17,50022,1,10,2:0:0:0:
379,17,50379,6,0,P|364:59|361:115,1,88.000002685547,2|0,1:2|1:2,2:0:0:0:
272,178,50737,1,10,2:0:0:0:
272,178,50915,2,0,P|228:173|187:159,1,88.000002685547,2|0,2:0|2:0,2:0:0:0:
26,89,51272,1,2,1:2:0:0:
137,26,51451,1,10,2:0:0:0:
168,167,51629,1,2,1:2:0:0:
42,193,51808,6,0,P|48:282|79:369,2,176.000005371094,0|10|2,1:2|2:0|1:2,2:0:0:0:
115,106,52701,1,0,1:2:0:0:
273,256,52879,2,0,P|340:263|400:224,1,132.00000402832,10|0,2:0|2:0,2:0:0:0:
416,209,53237,6,0,B|348:195|348:195|325:172|325:172|242:156,1,176.000005371094,2|10,1:2|2:0,2:0:0:0:
131,296,53772,2,0,P|133:246|145:197,1,88.000002685547,10|0,2:0|2:0,2:0:0:0:
29,91,54129,2,0,P|73:104|115:105,1,88.000002685547,2|8,1:2|2:0,2:0:0:0:
240,202,54487,1,2,2:0:0:0:
382,85,54665,6,0,P|383:41|392:-1,1,88.000002685547,0|0,1:2|2:0,2:0:0:0:
457,181,55022,2,0,P|465:224|467:267,1,88.000002685547,10|0,2:0|2:0,2:0:0:0:
484,300,55290,5,0,1:2:0:0:
484,300,55379,2,0,P|431:299|373:276,1,88.000002685547,2|0,1:2|1:2,2:0:0:0:
271,177,55737,2,0,P|313:165|357:166,1,88.000002685547,10|0,2:0|2:0,2:0:0:0:
156,254,56094,6,0,P|219:310|313:315,1,176.000005371094,2|10,1:2|2:0,2:0:0:0:
271,177,56629,2,0,P|279:133|280:89,1,88.000002685547,2|0,2:0|2:0,2:0:0:0:
129,169,56987,1,2,1:2:0:0:
85,10,57165,1,10,2:0:0:0:
129,169,57344,1,2,1:2:0:0:
280,89,57522,6,0,P|372:114|487:118,1,191.999994140625,12|10,2:0|2:0,2:0:0:0:
379,278,58058,2,0,P|371:233|355:185,1,95.9999970703126,2|12,2:0|2:0,2:0:0:0:
471,321,58415,1,2,1:2:0:0:
471,321,58594,1,0,1:2:0:0:
298,380,58772,6,0,P|202:382|110:354,1,191.999994140625,14|2,2:0|1:2,2:0:0:0:
221,222,59308,1,10,2:0:0:0:
118,128,59487,1,2,1:2:0:0:
191,324,59665,2,0,P|240:301|283:294,1,95.9999970703126,12|0,2:0|1:2,2:0:0:0:
280,294,59933,1,0,1:2:0:0:
280,294,60022,1,0,1:2:0:0:
449,178,60201,5,4,2:3:0:0:
449,178,60290,1,0,1:0:0:0:
449,178,60379,2,0,P|373:116|270:120,1,176.000005371094,14|10,2:0|2:0,2:0:0:0:
221,222,60915,1,0,2:0:0:0:
116,126,61094,2,0,P|97:76|91:31,1,88.000002685547,2|0,1:2|1:2,2:0:0:0:
218,135,61451,1,10,2:0:0:0:
33,232,61629,5,0,2:0:0:0:
33,232,61719,1,0,1:2:0:0:
33,232,61808,2,0,B|19:320|19:320|56:341|75:393,1,176.000005371094,2|10,1:2|2:0,2:0:0:0:
116,126,62344,2,0,L|21:146,1,88.000002685547,2|0,2:0|2:0,2:0:0:0:
216,207,62701,1,2,1:2:0:0:
264,38,62879,1,10,2:0:0:0:
216,207,63058,1,2,1:2:0:0:
444,136,63237,6,0,B|389:140|334:112|334:112|300:134|293:159,2,176.000005371094,0|10|2,1:2|2:0|1:2,2:0:0:0:
343,292,64129,1,0,1:2:0:0:
343,292,64219,1,0,1:0:0:0:
343,292,64308,2,0,P|347:248|363:197,1,88.000002685547,10|0,2:0|2:0,2:0:0:0:
427,328,64665,6,0,P|361:380|281:354,1,176.000005371094,2|8,1:2|2:0,2:0:0:0:
116,289,65201,1,2,1:2:0:0:
116,289,65290,1,0,1:0:0:0:
116,289,65379,1,0,1:0:0:0:
215,115,65558,2,0,P|206:62|187:25,1,88.000002685547,2|10,1:2|2:0,2:0:0:0:
56,131,65915,1,2,2:0:0:0:
249,215,66094,6,0,L|137:192,1,95.9999970703126,12|0,2:0|1:2,2:0:0:0:
407,185,66451,2,0,P|444:124|418:55,1,143.999995605469,10|0,2:0|2:0,2:0:0:0:
403,38,66808,1,10,2:0:0:0:
192,8,66987,2,0,P|209:52|220:114,1,95.9999970703126,2|8,1:2|2:0,0:0:0:0:
249,215,67344,1,0,1:2:0:0:
55,290,67522,6,0,P|50:214|81:146,1,143.999995605469,8|0,2:1|2:0,2:0:0:0:
113,133,67879,2,0,P|160:130|206:116,1,95.9999970703126,10|0,2:0|1:2,2:0:0:0:
346,192,68237,1,10,2:0:0:0:
166,257,68415,1,2,1:2:0:0:
346,192,68594,1,8,2:0:0:0:
278,359,68772,5,0,1:2:0:0:
278,359,68862,1,0,1:0:0:0:
278,359,68951,2,0,P|230:374|183:375,1,95.9999970703126,12|0,2:0|1:2,2:0:0:0:
43,267,69308,1,10,2:0:0:0:
171,178,69487,1,0,1:2:0:0:
98,341,69665,1,10,2:0:0:0:
246,259,69844,1,2,1:2:0:0:
75,152,70022,1,8,2:0:0:0:
246,259,70201,5,2,1:2:0:0:
246,259,70290,1,0,1:0:0:0:
246,259,70379,2,0,P|291:244|339:241,1,95.9999970703126,12|0,2:0|1:2,2:0:0:0:
459,312,70737,1,10,2:0:0:0:
512,142,70915,2,0,P|436:135|377:87,1,143.999995605469,2|0,1:2|2:0,2:0:0:0:
383,95,71272,5,2,1:2:0:0:
253,159,71451,1,8,2:0:0:0:
383,95,71629,1,0,1:2:0:0:
284,0,71808,6,0,P|299:45|303:93,1,95.9999970703126,12|0,2:0|1:2,2:0:0:0:
98,197,72165,2,0,P|75:133|108:65,1,143.999995605469,10|0,2:0|1:2,2:0:0:0:
125,49,72522,1,10,2:0:0:0:
242,197,72701,2,0,P|287:212|335:215,1,95.9999970703126,2|8,1:2|2:0,2:0:0:0:
377,18,73058,5,0,1:2:0:0:
377,18,73147,1,0,1:2:0:0:
377,18,73237,2,0,P|331:2|283:0,1,95.9999970703126,4|2,1:2|1:2,2:0:0:0:
126,50,73594,2,0,P|139:95|161:138,1,95.9999970703126,10|0,2:0|1:2,2:0:0:0:
81,295,73951,1,10,2:0:0:0:
132,160,74129,1,2,1:2:0:0:
79,318,74308,1,8,2:0:0:0:
20,131,74487,1,0,1:2:0:0:
259,223,74665,6,0,P|208:230|153:251,1,95.9999970703126,12|0,2:0|1:2,2:0:0:0:
20,131,75022,2,0,P|86:117|154:65,1,143.999995605469,10|0,2:0|2:0,2:0:0:0:
147,72,75379,1,10,2:0:0:0:
312,142,75558,1,2,1:2:0:0:
312,142,75647,1,8,2:0:0:0:
312,142,75737,1,0,1:2:0:0:
166,244,75915,5,14,2:0:0:0:
460,235,77522,6,0,P|460:174|484:95,1,128,2|0,1:2|1:2,2:0:0:0:
494,12,78058,1,0,1:0:0:0:
494,12,78147,1,8,2:0:0:0:
494,12,78237,2,0,P|458:30|414:38,1,64,10|2,2:0|1:2,2:0:0:0:
352,106,78594,1,6,1:2:0:0:
352,106,78772,1,10,2:0:0:0:
225,20,78951,6,0,B|199:94|199:94|232:122|229:179,1,160,6|10,1:2|2:0,2:0:0:0:
307,279,79487,2,0,P|269:268|232:254,1,80,6|0,1:2|2:0,2:0:0:0:
133,361,79844,2,0,P|171:350|208:336,1,80,8|0,2:0|2:0,2:0:0:0:
376,382,80201,6,0,P|419:318|383:223,1,160,6|2,1:2|1:2,2:0:0:0:
307,279,80737,1,10,2:0:0:0:
447,168,80915,2,0,P|408:156|371:142,1,80,6|0,1:2|2:0,2:0:0:0:
213,216,81272,5,2,2:0:0:0:
259,31,81451,2,0,P|278:70|284:106,1,80,10|2,2:0|2:0,2:0:0:0:
289,122,81719,1,8,2:0:0:0:
289,122,81808,1,2,1:2:0:0:
364,22,81987,1,2,1:2:0:0:
196,102,82165,1,10,2:0:0:0:
331,220,82344,2,0,P|319:269|289:315,1,80,2|8,2:0|2:0,2:0:0:0:
207,207,82701,1,2,1:2:0:0:
207,207,83058,6,0,P|143:259|44:269,1,160,14|2,2:0|1:2,2:0:0:0:
0,148,83594,2,0,P|38:159|78:160,1,80,10|2,2:0|1:2,2:0:0:0:
266,32,83951,5,14,2:0:0:0:
207,207,84129,1,2,1:2:0:0:
266,32,84308,1,2,1:2:0:0:
430,131,84487,5,10,2:0:0:0:
430,131,84576,1,8,2:0:0:0:
430,131,84665,2,0,B|343:104|356:158|273:130,1,160,6|10,1:2|2:0,2:0:0:0:
115,243,85201,2,0,P|153:231|193:230,1,80,6|0,1:2|2:0,2:0:0:0:
287,353,85558,2,0,P|280:292|334:232,1,120,10|0,2:0|2:0,2:0:0:0:
343,230,85915,6,0,B|327:319|380:297|366:389,1,160,6|2,1:2|1:2,2:0:0:0:
512,283,86451,2,0,P|472:282|433:271,1,80,2|14,2:0|2:0,2:0:0:0:
397,138,86808,5,2,1:2:0:0:
330,253,86987,1,2,1:2:0:0:
277,81,87165,1,2,1:2:0:0:
178,267,87344,5,2,1:2:0:0:
178,267,87433,1,8,2:0:0:0:
178,267,87522,2,0,B|114:253|114:253|79:262|79:262|11:243,1,160,6|10,1:2|2:0,2:0:0:0:
0,100,88058,2,0,P|46:109|89:128,1,80,6|8,1:2|2:0,2:0:0:0:
253,183,88415,5,2,1:2:0:0:
104,226,88594,1,2,2:0:0:0:
161,53,88772,5,14,2:0:0:0:
161,53,89665,2,0,P|116:66|73:65,1,80,8|0,2:0|1:2,2:0:0:0:
196,155,90022,1,8,2:3:0:0:
196,155,90201,1,8,2:0:0:0:
261,35,90379,6,0,P|318:75|393:75,1,143.999995605469,4|10,1:2|2:0,2:0:0:0:
457,20,90915,1,0,1:2:0:0:
490,118,91094,2,0,B|502:164|502:164|495:201|495:201|509:264,1,143.999995605469,2|10,2:0|2:0,2:0:0:0:
386,235,91629,2,0,P|316:254|250:283,1,143.999995605469,2|2,1:2|2:0,2:0:0:0:
155,222,92165,1,10,2:0:0:0:
102,354,92344,1,2,1:2:0:0:
102,354,92701,2,0,P|97:318|100:282,1,71.9999978027344,2|8,2:0|2:0,2:0:0:0:
69,160,93058,6,0,B|75:106|40:60|40:60|36:117,1,143.999995605469,2|0,2:0|1:2,2:0:0:0:
9,221,93594,1,8,2:0:0:0:
159,142,93772,2,0,P|209:149|260:178,1,107.999996704102,0|0,1:2|2:0,2:0:0:0:
258,176,94129,2,0,P|293:172|327:161,1,71.9999978027344,2|10,3:2|2:0,2:0:0:0:
407,51,94487,6,0,P|424:120|433:195,1,143.999995605469,2|2,2:0|2:0,2:0:0:0:
512,143,95022,1,8,2:0:0:0:
489,281,95201,2,0,P|434:238|353:226,1,143.999995605469,2|0,1:2|1:2,2:0:0:0:
258,176,95737,2,0,P|248:213|242:245,1,71.9999978027344,10|0,2:0|1:0,2:0:0:0:
112,319,96094,6,0,P|52:238|103:157,1,192,6|0,2:0|2:0,2:0:0:0:
220,52,96808,2,0,B|174:84|132:64|132:64|84:30|27:30,1,192,10|0,2:0|2:0,2:0:0:0:
26,151,97522,2,0,P|63:161|95:166,1,64,2|0,1:2|2:0,2:0:0:0:
171,113,97879,1,2,1:2:0:0:
227,219,98058,2,0,P|221:250|212:281,1,64,2|8,2:0|2:0,2:0:0:0:
316,360,98415,2,0,P|350:311|336:229,1,128,2|4,2:0|2:3,2:0:0:0:
275,139,98951,6,0,P|358:175|476:156,1,192,6|0,1:2|1:2,2:0:0:0:
512,26,99665,2,0,P|436:17|371:101,1,192,10|0,2:0|1:2,2:0:0:0:
456,164,100379,2,0,P|462:195|471:226,1,64,2|0,1:2|2:0,2:0:0:0:
424,320,100737,1,2,1:2:0:0:
345,245,100915,2,0,P|314:253|282:260,1,64,2|8,2:0|2:0,2:0:0:0:
173,355,101272,1,2,2:0:0:0:
173,355,101362,1,8,2:0:0:0:
173,355,101451,2,0,P|203:346|235:339,1,64,8|2,2:0|2:0,2:0:0:0:
86,224,101808,6,0,P|66:272|66:320,1,71.9999978027344,6|0,1:2|1:2,2:0:0:0:
169,150,102165,2,0,P|175:185|191:217,1,71.9999978027344,8|0,2:0|1:2,2:0:0:0:
305,337,102522,5,2,2:0:0:0:
343,176,102701,1,2,1:2:0:0:
305,337,102879,1,10,2:0:0:0:
191,228,103058,6,0,P|228:233|259:247,1,71.9999978027344,2|0,1:2|1:2,2:0:0:0:
391,300,103415,1,2,1:2:0:0:
391,300,103594,1,8,2:0:0:0:
436,179,103772,2,0,P|424:146|416:110,1,71.9999978027344,2|2,1:2|2:0,2:0:0:0:
328,14,104129,2,0,P|321:49|308:83,1,71.9999978027344,2|10,1:2|2:0,2:0:0:0:
260,200,104487,1,2,1:2:0:0:
140,58,104665,6,0,P|174:71|210:78,1,71.9999978027344,0|0,1:2|1:2,2:0:0:0:
136,159,105022,1,8,2:0:0:0:
46,3,105201,2,0,P|21:46|25:140,1,143.999995605469,2|0,1:2|1:2,2:0:0:0:
3,244,105737,2,0,P|37:231|73:224,1,71.9999978027344,8|0,2:0|1:2,2:0:0:0:
276,130,106094,6,0,B|247:212|247:212|281:250|267:295,1,143.999995605469,0|10,1:2|2:0,2:0:0:0:
366,197,106629,1,2,2:0:0:0:
267,343,106808,2,0,P|302:349|335:362,1,71.9999978027344,2|2,1:2|1:2,2:0:0:0:
486,322,107165,2,0,P|452:309|417:302,1,71.9999978027344,10|2,2:0|2:0,2:0:0:0:
361,183,107522,6,0,P|373:137|381:88,1,80,6|2,1:2|2:0,2:0:0:0:
261,50,107879,1,10,2:0:0:0:
204,214,108058,6,0,P|282:195|370:181,1,160,6|10,1:2|2:0,2:0:0:0:
446,60,108594,1,2,2:0:0:0:
499,232,108772,6,0,P|482:280|504:385,1,160,6|2,1:2|2:0,2:0:0:0:
348,269,109308,1,10,2:0:0:0:
202,381,109487,6,0,P|150:321|73:309,1,160,6|2,1:2|2:0,2:0:0:0:
12,156,110022,1,10,2:0:0:0:
189,232,110201,5,2,1:2:0:0:
189,232,110290,1,8,2:3:0:0:
189,232,110379,1,0,1:2:0:0:
221,91,110558,1,0,1:0:0:0:
189,232,110737,2,0,P|177:278|169:327,1,80,8|0,2:0|1:2,2:0:0:0:
23,170,111094,1,8,2:0:0:0:
78,375,111272,1,0,1:2:0:0:
78,375,111629,6,0,P|135:350|237:378,1,160,14|0,2:0|1:2,2:0:0:0:
227,370,112165,1,8,2:0:0:0:
172,226,112344,1,0,2:0:0:0:
323,300,112522,2,0,P|322:260|307:223,1,80,4|0,1:2|1:2,2:0:0:0:
139,154,112879,5,8,2:3:0:0:
139,154,112969,1,4,2:3:0:0:
139,154,113058,1,8,2:3:0:0:
139,154,113147,1,4,2:3:0:0:
139,154,113237,2,0,P|107:110|118:8,1,143.999995605469,4|10,1:2|2:0,2:0:0:0:
278,79,113772,1,2,1:2:0:0:
278,79,113862,1,0,1:2:0:0:
278,79,113951,2,0,P|242:85|207:95,1,71.9999978027344,2|2,1:2|1:2,2:0:0:0:
109,23,114308,1,8,2:0:0:0:
40,129,114487,5,2,1:2:0:0:
40,129,114576,1,0,1:2:0:0:
40,129,114665,2,0,P|27:200|9:294,1,143.999995605469,0|8,1:2|2:0,2:0:0:0:
103,369,115201,1,0,1:2:0:0:
198,268,115379,1,0,1:2:0:0:
198,268,115469,1,0,1:2:0:0:
198,268,115558,2,0,P|161:256|118:221,1,71.9999978027344,2|10,1:2|2:0,2:0:0:0:
263,358,115915,1,2,1:2:0:0:
378,290,116094,6,0,P|312:302|258:370,1,143.999995605469,0|10,1:2|2:0,2:0:0:0:
392,384,116629,1,2,1:2:0:0:
392,384,116719,1,0,1:2:0:0:
392,384,116808,1,2,1:2:0:0:
474,296,116987,2,0,P|462:261|456:226,1,71.9999978027344,6|8,1:2|2:0,2:0:0:0:
506,114,117344,5,2,1:2:0:0:
506,114,117433,1,0,1:2:0:0:
506,114,117522,2,0,P|470:106|436:94,1,71.9999978027344,0|2,1:2|1:2,2:0:0:0:
308,37,117879,2,0,P|343:29|377:17,1,71.9999978027344,10|0,2:0|1:2,2:0:0:0:
400,14,118148,1,0,1:2:0:0:
400,14,118237,1,0,1:2:0:0:
377,195,118415,5,0,1:2:0:0:
286,17,118593,1,10,2:0:0:0:
377,195,118772,1,2,1:2:0:0:
214,137,118951,6,0,B|205:188|205:188|190:219|190:219|179:281,1,143.999995605469,4|8,1:2|2:0,2:0:0:0:
276,357,119487,1,0,1:2:0:0:
276,357,119576,1,0,1:2:0:0:
276,357,119665,2,0,P|312:349|346:337,1,71.9999978027344,0|2,1:2|1:2,2:0:0:0:
380,160,120022,5,10,2:0:0:0:
304,242,120201,1,2,1:2:0:0:
304,242,120290,1,0,1:2:0:0:
304,242,120379,2,0,P|266:235|233:225,1,71.9999978027344,0|0,1:2|1:2,2:0:0:0:
265,67,120737,2,0,P|301:78|335:83,1,71.9999978027344,8|2,2:0|1:2,2:0:0:0:
177,145,121094,5,2,1:2:0:0:
177,145,121183,1,0,1:2:0:0:
177,145,121272,1,0,1:2:0:0:
93,66,121451,2,0,P|80:99|73:134,1,71.9999978027344,10|2,2:0|1:2,2:0:0:0:
6,255,121808,6,0,P|66:219|136:230,1,143.999995605469,8|8,2:3|2:0,2:0:0:0:
28,353,122344,1,0,1:2:0:0:
28,353,122433,1,0,1:2:0:0:
28,353,122522,1,0,1:2:0:0:
164,384,122701,1,2,1:2:0:0:
136,230,122879,1,10,2:0:0:0:
243,305,123058,6,0,L|283:293,1,35.9999989013672,2|4,1:2|2:3,2:0:0:0:
354,134,123415,5,6,1:2:0:0:
512,230,123772,1,6,1:2:0:0:
377,360,124129,2,0,B|380:277|420:217|420:217|449:179|445:121,1,240,6|0,1:2|2:0,2:0:0:0:
445,133,125379,5,8,2:0:0:0:
298,251,125558,1,0,1:0:0:0:
329,52,125737,5,8,2:0:0:0:
306,79,125827,1,8,2:3:0:0:
275,98,125916,1,8,2:0:0:0:
240,106,126005,1,8,2:0:0:0:
204,105,126094,6,0,P|162:90|118:85,1,88.000002685547,6|0,1:0|2:0,2:0:0:0:
0,199,126451,2,0,P|44:193|85:180,1,88.000002685547,10|0,2:0|2:0,2:0:0:0:
261,349,126808,5,2,1:2:0:0:
206,187,126987,1,0,1:2:0:0:
261,349,127165,1,10,2:0:0:0:
383,231,127344,5,0,2:0:0:0:
383,231,127433,1,0,1:2:0:0:
383,231,127522,2,0,P|339:236|297:250,1,88.000002685547,2|0,1:2|1:2,2:0:0:0:
154,308,127879,1,10,2:0:0:0:
101,164,128058,2,0,P|114:122|120:78,1,88.000002685547,2|0,2:0|2:0,2:0:0:0:
48,251,128415,1,2,1:2:0:0:
230,182,128594,1,10,2:0:0:0:
38,103,128772,1,2,1:2:0:0:
192,12,128951,6,0,P|203:99|230:182,2,176.000005371094,0|10|2,1:2|2:0|1:2,2:0:0:0:
327,124,129844,1,0,1:2:0:0:
429,0,130022,1,10,2:0:0:0:
429,0,130379,6,0,B|406:96|466:75|438:171,1,176.000005371094,2|10,1:2|2:0,2:0:0:0:
512,322,130915,2,0,P|470:335|426:341,1,88.000002685547,10|0,2:0|2:0,2:0:0:0:
211,365,131272,2,0,P|254:370|296:384,1,88.000002685547,2|8,1:2|2:0,2:0:0:0:
342,218,131629,1,2,2:0:0:0:
154,293,131808,6,0,P|79:288|-3:227,1,176.000005371094,0|10,1:2|2:0,2:0:0:0:
80,118,132344,1,0,2:0:0:0:
80,118,132433,1,0,1:2:0:0:
80,118,132522,2,0,P|93:160|99:203,1,88.000002685547,2|0,1:2|1:2,2:0:0:0:
278,319,132879,2,0,P|284:275|297:233,1,88.000002685547,10|0,2:0|2:0,2:0:0:0:
507,103,133237,6,0,B|446:128|446:128|398:85|344:88,1,176.000005371094,2|10,1:2|2:0,2:0:0:0:
212,6,133772,2,0,P|225:47|231:91,1,88.000002685547,2|0,2:0|2:0,2:0:0:0:
372,169,134129,1,2,1:2:0:0:
251,312,134308,1,10,2:0:0:0:
257,116,134487,1,2,1:2:0:0:
150,370,134665,6,0,P|136:274|107:181,1,191.999994140625,12|10,2:0|2:0,2:0:0:0:
270,94,135201,2,0,P|315:108|363:114,1,95.9999970703126,2|12,2:0|2:0,2:0:0:0:
223,233,135558,1,2,1:2:0:0:
223,233,135737,1,0,1:2:0:0:
98,88,135915,6,0,P|195:78|261:7,1,191.999994140625,14|2,2:0|1:2,2:0:0:0:
372,169,136451,1,10,2:0:0:0:
443,8,136629,1,2,1:2:0:0:
372,169,136808,2,0,P|386:214|392:262,1,95.9999970703126,12|0,2:0|1:2,2:0:0:0:
392,262,137076,1,0,1:2:0:0:
392,262,137165,1,0,1:2:0:0:
467,110,137344,5,4,2:3:0:0:
467,110,137433,1,0,1:0:0:0:
467,110,137522,2,0,B|434:118|401:141|401:141|352:142|304:110,1,176.000005371094,14|10,2:0|2:0,2:0:0:0:
186,29,138058,1,0,2:0:0:0:
88,173,138237,2,0,P|131:166|173:153,1,88.000002685547,2|0,1:2|1:2,2:0:0:0:
328,207,138594,1,10,2:0:0:0:
221,375,138772,5,0,2:0:0:0:
221,375,138862,1,0,1:2:0:0:
221,375,138951,2,0,B|202:319|202:319|243:264|240:204,1,176.000005371094,2|10,1:2|2:0,2:0:0:0:
334,106,139487,2,0,P|340:153|354:199,1,88.000002685547,2|0,2:0|2:0,2:0:0:0:
308,344,139844,1,2,1:2:0:0:
438,217,140022,1,10,2:0:0:0:
502,379,140201,1,2,1:2:0:0:
438,217,140379,6,0,P|428:129|400:45,2,176.000005371094,0|10|2,1:2|2:0|1:2,2:0:0:0:
507,86,141272,1,0,1:2:0:0:
346,212,141451,2,0,P|300:226|252:232,1,88.000002685547,10|0,2:0|2:0,2:0:0:0:
90,97,141808,6,0,P|45:158|65:260,1,176.000005371094,2|8,1:2|2:0,2:0:0:0:
153,188,142344,1,2,1:2:0:0:
153,188,142433,1,0,1:0:0:0:
153,188,142522,1,0,1:0:0:0:
13,329,142701,2,0,P|60:335|106:349,1,88.000002685547,2|10,1:2|2:0,2:0:0:0:
235,384,143058,1,2,2:0:0:0:
340,192,143237,6,0,P|325:237|319:285,1,95.9999970703126,12|0,2:0|1:2,2:0:0:0:
473,376,143594,2,0,P|482:304|503:235,1,143.999995605469,10|0,2:0|2:0,2:0:0:0:
512,201,143951,1,10,2:0:0:0:
357,171,144130,2,0,P|363:123|377:77,1,95.9999970703126,2|8,1:2|2:0,2:0:0:0:
433,0,144487,1,0,1:2:0:0:
340,192,144665,6,0,P|268:192|202:163,1,143.999995605469,8|0,2:1|2:0,2:0:0:0:
185,131,145022,2,0,P|178:83|164:37,1,95.9999970703126,10|0,2:0|1:2,2:0:0:0:
32,138,145379,1,10,2:0:0:0:
174,238,145557,1,2,1:2:0:0:
26,333,145736,1,8,2:0:0:0:
77,229,145915,5,0,1:2:0:0:
77,229,146004,1,0,1:0:0:0:
77,229,146094,1,12,2:0:0:0:
241,304,146272,1,0,1:2:0:0:
140,384,146451,2,0,P|147:336|161:290,1,95.9999970703126,10|0,2:0|1:2,2:0:0:0:
267,158,146808,1,10,2:0:0:0:
323,326,146987,1,2,1:2:0:0:
267,158,147165,1,8,2:0:0:0:
434,225,147344,5,2,1:2:0:0:
434,225,147433,1,0,1:0:0:0:
434,225,147522,2,0,P|386:232|340:246,1,95.9999970703126,12|0,2:0|1:2,2:0:0:0:
267,158,147879,1,10,2:0:0:0:
403,0,148058,2,0,P|400:72|371:141,1,143.999995605469,2|0,1:2|2:0,2:0:0:0:
373,138,148415,5,2,1:2:0:0:
232,28,148594,1,8,2:0:0:0:
165,184,148772,1,0,1:2:0:0:
43,66,148951,6,0,P|88:79|136:86,1,95.9999970703126,12|0,2:0|1:2,2:0:0:0:
265,215,149308,1,10,2:0:0:0:
347,32,149487,1,0,1:2:0:0:
265,215,149665,2,0,P|281:263|288:315,1,95.9999970703126,10|2,2:0|1:2,2:0:0:0:
373,138,150022,1,8,2:0:0:0:
166,185,150201,5,0,1:2:0:0:
166,185,150290,1,0,1:2:0:0:
166,185,150379,2,0,P|150:233|143:285,1,95.9999970703126,4|0,1:2|2:0,2:0:0:0:
183,384,150737,1,10,2:0:0:0:
40,213,150915,1,0,1:2:0:0:
250,280,151094,2,0,P|202:287|157:302,1,95.9999970703126,10|2,2:0|1:2,2:0:0:0:
13,380,151451,1,8,2:0:0:0:
58,191,151629,5,0,1:2:0:0:
58,191,151719,1,0,1:0:0:0:
58,191,151808,2,0,P|43:146|37:98,1,95.9999970703126,12|0,2:0|1:2,2:0:0:0:
214,0,152165,2,0,P|223:72|244:141,1,143.999995605469,10|0,2:0|2:0,2:0:0:0:
254,165,152522,1,10,2:0:0:0:
410,80,152701,2,0,P|362:74|316:58,1,95.9999970703126,2|8,1:2|0:2,2:0:0:0:
358,211,153058,1,2,1:2:0:0:
500,158,153237,5,8,2:0:0:0:
343,301,153415,1,0,1:2:0:0:
512,357,153594,1,8,2:0:0:0:
358,211,153772,1,0,1:2:0:0:
512,357,153951,1,8,2:0:0:0:
256,168,154129,5,0,1:2:0:0:
256,168,154219,1,8,2:0:0:0:
256,168,154308,2,0,P|275:214|251:321,1,143.999995605469,8|0,2:0|2:0,2:0:0:0:
261,304,154665,6,0,P|165:314|73:346,1,176.000005371094,6|10,1:2|0:2,2:0:0:0:
9,200,155201,2,0,P|54:215|101:221,1,88.000002685547,2|0,2:0|1:2,2:0:0:0:
168,90,155558,1,2,1:2:0:0:
66,1,155737,2,0,P|59:44|44:85,1,88.000002685547,14|0,2:0|2:0,2:0:0:0:
40,112,156004,1,8,2:0:0:0:
40,112,156094,1,0,1:2:0:0:
168,90,156272,1,2,1:2:0:0:
239,219,156451,2,0,P|245:262|260:303,1,88.000002685547,8|2,2:0|2:0,2:0:0:0:
419,324,156808,5,2,2:0:0:0:
451,176,156987,1,2,1:2:0:0:
415,342,157165,1,10,2:0:0:0:
260,303,157344,2,0,P|216:296|175:281,1,88.000002685547,2|2,1:2|1:2,2:0:0:0:
168,90,157701,5,2,1:2:0:0:
168,90,157790,1,2,1:2:0:0:
168,90,157879,1,10,2:0:0:0:
93,221,158058,2,0,P|86:199|83:178,1,44.0000013427735,2|10,1:2|2:0,2:0:0:0:
242,151,158237,5,2,1:2:0:0:
159,1,158415,1,2,1:2:0:0:
242,151,158594,1,10,2:0:0:0:
366,84,158772,2,0,P|372:40|387:0,1,88.000002685547,2|0,2:0|1:2,2:0:0:0:
512,245,159129,5,2,1:2:0:0:
488,213,159219,1,2,2:0:0:0:
450,201,159308,1,10,2:0:0:0:
410,197,159397,1,2,2:0:0:0:
371,208,159487,1,10,0:2:0:0:
275,64,159665,5,2,2:0:0:0:
441,126,159844,1,2,1:2:0:0:
275,64,160022,1,10,2:0:0:0:
316,297,160201,5,2,2:0:0:0:
316,297,160290,1,2,2:0:0:0:
316,297,160379,2,0,P|329:208|359:127,1,176.000005371094,0|8,1:2|2:0,2:0:0:0:
193,33,160915,1,2,1:2:0:0:
193,33,161004,1,8,2:0:0:0:
193,33,161094,2,0,P|231:53|274:63,1,88.000002685547,0|0,1:2|1:2,2:0:0:0:
439,20,161451,1,10,2:0:0:0:
409,196,161629,5,2,1:2:0:0:
409,196,161719,1,8,2:0:0:0:
409,196,161808,2,0,P|339:214|286:241,1,132.00000402832,0|0,1:2|2:0,2:0:0:0:
259,264,162165,2,0,P|216:254|177:233,1,88.000002685547,12|0,2:0|2:0,2:0:0:0:
28,129,162522,1,2,2:0:0:0:
48,317,162701,1,2,1:2:0:0:
28,129,162879,1,10,2:0:0:0:
192,192,163058,1,2,1:2:0:0:
150,379,163237,5,0,1:2:0:0:
84,219,163415,1,0,1:2:0:0:
264,340,163594,2,0,P|302:319|345:309,1,88.000002685547,8|2,2:0|2:0,2:0:0:0:
416,128,163951,1,8,2:0:0:0:
278,239,164129,1,0,1:2:0:0:
464,317,164308,1,2,1:2:0:0:
497,97,164487,6,0,P|458:117|415:127,1,88.000002685547,12|0,2:0|2:0,2:0:0:0:
284,194,164844,1,2,2:0:0:0:
286,216,164933,1,2,2:0:0:0:
278,239,165022,1,10,2:0:0:0:
146,99,165201,1,2,2:0:0:0:
148,76,165290,1,2,2:0:0:0:
140,54,165380,6,0,L|232:33,1,88.000002685547,6|2,1:2|2:0,2:0:0:0:
331,120,165737,1,0,1:2:0:0:
474,27,165915,1,2,2:0:0:0:
499,197,166094,5,6,1:2:0:0:
435,105,166272,2,0,P|399:170|422:267,1,160,2|2,2:2|2:0,2:0:0:0:
475,374,166808,2,0,P|435:353|393:344,1,80,8|0,2:0|1:2,2:0:0:0:
278,239,167165,2,0,P|287:281|307:320,1,80,0|0,1:2|1:2,2:0:0:0:
210,374,167522,5,2,1:2:0:0:
144,284,167701,2,0,P|56:280|-6:232,1,160,0|2,1:2|1:2,2:0:0:0:
122,91,168237,2,0,P|101:147|85:213,2,120,10|2|10,2:0|2:0|2:0,2:0:0:0:
260,32,168951,5,14,2:0:0:0:
331,120,169129,2,0,P|411:113|485:83,1,160,2|2,2:0|1:2,2:0:0:0:
512,231,169665,2,0,P|476:211|438:201,1,80,10|2,2:0|1:2,2:0:0:0:
331,120,170022,1,10,2:0:0:0:
364,263,170201,1,2,2:0:0:0:
364,263,170558,6,0,B|299:298|299:298|258:285|210:299,1,143.999995605469,14|0,2:0|2:0,2:0:0:0:
148,347,170915,2,0,P|183:279|190:193,1,155.999992858887,14|0,2:0|2:0,2:0:0:0:
146,99,171272,1,14,2:0:0:0:
293,210,171451,6,0,L|300:146,2,53.3333333333333,2|0|0,2:0|2:0|2:0,2:0:0:0:
311,137,171808,5,10,2:0:0:0:
419,199,171987,2,0,P|463:129|463:30,1,160,2|2,1:2|1:2,2:0:0:0:
344,0,172522,2,0,P|352:37|361:81,1,80,14|8,2:0|2:0,2:0:0:0:
219,159,172879,2,0,P|227:119|235:80,1,80,0|0,1:2|1:2,2:0:0:0:
101,243,173237,5,8,2:0:0:0:
148,347,173415,2,0,P|219:343|278:273,1,160,0|0,1:2|1:2,2:0:0:0:
457,200,173951,2,0,L|428:335,2,120,14|0|2,2:0|2:0|1:2,2:0:0:0:
352,112,174665,6,0,P|273:118|183:148,1,160,14|0,2:0|1:2,2:0:0:0:
60,112,175201,2,0,P|64:92|67:72,3,40,2|2|10|0,1:2|2:0|2:0|2:0,2:0:0:0:
218,0,175558,2,0,P|220:19|224:39,3,40,2|2|2|0,1:2|2:0|1:2|2:0,2:0:0:0:
176,155,175915,1,10,2:0:0:0:
176,155,176272,6,0,P|126:209|152:307,1,143.999995605469,14|0,2:0|2:0,2:0:0:0:
63,319,176629,2,0,B|134:314|134:314|175:344|220:346,1,155.999992858887,14|0,2:0|2:0,2:0:0:0:
276,384,176987,2,0,B|248:283|248:283|288:212|352:242,1,223.999993164063,14|0,2:0|2:0,2:0:0:0:
455,380,177522,5,2,1:2:0:0:
512,165,188951,6,0,L|255:137,1,256,12|2,2:0|1:2,2:0:0:0:
257,137,190379,6,0,P|166:108|83:176,1,192,4|0,1:2|1:2,2:0:0:0:
19,233,191094,2,0,P|90:268|222:284,1,192,8|2,2:0|2:0,2:0:0:0:
200,285,191808,6,0,P|198:245|208:206,1,80,4|0,1:2|2:0,2:0:0:0:
332,94,192165,2,0,P|341:132|339:172,1,80,2|0,1:2|1:2,2:0:0:0:
483,273,192522,5,10,2:0:0:0:
430,110,192701,1,0,1:2:0:0:
483,273,192879,1,10,2:0:0:0:
339,193,193058,1,2,1:2:0:0:
505,88,193237,6,0,P|468:104|429:109,1,80,4|0,1:2|1:2,2:0:0:0:
301,16,193594,1,2,0:2:0:0:
339,193,193772,1,0,1:2:0:0:
181,156,193951,2,0,P|141:161|104:176,1,80,10|2,0:2|1:2,2:0:0:0:
8,16,194308,5,12,2:0:0:0:
8,16,194398,1,0,2:0:0:0:
8,16,194487,1,8,2:3:0:0:
8,16,194576,1,4,2:3:0:0:
8,16,194665,2,0,P|82:45|161:55,1,143.999995605469,4|10,1:2|2:0,2:0:0:0:
261,0,195201,1,2,1:2:0:0:
261,0,195290,1,0,1:2:0:0:
261,0,195379,2,0,L|276:73,1,71.9999978027344,2|2,1:2|1:2,2:0:0:0:
181,156,195737,1,8,2:0:0:0:
304,244,195915,5,2,1:2:0:0:
304,244,196004,1,0,1:2:0:0:
304,244,196093,2,0,B|354:222|354:222|425:242|470:219,1,143.999995605469,0|8,1:2|2:0,2:0:0:0:
512,156,196629,1,0,1:2:0:0:
485,347,196808,1,0,1:2:0:0:
485,347,196897,1,0,1:2:0:0:
485,347,196986,2,0,P|453:329|419:319,1,71.9999978027344,2|10,1:2|2:0,2:0:0:0:
325,375,197344,1,2,1:2:0:0:
214,305,197522,6,0,P|278:315|327:388,1,143.999995605469,0|10,1:2|2:0,2:0:0:0:
145,379,198058,1,2,1:2:0:0:
145,379,198147,1,0,1:2:0:0:
145,379,198237,1,2,1:2:0:0:
39,263,198415,2,0,P|50:298|51:337,1,71.9999978027344,6|8,1:2|2:0,2:0:0:0:
140,181,198772,5,2,1:2:0:0:
140,181,198862,1,0,1:2:0:0:
140,181,198951,2,0,P|174:168|209:164,1,71.9999978027344,0|2,1:2|1:2,2:0:0:0:
329,84,199308,2,0,P|294:71|259:67,1,71.9999978027344,10|0,2:0|1:2,2:0:0:0:
236,65,199576,1,0,1:2:0:0:
236,65,199665,1,0,1:2:0:0:
374,181,199844,5,0,1:2:0:0:
503,78,200022,1,10,2:0:0:0:
364,192,200201,1,2,1:2:0:0:
467,280,200379,6,0,B|399:286|399:286|379:322|342:338,1,143.999995605469,4|8,1:2|2:0,2:0:0:0:
202,368,200915,1,0,1:2:0:0:
202,368,201004,1,0,1:2:0:0:
202,368,201093,2,0,P|237:372|271:384,1,71.9999978027344,0|2,1:2|1:2,2:0:0:0:
206,243,201451,5,10,2:0:0:0:
101,304,201629,1,2,1:2:0:0:
101,304,201718,1,0,1:2:0:0:
101,304,201807,2,0,P|66:315|35:331,1,71.9999978027344,0|0,1:2|1:2,2:0:0:0:
0,173,202165,2,0,P|35:184|65:200,1,71.9999978027344,8|2,2:0|1:2,2:0:0:0:
162,95,202522,5,2,1:2:0:0:
162,95,202612,1,0,1:2:0:0:
162,95,202701,1,0,1:2:0:0:
266,172,202879,2,0,L|280:88,1,71.9999978027344,10|2,2:0|1:2,2:0:0:0:
485,41,203237,6,0,P|416:61|377:124,1,143.999995605469,8|8,2:3|2:0,2:0:0:0:
442,249,203772,1,0,1:2:0:0:
442,249,203862,1,0,1:2:0:0:
442,249,203951,1,0,1:2:0:0:
477,123,204129,1,2,1:2:0:0:
353,198,204308,1,10,2:0:0:0:
429,339,204487,6,0,L|419:390,1,35.9999989013672,2|4,1:2|2:3,2:0:0:0:
301,322,204844,5,6,1:2:0:0:
170,155,205201,1,6,1:2:0:0:
335,25,205558,1,14,1:2:0:0:
256,192,205647,12,8,207165,2:0:0:0:
112,65,207522,6,0,P|70:59|36:51,1,55.9999982910157,0|2,1:2|2:0,2:0:0:0:
196,0,207879,2,0,P|238:6|272:14,1,55.9999982910157,2|2,2:0|2:0,2:0:0:0:
374,163,208237,5,2,2:0:0:0:
325,151,208415,1,2,1:2:0:0:
280,175,208594,1,2,2:0:0:0:
259,220,208772,1,2,1:2:0:0:
118,165,208951,5,14,1:2:0:0:
57,303,217522,6,0,P|129:213|262:192,1,256,4|4,1:2|1:2,2:0:0:0:
461,147,218951,5,12,2:0:0:0:
337,269,219129,1,2,1:2:0:0:
338,78,219308,1,2,1:2:0:0:
429,268,219487,6,0,L|443:317,1,40,10|2,2:0|2:0,2:0:0:0:
461,147,219665,5,0,1:2:0:0:
435,172,219754,1,0,2:0:0:0:
403,189,219844,1,8,2:0:0:0:
368,198,219933,1,8,2:0:0:0:
332,192,220022,1,0,1:2:0:0:
332,192,220379,6,0,P|277:178|229:186,1,88.000002685547,14|0,2:0|2:0,2:0:0:0:
134,255,220737,2,0,P|135:211|122:169,1,88.000002685547,10|0,2:0|2:0,2:0:0:0:
23,126,221094,5,2,1:2:0:0:
158,61,221272,1,0,1:2:0:0:
23,126,221451,1,10,2:0:0:0:
220,252,221629,5,0,1:2:0:0:
220,252,221719,1,0,1:2:0:0:
220,252,221808,2,0,B|315:272|290:213|388:222,1,176.000005371094,2|10,1:2|2:0,2:0:0:0:
490,87,222344,2,0,P|450:106|407:113,1,88.000002685547,2|0,2:0|1:1,2:0:0:0:
313,70,222701,5,2,1:2:0:0:
389,223,222879,1,10,2:0:0:0:
313,70,223058,1,2,1:2:0:0:
178,142,223237,6,0,B|115:150|115:150|66:102|15:99,2,176.000005371094,0|10|2,1:2|2:0|1:2,2:0:0:0:
312,237,224129,1,0,1:2:0:0:
296,48,224308,2,0,P|276:87|269:130,1,88.000002685547,10|0,2:0|2:0,2:0:0:0:
426,285,224665,6,0,B|430:270|446:253|446:253|359:267|303:231,1,176.000005371094,14|8,1:2|2:0,2:0:0:0:
115,173,225201,1,2,1:2:0:0:
115,173,225290,1,0,1:2:0:0:
115,173,225379,1,8,2:0:0:0:
152,363,225558,1,2,1:2:0:0:
311,236,225737,1,10,2:0:0:0:
152,363,225915,1,2,2:0:0:0:
408,378,226094,6,0,P|413:322|430:276,1,95.9999970703126,12|0,2:0|1:2,2:0:0:0:
296,134,226451,2,0,P|293:201|260:277,1,143.999995605469,10|0,2:0|2:0,2:0:0:0:
255,293,226808,1,10,2:0:0:0:
98,271,226987,2,0,P|81:225|73:178,1,95.9999970703126,2|8,1:2|2:0,2:0:0:0:
181,115,227344,1,0,1:2:0:0:
32,0,227522,6,0,P|56:67|68:138,1,143.999995605469,8|0,2:1|2:0,2:0:0:0:
74,179,227879,2,0,P|119:162|166:154,1,95.9999970703126,10|0,2:0|1:2,2:0:0:0:
336,57,228237,1,10,2:0:0:0:
243,193,228415,1,2,1:2:0:0:
170,4,228594,1,8,2:0:0:0:
335,159,228772,5,0,1:2:0:0:
335,159,228862,1,0,1:0:0:0:
335,159,228951,2,0,P|403:135|437:59,1,143.999995605469,12|0,2:0|2:0,2:0:0:0:
428,32,229308,2,0,P|382:48|335:56,1,95.9999970703126,10|0,2:0|1:2,2:0:0:0:
170,4,229665,1,10,2:0:0:0:
113,166,229844,1,2,1:2:0:0:
170,4,230022,1,8,2:0:0:0:
10,112,230201,5,2,1:2:0:0:
10,112,230290,1,2,1:2:0:0:
10,112,230379,2,0,L|31:208,1,95.9999970703126,12|0,2:0|1:2,2:0:0:0:
105,379,230737,1,10,2:0:0:0:
0,300,230915,2,0,P|65:301|118:247,1,143.999995605469,2|0,1:2|2:0,2:0:0:0:
118,247,231272,5,2,1:2:0:0:
250,330,231451,1,8,2:0:0:0:
117,247,231629,1,0,1:2:0:0:
250,330,231808,6,0,P|291:307|340:293,1,95.9999970703126,12|0,2:0|1:2,2:0:0:0:
403,185,232165,2,0,P|332:175|260:127,1,143.999995605469,10|0,2:0|2:0,2:0:0:0:
270,138,232522,1,10,2:0:0:0:
383,0,232701,2,0,P|379:47|365:93,1,95.9999970703126,2|8,1:2|2:0,2:0:0:0:
319,216,233058,1,0,1:2:0:0:
172,124,233237,6,0,P|122:138|77:141,1,95.9999970703126,12|0,2:0|2:0,2:0:0:0:
14,286,233594,2,0,L|168:258,1,143.999995605469,10|0,2:0|0:0,0:0:0:0:
155,260,233951,1,10,2:0:0:0:
336,195,234130,2,0,P|321:240|318:288,1,95.9999970703126,2|8,1:2|2:0,2:0:0:0:
285,384,234487,1,0,1:2:0:0:
503,336,234665,6,0,P|456:323|409:319,1,95.9999970703126,12|0,2:0|1:2,2:0:0:0:
336,195,235022,2,0,P|407:208|476:169,1,143.999995605469,10|0,2:0|2:0,2:0:0:0:
469,177,235379,1,10,2:0:0:0:
263,128,235558,2,0,P|250:174|245:221,1,95.9999970703126,2|8,1:2|2:0,2:0:0:0:
344,87,235915,1,6,1:2:0:0:
147,12,236094,6,0,P|103:32|57:46,1,95.9999970703126,8|0,2:0|1:2,2:0:0:0:
173,133,236451,1,10,2:0:0:0:
309,10,236629,1,0,1:2:0:0:
309,10,236719,1,0,1:0:0:0:
309,10,236808,2,0,P|296:57|291:104,1,95.9999970703126,8|2,2:0|2:0,2:0:0:0:
256,311,237165,1,12,2:0:0:0:
85,95,237522,6,0,P|72:141|67:188,1,88.000002685547,14|0,1:2|2:0,2:0:0:0:
179,244,237879,2,0,P|184:200|196:158,1,88.000002685547,10|0,2:0|2:0,2:0:0:0:
329,49,238237,5,2,1:2:0:0:
429,179,238415,1,0,1:2:0:0:
329,49,238594,1,10,2:0:0:0:
367,251,238772,5,0,2:0:0:0:
367,251,238862,1,0,1:2:0:0:
367,251,238951,2,0,P|323:245|281:233,1,88.000002685547,2|0,1:2|1:2,2:0:0:0:
162,164,239308,1,10,2:0:0:0:
108,299,239487,2,0,P|64:304|22:316,1,88.000002685547,2|0,2:0|2:0,2:0:0:0:
14,121,239844,5,2,1:2:0:0:
162,164,240022,1,10,2:0:0:0:
14,121,240201,1,2,1:2:0:0:
187,262,240379,6,0,L|283:245,1,88.000002685547,0|0,1:2|0:0,0:0:0:0:
451,223,240737,2,0,B|473:162|473:162|450:104|465:37,2,176.000005371094,10|2|10,2:0|1:2|2:0,2:0:0:0:
503,343,241629,5,0,0:0:0:0:
503,343,241719,1,0,1:0:0:0:
503,343,241808,2,0,P|435:283|331:308,1,176.000005371094,2|10,1:2|2:0,2:0:0:0:
192,200,242344,2,0,L|281:182,1,88.000002685547,10|0,2:0|2:0,2:0:0:0:
440,46,242701,2,0,L|423:135,1,88.000002685547,2|8,1:2|2:0,2:0:0:0:
361,257,243058,1,2,2:0:0:0:
232,79,243237,6,0,P|146:113|55:109,1,176.000005371094,0|10,1:2|2:0,2:0:0:0:
151,237,243772,1,0,2:0:0:0:
151,237,243862,1,0,1:2:0:0:
151,237,243951,2,0,P|156:193|169:151,1,88.000002685547,2|0,1:2|1:2,2:0:0:0:
331,45,244308,2,0,P|318:86|312:130,1,88.000002685547,10|0,2:0|2:0,2:0:0:0:
370,265,244665,6,0,P|454:195|540:226,1,176.000005371094,2|10,1:2|2:0,2:0:0:0:
411,366,245201,2,0,P|367:360|325:346,1,88.000002685547,2|0,2:0|2:0,2:0:0:0:
197,201,245558,1,2,1:2:0:0:
235,384,245737,1,10,2:0:0:0:
197,201,245915,1,2,1:2:0:0:
39,311,246094,6,0,B|134:338|114:271|209:298,1,176.000005371094,12|10,2:0|2:0,2:0:0:0:
421,158,246629,2,0,P|379:171|335:177,1,88.000002685547,2|12,2:0|2:0,2:0:0:0:
267,371,246987,1,2,1:2:0:0:
267,371,247165,1,0,1:2:0:0:
512,285,247344,6,0,B|461:283|419:258|419:258|393:285|350:299,1,176.000005371094,14|2,2:0|1:2,2:0:0:0:
228,214,247879,1,10,2:0:0:0:
399,135,248058,1,2,1:2:0:0:
258,18,248237,2,0,P|263:61|276:103,1,88.000002685547,12|0,2:0|1:2,2:0:0:0:
276,103,248504,1,0,1:2:0:0:
276,103,248594,1,0,1:2:0:0:
121,231,248772,5,4,2:3:0:0:
121,231,248862,1,0,1:0:0:0:
121,231,248951,2,0,B|111:177|80:139|80:139|93:93|137:84,1,176.000005371094,14|10,2:0|2:0,2:0:0:0:
192,282,249487,1,0,2:0:0:0:
331,212,249665,2,0,P|289:199|245:193,1,88.000002685547,2|0,1:2|1:2,2:0:0:0:
117,328,250022,1,10,2:0:0:0:
295,384,250201,5,0,2:0:0:0:
295,384,250290,1,0,1:2:0:0:
295,384,250379,2,0,P|306:296|332:212,1,176.000005371094,2|10,1:2|2:0,2:0:0:0:
405,95,250915,2,0,P|363:107|319:113,1,88.000002685547,2|0,2:0|2:0,2:0:0:0:
206,64,251272,1,2,1:2:0:0:
93,178,251451,1,10,2:0:0:0:
206,64,251629,1,2,1:2:0:0:
179,215,251808,6,0,P|112:272|29:248,2,176.000005371094,0|10|2,1:2|2:0|1:2,2:0:0:0:
348,267,252701,1,0,1:2:0:0:
236,384,252879,2,0,P|241:340|253:298,1,88.000002685547,10|0,2:0|2:0,2:0:0:0:
428,192,253237,6,0,P|361:135|269:154,1,176.000005371094,2|8,1:2|2:0,2:0:0:0:
183,243,253772,1,2,1:2:0:0:
183,243,253862,1,0,1:0:0:0:
183,243,253951,1,0,1:0:0:0:
279,146,254129,2,0,P|235:140|193:128,1,88.000002685547,2|10,1:2|2:0,2:0:0:0:
50,176,254487,1,2,2:0:0:0:
87,0,254665,6,0,P|103:42|104:98,1,95.9999970703126,12|0,2:0|1:2,2:0:0:0:
22,250,255022,2,0,P|82:217|169:224,1,143.999995605469,10|0,2:0|2:0,2:0:0:0:
183,243,255379,2,0,P|167:285|166:341,1,95.9999970703126,10|2,2:0|1:2,2:0:0:0:
308,224,255737,1,8,2:0:0:0:
367,376,255915,5,0,1:2:0:0:
367,376,256004,1,0,1:0:0:0:
367,376,256094,2,0,P|438:355|482:299,1,143.999995605469,8|0,2:1|2:0,2:0:0:0:
506,272,256451,2,0,P|489:227|488:179,1,95.9999970703126,10|0,2:0|1:2,2:0:0:0:
343,52,256808,1,10,2:0:0:0:
390,225,256987,1,2,1:2:0:0:
343,52,257165,1,8,2:0:0:0:
504,97,257344,5,0,1:2:0:0:
504,97,257433,1,0,1:0:0:0:
504,97,257522,2,0,P|467:123|413:138,1,95.9999970703126,12|0,2:0|1:2,2:0:0:0:
231,75,257879,1,10,2:0:0:0:
308,224,258058,1,0,1:2:0:0:
343,52,258237,1,10,2:0:0:0:
222,180,258415,1,2,1:2:0:0:
400,265,258594,1,8,2:0:0:0:
199,367,258772,5,2,1:2:0:0:
199,367,258862,1,0,1:0:0:0:
199,367,258951,2,0,P|197:319|181:274,1,95.9999970703126,12|0,2:0|1:2,2:0:0:0:
250,94,259308,1,10,2:0:0:0:
81,209,259487,2,0,L|224:179,1,143.999995605469,2|0,1:2|2:0,2:0:0:0:
220,178,259844,5,2,1:2:0:0:
334,294,260022,1,8,2:0:0:0:
250,94,260201,1,0,1:2:0:0:
334,294,260379,6,0,P|313:336|311:385,1,95.9999970703126,12|0,2:0|1:2,2:0:0:0:
190,274,260737,2,0,P|118:276|54:308,1,143.999995605469,10|0,2:0|1:2,2:0:0:0:
29,291,261094,2,0,L|9:185,1,95.9999970703126,10|2,2:0|1:2,2:0:0:0:
74,58,261451,1,8,2:0:0:0:
220,178,261629,5,0,1:2:0:0:
220,178,261719,1,0,1:2:0:0:
220,178,261808,2,0,P|292:192|361:204,1,143.999995605469,4|0,1:2|2:0,2:0:0:0:
392,182,262165,2,0,P|413:140|415:91,1,95.9999970703126,10|0,2:0|1:2,2:0:0:0:
223,73,262522,1,10,2:0:0:0:
401,0,262701,1,2,1:2:0:0:
301,215,262879,1,8,2:0:0:0:
401,0,263058,1,0,1:2:0:0:
501,182,263237,6,0,P|453:186|410:205,1,95.9999970703126,12|0,2:0|1:2,2:0:0:0:
239,53,263594,2,0,P|312:51|374:18,1,143.999995605469,10|0,2:0|2:0,2:0:0:0:
401,0,263951,1,10,2:0:0:0:
315,156,264129,1,2,1:2:0:0:
315,156,264219,1,8,2:0:0:0:
315,156,264308,1,0,1:2:0:0:
512,261,264487,5,14,2:0:0:0:
200,350,266094,6,0,P|132:346|73:395,1,128,2|0,1:2|1:2,2:0:0:0:
50,283,266629,1,2,1:0:0:0:
50,283,266718,1,8,2:0:0:0:
50,283,266808,2,0,P|86:301|130:309,1,64,2|2,2:0|1:2,2:0:0:0:
18,190,267165,1,14,2:0:0:0:
18,190,267344,1,2,2:0:0:0:
157,59,267522,6,0,P|201:129|187:211,1,160,6|10,1:2|2:0,2:0:0:0:
277,83,268058,2,0,B|321:102|365:104,1,80,6|0,1:2|2:0,2:0:0:0:
423,186,268415,2,0,B|389:187|345:206,1,80,8|0,2:0|2:0,2:0:0:0:
264,327,268772,6,0,P|199:284|121:293,1,160,6|2,1:2|1:2,2:0:0:0:
22,384,269308,1,10,2:0:0:0:
5,226,269487,2,0,B|18:186|22:148,1,80,6|0,1:2|2:0,2:0:0:0:
120,293,269844,5,2,2:0:0:0:
95,186,270022,2,0,B|139:205|172:206,1,80,10|2,2:0|2:0,2:0:0:0:
199,210,270290,1,8,2:0:0:0:
199,210,270379,1,2,1:2:0:0:
276,91,270558,1,2,1:2:0:0:
361,213,270737,1,10,2:0:0:0:
485,109,270915,2,0,B|451:107|407:88,1,80,2|8,2:0|2:0,2:0:0:0:
279,175,271272,1,2,1:2:0:0:
279,175,271629,6,0,P|312:250|296:348,1,160,14|2,2:0|1:2,2:0:0:0:
435,189,272165,1,10,2:0:0:0:
391,362,272344,1,2,1:2:0:0:
512,300,272522,2,0,B|469:281|435:279,1,80,14|2,2:0|1:2,2:0:0:0:
356,140,272879,5,2,1:2:0:0:
356,140,272969,1,0,1:2:0:0:
356,140,273058,1,10,2:0:0:0:
356,140,273147,1,8,2:0:0:0:
356,140,273237,2,0,P|439:120|473:41,1,160,14|10,1:2|2:0,2:0:0:0:
292,0,273772,2,0,B|273:42|271:76,1,80,6|0,1:2|2:0,2:0:0:0:
172,166,274129,2,0,B|170:132|151:90,1,80,10|0,2:0|2:0,2:0:0:0:
29,317,274487,6,0,P|94:266|171:268,1,160,6|2,1:2|1:2,2:0:0:0:
310,171,275022,1,2,2:0:0:0:
374,352,275201,1,14,2:0:0:0:
442,228,275379,6,0,P|380:235|330:268,1,120,2|0,1:2|2:0,2:0:0:0:
318,287,275737,1,2,1:2:0:0:
175,176,275915,5,2,1:2:0:0:
175,176,276004,1,8,2:0:0:0:
175,176,276094,2,0,P|192:100|162:27,1,160,6|10,1:2|2:0,2:0:0:0:
18,137,276629,2,0,B|12:185|0:232,1,80,6|8,1:2|2:0,2:0:0:0:
42,306,276987,2,0,B|90:300|137:288,1,80,2|2,1:2|2:0,2:0:0:0:
295,268,277344,5,14,2:0:0:0:
295,268,277701,1,0,1:2:0:0:
316,165,277879,2,0,B|322:117|334:70,1,80,12|0,2:0|2:0,2:0:0:0:
423,23,278237,2,0,B|429:71|441:118,1,80,4|0,2:0|1:2,2:0:0:0:
512,218,278594,2,0,B|481:209|433:203,1,80,8|0,2:1|1:2,2:0:0:0:
352,278,278951,5,4,1:2:0:0:
352,278,279308,2,0,P|340:317|343:364,1,64,0|2,1:2|1:2,2:0:0:0:
243,278,279665,1,8,2:0:0:0:
181,372,279844,2,0,P|212:369|243:359,2,64,0|0|0,1:2|1:2|1:2,2:0:0:0:
21,293,280379,5,2,1:2:0:0:
87,384,280558,2,0,P|89:352|99:322,1,64,2|4,1:2|2:0,2:0:0:0:
66,216,280915,1,2,1:2:0:0:
163,273,281094,1,10,2:0:0:0:
163,273,281451,2,0,P|165:241|175:211,1,64,0|0,1:2|1:2,2:0:0:0:
234,119,281808,5,6,1:2:0:0:
234,119,282165,2,0,P|264:129|296:131,1,64,0|2,1:2|1:2,2:0:0:0:
378,61,282522,1,2,1:2:0:0:
448,162,282701,1,0,1:2:0:0:
378,61,282879,1,0,1:2:0:0:
512,0,283058,5,14,1:2:0:0:
