osu file format v14

[General]
AudioFilename: audio.mp3
AudioLeadIn: 0
PreviewTime: 67176
Countdown: 0
SampleSet: Soft
StackLeniency: 0.7
Mode: 0
LetterboxInBreaks: 0
WidescreenStoryboard: 1

[Editor]
DistanceSpacing: 1.4
BeatDivisor: 4
GridSize: 16
TimelineZoom: 1.29

[Metadata]
Title:Monobeno no Uta
TitleUnicode:ものべののうた
Artist:Hagumi Nishizawa
ArtistUnicode:西沢はぐみ
Creator:Kencho
Version:Kaedeka's Normal
Source:ものべの -happy end-
Tags:KaedekaShizuru Koiyuki Minakami Yuki Lose opening short ver eroge galgame visual novel 茂伸奇谈 茂伸奇談
BeatmapID:1528075
BeatmapSetID:723411

[Difficulty]
HPDrainRate:4
CircleSize:3
OverallDifficulty:4
ApproachRate:4
SliderMultiplier:1.2
SliderTickRate:1

[Events]
//Background and Video events
0,0,"BG1.jpg",0,0
Video,100,"optc.flv"
//Break Periods
//Storyboard Layer 0 (Background)
//Storyboard Layer 1 (Fail)
//Storyboard Layer 2 (Pass)
//Storyboard Layer 3 (Foreground)
//Storyboard Sound Samples

[TimingPoints]
2177,465.116279069767,4,2,1,70,1,0
2177,-100,4,2,1,70,0,0
4037,-100,4,2,1,75,0,0
4502,-100,4,2,1,80,0,0
4967,-100,4,2,1,85,0,0
5432,-100,4,2,1,90,0,0
5781,-100,4,2,1,5,0,0
5897,-100,4,2,1,75,0,0
17060,-100,4,2,1,80,0,0
18921,-100,4,2,1,85,0,0
20781,-100,4,2,1,70,0,0
50549,-100,4,2,1,75,0,0
57990,-100,4,2,1,75,0,0
59851,-100,4,2,1,80,0,0
66363,-100,4,2,1,85,0,0
66828,-100,4,2,1,90,0,0
67176,-100,4,2,1,5,0,0
67293,-100,4,2,1,80,0,1
81711,-100,4,2,1,80,0,0
82176,-100,4,2,1,80,0,1
94967,-100,4,2,1,90,0,1
95316,-100,4,2,1,5,0,1
95432,-100,4,2,1,90,0,1
95665,-100,4,2,1,90,0,0
96595,-100,4,2,1,60,0,0
96944,-100,4,2,1,5,0,0
97060,-100,4,2,1,75,0,0
99037,-100,4,2,1,5,0,0
99153,-100,4,2,1,90,0,0
100083,-100,4,2,1,80,0,0
100897,-100,4,2,1,40,0,0
104502,-100,4,2,1,10,0,0

[Colours]
Combo1 : 160,128,128
Combo2 : 255,128,192
Combo3 : 128,255,255
Combo4 : 128,255,128
Combo5 : 255,255,128
Combo6 : 255,128,94

[HitObjects]
369,145,2177,6,0,L|381:265,1,120,6|0,3:2|3:0,0:0:0:0:
227,334,3107,2,0,L|239:214,1,120,6|0,3:2|3:0,0:0:0:0:
257,48,4037,6,0,P|227:45|199:53,1,60,8|2,3:2|0:0,0:0:0:0:
122,19,4502,2,0,P|104:44|97:72,1,60,8|2,3:2|0:0,0:0:0:0:
29,122,4967,2,0,P|50:143|63:170,1,60,8|2,3:2|0:0,0:0:0:0:
71,254,5432,1,12,3:2:0:0:
228,194,5897,6,0,P|287:191|339:219,1,120,6|8,3:2|0:0,0:0:0:0:
423,364,6828,2,0,P|453:364|481:352,2,60,2|0|8,0:0|3:2|3:2,0:0:0:0:
437,282,7525,1,0,3:2:0:0:
437,282,7758,2,0,P|442:223|426:166,1,120,2|8,3:2|0:0,0:0:0:0:
323,32,8688,2,0,P|293:32|265:44,2,60,2|0|8,0:0|3:2|3:2,0:0:0:0:
309,114,9385,1,0,3:2:0:0:
309,114,9618,6,0,P|304:173|320:230,1,120,2|8,3:2|0:0,0:0:0:0:
426,362,10549,1,2,0:0:0:0:
265,313,11014,2,0,L|206:325,1,60,8|8,3:2|3:2,0:0:0:0:
129,357,11479,2,0,P|165:311|163:252,2,120,2|8|2,3:2|3:2|3:2,0:0:0:0:
56,206,12874,1,8,3:2:0:0:
146,64,13339,6,0,P|203:84|262:85,1,120,2|8,3:2|0:0,0:0:0:0:
413,11,14270,2,0,P|393:68|392:127,1,120,2|8,0:0|0:0,0:0:0:0:
466,278,15200,2,0,P|409:258|350:257,1,120,2|8,3:2|0:0,0:0:0:0:
273,290,15897,1,0,3:2:0:0:
273,290,16130,2,0,P|213:288|156:269,1,120,2|8,3:2|3:2,0:0:0:0:
158,101,17060,6,0,P|213:79|273:86,1,120,10|8,3:2|0:0,0:0:0:0:
341,134,17758,1,8,0:0:0:0:
341,134,17990,2,0,P|319:79|326:19,1,120,10|8,0:0|0:0,0:0:0:0:
489,57,18921,5,4,3:2:0:0:
300,222,19618,1,4,3:2:0:0:
300,222,19851,2,0,L|241:213,1,60,2|2,3:2|0:0,0:0:0:0:
158,199,20316,1,10,3:2:0:0:
283,311,20781,6,0,P|342:302|382:260,1,120,6|8,3:2|0:0,0:0:0:0:
305,111,21711,2,0,P|283:167|299:223,1,120,2|8,0:0|0:0,0:0:0:0:
468,231,22642,2,0,P|430:185|374:171,1,120,2|8,3:2|0:0,0:0:0:0:
283,311,23572,1,2,0:0:0:0:
265,144,24037,1,8,0:0:0:0:
173,284,24502,6,0,P|119:306|59:305,1,120,2|8,3:2|0:0,0:0:0:0:
28,139,25432,2,0,P|82:117|142:118,1,120,2|8,0:0|0:0,0:0:0:0:
298,181,26363,2,0,P|317:124|304:67,2,120,2|8|2,3:2|0:0|0:0,0:0:0:0:
166,284,27758,1,8,0:0:0:0:
143,118,28223,6,0,P|89:140|29:139,1,120,2|8,3:2|0:0,0:0:0:0:
51,305,29153,2,0,P|105:283|165:284,1,120,2|8,0:0|0:0,0:0:0:0:
321,347,30083,2,0,P|340:290|327:233,1,120,2|8,3:2|0:0,0:0:0:0:
202,120,31014,1,2,0:0:0:0:
166,284,31479,1,8,0:0:0:0:
41,171,31944,6,0,L|53:51,1,120,2|8,3:2|0:0,0:0:0:0:
214,0,32874,2,0,L|202:120,1,120,2|8,0:0|0:0,0:0:0:0:
141,179,33572,1,8,3:2:0:0:
141,179,33804,2,0,P|198:167|253:190,1,120,2|8,3:2|0:0,0:0:0:0:
296,263,34502,1,0,3:2:0:0:
296,263,34735,2,0,P|288:292|289:322,2,60,2|0|8,0:0|3:2|0:0,0:0:0:0:
378,117,35665,6,0,P|432:141|490:129,1,120,6|8,3:2|0:0,0:0:0:0:
361,21,36595,2,0,L|301:30,2,60,2|0|8,0:0|3:2|0:0,0:0:0:0:
247,145,37525,2,0,L|127:127,2,120,2|8|2,3:2|0:0|0:0,0:0:0:0:
332,290,38921,1,8,0:0:0:0:
186,373,39386,6,0,P|162:319|167:259,1,120,2|8,3:2|0:0,0:0:0:0:
313,176,40316,2,0,P|336:231|331:291,1,120,2|8,0:0|0:0,0:0:0:0:
186,373,41246,1,2,3:2:0:0:
33,303,41711,2,0,L|44:244,1,60,8|0,0:0|3:2,0:0:0:0:
125,220,42176,2,0,P|148:166|143:106,1,120,2|8,0:0|0:0,0:0:0:0:
13,0,43107,5,2,3:2:0:0:
178,28,43572,2,0,B|214:31|214:31|293:2,2,120,8|2|8,0:0|0:0|0:0,0:0:0:0:
67,154,44967,2,0,P|43:209|48:269,1,120,2|8,3:2|0:0,0:0:0:0:
195,350,45897,2,0,P|218:296|213:236,1,120,2|8,0:0|0:0,0:0:0:0:
131,90,46828,6,0,P|189:99|243:73,1,120,2|8,3:2|0:0,0:0:0:0:
301,9,47525,1,8,3:2:0:0:
301,9,47758,2,0,P|359:0|413:26,1,120,2|8,0:0|0:0,0:0:0:0:
445,191,48688,2,0,P|387:200|333:174,1,120,2|8,3:2|0:0,0:0:0:0:
218,53,49618,2,0,L|99:72,1,120,2|8,0:0|0:0,0:0:0:0:
182,219,50549,6,0,P|194:193|194:163,2,60,6|2|8,3:2|0:3|0:0,0:0:0:0:
40,309,51479,2,0,P|16:257|16:196,1,120,2|8,0:0|0:0,0:0:0:0:
91,45,52409,1,2,3:2:0:0:
245,111,52874,2,0,L|304:103,1,60,8|2,0:0|0:3,0:0:0:0:
379,63,53339,2,0,P|348:115|351:174,1,120,2|8,0:0|3:2,0:0:0:0:
422,325,54270,6,0,P|451:328|480:318,2,60,2|2|8,3:2|0:3|0:0,0:0:0:0:
277,241,55200,2,0,P|217:237|161:254,1,120,2|8,0:0|0:0,0:0:0:0:
31,362,56130,1,2,3:2:0:0:
80,202,56595,2,0,P|87:173|85:144,1,60,8|2,0:0|0:3,0:0:0:0:
32,78,57060,2,0,P|88:97|147:88,1,120,2|8,0:0|3:2,0:0:0:0:
303,26,57990,5,2,3:2:0:0:
244,184,58456,2,0,P|237:213|239:242,1,60,8|2,0:0|0:3,0:0:0:0:
300,301,58921,2,0,P|307:330|305:359,2,60,2|2|8,0:0|0:3|0:0,0:0:0:0:
156,214,59851,6,0,P|96:210|48:242,1,120,10|2,3:2|0:0,0:0:0:0:
50,74,60781,2,0,P|99:107|158:103,1,120,10|2,0:0|3:2,0:0:0:0:
312,34,61711,5,6,3:2:0:0:
200,350,62642,1,6,0:0:0:0:
19,67,63572,6,0,P|47:59|77:62,1,60,6|0,3:2|3:2,0:0:0:0:
129,127,64037,2,0,P|157:136|187:133,1,60,8|2,0:0|3:3,0:0:0:0:
254,83,64502,2,0,L|314:89,1,60,2|0,0:0|3:2,0:0:0:0:
369,152,64967,2,0,L|429:146,1,60,8|2,3:2|3:3,0:0:0:0:
490,303,65665,6,0,P|488:333|474:360,2,60,2|2|0,3:2|3:2|3:2,0:0:0:0:
430,244,66363,2,0,P|400:245|373:258,1,60,2|2,3:2|0:0,0:0:0:0:
351,340,66828,1,2,3:2:0:0:
226,228,67293,6,0,L|241:109,1,120,6|8,3:2|0:0,0:0:0:0:
382,18,68223,2,0,L|397:137,1,120,2|8,0:0|0:0,0:0:0:0:
418,304,69153,1,2,3:2:0:0:
263,239,69618,2,0,P|233:236|204:243,1,60,8|0,0:0|3:2,0:0:0:0:
130,285,70083,2,0,P|158:232|151:173,2,120,2|8|2,0:0|0:0|3:2,0:0:0:0:
56,326,71246,6,0,P|46:298|47:268,2,60,0|8|0,3:2|0:0|3:2,0:0:0:0:
128,370,71944,2,0,L|247:358,1,120,2|8,0:0|0:0,0:0:0:0:
362,235,72874,2,0,L|481:247,2,120,2|8|2,3:2|3:2|3:2,0:0:0:0:
305,297,74037,1,0,3:2:0:0:
247,358,74270,2,0,L|187:351,1,60,8|4,3:2|3:3,0:0:0:0:
110,384,74735,6,0,P|144:336|146:273,1,120,2|8,3:2|3:2,0:0:0:0:
113,200,75432,1,0,3:2:0:0:
59,135,75665,2,0,L|178:148,1,120,2|8,3:2|0:0,0:0:0:0:
241,204,76363,1,0,3:2:0:0:
303,148,76595,2,0,L|422:136,1,120,2|8,3:2|3:2,0:0:0:0:
506,127,77293,1,0,3:2:0:0:
473,204,77525,2,0,P|463:262|483:318,2,120,2|8|2,3:2|0:0|3:2,0:0:0:0:
506,127,78688,6,0,P|498:97|479:75,2,60,0|8|0,3:2|0:0|3:2,0:0:0:0:
423,136,79386,2,0,P|385:182|374:240,1,120,2|8,0:0|3:2,0:0:0:0:
385,323,80083,1,8,3:2:0:0:
307,291,80316,2,0,B|266:285|266:285|190:304,1,120,2|8,3:2|0:0,0:0:0:0:
108,327,81014,1,0,3:2:0:0:
69,253,81246,2,0,P|59:195|79:139,1,120,2|8,0:0|0:0,0:0:0:0:
205,28,82176,6,0,P|257:59|316:57,1,120,6|8,3:2|0:0,0:0:0:0:
475,6,83107,2,0,P|444:58|446:117,1,120,2|8,0:0|0:0,0:0:0:0:
489,279,84037,1,2,3:2:0:0:
358,174,84502,2,0,P|328:171|301:180,1,60,8|0,0:0|3:2,0:0:0:0:
231,230,84967,2,0,B|215:194|215:194|226:115,2,120,2|8|2,0:0|0:0|3:2,0:0:0:0:
290,290,86130,6,0,L|349:285,2,60,0|8|0,3:2|0:0|3:2,0:0:0:0:
224,342,86828,2,0,P|164:336|108:352,1,120,2|8,0:0|0:0,0:0:0:0:
60,192,87758,2,0,P|117:209|176:203,2,120,2|8|2,3:2|3:2|3:2,0:0:0:0:
2,131,88921,1,0,3:2:0:0:
44,58,89153,2,0,L|103:63,1,60,8|4,3:2|3:3,0:0:0:0:
176,21,89618,6,0,P|231:45|290:38,1,120,2|8,3:2|3:2,0:0:0:0:
363,0,90316,1,0,3:2:0:0:
426,56,90549,2,0,P|450:111|443:170,1,120,2|8,3:2|0:0,0:0:0:0:
389,234,91246,1,0,3:2:0:0:
311,201,91479,2,0,L|252:208,1,60,2|0,3:2|3:2,0:0:0:0:
195,272,91944,2,0,L|136:265,1,60,8|0,3:2|3:2,0:0:0:0:
82,200,92409,2,0,P|88:259|64:314,2,120,2|8|2,3:2|0:0|3:2,0:0:0:0:
25,138,93572,6,0,P|23:110|33:80,2,60,0|8|0,3:2|0:0|3:2,0:0:0:0:
107,120,94270,2,0,L|166:127,1,60,2|0,0:0|3:2,0:0:0:0:
235,176,94735,1,8,0:0:0:0:
303,127,94967,6,0,B|362:121|362:121|413:153,1,120,4|0,3:2|3:2,0:0:0:0:
454,227,95665,1,4,0:0:0:0:
123,288,96595,1,8,0:0:0:0:
186,133,97060,6,0,B|196:94|196:94|188:16,2,120,6|8|2,3:2|0:0|0:0,0:0:0:0:
123,288,98456,2,0,L|182:282,1,60,8|4,0:0|3:3,0:0:0:0:
333,210,99153,2,0,L|392:216,2,60,8|8|8,0:0|0:0|0:0,0:0:0:0:
249,201,99851,5,14,0:0:0:0:
384,300,100316,1,12,0:0:0:0:
402,132,100781,1,6,0:0:0:0:
256,192,100897,12,0,104502,0:0:0:0:
