osu file format v14

[General]
AudioFilename: audio.mp3
AudioLeadIn: 0
PreviewTime: -1
Countdown: 1
SampleSet: Soft
StackLeniency: 0.7
Mode: 0
LetterboxInBreaks: 0
WidescreenStoryboard: 0

[Editor]
Bookmarks: 70883,75689,80203,84863,89524,94329,98844,101174,102485,103650,113990,115446,117703
DistanceSpacing: 1.2
BeatDivisor: 4
GridSize: 4
TimelineZoom: 1

[Metadata]
Title:Bi ni Iri Sai wo Ugatsu
TitleUnicode:美に入り彩を穿つ
Artist:Hagoromo Komachi
ArtistUnicode:羽衣小町
Creator:Bara-
Version:Beauty
Source:
Tags:
BeatmapID:1530125
BeatmapSetID:724633

[Difficulty]
HPDrainRate:6
CircleSize:4.2
OverallDifficulty:8.2
ApproachRate:9.5
SliderMultiplier:2
SliderTickRate:1

[Events]
//Background and Video events
0,0,"100488.png",0,0
//Break Periods
//Storyboard Layer 0 (Background)
//Storyboard Layer 1 (Fail)
//Storyboard Layer 2 (Pass)
//Storyboard Layer 3 (Foreground)
//Storyboard Sound Samples

[TimingPoints]
3456,291.26213592233,4,2,1,40,1,0
4475,-133.333333333333,4,2,1,40,0,0
4621.24299622944,291.26213592233,4,2,1,60,1,0
4622,-133.333333333333,4,2,1,60,0,0
13796,-100,4,2,1,70,0,0
24427,-133.333333333333,4,2,1,60,0,0
28941,-100,4,2,1,70,0,0
29087,-66.6666666666667,4,2,1,70,0,0
33747,-133.333333333333,4,2,1,60,0,0
42485,-66.6666666666667,4,2,1,80,0,0
42922,-100,4,2,1,70,0,0
52388,-200,4,2,1,40,0,0
61708,-133.333333333333,4,2,1,60,0,0
64038,-100,4,2,1,60,0,0
66150,-100,4,2,1,10,0,0
66223,-90.9090909090909,4,1,1,70,0,1
84427,-76.9230769230769,4,2,1,80,0,0
84863,-83.3333333333333,4,1,1,70,0,1
98844,-76.9230769230769,4,1,1,80,0,1
99427,-71.4285714285714,4,1,1,80,0,1
100009,-66.6666666666667,4,1,1,80,0,1
100592,-62.5,4,1,1,80,0,1
101174,-58.8235294117647,4,1,1,80,0,1
105980,-83.3333333333333,4,2,1,60,0,0
115155,-66.6666666666667,4,2,1,60,0,0
117630,-133.333333333333,4,2,1,30,0,0
119032,-133.333333333333,4,2,1,10,0,0
121053,-133.333333333333,4,2,1,5,0,0

[Colours]
Combo1 : 255,0,128
Combo2 : 255,0,0
Combo3 : 0,0,255
Combo4 : 128,0,255

[HitObjects]
108,95,3601,6,0,B|92:80|86:49|86:49|113:118|94:198|40:208|20:178|17:155|93:159,1,250,0|0,0:0|3:0,0:0:0:0:
112,177,4038,5,8,0:0:0:0:
128,176,4110,1,8,0:0:0:0:
145,175,4183,1,8,0:0:0:0:
161,174,4256,1,8,0:0:0:0:
178,174,4329,1,8,0:0:0:0:
195,173,4402,1,8,0:0:0:0:
211,172,4475,6,0,P|203:109|279:38,1,150.000005722046,12|0,0:0|0:0,0:0:0:0:
329,34,4912,2,0,L|415:31,1,75.0000028610231
364,124,5203,2,0,L|278:121,2,75.0000028610231
432,207,5640,6,0,L|268:201,1,150.000005722046,4|0,0:0|0:0,0:0:0:0:
218,241,6077,2,0,P|203:285|206:328,1,75.0000028610231
164,185,6368,2,0,P|149:141|152:98,2,75.0000028610231
220,80,6805,6,0,P|186:46|85:69,1,150.000005722046,4|0,0:0|0:0,0:0:0:0:
75,133,7242,2,0,L|79:219,1,75.0000028610231
146,239,7533,2,0,L|142:325,2,75.0000028610231
70,341,7970,6,0,P|142:325|215:339,1,150.000005722046,4|0,0:0|0:0,0:0:0:0:
251,272,8408,2,0,P|286:283|323:288,1,75.0000028610231
453,167,8698,5,8,0:0:0:0:
337,291,8844,1,8,0:0:0:0:
497,238,9135,6,0,B|505:183|505:183|489:154|489:154|509:117|485:68,1,150.000005722046,12|0,0:0|0:0,0:0:0:0:
427,45,9572,1,0,0:0:0:0:
427,45,9718,1,0,0:0:0:0:
354,82,9863,1,0,0:0:0:0:
354,82,10009,1,0,0:0:0:0:
285,35,10155,1,0,0:0:0:0:
285,35,10300,6,0,B|164:30|164:30|192:67,1,150.000005722046,12|0,0:0|0:0,0:0:0:0:
223,127,10737,1,0,0:0:0:0:
223,127,10883,1,0,0:0:0:0:
171,193,11029,1,0,0:0:0:0:
171,193,11174,1,0,0:0:0:0:
223,260,11320,1,0,0:0:0:0:
223,260,11465,6,0,B|290:231|284:278|379:251,1,150.000005722046,12|0,0:0|0:0,0:0:0:0:
429,185,11902,1,0,0:0:0:0:
429,185,12048,1,0,0:0:0:0:
369,117,12194,1,0,0:0:0:0:
369,117,12339,1,0,0:0:0:0:
432,53,12485,1,0,0:0:0:0:
432,53,12630,6,0,P|361:75|276:57,1,150.000005722046,12|0,0:0|0:0,0:0:0:0:
203,93,13067,1,8,0:0:0:0:
204,111,13139,1,8,0:0:0:0:
205,130,13212,1,8,0:0:0:0:
206,149,13285,1,8,0:0:0:0:
207,167,13358,1,8,0:0:0:0:
121,246,13504,1,8,0:0:0:0:
122,227,13577,1,8,0:0:0:0:
123,208,13650,1,8,0:0:0:0:
238,326,13796,6,0,B|307:348|394:318|394:318|349:297,1,200
121,246,14232,1,8,0:0:0:0:
366,284,14378,1,0,0:0:0:0:
108,228,14524,1,0,0:0:0:0:
377,269,14670,1,0,0:0:0:0:
93,207,14815,1,8,0:0:0:0:
389,251,14961,6,0,P|429:248|473:106,1,200,4|0,0:0|0:0,0:0:0:0:
256,37,15397,1,8,0:0:0:0:
401,160,15543,1,0,0:0:0:0:
210,43,15689,1,0,0:0:0:0:
395,206,15834,1,0,0:0:0:0:
165,49,15980,1,8,0:0:0:0:
389,251,16126,6,4,B|373:290|373:290|318:285|318:285|312:333|262:373,1,200,4|0,0:0|0:0,0:0:0:0:
49,349,16562,1,8,0:0:0:0:
200,268,16708,1,0,0:0:0:0:
49,187,16854,1,0,0:0:0:0:
200,106,17000,1,0,0:0:0:0:
49,25,17145,1,8,0:0:0:0:
200,268,17291,6,0,B|240:308|240:308|323:280|323:280|365:322,1,200,4|0,0:0|0:0,0:0:0:0:
464,230,17728,2,0,P|481:191|472:116,1,100,8|0,0:0|0:0,0:0:0:0:
184,10,18019,2,0,P|180:59|199:105,1,100
362,319,18310,1,8,0:0:0:0:
288,44,18456,6,0,L|74:66,1,200,12|0,0:0|0:0,0:0:0:0:
72,82,18820,1,0,0:0:0:0:
59,103,18893,2,0,P|52:142|61:211,1,100,8|0,0:0|0:0,0:0:0:0:
218,271,19184,1,0,0:0:0:0:
65,291,19329,1,0,0:0:0:0:
171,209,19475,1,8,0:0:0:0:
111,352,19621,6,0,P|179:324|321:341,1,200,4|0,0:0|0:0,0:0:0:0:
315,341,19985,1,0,0:0:0:0:
324,349,20058,1,8,0:0:0:0:
419,206,20203,1,0,0:0:0:0:
366,363,20349,1,0,0:0:0:0:
376,191,20494,1,0,0:0:0:0:
409,354,20640,1,8,0:0:0:0:
333,200,20786,6,0,P|330:137|435:49,1,200,4|0,0:0|0:0,0:0:0:0:
439,53,21150,1,0,0:0:0:0:
454,57,21223,2,0,P|465:109|456:161,1,100,8|0,0:0|0:0,0:0:0:0:
325,288,21514,1,0,0:0:0:0:
472,239,21660,1,0,0:0:0:0:
329,228,21805,1,8,0:0:0:0:
467,298,21951,6,0,B|364:313|364:313|261:346,1,200,4|0,0:0|0:0,0:0:0:0:
266,345,22315,1,0,0:0:0:0:
261,349,22388,2,0,P|261:291|235:251,1,100,8|0,0:0|0:0,0:0:0:0:
99,178,22679,1,0,0:0:0:0:
224,119,22825,1,0,0:0:0:0:
115,200,22970,1,8,0:0:0:0:
207,96,23116,6,0,L|308:95,1,100,4|0,0:0|0:0,0:0:0:0:
386,173,23407,5,12,0:3:0:0:
115,200,23553,1,12,0:3:0:0:
408,227,23698,1,12,0:3:0:0:
93,254,23845,1,12,0:3:0:0:
430,281,23990,1,12,0:3:0:0:
70,307,24135,1,12,0:3:0:0:
453,334,24282,1,12,0:3:0:0:
48,361,24427,5,12,0:0:0:0:
139,316,24572,1,0,0:0:0:0:
94,225,24718,1,8,0:0:0:0:
3,270,24863,2,0,P|33:223|24:132,1,150.000005722046
94,42,25300,1,8,0:0:0:0:
94,42,25445,6,0,L|177:47,1,75.0000028610231,4|0,0:0|0:0,0:0:0:0:
369,98,25738,1,0,0:0:0:0:
369,98,25884,2,0,L|286:103,1,75.0000028610231,8|0,0:0|0:0,0:0:0:0:
185,184,26174,2,0,P|179:239|197:275,1,75.0000028610231
268,320,26465,2,0,L|388:309,1,112.500004291535,8|0,0:0|2:0,0:0:0:0:
400,313,26757,6,0,P|379:266|412:164,1,150.000005722046,4|8,0:0|0:0,0:0:0:0:
307,101,27194,2,0,L|222:79,1,75.0000028610231
112,202,27485,2,0,L|197:180,1,75.0000028610231,0|8,0:0|0:0,0:0:0:0:
40,282,27776,6,0,P|49:232|44:118,1,150.000005722046,4|0,0:0|0:0,0:0:0:0:
87,37,28213,2,0,L|166:40,1,75.0000028610231,8|0,0:0|0:0,0:0:0:0:
243,117,28505,2,0,L|322:114,1,75.0000028610231
397,51,28796,1,8,0:0:0:0:
430,191,28941,1,0,0:0:0:0:
430,191,29014,1,0,0:0:0:0:
430,191,29087,5,12,0:3:0:0:
397,51,29232,1,12,0:3:0:0:
210,257,29378,5,12,0:3:0:0:
243,117,29523,1,12,0:3:0:0:
441,194,29670,5,12,0:3:0:0:
404,40,29815,1,12,0:3:0:0:
199,267,29961,5,12,0:3:0:0:
235,113,30107,1,12,0:0:0:0:
226,109,30397,1,12,0:3:0:0:
186,278,30542,5,12,0:3:0:0:
413,29,30688,1,12,0:3:0:0:
453,198,30835,5,12,0:3:0:0:
217,104,30980,1,12,0:3:0:0:
173,291,31125,5,12,0:3:0:0:
422,16,31271,1,12,0:3:0:0:
466,203,31417,6,0,P|465:287|455:364,1,150.000005722046,12|0,0:0|0:0,0:0:0:0:
173,291,31709,2,0,P|174:207|184:130,1,150.000005722046,8|0,0:0|0:0,0:0:0:0:
337,51,31999,1,0,0:0:0:0:
175,51,32145,1,0,0:0:0:0:
404,117,32291,1,8,0:0:0:0:
81,78,32436,5,4,0:0:0:0:
142,145,32728,5,0,0:0:0:0:
142,145,32800,1,0,0:0:0:0:
142,145,32873,2,0,P|148:185|150:232,1,75.0000028610231,8|0,0:0|0:0,0:0:0:0:
235,251,33019,2,0,P|229:291|227:338,1,75.0000028610231,8|0,0:0|0:0,0:0:0:0:
304,372,33164,5,8,0:0:0:0:
340,362,33236,1,8,0:0:0:0:
376,353,33309,1,8,0:0:0:0:
413,344,33382,1,8,0:0:0:0:
449,335,33456,2,8,P|454:294|443:254,1,75.0000028610231
379,202,33601,2,8,P|374:160|385:120,1,75.0000028610231
448,58,33747,5,4,0:0:0:0:
292,91,33893,1,0,0:0:0:0:
448,58,34039,1,8,0:0:0:0:
292,91,34184,2,0,L|135:77,1,150.000005722046
71,176,34621,1,8,0:0:0:0:
71,176,34766,6,0,L|165:167,1,75.0000028610231,4|0,0:0|0:0,0:0:0:0:
260,278,35058,1,0,0:0:0:0:
260,278,35204,2,0,L|165:269,1,75.0000028610231,8|0,0:0|0:0,0:0:0:0:
338,337,35495,2,0,P|354:300|348:240,1,75.0000028610231
328,141,35786,2,0,P|365:155|430:118,1,112.500004291535,8|0,0:0|0:0,0:0:0:0:
443,89,36077,6,0,P|441:144|470:237,1,150.000005722046,4|8,0:0|0:0,0:0:0:0:
403,328,36514,1,0,0:0:0:0:
314,280,36660,2,0,P|273:280|231:288,1,75.0000028610231
137,352,36951,1,8,0:0:0:0:
137,352,37096,6,0,P|96:352|54:344,1,75.0000028610231,4|0,0:0|0:0,0:0:0:0:
20,268,37388,1,0,0:0:0:0:
33,173,37533,2,0,L|41:126,1,37.5000014305115,8|0,0:0|0:0,0:0:0:0:
23,23,37679,2,0,L|33:179,1,150.000005722046
126,233,38116,1,8,0:0:0:0:
126,233,38189,1,8,0:0:0:0:
126,233,38262,1,8,0:0:0:0:
126,233,38334,1,8,0:0:0:0:
126,233,38407,6,0,B|194:264|206:208|274:235,1,150.000005722046,12|8,0:0|0:0,0:0:0:0:
346,285,38844,2,0,P|351:313|344:362,1,75.0000028610231
271,234,39135,2,0,P|264:197|270:160,1,75.0000028610231,0|8,0:0|0:0,0:0:0:0:
334,62,39427,6,0,P|287:91|189:81,1,150.000005722046,4|0,0:0|0:0,0:0:0:0:
105,38,39863,2,0,P|61:44|28:63,1,75.0000028610231,8|0,0:0|0:0,0:0:0:0:
54,260,40155,2,0,P|86:199|88:115,1,150.000005722046,0|8,0:0|0:0,0:0:0:0:
7,318,40592,6,0,P|54:282|154:288,1,150.000005722046,4|0,0:0|0:0,0:0:0:0:
232,320,41029,2,0,L|325:310,1,75.0000028610231,8|0,0:0|0:0,0:0:0:0:
379,217,41320,2,0,L|472:227,1,75.0000028610231
187,238,41611,2,0,L|280:228,1,75.0000028610231,8|0,0:0|0:0,0:0:0:0:
334,135,41902,2,0,L|427:145,1,75.0000028610231
142,156,42194,2,0,L|235:146,1,75.0000028610231,8|0,0:0|0:0,0:0:0:0:
289,53,42485,5,12,0:0:0:0:
223,331,42630,1,12,0:0:0:0:
286,269,42922,6,0,P|247:248|135:339,1,200,4|0,0:0|0:0,0:0:0:0:
339,337,43359,2,0,L|367:119,1,200,8|0,0:0|0:0,0:0:0:0:
241,33,43796,2,0,P|230:82|247:129,1,100,0|8,0:0|0:0,0:0:0:0:
435,57,44087,6,0,P|322:59|223:24,1,200,4|0,0:0|0:0,0:0:0:0:
85,78,44524,2,0,P|55:126|52:180,1,100,8|0,0:0|0:0,0:0:0:0:
242,305,44815,2,0,P|235:255|207:214,1,100
53,237,45106,1,8,0:0:0:0:
253,320,45252,6,0,L|358:312,1,100,4|0,0:0|0:0,0:0:0:0:
393,215,45543,2,0,L|294:223,1,100,0|8,0:0|0:0,0:0:0:0:
335,126,45834,2,0,L|440:118,1,100
475,21,46126,2,0,L|376:29,1,100,0|8,0:0|0:0,0:0:0:0:
242,195,46417,6,0,P|280:136|116:100,1,300,4|8,0:0|0:0,0:0:0:0:
126,78,47145,1,12,0:0:0:0:
177,354,47291,1,12,0:0:0:0:
190,338,47582,6,0,P|241:324|395:348,1,200,4|0,0:0|0:0,0:0:0:0:
476,221,48019,2,0,P|501:158|495:87,1,100,8|0,0:0|0:0,0:0:0:0:
324,44,48310,2,0,P|329:93|350:138,1,100
476,221,48601,1,8,0:0:0:0:
403,29,48748,6,0,L|188:39,1,200,4|0,0:0|0:0,0:0:0:0:
114,125,49184,1,8,0:0:0:0:
85,228,49329,1,0,0:0:0:0:
231,331,49476,1,0,0:0:0:0:
202,228,49622,1,0,0:0:0:0:
56,331,49766,1,8,0:0:0:0:
288,280,49912,6,0,P|352:288|416:300,1,100,4|0,0:0|0:0,0:0:0:0:
458,158,50204,2,0,P|394:166|330:178,1,100,0|8,0:0|0:0,0:0:0:0:
231,331,50495,2,0,P|264:243|225:98,1,200
131,57,50931,1,8,0:0:0:0:
131,57,51077,5,4,0:0:0:0:
131,57,51368,5,8,0:0:0:0:
131,57,51441,1,8,0:0:0:0:
131,57,51514,1,8,0:0:0:0:
78,202,51660,1,8,0:0:0:0:
75,193,51732,1,8,0:0:0:0:
72,184,51805,1,8,0:0:0:0:
118,201,51877,1,8,0:0:0:0:
168,201,51950,1,8,0:0:0:0:
215,184,52023,1,8,0:0:0:0:
253,153,52096,1,8,0:0:0:0:
292,121,52170,1,8,0:0:0:0:
339,105,52243,1,8,0:0:0:0:
389,105,52316,1,8,0:0:0:0:
436,122,52388,6,0,L|434:162,1,25
419,173,52534,2,0,L|421:213,1,25
409,226,52679,2,0,L|411:266,1,25
426,277,52825,2,0,L|424:317,1,25
406,325,52970,2,0,P|353:315|299:329,1,100
267,368,53407,1,0,0:0:0:0:
149,337,53553,5,0,0:0:0:0:
166,286,53698,1,0,0:0:0:0:
176,233,53844,1,0,0:0:0:0:
159,182,53990,1,0,0:0:0:0:
178,133,54135,2,0,P|227:143|276:134,1,100
276,134,54718,6,0,L|236:132,1,25
225,117,54864,2,0,L|185:119,1,25
172,107,55009,2,0,L|132:109,1,25
121,124,55155,2,0,L|81:122,1,25
73,104,55300,2,0,P|78:68|73:42,1,50
38,218,55592,2,0,P|33:182|38:156,1,50
101,278,55883,5,0,0:0:0:0:
101,278,56029,1,0,0:0:0:0:
101,278,56174,1,0,0:0:0:0:
101,278,56319,2,0,B|139:266|179:271|179:271|157:284,1,100
147,340,56757,2,0,P|150:367|170:381,1,50
308,345,57048,6,0,L|303:305,1,25
274,323,57194,2,0,L|279:283,1,25
306,305,57339,2,0,L|301:265,1,25
272,283,57485,2,0,L|277:243,1,25
304,265,57630,2,0,L|299:225,1,25
270,243,57776,2,0,L|275:203,1,25
302,225,57921,2,0,L|297:185,1,25
268,203,58067,2,0,L|273:163,1,25
301,149,58213,5,0,0:0:0:0:
293,116,58358,1,0,0:0:0:0:
275,89,58504,1,0,0:0:0:0:
247,71,58649,1,0,0:0:0:0:
215,64,58795,1,0,0:0:0:0:
182,70,58941,1,0,0:0:0:0:
154,89,59086,1,0,0:0:0:0:
256,192,59378,12,0,60980,0:0:0:0:
103,111,61126,5,12,0:0:0:0:
250,71,61271,1,0,0:0:0:0:
94,156,61417,5,12,0:0:0:0:
285,104,61562,1,0,0:0:0:0:
85,201,61708,6,0,P|76:256|145:348,1,150.000005722046,4|8,0:0|0:0,0:0:0:0:
223,307,62145,2,0,P|205:274|180:247,1,75.0000028610231,0|8,0:0|0:0,0:0:0:0:
93,155,62437,2,0,P|118:127|137:95,1,75.0000028610231,0|8,0:0|0:0,0:0:0:0:
43,44,62728,5,4,0:0:0:0:
256,192,62873,12,8,63747,0:0:0:0:
243,135,64038,5,0,3:0:0:0:
335,264,64184,1,0,3:0:0:0:
335,264,64257,1,0,3:0:0:0:
335,264,64329,1,0,3:0:0:0:
354,153,64475,1,0,3:0:0:0:
224,246,64621,1,0,3:0:0:0:
407,219,64766,1,0,3:0:0:0:
407,219,64839,1,0,3:0:0:0:
407,219,64912,1,0,3:0:0:0:
170,179,65058,5,12,0:0:0:0:
308,82,65349,5,12,3:0:0:0:
269,316,65495,1,12,3:0:0:0:
269,316,65786,6,0,P|246:306|221:302,1,50,0|0,1:0|0:0,0:0:0:0:
123,325,65931,2,0,P|197:336|269:316,1,150,0|0,1:0|0:0,0:0:0:0:
337,244,66223,6,0,B|354:135|354:135|331:4,1,220.000006713867,4|0,0:0|0:0,0:0:0:0:
158,135,66660,1,8,0:0:0:0:
354,135,66805,1,0,0:0:0:0:
177,26,66951,2,0,L|55:47,1,110.000003356934
19,131,67242,1,8,0:0:0:0:
184,239,67388,6,0,P|202:132|176:26,1,220.000006713867,4|0,0:0|0:0,0:0:0:0:
84,302,67825,2,0,P|123:342|186:361,1,110.000003356934,8|0,0:0|0:0,0:0:0:0:
374,215,68116,1,0,0:0:0:0:
184,239,68262,1,0,0:0:0:0:
446,350,68407,1,8,0:0:0:0:
256,326,68553,6,0,P|254:305|312:219,1,110.000003356934,4|0,0:0|0:0,0:0:0:0:
440,132,68845,2,0,P|473:174|477:228,1,110.000003356934,0|8,0:0|0:0,0:0:0:0:
364,346,69135,2,0,P|256:326|148:342,1,220.000006713867
8,220,69572,1,8,0:0:0:0:
292,180,69718,6,0,B|278:116|289:71|289:71|243:15|178:16,1,220.000006713867,4|0,0:0|0:0,0:0:0:0:
24,112,70155,2,0,P|8:165|8:220,1,110.000003356934,8|0,0:0|0:0,0:0:0:0:
196,317,70446,5,0,0:0:0:0:
346,281,70592,1,8,0:0:0:0:
136,245,70737,1,8,0:0:0:0:
406,209,70883,6,0,P|430:131|334:34,1,220.000006713867,4|0,0:0|0:0,0:0:0:0:
345,35,71247,1,0,0:0:0:0:
345,35,71320,1,8,0:0:0:0:
217,156,71465,1,0,0:0:0:0:
217,156,71538,1,0,0:0:0:0:
216,155,71611,2,0,P|268:139|323:140,1,110.000003356934
431,271,71902,1,8,0:0:0:0:
194,312,72048,6,0,P|206:241|182:80,1,220.000006713867,4|0,0:0|0:0,0:0:0:0:
91,282,72485,2,0,P|139:307|193:311,1,110.000003356934,8|0,0:0|0:0,0:0:0:0:
286,264,72703,1,0,0:0:0:0:
286,264,72777,2,0,P|334:238|388:234,1,110.000003356934
492,361,73067,1,8,0:0:0:0:
326,197,73213,6,0,P|321:134|444:28,1,220.000006713867
421,41,73577,1,0,0:0:0:0:
413,51,73650,2,0,P|341:71|265:60,1,110.000003356934,8|0,0:0|0:0,0:0:0:0:
64,54,73941,1,0,0:0:0:0:
206,126,74087,1,0,0:0:0:0:
110,14,74232,1,8,0:0:0:0:
159,165,74378,6,0,B|179:238|132:292|132:292|173:282|173:282|195:303|244:308,1,220.000006713867,4|0,0:0|0:0,0:0:0:0:
410,261,74815,1,8,0:0:0:0:
243,218,74961,1,0,0:0:0:0:
441,192,75106,1,0,0:0:0:0:
212,149,75252,1,8,0:0:0:0:
472,123,75397,1,8,0:0:0:0:
181,80,75543,1,0,0:0:0:0:
181,80,75616,1,0,0:0:0:0:
181,80,75689,6,0,L|32:79,1,110.000003356934,4|0,0:0|0:0,0:0:0:0:
441,192,75981,2,0,L|331:192,1,110.000003356934,8|0,0:0|0:0,0:0:0:0:
109,154,76271,2,0,L|-40:153,1,110.000003356934,4|0,0:0|0:0,0:0:0:0:
181,80,76562,1,8,0:0:0:0:
472,123,76708,6,0,L|362:123,1,110.000003356934
50,234,77000,2,0,L|159:234,1,110.000003356934,0|8,0:0|0:0,0:0:0:0:
180,79,77291,2,0,L|71:79,1,110.000003356934
352,285,77582,2,0,L|462:285,1,110.000003356934,8|8,0:0|0:0,0:0:0:0:
217,175,77873,1,0,0:0:0:0:
361,46,78019,5,4,0:0:0:0:
217,175,78164,1,0,0:0:0:0:
397,66,78310,1,8,0:0:0:0:
217,175,78456,1,0,0:0:0:0:
433,86,78601,1,0,0:0:0:0:
217,175,78747,1,0,0:0:0:0:
469,106,78893,1,8,0:0:0:0:
217,174,79038,6,0,P|198:226|211:278,1,110.000003356934,4|0,0:0|0:0,0:0:0:0:
417,342,79329,2,0,P|429:289|411:238,1,110.000003356934,0|8,0:0|0:0,0:0:0:0:
110,139,79621,2,0,P|190:162|292:54,1,220.000006713867,0|8,0:0|0:0,0:0:0:0:
287,80,79985,1,0,0:0:0:0:
287,80,80058,1,8,0:0:0:0:
172,259,80203,6,0,P|183:150|177:41,1,220.000006713867,4|0,0:0|0:0,0:0:0:0:
0,225,80640,2,0,P|60:206|116:210,1,110.000003356934,8|0,0:0|0:0,0:0:0:0:
294,329,80931,1,0,0:0:0:0:
294,329,81004,1,0,0:0:0:0:
294,329,81077,1,8,0:0:0:0:
130,324,81223,1,8,0:0:0:0:
328,206,81368,6,0,P|359:140|290:10,1,220.000006713867,4|0,0:0|0:0,0:0:0:0:
126,113,81805,1,8,0:0:0:0:
299,299,81951,2,0,L|433:275,1,110.000003356934
386,113,82242,1,8,0:0:0:0:
213,299,82388,2,0,L|79:275,1,110.000003356934,8|0,0:0|0:0,0:0:0:0:
107,72,82679,6,0,P|184:144|164:248,1,220.000006713867,4|8,0:0|0:0,0:0:0:0:
38,47,83116,2,0,P|102:34|145:0,1,110.000003356934
322,181,83407,2,0,P|258:168|215:134,1,110.000003356934,0|8,0:0|0:0,0:0:0:0:
38,47,83698,1,0,0:0:0:0:
397,125,83844,6,0,P|416:168|399:235,1,110.000003356934,4|0,0:0|0:0,0:0:0:0:
320,289,84062,1,0,0:0:0:0:
320,289,84135,2,0,L|249:280,1,55.0000016784668,8|0,0:0|0:0,0:0:0:0:
178,243,84281,2,0,L|107:252,1,55.0000016784668
39,191,84427,5,0,0:0:0:0:
45,178,84475,1,0,0:0:0:0:
49,164,84524,1,0,0:0:0:0:
51,149,84572,1,0,0:0:0:0:
51,135,84621,1,0,0:0:0:0:
48,121,84669,1,0,0:0:0:0:
43,107,84718,1,0,0:0:0:0:
39,191,84863,6,0,P|103:151|240:218,1,239.999992675781,4|0,0:0|0:0,0:0:0:0:
294,364,85300,1,8,0:0:0:0:
130,269,85447,1,0,0:0:0:0:
389,200,85592,1,0,0:0:0:0:
294,364,85738,1,0,0:0:0:0:
225,105,85883,1,8,0:0:0:0:
161,347,86029,6,0,P|90:341|88:197,1,239.999992675781,4|0,0:0|0:0,0:0:0:0:
225,105,86465,1,8,0:0:0:0:
130,269,86611,1,0,0:0:0:0:
273,36,86757,2,0,P|320:27|417:44,1,119.999996337891
486,190,87048,1,8,0:0:0:0:
130,269,87194,6,0,P|112:197|115:133,1,119.999996337891,4|0,0:0|0:0,0:0:0:0:
486,190,87485,2,0,P|484:249|468:307,1,119.999996337891,0|8,0:0|0:0,0:0:0:0:
65,337,87776,2,0,P|31:223|36:101,1,239.999992675781
203,20,88213,1,8,0:0:0:0:
336,152,88359,6,0,B|321:253|259:296|259:296|155:269,1,239.999992675781
284,85,88796,2,0,P|340:68|395:91,1,119.999996337891,8|0,0:0|0:0,0:0:0:0:
395,91,89014,1,0,0:0:0:0:
395,91,89087,1,0,0:0:0:0:
92,186,89232,1,8,0:0:0:0:
458,286,89378,1,8,0:0:0:0:
135,99,89524,6,0,P|51:100|9:237,1,239.999992675781
15,244,89888,1,0,0:0:0:0:
26,251,89961,2,0,P|65:253|145:287,1,119.999996337891,8|0,0:0|0:0,0:0:0:0:
326,172,90252,1,0,0:0:0:0:
326,172,90325,1,0,0:0:0:0:
326,172,90397,2,0,P|287:174|207:208,1,119.999996337891,0|8,0:0|0:0,0:0:0:0:
381,317,90689,6,0,P|412:201|424:82,1,239.999992675781
421,63,91053,1,0,0:0:0:0:
419,44,91126,2,0,P|367:57|285:40,1,119.999996337891,8|0,0:0|0:0,0:0:0:0:
103,92,91418,1,0,0:0:0:0:
103,92,91490,1,0,0:0:0:0:
103,92,91563,2,0,P|161:82|219:95,1,119.999996337891,0|8,0:0|0:0,0:0:0:0:
212,384,91854,6,0,P|173:330|165:139,1,239.999992675781,4|0,0:0|0:0,0:0:0:0:
430,140,92291,2,0,P|433:199|416:256,1,119.999996337891,8|0,0:0|0:0,0:0:0:0:
110,333,92582,1,0,0:0:0:0:
110,333,92655,1,0,0:0:0:0:
110,333,92728,1,0,0:0:0:0:
332,189,92873,1,8,0:0:0:0:
55,72,93019,6,0,P|146:76|296:21,1,239.999992675781,4|0,0:0|0:0,0:0:0:0:
447,117,93456,1,8,0:0:0:0:
332,189,93601,2,0,P|278:161|220:145,1,119.999996337891
3,229,93893,1,8,0:0:0:0:
118,301,94038,2,0,P|171:273|229:257,1,119.999996337891,8|0,0:0|0:0,0:0:0:0:
229,257,94257,1,0,0:0:0:0:
229,257,94329,6,0,P|218:169|285:21,1,239.999992675781,4|8,0:0|0:0,0:0:0:0:
424,122,94766,1,0,0:0:0:0:
140,67,94912,2,0,P|168:119|221:146,1,119.999996337891
419,37,95203,1,8,0:0:0:0:
210,228,95349,6,0,P|106:174|56:67,1,239.999992675781,4|0,0:0|0:0,0:0:0:0:
61,85,95713,1,0,0:0:0:0:
62,101,95786,2,0,P|61:169|43:231,1,119.999996337891,8|0,0:0|0:0,0:0:0:0:
6,357,96077,1,0,0:0:0:0:
211,229,96223,1,8,0:0:0:0:
6,357,96368,1,8,0:0:0:0:
211,229,96514,6,0,L|350:213,1,119.999996337891,4|0,0:0|0:0,0:0:0:0:
181,87,96805,2,0,L|62:101,1,119.999996337891,0|8,0:0|0:0,0:0:0:0:
208,322,97096,2,0,L|328:336,1,119.999996337891
406,46,97387,2,0,L|286:32,1,119.999996337891,0|8,0:0|0:0,0:0:0:0:
436,352,97679,6,0,P|419:280|256:257,1,239.999992675781
269,253,98043,1,0,0:0:0:0:
263,260,98116,2,0,P|270:185|248:129,1,119.999996337891,8|0,0:0|0:0,0:0:0:0:
142,49,98407,5,0,0:0:0:0:
135,49,98455,1,0,0:0:0:0:
128,50,98504,1,0,0:0:0:0:
122,51,98552,1,0,0:0:0:0:
115,52,98601,1,0,0:0:0:0:
108,53,98649,1,0,0:0:0:0:
102,54,98698,1,0,0:0:0:0:
155,327,98844,6,0,P|169:263|170:199,1,129.999994049073,4|0,0:0|0:0,0:0:0:0:
102,54,99135,1,0,0:0:0:0:
328,206,99281,1,8,0:0:0:0:
153,333,99427,6,0,P|169:262|170:190,1,139.999995727539,4|0,0:0|0:0,0:0:0:0:
97,47,99718,1,0,0:0:0:0:
334,206,99864,1,8,0:0:0:0:
147,340,100009,6,0,P|165:266|166:190,1,150.000005722046,4|0,0:0|0:0,0:0:0:0:
89,39,100300,1,0,0:0:0:0:
338,207,100446,1,8,0:0:0:0:
145,347,100592,6,0,P|164:269|165:189,1,160,4|0,0:0|0:0,0:0:0:0:
84,32,100883,1,0,0:0:0:0:
345,207,101029,1,8,0:0:0:0:
143,354,101174,6,0,P|163:270|164:184,1,170.000003242493,4|0,0:0|0:0,0:0:0:0:
79,24,101465,1,0,0:0:0:0:
353,208,101611,5,8,0:0:0:0:
158,208,101757,1,0,0:0:0:0:
432,24,101903,5,8,0:0:0:0:
61,15,102048,1,0,0:0:0:0:
362,217,102194,5,8,0:0:0:0:
149,217,102340,1,0,0:0:0:0:
450,15,102486,5,8,0:0:0:0:
179,126,102630,1,0,0:0:0:0:
400,355,102777,5,8,0:0:0:0:
289,83,102923,1,0,0:0:0:0:
61,368,103067,5,8,0:0:0:0:
333,258,103211,1,0,0:0:0:0:
112,29,103358,5,8,0:0:0:0:
223,301,103504,1,0,0:0:0:0:
450,15,103650,5,12,0:0:0:0:
481,69,103722,1,0,0:0:0:0:
474,131,103795,1,0,0:0:0:0:
432,177,103868,1,0,0:0:0:0:
370,188,103941,5,8,0:0:0:0:
308,199,104014,1,0,0:0:0:0:
265,245,104087,1,0,0:0:0:0:
259,307,104160,1,0,0:0:0:0:
290,361,104232,6,0,P|334:357|389:344,3,85.0000016212464,8|0|0|0,0:0|0:0|0:0|0:0,0:0:0:0:
265,245,104524,6,0,P|221:249|166:262,3,85.0000016212464,8|0|0|0,0:0|0:0|0:0|0:0,0:0:0:0:
121,339,104815,5,12,0:0:0:0:
90,283,104887,1,0,0:0:0:0:
89,220,104960,1,0,0:0:0:0:
120,165,105033,1,0,0:0:0:0:
173,131,105106,5,8,0:0:0:0:
226,164,105179,1,0,0:0:0:0:
256,220,105252,1,0,0:0:0:0:
256,283,105325,1,0,0:0:0:0:
225,338,105397,5,12,0:0:0:0:
280,369,105470,1,0,0:0:0:0:
343,369,105543,1,0,0:0:0:0:
399,339,105616,1,0,0:0:0:0:
431,286,105689,6,8,P|424:242|427:193,3,85.0000016212464
456,136,105980,5,4,0:0:0:0:
282,56,106125,1,0,0:0:0:0:
456,136,106270,1,8,0:0:0:0:
282,56,106416,1,0,0:0:0:0:
456,136,106561,1,0,0:0:0:0:
282,56,106707,1,0,0:0:0:0:
456,136,106853,1,8,0:0:0:0:
282,56,106999,6,0,B|137:31|203:134|34:86,1,239.999992675781,12|0,0:0|0:0,0:0:0:0:
54,91,107363,1,0,0:0:0:0:
54,91,107436,1,8,0:0:0:0:
164,282,107581,1,0,0:0:0:0:
0,186,107728,1,0,0:0:0:0:
219,186,107873,1,0,0:0:0:0:
54,282,108018,1,8,0:0:0:0:
164,91,108164,6,0,B|337:66|337:66|402:103,1,239.999992675781,12|0,0:0|0:0,0:0:0:0:
400,262,108601,1,8,0:0:0:0:
286,26,108747,1,0,0:0:0:0:
50,327,108892,1,0,0:0:0:0:
164,91,109038,1,0,0:0:0:0:
253,357,109184,1,8,0:0:0:0:
12,26,109329,6,0,P|111:85|217:38,1,239.999992675781,12|0,0:0|0:0,0:0:0:0:
216,38,109694,1,0,0:0:0:0:
216,38,109766,1,8,0:0:0:0:
122,297,109912,1,0,0:0:0:0:
393,250,110058,1,0,0:0:0:0:
94,139,110204,1,8,0:0:0:0:
271,351,110350,1,8,0:0:0:0:
366,93,110495,6,0,B|386:82|399:102|374:124|330:135|309:114|309:114|283:86|235:82|185:113,1,239.999992675781,12|0,0:0|0:0,0:0:0:0:
184,124,110859,1,0,0:0:0:0:
181,138,110931,1,8,0:0:0:0:
363,239,111077,1,0,0:0:0:0:
156,264,111223,1,0,0:0:0:0:
308,122,111368,1,0,0:0:0:0:
268,326,111514,1,8,0:0:0:0:
436,94,111660,6,0,P|329:107|239:2,1,239.999992675781,12|0,0:0|0:0,0:0:0:0:
246,33,112024,1,0,0:0:0:0:
250,48,112096,1,8,0:0:0:0:
323,251,112242,1,0,0:0:0:0:
10,343,112388,1,0,0:0:0:0:
83,140,112534,1,0,0:0:0:0:
10,343,112679,1,8,0:0:0:0:
83,140,112825,6,0,B|201:68|193:156|312:66,1,239.999992675781,12|0,0:0|0:0,0:0:0:0:
98,257,113262,2,0,P|82:199|83:140,1,119.999996337891,8|0,0:0|0:0,0:0:0:0:
214,26,113553,1,0,0:0:0:0:
470,215,113698,2,8,P|485:157|485:97,1,119.999996337891
214,26,113990,6,0,P|241:108|391:128,1,239.999992675781,12|0,0:0|0:0,0:0:0:0:
450,26,114427,5,8,0:0:0:0:
406,317,114572,1,0,0:0:0:0:
332,26,114718,5,8,0:0:0:0:
288,317,114863,1,0,0:0:0:0:
214,26,115010,5,8,0:0:0:0:
170,317,115155,6,0,B|134:341|91:337|78:306|92:273|135:273|170:294|170:294|221:337|288:317,1,300.000011444092,4|8,0:0|0:0,0:0:0:0:
456,160,115592,5,8,0:0:0:0:
50,253,115738,1,8,0:0:0:0:
466,100,115883,5,8,0:0:0:0:
40,312,116029,1,8,0:0:0:0:
476,41,116174,5,8,0:0:0:0:
30,371,116320,1,8,0:0:0:0:
30,371,117685,5,0,0:0:0:0:
88,328,117794,1,0,0:0:0:0:
160,338,117904,1,0,0:0:0:0:
218,295,118049,5,0,0:0:0:0:
290,305,118177,1,0,0:0:0:0:
348,262,118286,1,0,0:0:0:0:
420,272,118540,5,0,0:0:0:0:
478,229,118722,1,0,0:0:0:0:
30,371,119032,6,0,B|18:317|18:317|51:273|51:273|30:248|27:180|55:126|124:124|124:124|153:167|153:206|81:216|45:178|45:178|15:133|4:87|4:87|60:29|163:38|163:38|228:73|240:176|227:231|194:273|115:283,1,1050.00004005432
