osu file format v14

[General]
AudioFilename: audio.mp3
AudioLeadIn: 0
PreviewTime: 25273
Countdown: 1
SampleSet: Soft
StackLeniency: 0.3
Mode: 0
LetterboxInBreaks: 0
WidescreenStoryboard: 1

[Editor]
Bookmarks: 2990,17759,26307,41076,55845,70614,85383,100153,107527,114922
DistanceSpacing: 1.7
BeatDivisor: 4
GridSize: 16
TimelineZoom: 1.800006

[Metadata]
Title:hope
TitleUnicode:hope
Artist:Haduki Nano
ArtistUnicode:葉月なの
Creator:frogyfro
Version:insane
Source:うみねこのなく頃に
Tags:bashe fuwu- yukiya shanipika umineko no naku koro ni nayuta 07th expansion dai m.graveyard ryukishi07 you&history video game japanese
BeatmapID:2135055
BeatmapSetID:809313

[Difficulty]
HPDrainRate:5
CircleSize:4
OverallDifficulty:7
ApproachRate:8
SliderMultiplier:2
SliderTickRate:1

[Events]
//Background and Video events
0,0,"adcdaa83-092c-4a33-a637-58d8c467553b.jpg",0,0
//Break Periods
//Storyboard Layer 0 (Background)
//Storyboard Layer 1 (Fail)
//Storyboard Layer 2 (Pass)
//Storyboard Layer 3 (Foreground)
//Storyboard Layer 4 (Overlay)
//Storyboard Sound Samples

[TimingPoints]
2977,468.75,4,2,1,17,1,0
2977,-200,4,2,1,17,0,0
4852,458.015267175573,4,2,1,17,1,0
4852,-200,4,2,1,17,0,0
6684,461.538461538462,4,2,1,17,1,0
6684,-200,4,2,1,17,0,0
8528,-153.846153846154,4,2,1,17,0,0
9682,-153.846153846154,4,2,1,25,0,0
16837,528.63436123348,4,2,1,25,1,0
17894,465.116279069767,4,2,1,25,1,0
20452,438.756855575868,4,2,1,25,1,0
20891,461.538461538462,4,2,1,25,1,0
21583,465.116279069767,4,2,1,25,1,0
23443,480,4,2,1,25,1,0
23683,495.867768595041,4,2,1,25,1,0
23930,530.973451327434,4,2,1,25,1,0
24194,600,4,2,1,25,1,0
24494,430.10752688172,4,2,1,25,1,0
25354,480,4,2,1,27,1,0
25354,-200,4,2,1,27,0,0
25834,443.295160694496,4,2,1,27,1,0
26277,472.44094488189,4,2,1,27,1,0
26277,-133.333333333333,4,2,1,27,0,0
27694,443.62292051756,4,2,1,27,1,0
27694,-133.333333333333,4,2,1,27,0,0
28137,468.75,4,2,1,27,1,0
28137,-133.333333333333,4,2,1,27,0,0
28605,472.44094488189,4,2,1,27,1,0
28605,-133.333333333333,4,2,1,27,0,0
29077,451.127819548872,4,2,1,27,1,0
29077,-133.333333333333,4,2,1,27,0,0
29528,458.015267175573,4,2,1,27,1,0
29528,-133.333333333333,4,2,1,27,0,0
29987,461.538461538462,4,2,1,27,1,0
29987,-133.333333333333,4,2,1,27,0,0
34602,468.75,4,2,1,27,1,0
34602,-133.333333333333,4,2,1,27,0,0
35539,-133.333333333333,4,2,1,27,0,0
36945,472.44094488189,4,2,1,27,1,0
36945,-133.333333333333,4,2,1,27,0,0
37417,451.127819548872,4,2,1,27,1,0
37417,-133.333333333333,4,2,1,27,0,0
37642,444.444444444444,4,2,1,27,1,0
37642,-133.333333333333,4,2,1,27,0,0
38530,468.75,4,2,1,27,1,0
38530,-133.333333333333,4,2,1,27,0,0
39233,458.015267175573,4,2,1,27,1,0
39233,-133.333333333333,4,2,1,27,0,0
40152,461.538461538462,4,2,1,27,1,0
41075,461.538461538462,4,2,1,30,1,0
41075,-100,4,2,1,30,0,0
42690,500,4,2,1,30,1,0
42940,465.116279069767,4,2,1,30,1,0
43870,447.761194029851,4,2,1,30,1,0
45213,468.75,4,2,1,30,1,0
46619,451.127819548872,4,2,1,30,1,0
46626,-100,4,2,1,30,0,0
47972,480,4,2,1,30,1,0
47972,-100,4,2,1,30,0,0
48452,465.116279069767,4,2,1,30,1,0
48452,-133.333333333333,4,2,1,30,0,0
48917,447.761194029851,4,2,1,30,1,0
48917,-133.333333333333,4,2,1,30,0,0
49812,480,4,2,1,30,1,0
49812,-133.333333333333,4,2,1,30,0,0
50292,454.545454545455,4,2,1,30,1,0
50292,-125,4,2,1,30,0,0
50973,512.820512820513,4,2,1,30,1,0
51229,472.44094488189,4,2,1,30,1,0
51229,-125,4,2,1,30,0,0
51701,450.281425891182,4,2,1,30,1,0
51701,-125,4,2,1,30,0,0
52151,461.538461538462,4,2,1,30,1,0
52151,-133.333333333333,4,2,1,30,0,0
53997,454.545454545455,4,2,1,20,1,0
53997,-200,4,2,1,20,0,0
55360,483.870967741935,4,2,1,20,1,0
55360,-200,4,2,1,20,0,0
55844,461.538461538462,4,2,1,20,1,0
55844,-200,4,2,1,20,0,0
72459,-153.846153846154,4,2,1,20,0,0
73382,-133.333333333333,4,2,1,20,0,0
77536,-200,4,2,1,20,0,0
77997,-133.333333333333,4,2,1,20,0,0
83536,-200,4,2,1,20,0,0
83651,-200,4,2,2,22,0,0
83767,-200,4,2,1,24,0,0
83882,-200,4,2,2,26,0,0
83997,-200,4,2,1,28,0,0
84113,-200,4,2,2,30,0,0
84228,-200,4,2,1,32,0,0
84344,-200,4,2,2,34,0,0
84459,-200,4,2,1,36,0,0
84574,-200,4,2,2,38,0,0
84690,-200,4,2,1,40,0,0
84805,-200,4,2,1,5,0,0
84920,-160,4,2,1,42,0,0
85036,-160,4,2,2,44,0,0
85151,-160,4,2,1,46,0,0
85267,-160,4,2,1,5,0,0
85382,-92.5925925925926,4,2,1,50,0,0
92767,-80,4,2,1,50,0,0
94151,-92.5925925925926,4,2,1,50,0,0
99920,-133.333333333333,4,2,1,50,0,0
107536,-90.9090909090909,4,2,1,50,0,0
111228,-100,4,2,1,50,0,0
112844,-133.333333333333,4,2,1,50,0,0
113074,-86.9565217391304,4,2,1,50,0,0
115844,-92.5925925925926,4,2,1,50,0,0
117690,-80,4,2,1,50,0,0
122305,-80,4,2,1,50,0,1
124151,-66.6666666666667,4,2,1,50,0,1
125305,-80,4,2,1,50,0,0
125997,-66.6666666666667,4,2,1,50,0,1
127786,-66.6666666666667,4,2,1,50,0,0
127844,468.75,4,2,1,50,1,1
127844,-153.846153846154,4,2,1,50,0,1
129953,-133.333333333333,4,2,1,50,0,0

[Colours]
Combo1 : 255,244,166
Combo2 : 130,236,255
Combo3 : 255,155,253

[HitObjects]
81,289,2977,6,0,B|128:324|227:309|331:243|373:259|373:259|382:280|368:297|373:315|373:315|379:327|395:335,1,387.5,2|0,3:2|0:0,0:0:0:0:
408,358,4852,6,0,B|401:234|446:204|449:167|449:167|438:133|386:166|360:132|360:132|369:110|380:92|396:84,1,350,2|0,3:2|0:0,0:0:0:0:
500,27,6684,6,0,B|471:72|418:59|375:22|375:22|333:-18|295:-6|276:4|276:4|248:15|204:22|162:7,1,350,2|0,3:2|0:0,0:0:0:0:
67,0,8530,5,2,0:0:0:0:
6,162,8991,2,0,B|16:152|32:138|76:128,1,64.9999970245363,0|2,0:0|0:0,0:0:0:0:
68,302,9684,2,0,B|73:284|79:273|117:246,1,64.9999970245363,2|0,0:0|0:0,0:0:0:0:
195,236,10145,1,0,0:0:0:0:
275,288,10376,2,0,B|333:343|411:253|475:290,1,194.999991073609,2|0,0:0|0:0,0:0:0:0:
80,141,11760,5,2,0:0:0:0:
0,35,12222,2,0,B|33:116|135:15|175:141,1,194.999991073609,2|0,3:2|0:0,0:0:0:0:
332,185,13376,2,0,B|344:136|366:130|382:140,1,64.9999970245363,2|0,0:0|0:0,0:0:0:0:
343,65,13837,1,2,0:0:0:0:
267,89,14068,6,0,B|267:142|297:190|332:186,1,129.999994049073,0|0,3:0|0:0,0:0:0:0:
418,167,14760,2,0,B|416:148|424:117|466:107,1,64.9999970245363,0|0,3:0|0:0,0:0:0:0:
498,164,15222,1,2,0:0:0:0:
496,279,15453,1,0,0:0:0:0:
510,284,15914,6,0,B|490:278|463:285|437:301,1,64.9999970245363,0|0,0:0|0:0,0:0:0:0:
384,382,16376,2,0,B|355:369|341:336|357:236,1,129.999994049073,2|0,0:0|0:0,0:0:0:0:
354,0,17894,5,2,0:0:0:0:
367,22,18126,1,0,0:0:0:0:
416,30,18359,1,0,0:0:0:0:
391,20,18591,1,2,0:0:0:0:
512,0,19056,1,2,0:0:0:0:
483,25,19289,1,0,0:0:0:0:
512,64,19521,1,0,0:0:0:0:
475,135,19754,5,2,0:0:0:0:
449,121,19987,1,0,0:0:0:0:
398,115,20219,1,0,0:0:0:0:
424,109,20452,1,2,0:0:0:0:
461,179,20890,5,0,3:0:0:0:
398,240,21121,1,0,0:0:0:0:
430,288,21352,1,0,0:0:0:0:
384,366,21583,1,0,3:0:0:0:
405,302,21815,1,0,0:0:0:0:
331,314,22048,1,0,0:0:0:0:
237,269,22280,1,2,0:0:0:0:
72,260,22745,1,2,0:0:0:0:
82,282,22978,1,0,0:0:0:0:
162,313,23210,1,0,0:0:0:0:
153,347,23443,5,0,3:0:0:0:
274,327,23683,1,0,0:0:0:0:
266,203,23930,1,0,0:0:0:0:
151,173,24195,1,0,3:0:0:0:
109,270,24494,1,0,0:0:0:0:
334,322,25354,6,0,B|326:286|295:294|273:325|242:277,1,100,2|0,0:0|0:0,0:0:0:0:
317,350,26277,6,0,B|343:351|365:342|364:241|437:253,1,150.000005722046,2|0,3:2|3:0,0:0:0:0:
295,277,26985,1,2,0:0:0:0:
219,130,27458,1,0,3:0:0:0:
234,210,27694,6,0,B|231:245|211:273|182:273,1,75.0000028610231,2|0,0:0|0:0,0:0:0:0:
81,332,28137,2,0,B|100:312|133:321|176:349,1,75.0000028610231,2|0,3:2|0:0,0:0:0:0:
213,384,28605,1,0,3:0:0:0:
329,321,28841,1,2,0:0:0:0:
404,354,29077,6,0,B|447:368|476:312|458:261,1,112.500004291535,0|0,3:0|0:0,0:0:0:0:
423,211,29528,2,0,B|409:235|446:260|510:218,1,112.500004291535,0|0,3:0|0:0,0:0:0:0:
439,135,29987,6,0,B|430:73|464:15|513:35,1,150.000005722046,2|0,3:2|3:0,0:0:0:0:
386,13,30679,2,0,B|359:-5|324:-8|289:9,1,75.0000028610231,2|0,0:0|0:0,0:0:0:0:
244,62,31140,2,0,B|239:42|189:36|169:111|96:52,1,150.000005722046,0|0,3:0|3:0,0:0:0:0:
153,179,31833,6,0,B|146:157|152:131|185:109,1,75.0000028610231,2|0,0:0|0:0,0:0:0:0:
252,87,32294,1,0,3:0:0:0:
131,50,32525,1,2,0:0:0:0:
81,33,32987,1,0,3:0:0:0:
128,128,33217,6,0,B|129:150|125:171|64:184,1,75.0000028610231,2|0,0:0|0:0,0:0:0:0:
44,66,33679,1,2,0:0:0:0:
148,135,33910,1,0,0:0:0:0:
256,66,34140,1,0,3:0:0:0:
162,0,34371,2,0,B|116:-10|80:44|159:81|120:117,1,150.974,2|0,0:0|3:0,0:0:0:0:
84,189,35070,2,0,B|73:168|42:152|17:181,1,75.0000028610231,2|0,0:0|0:0,0:0:0:0:
137,281,35539,6,0,B|140:301|121:358|19:311,1,150.000005722046,2|0,0:0|3:0,0:0:0:0:
71,250,36242,2,0,B|61:194|72:160|107:113|146:159,1,150.000005722046,2|0,0:0|0:0,0:0:0:0:
173,221,36945,1,2,0:0:0:0:
216,290,37181,2,0,B|247:286|272:275|252:241,1,75.0000028610231,0|0,3:0|0:0,0:0:0:0:
181,355,37642,6,0,B|210:368|241:362|272:340,1,75.0000028610231,2|0,0:0|0:0,0:0:0:0:
407,257,38086,2,0,B|383:212|388:187|404:158,1,75.0000028610231,0|0,3:0|0:0,0:0:0:0:
482,245,38530,2,0,B|496:304|421:343|485:390,1,150.000005722046,2|0,0:0|0:0,0:0:0:0:
389,287,39233,6,0,B|340:262|274:268|250:304|284:349,2,150.000005722046,0|0|0,3:0|0:0|0:0,0:0:0:0:
330,155,40844,5,2,0:0:0:0:
377,138,40959,1,0,3:0:0:0:
380,84,41075,2,0,B|353:122|381:182|475:151,1,150,2|0,3:2|0:0,0:0:0:0:
512,88,41536,1,0,3:0:0:0:
501,285,41767,2,0,B|483:346|431:340|395:297,1,100,2|0,0:0|0:0,0:0:0:0:
167,370,42228,5,0,3:0:0:0:
274,219,42459,1,2,0:0:0:0:
107,121,42690,1,0,3:0:0:0:
11,312,42940,2,0,B|77:381|103:212|195:271,1,200,2|0,0:0|3:0,0:0:0:0:
245,384,43637,1,0,0:0:0:0:
153,247,43870,6,0,B|137:187|154:125|245:150,1,150,2|0,0:0|0:0,0:0:0:0:
283,233,44317,2,0,B|326:202|355:133|292:87,1,150,0|0,3:0|0:0,0:0:0:0:
177,12,44765,6,0,B|236:40|276:16|276:16|211:0|217:61|208:88,1,200,2|0,3:2|3:0,0:0:0:0:
181,243,45447,2,0,B|184:277|175:309|125:335,1,100,2|0,0:0|0:0,0:0:0:0:
295,306,45916,1,2,0:0:0:0:
216,142,46150,2,0,B|183:122|141:133|128:176,1,100
84,299,46502,5,0,3:0:0:0:
92,259,46619,2,0,B|108:199|92:163|66:140,1,100,2|0,0:2|0:0,0:0:0:0:
32,94,47070,1,0,3:0:0:0:
208,67,47295,1,2,0:0:0:0:
228,61,47746,1,0,3:0:0:0:
191,175,47972,5,2,0:0:0:0:
324,265,48212,1,0,0:0:0:0:
244,379,48452,2,0,B|219:345|229:307|262:288,1,75.0000028610231,2|0,3:2|0:0,0:0:0:0:
324,265,48917,1,0,3:0:0:0:
406,269,49140,2,0,B|359:264|322:285|322:337|353:352|383:344,1,150.000005722046
451,343,49812,5,0,3:0:0:0:
496,107,50052,1,0,0:0:0:0:
378,56,50292,2,0,B|305:53|313:114|257:124|212:85,1,160,2|0,3:2|3:0,0:0:0:0:
161,43,50973,1,0,0:0:0:0:
180,170,51229,2,0,B|190:221|192:284|135:281,1,120,2|0,0:0|0:0,0:0:0:0:
199,308,51701,2,0,B|154:284|105:282|85:346,1,120,0|0,3:0|0:0,0:0:0:0:
189,384,52151,6,0,B|261:403|294:326|349:375,1,150.000005722046,2|0,3:2|3:0,0:0:0:0:
431,384,52843,1,2,0:0:0:0:
415,384,53304,5,0,0:0:0:0:
454,265,53535,1,2,0:0:0:0:
364,183,53766,1,0,0:0:0:0:
439,152,53997,2,0,B|481:155|501:176|487:218|453:247|527:261,1,150,2|0,3:2|0:0,0:0:0:0:
416,193,55360,6,0,P|404:232|386:247,1,50
392,137,55844,2,0,B|361:125|334:120|302:182,1,100,2|0,0:0|0:0,0:0:0:0:
339,227,56536,1,0,3:0:0:0:
226,183,56997,1,0,3:0:0:0:
273,126,57228,2,0,P|264:103|281:52,1,75
317,42,57690,5,2,0:0:0:0:
343,121,57920,1,0,0:0:0:0:
411,85,58151,1,0,3:0:0:0:
482,181,58613,1,2,0:0:0:0:
301,168,59074,1,2,0:0:0:0:
231,264,59536,6,0,B|273:235|280:194|258:170,1,100,0|0,3:0|0:0,0:0:0:0:
177,153,60228,1,0,0:0:0:0:
202,221,60459,2,0,B|209:242|199:274|181:286,1,50,0|0,3:0|0:0,0:0:0:0:
124,323,60920,2,0,B|117:302|129:275|145:262,1,50
137,187,61382,5,2,0:0:0:0:
79,147,61613,1,0,0:0:0:0:
18,183,61844,1,0,0:0:0:0:
86,121,62074,2,0,B|111:118|134:105|139:91,1,50,0|0,3:0|0:0,0:0:0:0:
83,46,62536,1,0,0:0:0:0:
158,66,62767,6,0,B|181:23|217:62|243:37,1,75,2|0,0:0|0:0,0:0:0:0:
281,7,63228,2,0,B|292:35|276:46|272:75,1,50,2|0,3:2|0:0,0:0:0:0:
272,191,63920,1,0,3:0:0:0:
110,208,64382,1,0,3:0:0:0:
163,258,64613,2,0,B|174:273|169:298|156:318,1,50
14,368,65305,1,0,0:0:0:0:
101,383,65536,1,0,0:0:0:0:
142,318,65767,2,0,B|171:301|187:304|208:313,1,50,2|0,0:0|0:0,0:0:0:0:
80,215,66459,2,0,B|56:234|34:233|20:227,1,50,0|0,3:0|0:0,0:0:0:0:
7,152,66920,6,0,B|58:235|107:96|206:173,2,200,2|2|0,3:2|0:0|3:0,0:0:0:0:
60,96,68997,1,0,0:0:0:0:
122,141,69228,1,0,0:0:0:0:
230,91,69459,1,0,0:0:0:0:
322,161,69690,1,2,0:0:0:0:
409,71,70151,6,0,B|406:36|408:17|443:6,1,75,2|0,0:0|0:0,0:0:0:0:
497,30,70613,2,0,B|473:46|461:52|440:43,1,50,2|0,0:0|0:0,0:0:0:0:
412,47,71305,1,0,3:0:0:0:
383,58,71767,1,0,3:0:0:0:
377,87,71997,5,0,0:0:0:0:
309,149,72228,1,0,0:0:0:0:
252,56,72459,2,0,B|224:58|209:72|197:95,1,64.9999970245363,2|0,0:0|0:0,0:0:0:0:
238,149,72920,2,0,B|226:186|208:194|180:183,1,64.9999970245363
69,71,73382,6,0,B|87:131|125:139|163:128,1,112.500004291535,2|0,0:0|0:0,0:0:0:0:
148,207,73844,2,0,B|147:152|227:144|253:157,1,112.500004291535,0|0,3:0|0:0,0:0:0:0:
225,230,74305,6,0,B|211:270|246:312|298:256|333:297,1,150.000005722046,2|0,3:2|0:0,0:0:0:0:
280,374,74997,2,0,B|354:391|338:248|446:310,1,187.500007152558,2|0,0:0|0:0,0:0:0:0:
465,358,75690,2,0,B|417:291|491:283|471:227,1,112.500004291535,0|0,3:0|0:0,0:0:0:0:
492,186,76151,6,0,B|465:242|431:179|381:215,1,112.500004291535,2|0,0:0|0:0,0:0:0:0:
355,245,76613,1,0,3:0:0:0:
291,156,76844,1,2,0:0:0:0:
382,69,77074,1,0,0:0:0:0:
237,65,77536,6,0,B|224:80|225:116|231:122,1,50,0|0,0:0|0:0,0:0:0:0:
216,31,77997,2,0,B|184:72|145:4|84:22,1,112.500004291535,2|0,3:2|0:0,0:0:0:0:
72,54,78459,1,0,0:0:0:0:
19,171,78690,1,0,0:0:0:0:
120,189,78920,1,0,0:0:0:0:
183,268,79151,5,0,3:0:0:0:
81,309,79382,1,0,0:0:0:0:
230,360,79613,1,0,0:0:0:0:
374,269,79844,2,0,B|399:262|392:192|340:193|311:217|267:234|236:158|278:126,1,225.000008583069,2|0,0:0|3:0,0:0:0:0:
512,0,80997,5,0,0:0:0:0:
481,91,81228,2,0,B|417:111|432:36|376:40,1,112.500004291535,0|0,0:0|0:0,0:0:0:0:
346,51,81690,5,2,0:0:0:0:
266,147,81920,1,0,0:0:0:0:
362,220,82151,1,0,0:0:0:0:
380,128,82382,2,0,B|361:83|326:77|303:74,1,75.0000028610231,0|0,3:0|0:0,0:0:0:0:
342,201,82844,1,0,0:0:0:0:
240,226,83074,5,0,0:0:0:0:
274,318,83305,1,0,0:0:0:0:
159,308,83536,2,0,B|112:332|37:316|18:270|40:212|96:156|161:231|123:253,1,275,2|0,3:2|0:0,0:0:0:0:
101,263,84920,6,0,B|65:232|118:222|159:267|179:260,1,93.75,2|0,0:0|0:0,0:0:0:0:
167,366,85382,6,0,B|196:370|213:363|241:339,1,54.0000013183594,12|0,0:1|0:0,0:0:0:0:
289,171,85613,1,0,0:3:0:0:
142,93,85844,1,0,0:0:0:0:
271,221,86074,2,0,B|366:187|236:72|347:74,1,162.000003955078,2|0,0:0|0:0,0:0:0:0:
351,119,86536,1,0,3:0:0:0:
510,79,86767,2,0,B|497:52|482:59|432:49,1,54.0000013183594,0|0,0:0|0:0,0:0:0:0:
465,204,86997,2,0,B|488:203|516:191|528:150,1,54.0000013183594,0|0,0:0|0:0,0:0:0:0:
377,131,87228,5,8,0:0:0:0:
449,250,87459,1,0,0:0:0:0:
265,322,87690,1,0,0:0:0:0:
294,84,87920,1,0,0:0:0:0:
212,17,88151,6,0,B|230:77|186:144|166:33|106:120,1,162.000003955078,0|0,3:0|0:0,0:0:0:0:
7,221,88613,2,0,B|63:137|92:263|177:226,1,162.000003955078,0|0,0:0|0:0,0:0:0:0:
262,194,89074,6,0,B|287:131|247:125|213:118|214:149,1,108.000002636719,10|0,0:0|0:0,0:0:0:0:
306,300,89536,1,0,3:0:0:0:
355,202,89767,2,0,B|342:162|369:126|428:122,1,108.000002636719,2|0,0:0|0:0,0:0:0:0:
494,168,90228,5,0,3:0:0:0:
373,36,90459,2,0,B|307:-3|259:21|257:54,1,108.000002636719,0|0,0:0|0:0,0:0:0:0:
232,138,90805,1,2,0:0:0:0:
304,183,90920,1,8,0:0:0:0:
263,307,91151,1,0,0:0:0:0:
433,220,91382,1,0,0:0:0:0:
379,42,91613,1,0,0:0:0:0:
32,101,92074,5,0,3:0:0:0:
45,200,92305,2,0,B|78:217|124:193|159:232,1,108.000002636719,2|0,0:0|0:0,0:0:0:0:
20,322,92767,6,0,B|33:348|82:280|84:252,1,62.5,12|0,0:1|0:0,0:0:0:0:
78,182,92997,2,0,B|73:151|45:111|24:156,1,62.5,0|0,0:0|0:0,0:0:0:0:
132,269,93228,2,0,B|148:283|194:275|223:261,1,62.5,0|0,0:0|0:0,0:0:0:0:
292,98,93459,2,0,B|327:16|411:101|298:210|402:246,1,250,2|0,0:0|0:0,0:0:0:0:
262,263,94151,6,0,B|305:281|336:261|347:225,1,108.000002636719,0|0,3:0|0:0,0:0:0:0:
306,350,94613,1,8,0:0:0:0:
135,384,94844,1,0,0:0:0:0:
7,244,95074,1,0,0:0:0:0:
186,286,95305,2,0,B|223:279|241:252|231:195,1,108.000002636719,0|2,0:0|0:0,0:0:0:0:
222,194,95767,5,0,0:0:0:0:
168,38,95997,2,0,B|223:-12|317:60|405:17,1,216.000005273438,0|8,0:0|0:0,0:0:0:0:
362,50,96690,1,0,3:0:0:0:
402,136,96920,1,0,0:0:0:0:
251,193,97151,1,0,0:0:0:0:
346,150,97382,1,2,0:0:0:0:
478,225,97613,5,0,0:0:0:0:
384,197,97844,2,0,B|308:204|305:313|341:311|375:282,1,162.000003955078,0|0,3:0|0:0,0:0:0:0:
257,322,98305,6,0,B|277:311|173:268|180:440|62:352,2,216.000005273438,8|0|0,0:0|0:0|0:0,0:0:0:0:
420,285,99920,6,0,B|436:281|451:280|468:286,1,37.5000014305115,2|0,0:0|0:0,0:0:0:0:
509,326,100151,2,0,B|462:268|475:193|525:198,1,150.000005722046,10|0,0:0|0:0,0:0:0:0:
466,84,100844,2,0,B|371:71|408:149|325:146,1,150.000005722046,0|0,3:0|0:0,0:0:0:0:
237,92,101536,1,0,0:0:0:0:
277,0,101767,1,0,0:0:0:0:
163,13,101997,5,10,0:0:0:0:
96,71,102228,1,0,0:0:0:0:
155,163,102459,1,0,0:0:0:0:
56,254,102690,1,0,0:0:0:0:
0,321,102920,6,0,B|39:298|57:289|115:308,1,112.500004291535,0|0,3:0|0:0,0:0:0:0:
111,360,103382,2,0,B|166:371|179:372|212:333,1,112.500004291535,2|0,0:0|0:0,0:0:0:0:
209,272,103844,6,0,B|187:233|223:204|256:209,1,75.0000028610231,10|0,3:2|0:0,0:0:0:0:
324,306,104305,1,0,0:0:0:0:
267,375,104536,1,2,0:0:0:0:
469,357,104997,1,2,0:0:0:0:
355,302,105459,6,0,B|341:297|323:312|291:308,1,37.5000014305115,2|0,0:0|0:0,0:0:0:0:
379,327,105690,2,0,B|436:321|469:323|428:268|454:292,1,75.0000028610231,8|0,0:0|0:0,0:0:0:0:
484,197,106151,1,0,0:0:0:0:
393,199,106382,2,0,B|344:204|380:135|415:130,1,75.0000028610231,0|0,3:0|0:0,0:0:0:0:
476,145,106844,5,0,0:0:0:0:
343,120,107074,1,0,0:0:0:0:
396,218,107305,1,0,0:0:0:0:
325,359,107536,5,12,0:1:0:0:
414,255,107767,1,0,0:0:0:0:
256,208,107997,1,0,0:0:0:0:
106,320,108228,1,0,0:0:0:0:
0,337,108459,6,0,B|-9:296|42:281|116:310,1,110.000003356934,2|0,0:0|0:0,0:0:0:0:
267,323,108920,2,0,B|283:304|289:285|279:264,1,55.0000016784668,0|0,3:0|0:0,0:0:0:0:
203,210,109151,2,0,B|195:242|198:251|202:264,1,55.0000016784668,0|0,0:0|0:0,0:0:0:0:
370,310,109382,6,0,B|485:254|336:179|455:131,1,220.000006713867,10|0,0:0|0:0,0:0:0:0:
272,292,110074,1,0,3:0:0:0:
97,306,110305,2,0,B|48:307|9:312|-9:363,1,110.000003356934,0|0,0:0|0:0,0:0:0:0:
128,155,110767,2,0,B|149:101|142:21|67:34,1,165.000005035401,0|0,3:0|0:0,0:0:0:0:
10,94,111228,5,8,0:0:0:0:
5,72,111344,1,0,0:0:0:0:
9,57,111459,2,0,B|37:39|79:33|160:58,1,150,0|0,3:0|0:0,0:0:0:0:
176,127,111920,2,0,B|193:135|217:132|240:117,1,50,0|0,0:0|0:0,0:0:0:0:
244,76,112151,2,0,B|272:58|314:52|393:41|396:110|489:40,1,250,0|0,3:0|0:0,0:0:0:0:
511,0,112844,2,0,B|472:-14|476:10|498:28|494:64,1,75.0000028610231,0|0,0:0|0:0,0:0:0:0:
468,276,113305,6,0,B|464:229|519:194|457:178,1,115.000002193451,2|0,0:0|0:0,0:0:0:0:
256,252,113767,2,0,B|202:292|154:282|178:244,1,115.000002193451,2|0,0:0|0:0,0:0:0:0:
298,108,114228,1,0,3:0:0:0:
474,141,114459,1,2,0:0:0:0:
229,30,114690,2,0,B|200:27|162:36|159:54,1,57.5000010967255,0|0,3:0|0:0,0:0:0:0:
64,203,114920,6,0,B|-8:277|-10:126|132:213,1,172.500003290176,12|0,0:1|0:0,0:0:0:0:
156,266,115382,1,2,0:0:0:0:
181,20,115613,1,0,0:0:0:0:
114,79,115844,2,0,B|71:100|43:19|-24:59,1,108.000002636719,0|0,0:0|0:0,0:0:0:0:
126,157,116305,6,0,B|153:156|181:138|189:126,1,54.0000013183594,2|0,0:0|0:0,0:0:0:0:
207,67,116536,2,0,B|186:71|172:80|149:104,1,54.0000013183594,2|0,0:0|0:0,0:0:0:0:
149,295,116767,2,0,B|219:301|278:219|286:145|204:127,1,216.000005273438,8|0,0:0|0:0,0:0:0:0:
376,22,117459,5,0,3:0:0:0:
480,14,117690,2,0,B|534:5|540:138|454:81|448:149|481:181,1,187.5,2|0,0:0|0:0,0:0:0:0:
512,285,118151,2,0,B|530:241|485:200|471:303|348:206,1,187.5,0|0,0:0|0:0,0:0:0:0:
232,40,118613,6,0,B|269:-6|298:120|228:160,1,125,10|0,0:0|0:0,0:0:0:0:
73,281,119074,2,0,B|43:318|104:327|160:263,1,125,0|0,3:0|0:0,0:0:0:0:
308,97,119536,2,0,B|379:83|419:122|390:157,1,125,2|0,0:0|0:0,0:0:0:0:
150,192,119997,2,0,B|106:143|189:93|114:15|53:71|48:89,1,187.5,2|0,3:2|0:0,0:0:0:0:
37,183,120459,6,0,B|49:244|3:250|-6:288|38:302|86:308|95:223|185:268,1,250,10|0,0:0|0:0,0:0:0:0:
325,366,121151,1,2,0:0:0:0:
470,317,121382,2,0,B|493:285|496:263|477:229,1,62.5,2|0,0:0|0:0,0:0:0:0:
417,368,121844,6,0,B|399:340|393:307|402:289,1,62.5,0|0,3:0|0:0,0:0:0:0:
431,151,122074,2,0,B|436:114|457:89|488:86,1,62.5,2|0,0:0|0:0,0:0:0:0:
512,312,122305,2,0,B|499:326|442:325|414:321,1,62.5,10|0,3:2|0:0,0:0:0:0:
244,196,122536,2,0,B|211:163|145:242|109:225,1,125
5,301,122882,1,0,0:0:0:0:
55,361,122997,2,0,B|130:306|56:290|36:233|93:181,1,187.5,2|0,3:2|0:0,0:0:0:0:
154,92,123459,6,0,B|158:105|194:115|241:110,1,62.5,0|0,3:0|0:0,0:0:0:0:
358,27,123690,2,0,B|370:29|400:22|435:-12,1,62.5,2|0,0:0|0:0,0:0:0:0:
300,124,123920,2,0,B|286:132|279:158|278:192,1,62.5,0|0,3:0|0:0,0:0:0:0:
294,322,124151,6,0,B|311:361|357:364|477:377|490:246|498:154|392:200|376:315|275:227,1,375.000014305115,10|0,3:2|0:0,0:0:0:0:
205,179,124844,2,0,B|169:162|160:143|171:107,1,75.0000028610231,2|0,0:0|0:0,0:0:0:0:
109,288,125305,6,0,B|182:260|97:199|156:138,1,125,2|0,0:0|3:0,0:0:0:0:
169,268,125651,2,0,B|163:349|225:230|298:335,1,125,0|0,3:0|0:0,0:0:0:0:
112,331,125997,6,0,B|196:337|275:341|149:183|324:272,1,225.000008583069,10|0,3:2|0:0,0:0:0:0:
432,285,126459,2,0,B|443:295|400:310|366:302,1,75.0000028610231,2|0,0:0|0:0,0:0:0:0:
455,83,126690,2,0,B|449:51|392:29|335:75|475:152|426:217|329:239,1,225.000008583069,2|0,0:0|0:0,0:0:0:0:
324,338,127151,2,0,B|351:320|346:263|301:217,1,75.0000028610231,0|0,3:0|0:0,0:0:0:0:
225,62,127382,2,0,B|306:149|362:141|351:59|433:78,1,225.000008583069,2|0,0:0|0:0,0:0:0:0:
264,153,127844,6,0,B|229:167|191:179|166:102|-106:21|-17:216|12:343|63:285|146:192|198:220|278:240|219:305|182:322|188:363|111:340|115:289,1,584.999973220826,2|2,3:2|0:0,0:0:0:0:
