osu file format v14

[General]
AudioFilename: audio.mp3
AudioLeadIn: 0
PreviewTime: 54236
Countdown: 0
SampleSet: Soft
StackLeniency: 0.7
Mode: 0
LetterboxInBreaks: 0
WidescreenStoryboard: 1

[Editor]
Bookmarks: 8578
DistanceSpacing: 1
BeatDivisor: 4
GridSize: 4
TimelineZoom: 1

[Metadata]
Title:What Is Love
TitleUnicode:What Is Love
Artist:Haddaway
ArtistUnicode:Haddaway
Creator:MkGuh
Version:Easy
Source:
Tags:happyrocket88 pop english retro old 90's 90 the album
BeatmapID:1084371
BeatmapSetID:509968

[Difficulty]
HPDrainRate:2
CircleSize:3
OverallDifficulty:2
ApproachRate:3
SliderMultiplier:1
SliderTickRate:1

[Events]
//Background and Video events
0,0,"cute-couple-in-love-wallpaper-1366x768.jpg",0,0
Video,-1538,"MkLove.avi"
//Break Periods
//Storyboard Layer 0 (Background)
//Storyboard Layer 1 (Fail)
//Storyboard Layer 2 (Pass)
//Storyboard Layer 3 (Foreground)
//Storyboard Sound Samples

[TimingPoints]
828,484.378784209252,4,2,0,60,1,0
16328,-100,4,2,0,70,0,0
39578,-100,4,2,0,60,0,0
55078,-100,4,2,0,80,0,1
70578,-100,4,2,0,70,0,0

[Colours]
Combo1 : 230,230,0
Combo2 : 215,107,0
Combo3 : 112,142,199

[HitObjects]
168,144,8578,6,0,L|56:124,2,100,2|2|2,0:0|0:0|0:0,0:0:0:0:
256,92,10031,1,2,0:0:0:0:
344,144,10515,2,0,L|456:124,2,100,2|2|2,0:0|0:0|0:0,0:0:0:0:
256,196,11968,1,2,0:0:0:0:
172,250,12453,6,0,P|257:295|342:248,1,200,2|2,0:0|0:0,0:0:0:0:
408,172,13906,1,2,0:0:0:0:
382,75,14390,2,0,P|338:63|302:11,1,100,2|2,0:0|0:0,0:0:0:0:
206,23,15359,2,0,P|176:62|128:76,1,100,2|2,0:0|0:0,0:0:0:0:
60,149,16328,6,0,L|78:251,1,100,4|2,0:0|0:0,0:0:0:0:
142,323,17296,2,0,P|199:310|228:256,1,100,2|0,0:0|0:0,0:0:0:0:
264,187,18265,2,0,P|296:150|344:142,1,100,2|2,0:0|0:0,0:0:0:0:
417,211,19234,2,0,L|434:309,1,100,2|0,0:0|0:0,0:0:0:0:
341,346,20203,6,0,L|304:141,1,200,4|2,0:0|0:0,0:0:0:0:
281,51,21656,1,0,0:0:0:0:
188,89,22140,2,0,B|167:187|167:187|82:240,1,200,2|2,0:0|0:0,0:0:0:0:
29,325,23593,1,0,0:0:0:0:
128,323,24078,6,0,L|307:212,1,200,4|2,0:0|0:0,0:0:0:0:
384,167,25531,1,8,0:0:0:0:
355,71,26015,2,0,P|407:70|454:96,2,100,2|8|2,0:0|0:0|0:0,0:0:0:0:
256,90,27468,1,8,0:0:0:0:
158,113,27953,6,0,B|130:209|130:209|163:308,1,200,4|2,0:0|0:0,0:0:0:0:
256,272,29406,1,8,0:0:0:0:
350,303,29890,2,0,B|382:209|383:205,1,100,2|8,0:0|0:0,0:0:0:0:
313,134,30859,2,0,B|345:40|346:36,1,100,2|8,0:0|0:0,0:0:0:0:
245,30,31828,6,0,P|195:40|145:29,1,100,4|8,0:0|0:0,0:0:0:0:
68,90,32796,2,0,P|58:140|69:190,1,100,2|8,0:0|0:0,0:0:0:0:
136,260,33765,2,0,L|333:229,1,200,2|2,0:0|0:0,0:0:0:0:
432,208,35218,1,8,0:0:0:0:
376,128,35703,6,0,B|358:82|358:82|366:28,1,100,4|8,0:0|0:0,0:0:0:0:
464,16,36672,2,0,B|482:62|482:62|474:116,1,100,2|8,0:0|0:0,0:0:0:0:
457,212,37640,2,0,P|351:233|270:170,1,200,2|2,0:0|0:0,0:0:0:0:
223,101,39093,1,8,0:0:0:0:
123,124,39578,6,0,P|73:135|24:123,2,100,4|8|2,0:0|0:0|0:0,0:0:0:0:
223,101,41031,1,8,0:0:0:0:
320,123,41515,2,0,P|355:214|313:308,1,200,2|2,0:0|0:0,0:0:0:0:
234,359,42968,1,8,0:0:0:0:
138,328,43453,6,0,L|39:335,1,100,2|8,0:0|0:0,0:0:0:0:
33,235,44422,2,0,L|132:228,1,100,2|8,0:0|0:0,0:0:0:0:
230,251,45390,2,0,P|217:175|107:132,1,200,2|2,0:0|0:0,0:0:0:0:
13,145,46843,1,8,0:0:0:0:
47,49,47328,6,0,P|95:30|163:28,1,100,4|8,0:0|0:0,0:0:0:0:
239,51,48297,2,0,P|288:46|334:27,1,100,2|8,0:0|0:0,0:0:0:0:
427,65,49265,2,0,B|404:115|432:162|432:162|388:190|382:249,1,200,2|2,0:0|0:0,0:0:0:0:
304,304,50719,1,8,0:0:0:0:
220,356,51203,6,0,P|163:354|124:222,1,200,2|2,0:0|0:0,0:0:0:0:
144,140,52656,1,8,0:0:0:0:
256,192,53140,12,4,55078,0:0:0:0:
99,303,57015,6,0,P|193:325|271:251,1,200,2|2,0:0|0:0,0:0:0:0:
312,172,58469,1,8,0:0:0:0:
232,112,58953,6,0,P|138:90|60:164,1,200,2|2,0:0|0:0,0:0:0:0:
36,248,60406,1,8,0:0:0:0:
104,324,60890,2,0,P|154:333|204:324,1,100,2|8,0:0|0:0,0:0:0:0:
286,271,61859,2,0,P|335:263|384:271,1,100,2|8,0:0|0:0,0:0:0:0:
468,216,62828,6,0,L|456:112,1,100,4|8,0:0|0:0,0:0:0:0:
364,80,63797,2,0,L|376:184,1,100,2|8,0:0|0:0,0:0:0:0:
349,276,64765,2,0,P|256:307|162:276,1,200,2|2,0:0|0:0,0:0:0:0:
112,189,66219,1,8,0:0:0:0:
61,102,66703,6,0,P|16:157|12:196,2,100,2|8|2,0:0|0:0|0:0,0:0:0:0:
152,64,68156,1,8,0:0:0:0:
248,96,68641,2,0,B|313:96|313:96|386:96|424:160,1,200,2|2,0:0|0:0,0:0:0:0:
412,261,70094,1,8,0:0:0:0:
320,296,70578,6,0,P|271:305|231:340,1,100,4|8,0:0|0:0,0:0:0:0:
136,306,71547,2,0,L|125:185,1,100,2|8,0:0|0:0,0:0:0:0:
145,107,72516,2,0,B|91:103|57:132|57:132|20:83,2,150,2|2|8,0:0|0:0|0:0,0:0:0:0:
242,130,74453,6,0,P|289:133|344:52,2,150,2|2|8,0:0|0:0|0:0,0:0:0:0:
144,106,76391,2,0,B|135:162|171:202|171:202|157:259|111:277,1,200,2|2,0:0|0:0,0:0:0:0:
53,355,77844,1,8,0:0:0:0:
152,372,78328,6,0,L|264:364,1,100,4|8,0:0|0:0,0:0:0:0:
309,285,79297,2,0,L|408:277,1,100,2|8,0:0|0:0,0:0:0:0:
464,192,80266,2,0,P|512:272|500:328,2,150,2|2|8,0:0|0:0|0:0,0:0:0:0:
374,147,82203,6,0,P|434:98|509:106,2,150,2|2|8,0:0|0:0|0:0,0:0:0:0:
304,218,84141,2,0,P|210:233|144:159,1,200,2|2,0:0|0:0,0:0:0:0:
122,64,85594,1,8,0:0:0:0:
211,18,86078,6,0,P|262:27|316:14,1,100,4|8,0:0|0:0,0:0:0:0:
385,81,87047,2,0,P|433:71|482:80,1,100,2|8,0:0|0:0,0:0:0:0:
505,177,88016,2,0,B|505:277|505:277|434:349,1,200,2|2,0:0|0:0,0:0:0:0:
335,336,89469,1,8,0:0:0:0:
236,317,89953,6,0,L|134:330,1,100,2|8,0:0|0:0,0:0:0:0:
120,230,90922,2,0,L|222:217,1,100,2|8,0:0|0:0,0:0:0:0:
295,152,91891,2,0,P|310:105|195:40,1,200,2|2,0:0|0:0,0:0:0:0:
106,63,93344,1,8,0:0:0:0:
40,138,93828,6,0,L|55:247,1,100,4|8,0:0|0:0,0:0:0:0:
131,299,94797,2,0,P|183:301|242:273,1,100,2|8,0:0|0:0,0:0:0:0:
264,189,95766,2,0,P|310:171|360:173,1,100,2|8,0:0|0:0,0:0:0:0:
443,229,96734,2,0,L|456:328,1,100,2|8,0:0|0:0,0:0:0:0:
363,364,97703,6,0,L|336:158,1,200,2|2,0:0|0:0,0:0:0:0:
320,66,99156,1,8,0:0:0:0:
224,95,99641,2,0,P|155:93|123:62,2,100,2|8|2,0:0|0:0|0:0,0:0:0:0:
320,66,101094,1,8,0:0:0:0:
405,117,101578,5,4,0:0:0:0:
