osu file format v14

[General]
AudioFilename: audio.mp3
AudioLeadIn: 0
PreviewTime: 115446
Countdown: 0
SampleSet: Normal
StackLeniency: 0.7
Mode: 3
LetterboxInBreaks: 0
SpecialStyle: 0
WidescreenStoryboard: 1

[Editor]
Bookmarks: 11231,22031,22117,22202,22288,22374,33174,43974,44060,44145,44231,44317,55974,66088,71402,71488,71574,71660,71745,82374,82460,82545,82631,82717,93517,104317,104402,104488,104574,104660,115288,115374,115460,115545,115631,131917,137231,137317,137402,137488,137574
DistanceSpacing: 1.4
BeatDivisor: 4
GridSize: 4
TimelineZoom: 2.1

[Metadata]
Title:Floating
TitleUnicode:Floating
Artist:Hachito
ArtistUnicode:ハチト
Creator:AHHHHHHHHHHHHHH
Version:Normal
Source:
Tags:mmcc DCKS-0084 juke footwork breakcore hardcore electronic instrumental footcore compilation mamachacha phase epsilon phaseepsilon
BeatmapID:2306477
BeatmapSetID:1101599

[Difficulty]
HPDrainRate:7
CircleSize:4
OverallDifficulty:7
ApproachRate:5
SliderMultiplier:1.4
SliderTickRate:1

[Events]
//Background and Video events
0,0,"13252218_p0.png",0,0
//Break Periods
//Storyboard Layer 0 (Background)
//Storyboard Layer 1 (Fail)
//Storyboard Layer 2 (Pass)
//Storyboard Layer 3 (Foreground)
//Storyboard Layer 4 (Overlay)
//Storyboard Sound Samples

[TimingPoints]
268,342.857142857143,4,1,1,60,1,0
115468,-100,4,1,1,60,0,1
126353,-100,4,1,1,60,0,0
126439,-100,4,1,1,60,0,1
137410,-100,4,1,1,60,0,0

[HitObjects]
64,192,268,5,2,0:0:0:0:
448,192,525,1,0,0:0:0:0:
192,192,782,1,0,0:0:0:0:
320,192,1125,1,0,0:0:0:0:
64,192,1382,1,0,0:0:0:0:
448,192,1639,1,0,0:0:0:0:
192,192,1896,1,0,0:0:0:0:
320,192,2153,1,0,0:0:0:0:
64,192,2496,1,0,0:0:0:0:
448,192,2753,1,0,0:0:0:0:
192,192,3010,1,0,0:0:0:0:
320,192,3268,1,0,0:0:0:0:
64,192,3525,1,0,0:0:0:0:
448,192,3868,1,0,0:0:0:0:
64,192,4125,1,0,0:0:0:0:
320,192,4382,1,0,0:0:0:0:
192,192,4639,1,0,0:0:0:0:
448,192,4896,1,0,0:0:0:0:
192,192,5239,1,0,0:0:0:0:
320,192,5496,1,0,0:0:0:0:
448,192,5753,1,0,0:0:0:0:
192,192,6010,1,0,0:0:0:0:
64,192,6268,1,0,0:0:0:0:
320,192,6610,1,0,0:0:0:0:
192,192,6868,1,0,0:0:0:0:
448,192,7125,1,0,0:0:0:0:
64,192,7382,1,0,0:0:0:0:
320,192,7639,1,0,0:0:0:0:
192,192,7982,1,0,0:0:0:0:
448,192,8239,1,0,0:0:0:0:
64,192,8496,1,0,0:0:0:0:
320,192,8753,1,0,0:0:0:0:
192,192,9010,1,0,0:0:0:0:
448,192,9353,1,0,0:0:0:0:
192,192,9610,1,0,0:0:0:0:
320,192,9868,1,0,0:0:0:0:
64,192,10125,1,0,0:0:0:0:
448,192,10382,1,0,0:0:0:0:
192,192,10725,1,0,0:0:0:0:
448,192,10982,1,0,0:0:0:0:
64,192,11239,1,2,0:0:0:0:
320,192,11410,1,0,0:0:0:0:
192,192,11582,1,0,0:0:0:0:
192,192,11925,1,0,0:0:0:0:
320,192,12010,1,0,0:0:0:0:
448,192,12096,1,0,0:0:0:0:
64,192,12268,1,0,0:0:0:0:
192,192,12953,1,0,0:0:0:0:
192,192,13296,1,0,0:0:0:0:
320,192,13382,1,0,0:0:0:0:
448,192,13468,1,0,0:0:0:0:
64,192,13639,1,0,0:0:0:0:
192,192,14325,1,0,0:0:0:0:
192,192,14668,1,0,0:0:0:0:
320,192,14753,1,0,0:0:0:0:
448,192,14839,1,0,0:0:0:0:
64,192,15010,1,0,0:0:0:0:
192,192,15696,1,0,0:0:0:0:
192,192,16039,1,0,0:0:0:0:
320,192,16125,1,0,0:0:0:0:
448,192,16210,1,0,0:0:0:0:
64,192,16382,1,0,0:0:0:0:
448,192,16725,1,0,0:0:0:0:
192,192,16896,1,0,0:0:0:0:
320,192,17068,1,0,0:0:0:0:
320,192,17410,1,0,0:0:0:0:
192,192,17496,1,0,0:0:0:0:
64,192,17582,1,0,0:0:0:0:
448,192,17753,1,0,0:0:0:0:
320,192,18439,1,0,0:0:0:0:
320,192,18782,1,0,0:0:0:0:
192,192,18868,1,0,0:0:0:0:
64,192,18953,1,0,0:0:0:0:
448,192,19125,1,0,0:0:0:0:
320,192,19810,1,0,0:0:0:0:
320,192,20153,1,0,0:0:0:0:
192,192,20239,1,0,0:0:0:0:
64,192,20325,1,0,0:0:0:0:
448,192,20496,128,0,20839:0:0:0:0:
64,192,20839,128,2,22210:0:0:0:0:
192,192,20839,1,0,0:0:0:0:
448,192,22210,128,0,22468:0:0:0:0:
192,192,22468,128,0,22725:0:0:0:0:
320,192,22725,128,0,22982:0:0:0:0:
192,192,22982,128,0,23239:0:0:0:0:
320,192,23239,128,0,23496:0:0:0:0:
192,192,23496,128,0,23753:0:0:0:0:
320,192,23753,128,0,24010:0:0:0:0:
192,192,24010,128,0,24268:0:0:0:0:
320,192,24268,128,0,24525:0:0:0:0:
192,192,24525,128,0,24782:0:0:0:0:
320,192,24782,128,0,25039:0:0:0:0:
192,192,25039,128,0,25296:0:0:0:0:
320,192,25296,128,0,25553:0:0:0:0:
192,192,25553,128,0,25810:0:0:0:0:
320,192,25810,128,0,26068:0:0:0:0:
192,192,26068,128,0,26325:0:0:0:0:
320,192,26325,128,0,26582:0:0:0:0:
192,192,26582,128,0,26839:0:0:0:0:
320,192,26839,128,0,27096:0:0:0:0:
192,192,27096,128,0,27353:0:0:0:0:
64,192,27353,1,0,0:0:0:0:
448,192,27353,1,0,0:0:0:0:
448,192,27696,128,0,27953:0:0:0:0:
192,192,27953,128,0,28210:0:0:0:0:
320,192,28210,128,0,28468:0:0:0:0:
192,192,28468,128,0,28725:0:0:0:0:
320,192,28725,128,0,28982:0:0:0:0:
192,192,28982,128,0,29239:0:0:0:0:
320,192,29239,128,0,29496:0:0:0:0:
192,192,29496,128,0,29753:0:0:0:0:
320,192,29753,128,0,30010:0:0:0:0:
192,192,30010,128,0,30268:0:0:0:0:
320,192,30268,128,0,30525:0:0:0:0:
192,192,30525,128,0,30782:0:0:0:0:
320,192,30782,128,0,31039:0:0:0:0:
192,192,31039,128,0,31296:0:0:0:0:
320,192,31296,128,0,31553:0:0:0:0:
192,192,31553,128,0,31810:0:0:0:0:
448,192,31810,128,0,32068:0:0:0:0:
192,192,32068,128,0,32325:0:0:0:0:
320,192,32325,128,0,32582:0:0:0:0:
192,192,32582,128,0,32839:0:0:0:0:
320,192,32839,128,0,33096:0:0:0:0:
192,192,33096,1,0,0:0:0:0:
64,192,33182,1,2,0:0:0:0:
448,192,33182,1,0,0:0:0:0:
64,192,33353,1,0,0:0:0:0:
320,192,33525,1,4,0:0:0:0:
448,192,33525,1,0,0:0:0:0:
192,192,33696,1,0,0:0:0:0:
448,192,33868,1,2,0:0:0:0:
320,192,34039,1,0,0:0:0:0:
192,192,34125,1,0,0:0:0:0:
64,192,34210,1,4,0:0:0:0:
320,192,34382,1,0,0:0:0:0:
448,192,34553,1,2,0:0:0:0:
448,192,34725,1,2,0:0:0:0:
192,192,34896,1,4,0:0:0:0:
64,192,34896,1,0,0:0:0:0:
320,192,35068,1,0,0:0:0:0:
64,192,35239,1,2,0:0:0:0:
192,192,35410,1,0,0:0:0:0:
320,192,35496,1,0,0:0:0:0:
448,192,35582,1,4,0:0:0:0:
64,192,35753,1,0,0:0:0:0:
192,192,35925,1,2,0:0:0:0:
192,192,36096,1,2,0:0:0:0:
448,192,36268,1,4,0:0:0:0:
320,192,36268,1,0,0:0:0:0:
64,192,36439,1,0,0:0:0:0:
320,192,36610,1,2,0:0:0:0:
64,192,36782,1,0,0:0:0:0:
192,192,36868,1,0,0:0:0:0:
448,192,36953,1,4,0:0:0:0:
64,192,37125,1,0,0:0:0:0:
320,192,37296,1,2,0:0:0:0:
320,192,37468,1,2,0:0:0:0:
64,192,37639,1,4,0:0:0:0:
192,192,37639,1,0,0:0:0:0:
448,192,37810,1,0,0:0:0:0:
192,192,37982,1,2,0:0:0:0:
448,192,38153,1,0,0:0:0:0:
320,192,38239,1,0,0:0:0:0:
64,192,38325,1,4,0:0:0:0:
192,192,38496,1,0,0:0:0:0:
448,192,38668,1,2,0:0:0:0:
448,192,38839,1,2,0:0:0:0:
64,192,39010,1,4,0:0:0:0:
192,192,39010,1,0,0:0:0:0:
448,192,39182,1,2,0:0:0:0:
64,192,39353,1,2,0:0:0:0:
64,192,39525,1,2,0:0:0:0:
320,192,39696,1,4,0:0:0:0:
448,192,39696,1,0,0:0:0:0:
64,192,39868,1,2,0:0:0:0:
448,192,40039,1,2,0:0:0:0:
448,192,40210,1,2,0:0:0:0:
64,192,40382,1,4,0:0:0:0:
192,192,40382,1,0,0:0:0:0:
448,192,40553,1,2,0:0:0:0:
64,192,40725,1,2,0:0:0:0:
64,192,40896,1,2,0:0:0:0:
320,192,41068,1,4,0:0:0:0:
448,192,41068,1,0,0:0:0:0:
64,192,41239,1,2,0:0:0:0:
192,192,41410,1,2,0:0:0:0:
320,192,41496,1,2,0:0:0:0:
448,192,41582,1,2,0:0:0:0:
192,192,41753,1,6,0:0:0:0:
64,192,41753,1,0,0:0:0:0:
448,192,41925,1,2,0:0:0:0:
320,192,42096,1,2,0:0:0:0:
192,192,42182,1,2,0:0:0:0:
64,192,42268,1,2,0:0:0:0:
448,192,42439,128,6,42782:0:0:0:0:
320,192,42439,1,0,0:0:0:0:
64,192,42610,128,2,42782:0:0:0:0:
320,192,42782,1,2,0:0:0:0:
192,192,42782,1,0,0:0:0:0:
64,192,43639,1,0,0:0:0:0:
192,192,43896,1,0,0:0:0:0:
320,192,44153,1,2,0:0:0:0:
448,192,44153,128,0,44410:0:0:0:0:
192,192,44410,128,2,44668:0:0:0:0:
64,192,44668,1,2,0:0:0:0:
320,192,44839,1,4,0:0:0:0:
448,192,44839,1,0,0:0:0:0:
192,192,45010,1,2,0:0:0:0:
448,192,45268,1,2,0:0:0:0:
64,192,45525,128,2,45782:0:0:0:0:
192,192,45782,128,2,46039:0:0:0:0:
448,192,46039,1,2,0:0:0:0:
320,192,46210,1,4,0:0:0:0:
64,192,46210,1,0,0:0:0:0:
192,192,46382,1,2,0:0:0:0:
320,192,46639,1,2,0:0:0:0:
448,192,46896,128,2,47153:0:0:0:0:
64,192,47153,128,2,47410:0:0:0:0:
320,192,47410,1,2,0:0:0:0:
192,192,47496,1,2,0:0:0:0:
448,192,47582,128,4,47839:0:0:0:0:
64,192,47839,128,2,48096:0:0:0:0:
320,192,48096,1,2,0:0:0:0:
192,192,48268,1,2,0:0:0:0:
64,192,48525,1,2,0:0:0:0:
448,192,48782,1,2,0:0:0:0:
320,192,48953,1,4,0:0:0:0:
192,192,48953,1,0,0:0:0:0:
64,192,49125,1,2,0:0:0:0:
448,192,49296,1,4,0:0:0:0:
320,192,49296,1,0,0:0:0:0:
192,192,49468,1,2,0:0:0:0:
320,192,49553,1,2,0:0:0:0:
64,192,49639,128,2,49896:0:0:0:0:
192,192,49896,128,2,50153:0:0:0:0:
448,192,50153,1,2,0:0:0:0:
320,192,50325,1,4,0:0:0:0:
64,192,50325,1,0,0:0:0:0:
192,192,50496,1,2,0:0:0:0:
320,192,50753,1,2,0:0:0:0:
448,192,51010,128,2,51268:0:0:0:0:
320,192,51268,128,2,51525:0:0:0:0:
64,192,51525,1,2,0:0:0:0:
192,192,51696,1,4,0:0:0:0:
448,192,51696,1,0,0:0:0:0:
320,192,51868,1,2,0:0:0:0:
192,192,52125,1,2,0:0:0:0:
64,192,52382,1,2,0:0:0:0:
448,192,52639,128,2,52896:0:0:0:0:
64,192,52896,1,2,0:0:0:0:
192,192,52982,1,2,0:0:0:0:
320,192,53068,1,4,0:0:0:0:
64,192,53325,128,2,53582:0:0:0:0:
448,192,53582,1,2,0:0:0:0:
192,192,53753,1,2,0:0:0:0:
448,192,54010,128,2,54268:0:0:0:0:
64,192,54268,1,2,0:0:0:0:
192,192,54439,1,4,0:0:0:0:
320,192,54439,1,0,0:0:0:0:
448,192,54610,1,2,0:0:0:0:
192,192,54782,1,4,0:0:0:0:
64,192,54782,1,0,0:0:0:0:
448,192,54953,1,2,0:0:0:0:
320,192,55039,1,2,0:0:0:0:
192,192,55125,1,0,0:0:0:0:
64,192,55382,1,0,0:0:0:0:
192,192,55639,1,0,0:0:0:0:
320,192,55810,1,4,0:0:0:0:
448,192,55810,1,0,0:0:0:0:
64,192,55982,1,2,0:0:0:0:
192,192,56239,1,2,0:0:0:0:
448,192,56496,128,2,56753:0:0:0:0:
320,192,56753,128,2,57010:0:0:0:0:
64,192,57010,1,2,0:0:0:0:
192,192,57182,1,4,0:0:0:0:
448,192,57182,1,0,0:0:0:0:
320,192,57353,1,2,0:0:0:0:
192,192,57610,1,2,0:0:0:0:
448,192,57868,128,2,58125:0:0:0:0:
64,192,58125,128,2,58382:0:0:0:0:
320,192,58382,1,2,0:0:0:0:
192,192,58468,1,2,0:0:0:0:
448,192,58553,128,4,58810:0:0:0:0:
64,192,58810,128,2,59068:0:0:0:0:
320,192,59068,1,2,0:0:0:0:
192,192,59239,128,2,59496:0:0:0:0:
320,192,59496,128,2,59753:0:0:0:0:
448,192,59753,1,2,0:0:0:0:
64,192,59925,1,4,0:0:0:0:
192,192,59925,1,0,0:0:0:0:
320,192,60096,1,2,0:0:0:0:
64,192,60182,1,0,0:0:0:0:
448,192,60268,1,4,0:0:0:0:
192,192,60439,1,2,0:0:0:0:
320,192,60525,1,2,0:0:0:0:
64,192,60610,128,2,60868:0:0:0:0:
320,192,60868,128,2,61125:0:0:0:0:
448,192,61125,1,2,0:0:0:0:
192,192,61296,1,4,0:0:0:0:
64,192,61296,1,0,0:0:0:0:
320,192,61468,1,2,0:0:0:0:
192,192,61725,1,2,0:0:0:0:
448,192,61982,128,2,62239:0:0:0:0:
192,192,62239,128,2,62496:0:0:0:0:
64,192,62496,1,2,0:0:0:0:
320,192,62668,1,4,0:0:0:0:
448,192,62668,1,0,0:0:0:0:
192,192,62839,1,2,0:0:0:0:
320,192,63096,1,2,0:0:0:0:
448,192,63353,1,2,0:0:0:0:
64,192,63610,1,2,0:0:0:0:
448,192,63696,1,0,0:0:0:0:
320,192,63868,1,2,0:0:0:0:
192,192,63953,1,2,0:0:0:0:
64,192,64039,1,4,0:0:0:0:
320,192,64210,1,2,0:0:0:0:
448,192,64296,1,2,0:0:0:0:
64,192,64382,1,0,0:0:0:0:
320,192,64553,1,2,0:0:0:0:
192,192,64725,1,2,0:0:0:0:
448,192,64982,128,2,65239:0:0:0:0:
192,192,65239,1,2,0:0:0:0:
320,192,65410,1,4,0:0:0:0:
64,192,65410,1,0,0:0:0:0:
192,192,65582,1,2,0:0:0:0:
448,192,65668,1,2,0:0:0:0:
64,192,65753,1,4,0:0:0:0:
320,192,65925,1,2,0:0:0:0:
448,192,66010,1,2,0:0:0:0:
64,192,66096,1,2,0:0:0:0:
448,192,66439,128,4,66696:0:0:0:0:
320,192,66439,1,0,0:0:0:0:
192,192,66696,1,0,0:0:0:0:
448,192,67125,128,4,67382:0:0:0:0:
320,192,67125,1,0,0:0:0:0:
192,192,67382,1,0,0:0:0:0:
448,192,67810,128,4,68068:0:0:0:0:
320,192,67810,1,0,0:0:0:0:
192,192,68068,1,0,0:0:0:0:
448,192,68496,128,4,68753:0:0:0:0:
320,192,68496,1,0,0:0:0:0:
192,192,68753,1,0,0:0:0:0:
448,192,69182,128,4,69439:0:0:0:0:
320,192,69182,1,0,0:0:0:0:
192,192,69439,1,0,0:0:0:0:
448,192,69868,128,4,70125:0:0:0:0:
320,192,69868,1,0,0:0:0:0:
192,192,70125,1,0,0:0:0:0:
320,192,70382,1,0,0:0:0:0:
64,192,70553,1,0,0:0:0:0:
320,192,70810,1,0,0:0:0:0:
192,192,71068,1,0,0:0:0:0:
448,192,71239,1,0,0:0:0:0:
320,192,71410,1,0,0:0:0:0:
64,192,71582,1,2,0:0:0:0:
192,192,71753,1,2,0:0:0:0:
448,192,72010,1,2,0:0:0:0:
320,192,72096,1,2,0:0:0:0:
64,192,72268,1,4,0:0:0:0:
192,192,72439,1,2,0:0:0:0:
448,192,72610,1,2,0:0:0:0:
320,192,72782,1,2,0:0:0:0:
192,192,72868,1,2,0:0:0:0:
448,192,73125,1,2,0:0:0:0:
320,192,73382,1,2,0:0:0:0:
192,192,73468,1,2,0:0:0:0:
64,192,73639,1,4,0:0:0:0:
448,192,73810,1,2,0:0:0:0:
320,192,73982,1,2,0:0:0:0:
64,192,74153,1,2,0:0:0:0:
192,192,74239,1,2,0:0:0:0:
448,192,74325,1,2,0:0:0:0:
320,192,74496,1,2,0:0:0:0:
64,192,74753,1,2,0:0:0:0:
192,192,74839,1,2,0:0:0:0:
448,192,75010,1,4,0:0:0:0:
320,192,75182,1,2,0:0:0:0:
64,192,75353,1,2,0:0:0:0:
192,192,75525,1,2,0:0:0:0:
320,192,75610,1,2,0:0:0:0:
64,192,75868,1,2,0:0:0:0:
192,192,76125,1,2,0:0:0:0:
320,192,76210,1,2,0:0:0:0:
448,192,76382,1,4,0:0:0:0:
64,192,76553,1,2,0:0:0:0:
192,192,76725,1,2,0:0:0:0:
448,192,76896,1,2,0:0:0:0:
320,192,76982,1,2,0:0:0:0:
64,192,77068,1,2,0:0:0:0:
192,192,77239,1,2,0:0:0:0:
448,192,77496,1,2,0:0:0:0:
320,192,77582,1,2,0:0:0:0:
64,192,77753,1,4,0:0:0:0:
192,192,77925,1,2,0:0:0:0:
448,192,78096,1,2,0:0:0:0:
320,192,78268,1,2,0:0:0:0:
192,192,78353,1,2,0:0:0:0:
448,192,78610,1,2,0:0:0:0:
320,192,78868,1,2,0:0:0:0:
192,192,78953,1,2,0:0:0:0:
64,192,79125,1,4,0:0:0:0:
448,192,79296,1,2,0:0:0:0:
320,192,79468,1,2,0:0:0:0:
64,192,79639,1,2,0:0:0:0:
192,192,79725,1,2,0:0:0:0:
448,192,79810,1,2,0:0:0:0:
320,192,79982,1,2,0:0:0:0:
64,192,80239,1,2,0:0:0:0:
192,192,80325,1,2,0:0:0:0:
448,192,80496,1,4,0:0:0:0:
320,192,80668,1,2,0:0:0:0:
64,192,80839,1,2,0:0:0:0:
192,192,81010,1,2,0:0:0:0:
320,192,81096,1,2,0:0:0:0:
64,192,81353,1,2,0:0:0:0:
192,192,81610,1,2,0:0:0:0:
320,192,81696,1,2,0:0:0:0:
448,192,81868,1,4,0:0:0:0:
192,192,82039,1,4,0:0:0:0:
64,192,82125,1,4,0:0:0:0:
448,192,82210,1,2,0:0:0:0:
320,192,82382,1,2,0:0:0:0:
64,192,82553,1,2,0:0:0:0:
192,192,82553,1,0,0:0:0:0:
448,192,82725,1,0,0:0:0:0:
320,192,82810,1,2,0:0:0:0:
192,192,82982,1,2,0:0:0:0:
448,192,83153,1,2,0:0:0:0:
64,192,83239,1,2,0:0:0:0:
192,192,83410,1,2,0:0:0:0:
320,192,83496,1,2,0:0:0:0:
448,192,83668,1,2,0:0:0:0:
64,192,83839,1,2,0:0:0:0:
192,192,83925,1,2,0:0:0:0:
320,192,84010,1,2,0:0:0:0:
64,192,84182,1,2,0:0:0:0:
448,192,84353,1,2,0:0:0:0:
320,192,84439,1,2,0:0:0:0:
192,192,84610,1,2,0:0:0:0:
64,192,84696,1,2,0:0:0:0:
320,192,84868,1,2,0:0:0:0:
64,192,85039,1,2,0:0:0:0:
192,192,85125,1,2,0:0:0:0:
448,192,85296,1,2,0:0:0:0:
192,192,85468,1,0,0:0:0:0:
320,192,85553,1,2,0:0:0:0:
64,192,85725,1,2,0:0:0:0:
448,192,85896,1,2,0:0:0:0:
320,192,85982,1,2,0:0:0:0:
192,192,86153,1,2,0:0:0:0:
64,192,86239,1,2,0:0:0:0:
448,192,86410,1,2,0:0:0:0:
192,192,86582,1,2,0:0:0:0:
320,192,86668,1,2,0:0:0:0:
448,192,86753,1,2,0:0:0:0:
64,192,86925,1,2,0:0:0:0:
320,192,87096,1,2,0:0:0:0:
192,192,87182,1,2,0:0:0:0:
448,192,87353,1,2,0:0:0:0:
320,192,87439,1,2,0:0:0:0:
64,192,87610,1,2,0:0:0:0:
192,192,87782,1,2,0:0:0:0:
320,192,87868,1,2,0:0:0:0:
64,192,88039,1,2,0:0:0:0:
448,192,88210,1,0,0:0:0:0:
320,192,88296,1,2,0:0:0:0:
192,192,88468,1,2,0:0:0:0:
448,192,88639,1,2,0:0:0:0:
64,192,88725,1,2,0:0:0:0:
192,192,88896,1,2,0:0:0:0:
320,192,88982,1,2,0:0:0:0:
448,192,89153,1,2,0:0:0:0:
64,192,89325,1,2,0:0:0:0:
192,192,89410,1,2,0:0:0:0:
320,192,89496,1,2,0:0:0:0:
64,192,89668,1,2,0:0:0:0:
448,192,89839,1,2,0:0:0:0:
320,192,89925,1,2,0:0:0:0:
192,192,90096,1,2,0:0:0:0:
64,192,90182,1,2,0:0:0:0:
320,192,90353,1,2,0:0:0:0:
64,192,90525,1,2,0:0:0:0:
192,192,90610,1,2,0:0:0:0:
448,192,90782,1,2,0:0:0:0:
192,192,90953,1,0,0:0:0:0:
320,192,91039,1,2,0:0:0:0:
64,192,91210,1,2,0:0:0:0:
448,192,91382,1,2,0:0:0:0:
320,192,91468,1,2,0:0:0:0:
192,192,91639,1,2,0:0:0:0:
64,192,91725,1,2,0:0:0:0:
448,192,91896,1,2,0:0:0:0:
192,192,92068,1,2,0:0:0:0:
320,192,92153,1,2,0:0:0:0:
448,192,92239,1,2,0:0:0:0:
64,192,92410,1,2,0:0:0:0:
320,192,92582,1,2,0:0:0:0:
192,192,92668,1,2,0:0:0:0:
448,192,92839,1,2,0:0:0:0:
320,192,92925,1,2,0:0:0:0:
192,192,93010,1,2,0:0:0:0:
64,192,93096,1,2,0:0:0:0:
448,192,93182,1,4,0:0:0:0:
64,192,93525,1,8,0:0:0:0:
192,192,93525,1,0,0:0:0:0:
448,192,93782,1,8,0:0:0:0:
64,192,93953,1,8,0:0:0:0:
320,192,94125,1,8,0:0:0:0:
448,192,94210,1,8,0:0:0:0:
192,192,94382,1,8,0:0:0:0:
64,192,94468,1,8,0:0:0:0:
448,192,94639,1,8,0:0:0:0:
320,192,94810,1,8,0:0:0:0:
192,192,94896,1,8,0:0:0:0:
64,192,94982,1,8,0:0:0:0:
448,192,95153,1,8,0:0:0:0:
192,192,95325,1,8,0:0:0:0:
64,192,95410,1,8,0:0:0:0:
320,192,95582,1,8,0:0:0:0:
448,192,95668,1,8,0:0:0:0:
64,192,95839,1,8,0:0:0:0:
320,192,96010,1,8,0:0:0:0:
448,192,96096,1,8,0:0:0:0:
64,192,96268,1,8,0:0:0:0:
448,192,96525,1,8,0:0:0:0:
64,192,96696,1,8,0:0:0:0:
320,192,96868,1,8,0:0:0:0:
448,192,96953,1,8,0:0:0:0:
192,192,97125,1,8,0:0:0:0:
64,192,97210,1,8,0:0:0:0:
448,192,97382,1,8,0:0:0:0:
320,192,97553,1,8,0:0:0:0:
192,192,97639,1,8,0:0:0:0:
64,192,97725,1,8,0:0:0:0:
448,192,97896,1,8,0:0:0:0:
192,192,98068,1,8,0:0:0:0:
64,192,98153,1,8,0:0:0:0:
320,192,98325,1,8,0:0:0:0:
448,192,98410,1,8,0:0:0:0:
64,192,98582,1,8,0:0:0:0:
320,192,98753,1,8,0:0:0:0:
448,192,98839,1,8,0:0:0:0:
64,192,99010,1,8,0:0:0:0:
448,192,99268,1,8,0:0:0:0:
64,192,99439,1,8,0:0:0:0:
320,192,99610,1,8,0:0:0:0:
448,192,99696,1,8,0:0:0:0:
192,192,99868,1,8,0:0:0:0:
64,192,99953,1,8,0:0:0:0:
448,192,100125,1,8,0:0:0:0:
320,192,100296,1,8,0:0:0:0:
192,192,100382,1,8,0:0:0:0:
64,192,100468,1,8,0:0:0:0:
448,192,100639,1,8,0:0:0:0:
192,192,100810,1,8,0:0:0:0:
64,192,100896,1,8,0:0:0:0:
320,192,101068,1,8,0:0:0:0:
448,192,101153,1,8,0:0:0:0:
64,192,101325,1,8,0:0:0:0:
320,192,101496,1,8,0:0:0:0:
448,192,101582,1,8,0:0:0:0:
64,192,101753,1,8,0:0:0:0:
448,192,102010,1,8,0:0:0:0:
64,192,102182,1,8,0:0:0:0:
320,192,102353,1,8,0:0:0:0:
448,192,102439,1,8,0:0:0:0:
192,192,102610,1,8,0:0:0:0:
64,192,102696,1,8,0:0:0:0:
448,192,102868,1,8,0:0:0:0:
320,192,103039,1,8,0:0:0:0:
192,192,103125,1,8,0:0:0:0:
64,192,103210,1,8,0:0:0:0:
448,192,103382,1,8,0:0:0:0:
192,192,103553,1,2,0:0:0:0:
64,192,103639,1,2,0:0:0:0:
448,192,103810,1,2,0:0:0:0:
320,192,103896,1,2,0:0:0:0:
64,192,104068,1,2,0:0:0:0:
192,192,104239,1,2,0:0:0:0:
320,192,104325,1,2,0:0:0:0:
448,192,104496,1,2,0:0:0:0:
192,192,104753,1,2,0:0:0:0:
320,192,104925,1,2,0:0:0:0:
64,192,105182,1,2,0:0:0:0:
320,192,105439,1,2,0:0:0:0:
192,192,105610,1,2,0:0:0:0:
448,192,105868,1,2,0:0:0:0:
192,192,106125,1,2,0:0:0:0:
320,192,106296,1,2,0:0:0:0:
64,192,106382,1,2,0:0:0:0:
448,192,106553,1,2,0:0:0:0:
192,192,106639,1,2,0:0:0:0:
320,192,106810,1,2,0:0:0:0:
64,192,106982,1,2,0:0:0:0:
192,192,107068,1,2,0:0:0:0:
448,192,107239,1,2,0:0:0:0:
320,192,107496,1,2,0:0:0:0:
192,192,107668,1,2,0:0:0:0:
448,192,107839,1,2,0:0:0:0:
64,192,107925,1,2,0:0:0:0:
320,192,108096,1,2,0:0:0:0:
192,192,108182,1,2,0:0:0:0:
448,192,108353,1,2,0:0:0:0:
64,192,108525,1,2,0:0:0:0:
192,192,108610,1,2,0:0:0:0:
320,192,108696,1,2,0:0:0:0:
448,192,108868,1,2,0:0:0:0:
64,192,109039,1,2,0:0:0:0:
320,192,109125,1,2,0:0:0:0:
448,192,109296,1,2,0:0:0:0:
192,192,109382,1,2,0:0:0:0:
64,192,109553,1,2,0:0:0:0:
448,192,109725,1,2,0:0:0:0:
320,192,109810,1,2,0:0:0:0:
64,192,109982,1,2,0:0:0:0:
448,192,110239,1,2,0:0:0:0:
192,192,110410,1,2,0:0:0:0:
320,192,110582,1,2,0:0:0:0:
448,192,110668,1,2,0:0:0:0:
64,192,110839,1,2,0:0:0:0:
192,192,110925,1,2,0:0:0:0:
448,192,111096,1,2,0:0:0:0:
64,192,111268,1,2,0:0:0:0:
192,192,111353,1,2,0:0:0:0:
320,192,111439,1,2,0:0:0:0:
64,192,111610,1,2,0:0:0:0:
448,192,111782,1,2,0:0:0:0:
320,192,111868,1,2,0:0:0:0:
192,192,112039,1,2,0:0:0:0:
64,192,112125,1,2,0:0:0:0:
448,192,112296,1,2,0:0:0:0:
320,192,112468,1,2,0:0:0:0:
192,192,112553,1,2,0:0:0:0:
64,192,112725,1,2,0:0:0:0:
320,192,112896,1,2,0:0:0:0:
192,192,112982,1,2,0:0:0:0:
448,192,113153,1,2,0:0:0:0:
64,192,113325,1,2,0:0:0:0:
192,192,113410,1,2,0:0:0:0:
448,192,113582,1,2,0:0:0:0:
320,192,113668,1,2,0:0:0:0:
64,192,113839,1,2,0:0:0:0:
320,192,114010,1,2,0:0:0:0:
192,192,114096,1,2,0:0:0:0:
64,192,114268,1,2,0:0:0:0:
448,192,114439,128,2,114782:0:0:0:0:
64,192,114610,128,2,114782:0:0:0:0:
320,192,114782,1,2,0:0:0:0:
192,192,115039,1,0,0:0:0:0:
320,192,115210,1,0,0:0:0:0:
192,192,115382,1,0,0:0:0:0:
320,192,115468,1,2,0:0:0:0:
448,192,115468,1,0,0:0:0:0:
64,192,115639,1,0,0:0:0:0:
192,192,115725,1,0,0:0:0:0:
448,192,115896,1,0,0:0:0:0:
64,192,116068,1,0,0:0:0:0:
192,192,116153,1,2,0:0:0:0:
64,192,116325,1,0,0:0:0:0:
192,192,116410,1,0,0:0:0:0:
448,192,116582,1,0,0:0:0:0:
64,192,116753,1,0,0:0:0:0:
192,192,116839,1,2,0:0:0:0:
448,192,116925,1,0,0:0:0:0:
448,192,117096,1,0,0:0:0:0:
64,192,117268,1,0,0:0:0:0:
192,192,117353,1,0,0:0:0:0:
64,192,117525,1,2,0:0:0:0:
192,192,117610,1,0,0:0:0:0:
448,192,117782,1,0,0:0:0:0:
320,192,117868,1,4,0:0:0:0:
192,192,118039,1,0,0:0:0:0:
64,192,118210,1,2,0:0:0:0:
448,192,118382,1,0,0:0:0:0:
320,192,118468,1,0,0:0:0:0:
64,192,118639,1,0,0:0:0:0:
448,192,118810,1,0,0:0:0:0:
320,192,118896,1,2,0:0:0:0:
448,192,119068,1,0,0:0:0:0:
320,192,119153,1,0,0:0:0:0:
64,192,119325,1,0,0:0:0:0:
448,192,119496,1,0,0:0:0:0:
320,192,119582,1,2,0:0:0:0:
64,192,119668,1,0,0:0:0:0:
64,192,119839,1,0,0:0:0:0:
448,192,120010,1,0,0:0:0:0:
320,192,120096,1,0,0:0:0:0:
448,192,120268,1,2,0:0:0:0:
320,192,120353,1,0,0:0:0:0:
64,192,120525,1,0,0:0:0:0:
192,192,120610,1,4,0:0:0:0:
320,192,120782,1,0,0:0:0:0:
448,192,120953,1,2,0:0:0:0:
64,192,121125,1,0,0:0:0:0:
192,192,121210,1,0,0:0:0:0:
448,192,121382,1,0,0:0:0:0:
64,192,121553,1,0,0:0:0:0:
192,192,121639,1,2,0:0:0:0:
64,192,121810,1,0,0:0:0:0:
192,192,121896,1,0,0:0:0:0:
448,192,122068,1,0,0:0:0:0:
64,192,122239,1,0,0:0:0:0:
192,192,122325,1,2,0:0:0:0:
448,192,122410,1,0,0:0:0:0:
448,192,122582,1,0,0:0:0:0:
64,192,122753,1,0,0:0:0:0:
192,192,122839,1,0,0:0:0:0:
64,192,123010,1,2,0:0:0:0:
192,192,123096,1,0,0:0:0:0:
448,192,123268,1,0,0:0:0:0:
320,192,123353,1,4,0:0:0:0:
192,192,123525,1,0,0:0:0:0:
64,192,123696,1,2,0:0:0:0:
448,192,123868,1,0,0:0:0:0:
320,192,123953,1,0,0:0:0:0:
64,192,124125,1,0,0:0:0:0:
448,192,124296,1,0,0:0:0:0:
320,192,124382,1,2,0:0:0:0:
448,192,124553,1,0,0:0:0:0:
320,192,124639,1,0,0:0:0:0:
64,192,124810,1,0,0:0:0:0:
448,192,124982,1,0,0:0:0:0:
320,192,125068,1,2,0:0:0:0:
64,192,125153,1,0,0:0:0:0:
64,192,125325,1,0,0:0:0:0:
448,192,125496,1,0,0:0:0:0:
320,192,125582,1,0,0:0:0:0:
448,192,125753,1,2,0:0:0:0:
320,192,125839,1,2,0:0:0:0:
64,192,126010,1,2,0:0:0:0:
192,192,126096,1,4,0:0:0:0:
320,192,126268,1,2,0:0:0:0:
448,192,126439,1,8,0:0:0:0:
64,192,126696,1,8,0:0:0:0:
448,192,126868,1,8,0:0:0:0:
192,192,127039,1,8,0:0:0:0:
64,192,127125,1,8,0:0:0:0:
320,192,127296,1,8,0:0:0:0:
448,192,127382,1,8,0:0:0:0:
192,192,127468,1,8,0:0:0:0:
64,192,127553,1,8,0:0:0:0:
448,192,127725,1,8,0:0:0:0:
320,192,127810,1,8,0:0:0:0:
192,192,127896,1,8,0:0:0:0:
64,192,128068,1,8,0:0:0:0:
320,192,128239,1,8,0:0:0:0:
448,192,128325,1,8,0:0:0:0:
192,192,128496,1,8,0:0:0:0:
64,192,128582,1,8,0:0:0:0:
320,192,128668,1,8,0:0:0:0:
448,192,128753,1,8,0:0:0:0:
192,192,128925,1,8,0:0:0:0:
64,192,129010,1,8,0:0:0:0:
448,192,129182,1,8,0:0:0:0:
64,192,129439,1,8,0:0:0:0:
448,192,129610,1,8,0:0:0:0:
192,192,129782,1,8,0:0:0:0:
64,192,129868,1,8,0:0:0:0:
320,192,130039,1,8,0:0:0:0:
448,192,130125,1,8,0:0:0:0:
192,192,130210,1,8,0:0:0:0:
64,192,130296,1,8,0:0:0:0:
448,192,130468,1,8,0:0:0:0:
320,192,130553,1,8,0:0:0:0:
192,192,130639,1,8,0:0:0:0:
64,192,130810,1,8,0:0:0:0:
320,192,130982,1,8,0:0:0:0:
448,192,131068,1,8,0:0:0:0:
64,192,131239,1,8,0:0:0:0:
192,192,131325,1,8,0:0:0:0:
320,192,131410,1,8,0:0:0:0:
64,192,131582,1,12,0:0:0:0:
192,192,131925,1,8,0:0:0:0:
320,192,132096,1,0,0:0:0:0:
448,192,132182,1,8,0:0:0:0:
64,192,132353,1,8,0:0:0:0:
320,192,132525,1,8,0:0:0:0:
448,192,132610,1,8,0:0:0:0:
192,192,132782,1,8,0:0:0:0:
64,192,132868,1,8,0:0:0:0:
320,192,132953,1,8,0:0:0:0:
448,192,133039,1,8,0:0:0:0:
192,192,133210,1,8,0:0:0:0:
64,192,133296,1,8,0:0:0:0:
320,192,133382,1,8,0:0:0:0:
448,192,133553,1,8,0:0:0:0:
192,192,133725,1,8,0:0:0:0:
64,192,133810,1,8,0:0:0:0:
320,192,133982,1,8,0:0:0:0:
448,192,134068,1,8,0:0:0:0:
64,192,134239,1,8,0:0:0:0:
320,192,134410,1,8,0:0:0:0:
448,192,134496,1,8,0:0:0:0:
64,192,134668,1,8,0:0:0:0:
448,192,134925,1,8,0:0:0:0:
64,192,135096,1,8,0:0:0:0:
320,192,135268,1,8,0:0:0:0:
448,192,135353,1,8,0:0:0:0:
192,192,135525,1,8,0:0:0:0:
64,192,135610,1,8,0:0:0:0:
320,192,135696,1,8,0:0:0:0:
448,192,135782,1,8,0:0:0:0:
192,192,135953,1,8,0:0:0:0:
64,192,136039,1,8,0:0:0:0:
320,192,136125,1,8,0:0:0:0:
448,192,136296,1,8,0:0:0:0:
320,192,136468,1,8,0:0:0:0:
192,192,136553,1,8,0:0:0:0:
64,192,136725,1,8,0:0:0:0:
448,192,136810,1,8,0:0:0:0:
320,192,136896,1,8,0:0:0:0:
192,192,136982,1,8,0:0:0:0:
64,192,137153,1,8,0:0:0:0:
192,192,137239,1,8,0:0:0:0:
320,192,137410,1,2,0:0:0:0:
448,192,137410,128,0,140153:0:0:0:0:
64,192,140153,1,0,0:0:0:0:
192,192,140325,1,0,0:0:0:0:
320,192,140410,1,0,0:0:0:0:
448,192,140582,1,0,0:0:0:0:
64,192,140753,1,0,0:0:0:0:
192,192,140839,1,0,0:0:0:0:
448,192,141010,1,0,0:0:0:0:
320,192,141096,1,0,0:0:0:0:
64,192,141268,1,0,0:0:0:0:
448,192,141439,1,0,0:0:0:0:
320,192,141525,1,0,0:0:0:0:
192,192,141610,1,0,0:0:0:0:
448,192,141782,1,0,0:0:0:0:
64,192,141953,1,0,0:0:0:0:
192,192,142039,1,0,0:0:0:0:
320,192,142210,1,0,0:0:0:0:
448,192,142296,1,0,0:0:0:0:
64,192,142468,1,0,0:0:0:0:
448,192,142639,1,0,0:0:0:0:
320,192,142725,1,0,0:0:0:0:
64,192,142896,1,0,0:0:0:0:
192,192,143068,1,0,0:0:0:0:
320,192,143153,1,0,0:0:0:0:
448,192,143325,1,0,0:0:0:0:
64,192,143496,1,0,0:0:0:0:
192,192,143582,1,0,0:0:0:0:
448,192,143753,1,0,0:0:0:0:
320,192,143839,1,0,0:0:0:0:
64,192,144010,1,0,0:0:0:0:
448,192,144182,1,0,0:0:0:0:
320,192,144268,1,0,0:0:0:0:
192,192,144353,1,0,0:0:0:0:
64,192,144525,1,0,0:0:0:0:
320,192,144696,1,0,0:0:0:0:
448,192,144782,1,0,0:0:0:0:
64,192,144953,1,0,0:0:0:0:
192,192,145039,1,0,0:0:0:0:
448,192,145210,1,0,0:0:0:0:
320,192,145382,1,0,0:0:0:0:
192,192,145468,1,0,0:0:0:0:
64,192,145639,128,0,148039:0:0:0:0:
192,192,147010,128,0,148039:0:0:0:0:
448,192,148039,1,0,0:0:0:0:
