osu file format v14

[General]
AudioFilename: audio.mp3
AudioLeadIn: 0
PreviewTime: 115446
Countdown: 0
SampleSet: Normal
StackLeniency: 0.7
Mode: 3
LetterboxInBreaks: 0
SpecialStyle: 0
WidescreenStoryboard: 1

[Editor]
Bookmarks: 11231,22031,22117,22202,22288,22374,33174,43974,44060,44145,44231,44317,55974,66088,71402,71488,71574,71660,71745,82374,82460,82545,82631,82717,93517,104317,104402,104488,104574,104660,115288,115374,115460,115545,115631,131917,137231,137317,137402,137488,137574
DistanceSpacing: 1.4
BeatDivisor: 4
GridSize: 4
TimelineZoom: 2.1

[Metadata]
Title:Floating
TitleUnicode:Floating
Artist:Hachito
ArtistUnicode:ハチト
Creator:AHHHHHHHHHHHHHH
Version:Extra
Source:
Tags:mmcc DCKS-0084 juke footwork breakcore hardcore electronic instrumental footcore compilation mamachacha phase epsilon phaseepsilon
BeatmapID:2353965
BeatmapSetID:1101599

[Difficulty]
HPDrainRate:8.5
CircleSize:4
OverallDifficulty:8
ApproachRate:5
SliderMultiplier:1.4
SliderTickRate:1

[Events]
//Background and Video events
0,0,"13252218_p0.png",0,0
//Break Periods
//Storyboard Layer 0 (Background)
//Storyboard Layer 1 (Fail)
//Storyboard Layer 2 (Pass)
//Storyboard Layer 3 (Foreground)
//Storyboard Layer 4 (Overlay)
//Storyboard Sound Samples

[TimingPoints]
268,342.857142857143,4,1,1,60,1,0
115468,-100,4,1,1,60,0,1
126353,-100,4,1,1,60,0,0
126439,-100,4,1,1,60,0,1
137410,-100,4,1,1,60,0,0

[HitObjects]
64,192,268,128,2,439:0:0:0:0:
192,192,268,128,0,439:0:0:0:0:
320,192,525,128,0,696:0:0:0:0:
448,192,525,128,0,696:0:0:0:0:
320,192,782,128,0,953:0:0:0:0:
448,192,782,128,0,953:0:0:0:0:
64,192,1125,128,0,1296:0:0:0:0:
192,192,1125,128,0,1296:0:0:0:0:
64,192,1382,128,0,1553:0:0:0:0:
192,192,1382,128,0,1553:0:0:0:0:
320,192,1639,128,0,1810:0:0:0:0:
448,192,1639,128,0,1810:0:0:0:0:
320,192,1896,128,0,2068:0:0:0:0:
448,192,1896,128,0,2068:0:0:0:0:
320,192,2153,128,0,2325:0:0:0:0:
448,192,2153,128,0,2325:0:0:0:0:
64,192,2496,128,0,2668:0:0:0:0:
320,192,2496,128,0,2668:0:0:0:0:
64,192,2753,128,0,2925:0:0:0:0:
320,192,2753,128,0,2925:0:0:0:0:
192,192,3010,128,0,3182:0:0:0:0:
448,192,3010,128,0,3182:0:0:0:0:
192,192,3268,128,0,3439:0:0:0:0:
448,192,3268,128,0,3439:0:0:0:0:
192,192,3525,128,0,3696:0:0:0:0:
448,192,3525,128,0,3696:0:0:0:0:
64,192,3868,128,0,4039:0:0:0:0:
448,192,3868,128,0,4039:0:0:0:0:
64,192,4125,128,0,4296:0:0:0:0:
448,192,4125,128,0,4296:0:0:0:0:
192,192,4382,128,0,4553:0:0:0:0:
320,192,4382,128,0,4553:0:0:0:0:
192,192,4639,128,0,4810:0:0:0:0:
320,192,4639,128,0,4810:0:0:0:0:
192,192,4896,128,0,5068:0:0:0:0:
320,192,4896,128,0,5068:0:0:0:0:
64,192,5239,128,0,5410:0:0:0:0:
320,192,5239,128,0,5410:0:0:0:0:
192,192,5496,128,0,5668:0:0:0:0:
320,192,5496,128,0,5668:0:0:0:0:
192,192,5753,128,0,5925:0:0:0:0:
448,192,5753,128,0,5925:0:0:0:0:
64,192,6010,128,0,6182:0:0:0:0:
320,192,6010,128,0,6182:0:0:0:0:
64,192,6268,128,0,6439:0:0:0:0:
192,192,6268,128,0,6439:0:0:0:0:
64,192,6610,128,0,6782:0:0:0:0:
192,192,6610,128,0,6782:0:0:0:0:
64,192,6868,128,0,7039:0:0:0:0:
192,192,6868,128,0,7039:0:0:0:0:
320,192,7125,128,0,7296:0:0:0:0:
448,192,7125,128,0,7296:0:0:0:0:
320,192,7382,128,0,7553:0:0:0:0:
448,192,7382,128,0,7553:0:0:0:0:
320,192,7639,128,0,7810:0:0:0:0:
448,192,7639,128,0,7810:0:0:0:0:
64,192,7982,128,0,8153:0:0:0:0:
192,192,7982,128,0,8153:0:0:0:0:
64,192,8239,128,0,8410:0:0:0:0:
192,192,8239,128,0,8410:0:0:0:0:
320,192,8496,128,0,8668:0:0:0:0:
448,192,8496,128,0,8668:0:0:0:0:
320,192,8753,128,0,8925:0:0:0:0:
448,192,8753,128,0,8925:0:0:0:0:
320,192,9010,128,0,9182:0:0:0:0:
448,192,9010,128,0,9182:0:0:0:0:
320,192,9353,128,0,9525:0:0:0:0:
64,192,9353,128,0,9525:0:0:0:0:
320,192,9610,128,0,9782:0:0:0:0:
64,192,9610,128,0,9782:0:0:0:0:
192,192,9868,128,0,10039:0:0:0:0:
448,192,9868,128,0,10039:0:0:0:0:
192,192,10125,128,0,10296:0:0:0:0:
448,192,10125,128,0,10296:0:0:0:0:
192,192,10382,128,0,10553:0:0:0:0:
448,192,10382,128,0,10553:0:0:0:0:
64,192,10725,128,0,10896:0:0:0:0:
320,192,10725,128,0,10896:0:0:0:0:
320,192,10982,128,0,11153:0:0:0:0:
448,192,10982,128,0,11153:0:0:0:0:
64,192,11239,1,2,0:0:0:0:
192,192,11239,1,0,0:0:0:0:
448,192,11239,1,0,0:0:0:0:
64,192,11410,1,0,0:0:0:0:
192,192,11410,1,0,0:0:0:0:
64,192,11582,1,0,0:0:0:0:
192,192,11582,1,0,0:0:0:0:
320,192,11668,1,0,0:0:0:0:
448,192,11668,1,0,0:0:0:0:
192,192,11753,1,0,0:0:0:0:
320,192,11925,1,0,0:0:0:0:
448,192,11925,1,0,0:0:0:0:
64,192,12010,1,0,0:0:0:0:
192,192,12010,1,0,0:0:0:0:
320,192,12096,1,0,0:0:0:0:
64,192,12182,1,0,0:0:0:0:
448,192,12268,1,0,0:0:0:0:
64,192,12953,1,0,0:0:0:0:
192,192,12953,1,0,0:0:0:0:
320,192,13039,1,0,0:0:0:0:
448,192,13039,1,0,0:0:0:0:
192,192,13125,1,0,0:0:0:0:
320,192,13296,1,0,0:0:0:0:
448,192,13296,1,0,0:0:0:0:
64,192,13382,1,0,0:0:0:0:
192,192,13382,1,0,0:0:0:0:
320,192,13468,1,0,0:0:0:0:
64,192,13553,1,0,0:0:0:0:
448,192,13639,1,0,0:0:0:0:
64,192,14325,1,0,0:0:0:0:
192,192,14325,1,0,0:0:0:0:
320,192,14410,1,0,0:0:0:0:
448,192,14410,1,0,0:0:0:0:
192,192,14496,1,0,0:0:0:0:
320,192,14668,1,0,0:0:0:0:
448,192,14668,1,0,0:0:0:0:
64,192,14753,1,0,0:0:0:0:
192,192,14753,1,0,0:0:0:0:
320,192,14839,1,0,0:0:0:0:
64,192,14925,1,0,0:0:0:0:
448,192,15010,1,0,0:0:0:0:
64,192,15696,1,0,0:0:0:0:
192,192,15696,1,0,0:0:0:0:
320,192,15782,1,0,0:0:0:0:
448,192,15782,1,0,0:0:0:0:
192,192,15868,1,0,0:0:0:0:
320,192,16039,1,0,0:0:0:0:
448,192,16039,1,0,0:0:0:0:
64,192,16125,1,0,0:0:0:0:
192,192,16125,1,0,0:0:0:0:
320,192,16210,1,0,0:0:0:0:
64,192,16296,1,0,0:0:0:0:
448,192,16382,1,0,0:0:0:0:
320,192,16725,1,0,0:0:0:0:
448,192,16725,1,0,0:0:0:0:
320,192,16896,1,0,0:0:0:0:
448,192,16896,1,0,0:0:0:0:
320,192,17068,1,0,0:0:0:0:
448,192,17068,1,0,0:0:0:0:
64,192,17153,1,0,0:0:0:0:
192,192,17153,1,0,0:0:0:0:
448,192,17239,1,0,0:0:0:0:
64,192,17410,1,0,0:0:0:0:
192,192,17410,1,0,0:0:0:0:
320,192,17496,1,0,0:0:0:0:
448,192,17496,1,0,0:0:0:0:
64,192,17582,1,0,0:0:0:0:
448,192,17668,1,0,0:0:0:0:
192,192,17753,1,0,0:0:0:0:
320,192,18439,1,0,0:0:0:0:
448,192,18439,1,0,0:0:0:0:
64,192,18525,1,0,0:0:0:0:
192,192,18525,1,0,0:0:0:0:
448,192,18610,1,0,0:0:0:0:
64,192,18782,1,0,0:0:0:0:
192,192,18782,1,0,0:0:0:0:
320,192,18868,1,0,0:0:0:0:
448,192,18868,1,0,0:0:0:0:
64,192,18953,1,0,0:0:0:0:
448,192,19039,1,0,0:0:0:0:
192,192,19125,1,0,0:0:0:0:
320,192,19810,1,0,0:0:0:0:
448,192,19810,1,0,0:0:0:0:
64,192,19896,1,0,0:0:0:0:
192,192,19896,1,0,0:0:0:0:
448,192,19982,1,0,0:0:0:0:
64,192,20153,1,0,0:0:0:0:
192,192,20153,1,0,0:0:0:0:
320,192,20239,1,0,0:0:0:0:
448,192,20239,1,0,0:0:0:0:
64,192,20325,1,0,0:0:0:0:
448,192,20410,1,0,0:0:0:0:
192,192,20496,128,0,20839:0:0:0:0:
64,192,20839,1,2,0:0:0:0:
320,192,20839,128,0,22210:0:0:0:0:
448,192,20839,1,0,0:0:0:0:
64,192,21525,128,0,22210:0:0:0:0:
192,192,22210,1,0,0:0:0:0:
448,192,22210,128,0,22468:0:0:0:0:
320,192,22382,1,0,0:0:0:0:
64,192,22468,128,0,22725:0:0:0:0:
320,192,22553,1,0,0:0:0:0:
448,192,22553,1,0,0:0:0:0:
448,192,22725,128,0,22982:0:0:0:0:
320,192,22810,1,0,0:0:0:0:
192,192,22896,1,0,0:0:0:0:
64,192,22982,128,0,23239:0:0:0:0:
320,192,23068,1,0,0:0:0:0:
192,192,23153,1,0,0:0:0:0:
320,192,23239,1,0,0:0:0:0:
448,192,23239,128,0,23496:0:0:0:0:
192,192,23410,1,0,0:0:0:0:
64,192,23496,128,0,23753:0:0:0:0:
320,192,23582,1,0,0:0:0:0:
448,192,23582,1,0,0:0:0:0:
448,192,23753,128,0,24010:0:0:0:0:
192,192,23925,1,0,0:0:0:0:
320,192,23925,1,0,0:0:0:0:
64,192,24010,128,0,24268:0:0:0:0:
192,192,24096,1,0,0:0:0:0:
320,192,24182,1,0,0:0:0:0:
448,192,24268,128,0,24525:0:0:0:0:
320,192,24353,1,0,0:0:0:0:
192,192,24439,1,0,0:0:0:0:
64,192,24525,128,0,24782:0:0:0:0:
320,192,24610,1,0,0:0:0:0:
448,192,24610,1,0,0:0:0:0:
448,192,24782,128,0,25039:0:0:0:0:
64,192,24868,1,0,0:0:0:0:
192,192,24953,1,0,0:0:0:0:
320,192,24953,1,0,0:0:0:0:
64,192,25039,128,0,25296:0:0:0:0:
320,192,25125,1,0,0:0:0:0:
192,192,25296,1,0,0:0:0:0:
448,192,25296,128,0,25553:0:0:0:0:
320,192,25468,1,0,0:0:0:0:
64,192,25553,128,0,25810:0:0:0:0:
192,192,25639,1,0,0:0:0:0:
320,192,25725,1,0,0:0:0:0:
448,192,25810,128,0,26068:0:0:0:0:
64,192,25896,1,0,0:0:0:0:
192,192,25982,1,0,0:0:0:0:
320,192,25982,1,0,0:0:0:0:
64,192,26068,128,0,26325:0:0:0:0:
320,192,26153,1,0,0:0:0:0:
192,192,26239,1,0,0:0:0:0:
448,192,26325,128,0,26582:0:0:0:0:
320,192,26325,1,0,0:0:0:0:
192,192,26496,1,0,0:0:0:0:
64,192,26582,128,0,26839:0:0:0:0:
192,192,26668,1,0,0:0:0:0:
320,192,26668,1,0,0:0:0:0:
448,192,26839,128,0,27096:0:0:0:0:
320,192,26925,1,0,0:0:0:0:
192,192,27010,1,0,0:0:0:0:
64,192,27096,128,0,27353:0:0:0:0:
320,192,27182,1,0,0:0:0:0:
192,192,27268,1,0,0:0:0:0:
320,192,27353,128,0,27525:0:0:0:0:
448,192,27353,128,0,27525:0:0:0:0:
192,192,27439,1,0,0:0:0:0:
64,192,27525,1,0,0:0:0:0:
320,192,27610,1,0,0:0:0:0:
192,192,27696,1,0,0:0:0:0:
448,192,27696,128,0,27953:0:0:0:0:
320,192,27868,1,0,0:0:0:0:
64,192,27953,128,0,28210:0:0:0:0:
320,192,28039,1,0,0:0:0:0:
448,192,28039,1,0,0:0:0:0:
448,192,28210,128,0,28468:0:0:0:0:
320,192,28296,1,0,0:0:0:0:
192,192,28382,1,0,0:0:0:0:
64,192,28468,128,0,28725:0:0:0:0:
320,192,28553,1,0,0:0:0:0:
192,192,28639,1,0,0:0:0:0:
320,192,28725,1,0,0:0:0:0:
448,192,28725,128,0,28982:0:0:0:0:
192,192,28896,1,0,0:0:0:0:
64,192,28982,128,0,29239:0:0:0:0:
320,192,29068,1,0,0:0:0:0:
448,192,29068,1,0,0:0:0:0:
448,192,29239,128,0,29496:0:0:0:0:
192,192,29410,1,0,0:0:0:0:
320,192,29410,1,0,0:0:0:0:
64,192,29496,128,0,29753:0:0:0:0:
192,192,29582,1,0,0:0:0:0:
320,192,29668,1,0,0:0:0:0:
448,192,29753,128,0,30010:0:0:0:0:
320,192,29839,1,0,0:0:0:0:
192,192,29925,1,0,0:0:0:0:
64,192,30010,128,0,30268:0:0:0:0:
320,192,30096,1,0,0:0:0:0:
448,192,30096,1,0,0:0:0:0:
448,192,30268,128,0,30525:0:0:0:0:
64,192,30353,1,0,0:0:0:0:
192,192,30439,1,0,0:0:0:0:
320,192,30439,1,0,0:0:0:0:
64,192,30525,128,0,30782:0:0:0:0:
320,192,30610,1,0,0:0:0:0:
320,192,30782,1,0,0:0:0:0:
448,192,30782,128,0,31039:0:0:0:0:
192,192,30953,1,0,0:0:0:0:
64,192,31039,128,0,31296:0:0:0:0:
192,192,31125,1,0,0:0:0:0:
320,192,31210,1,0,0:0:0:0:
448,192,31296,128,0,31553:0:0:0:0:
64,192,31382,1,0,0:0:0:0:
192,192,31468,1,0,0:0:0:0:
320,192,31468,1,0,0:0:0:0:
64,192,31553,128,0,31810:0:0:0:0:
320,192,31639,1,0,0:0:0:0:
192,192,31725,1,0,0:0:0:0:
320,192,31810,128,0,32068:0:0:0:0:
448,192,31810,128,0,32068:0:0:0:0:
192,192,31982,1,0,0:0:0:0:
64,192,32068,128,0,32325:0:0:0:0:
320,192,32153,1,0,0:0:0:0:
448,192,32153,1,0,0:0:0:0:
448,192,32325,128,0,32582:0:0:0:0:
320,192,32410,1,0,0:0:0:0:
192,192,32496,1,0,0:0:0:0:
64,192,32582,128,0,32839:0:0:0:0:
320,192,32668,1,0,0:0:0:0:
192,192,32753,1,0,0:0:0:0:
320,192,32839,1,0,0:0:0:0:
448,192,32839,128,0,33096:0:0:0:0:
64,192,32925,1,0,0:0:0:0:
192,192,33010,1,0,0:0:0:0:
320,192,33096,1,0,0:0:0:0:
64,192,33182,1,2,0:0:0:0:
192,192,33182,1,0,0:0:0:0:
448,192,33182,1,0,0:0:0:0:
64,192,33353,1,0,0:0:0:0:
320,192,33353,1,0,0:0:0:0:
192,192,33439,1,0,0:0:0:0:
320,192,33525,1,4,0:0:0:0:
448,192,33525,1,0,0:0:0:0:
192,192,33610,1,0,0:0:0:0:
64,192,33696,1,0,0:0:0:0:
448,192,33782,1,0,0:0:0:0:
64,192,33868,1,2,0:0:0:0:
320,192,33868,1,0,0:0:0:0:
320,192,34039,1,0,0:0:0:0:
448,192,34039,1,0,0:0:0:0:
64,192,34125,1,0,0:0:0:0:
192,192,34125,1,0,0:0:0:0:
320,192,34210,1,4,0:0:0:0:
448,192,34210,1,0,0:0:0:0:
192,192,34382,1,0,0:0:0:0:
64,192,34553,1,2,0:0:0:0:
320,192,34553,1,0,0:0:0:0:
64,192,34725,1,2,0:0:0:0:
320,192,34725,1,0,0:0:0:0:
192,192,34896,1,4,0:0:0:0:
448,192,34896,1,0,0:0:0:0:
64,192,35068,1,0,0:0:0:0:
320,192,35153,1,0,0:0:0:0:
64,192,35239,1,2,0:0:0:0:
448,192,35239,1,0,0:0:0:0:
192,192,35325,1,0,0:0:0:0:
320,192,35410,1,0,0:0:0:0:
448,192,35410,1,0,0:0:0:0:
192,192,35496,1,0,0:0:0:0:
64,192,35582,1,4,0:0:0:0:
320,192,35582,1,0,0:0:0:0:
192,192,35753,1,0,0:0:0:0:
64,192,35925,1,2,0:0:0:0:
320,192,35925,1,0,0:0:0:0:
64,192,36096,1,2,0:0:0:0:
320,192,36096,1,0,0:0:0:0:
192,192,36268,1,4,0:0:0:0:
448,192,36268,1,0,0:0:0:0:
320,192,36439,1,0,0:0:0:0:
192,192,36525,1,0,0:0:0:0:
64,192,36610,1,2,0:0:0:0:
448,192,36610,1,0,0:0:0:0:
320,192,36696,1,0,0:0:0:0:
192,192,36782,1,0,0:0:0:0:
320,192,36868,1,0,0:0:0:0:
192,192,36953,1,4,0:0:0:0:
448,192,36953,1,0,0:0:0:0:
64,192,37125,1,0,0:0:0:0:
320,192,37210,128,0,37468:0:0:0:0:
448,192,37210,128,0,37468:0:0:0:0:
64,192,37296,1,2,0:0:0:0:
192,192,37296,1,0,0:0:0:0:
64,192,37468,1,2,0:0:0:0:
192,192,37468,1,0,0:0:0:0:
320,192,37639,1,4,0:0:0:0:
448,192,37639,1,0,0:0:0:0:
192,192,37810,1,0,0:0:0:0:
448,192,37896,1,0,0:0:0:0:
64,192,37982,1,2,0:0:0:0:
320,192,37982,1,0,0:0:0:0:
192,192,38068,1,0,0:0:0:0:
448,192,38153,1,0,0:0:0:0:
192,192,38239,1,0,0:0:0:0:
64,192,38325,1,4,0:0:0:0:
448,192,38325,1,0,0:0:0:0:
320,192,38496,1,0,0:0:0:0:
64,192,38668,1,2,0:0:0:0:
192,192,38668,1,0,0:0:0:0:
64,192,38839,1,2,0:0:0:0:
192,192,38839,1,0,0:0:0:0:
192,192,39010,1,4,0:0:0:0:
320,192,39010,1,0,0:0:0:0:
192,192,39182,1,2,0:0:0:0:
320,192,39182,1,0,0:0:0:0:
320,192,39353,1,2,0:0:0:0:
448,192,39353,1,0,0:0:0:0:
320,192,39525,1,2,0:0:0:0:
448,192,39525,1,0,0:0:0:0:
64,192,39696,1,4,0:0:0:0:
448,192,39696,1,0,0:0:0:0:
64,192,39868,1,2,0:0:0:0:
448,192,39868,1,0,0:0:0:0:
64,192,40039,1,2,0:0:0:0:
192,192,40039,1,0,0:0:0:0:
64,192,40210,1,2,0:0:0:0:
192,192,40210,1,0,0:0:0:0:
192,192,40382,1,4,0:0:0:0:
320,192,40382,1,0,0:0:0:0:
192,192,40553,1,2,0:0:0:0:
320,192,40553,1,0,0:0:0:0:
320,192,40725,1,2,0:0:0:0:
448,192,40725,1,0,0:0:0:0:
320,192,40896,1,2,0:0:0:0:
448,192,40896,1,0,0:0:0:0:
64,192,41068,1,4,0:0:0:0:
448,192,41068,1,0,0:0:0:0:
64,192,41239,1,2,0:0:0:0:
448,192,41239,1,0,0:0:0:0:
64,192,41410,1,2,0:0:0:0:
192,192,41410,1,0,0:0:0:0:
320,192,41496,1,2,0:0:0:0:
448,192,41496,1,0,0:0:0:0:
64,192,41582,1,2,0:0:0:0:
192,192,41582,1,0,0:0:0:0:
320,192,41668,1,2,0:0:0:0:
448,192,41668,1,0,0:0:0:0:
64,192,41753,1,4,0:0:0:0:
192,192,41753,1,2,0:0:0:0:
320,192,41839,1,2,0:0:0:0:
448,192,41839,1,0,0:0:0:0:
64,192,41925,1,2,0:0:0:0:
192,192,41925,1,0,0:0:0:0:
320,192,42010,1,2,0:0:0:0:
448,192,42010,1,0,0:0:0:0:
64,192,42096,1,2,0:0:0:0:
192,192,42096,1,0,0:0:0:0:
320,192,42182,1,2,0:0:0:0:
448,192,42182,1,0,0:0:0:0:
64,192,42268,1,2,0:0:0:0:
192,192,42268,1,0,0:0:0:0:
320,192,42353,1,2,0:0:0:0:
448,192,42353,1,0,0:0:0:0:
64,192,42439,1,4,0:0:0:0:
192,192,42439,1,2,0:0:0:0:
320,192,42525,1,2,0:0:0:0:
448,192,42525,1,0,0:0:0:0:
64,192,42610,1,2,0:0:0:0:
192,192,42610,1,0,0:0:0:0:
320,192,42696,1,2,0:0:0:0:
448,192,42696,1,0,0:0:0:0:
64,192,42782,128,2,44068:0:0:0:0:
192,192,42782,1,0,0:0:0:0:
320,192,43639,128,0,44068:0:0:0:0:
448,192,43896,128,0,44068:0:0:0:0:
64,192,44153,1,2,0:0:0:0:
320,192,44153,128,0,44325:0:0:0:0:
448,192,44153,128,0,44325:0:0:0:0:
192,192,44410,128,2,44582:0:0:0:0:
320,192,44410,128,0,44582:0:0:0:0:
448,192,44410,1,0,0:0:0:0:
64,192,44668,128,2,44839:0:0:0:0:
192,192,44668,128,0,44839:0:0:0:0:
320,192,44668,1,0,0:0:0:0:
320,192,44839,1,4,0:0:0:0:
448,192,44839,1,0,0:0:0:0:
64,192,45010,128,2,45182:0:0:0:0:
448,192,45010,128,0,45182:0:0:0:0:
320,192,45010,1,0,0:0:0:0:
192,192,45182,1,0,0:0:0:0:
64,192,45268,128,2,45439:0:0:0:0:
448,192,45268,128,0,45439:0:0:0:0:
320,192,45268,1,0,0:0:0:0:
192,192,45439,1,0,0:0:0:0:
64,192,45525,128,2,45696:0:0:0:0:
320,192,45525,1,0,0:0:0:0:
448,192,45525,128,0,45696:0:0:0:0:
64,192,45782,128,2,45953:0:0:0:0:
192,192,45782,1,0,0:0:0:0:
448,192,45782,128,0,45953:0:0:0:0:
64,192,46039,128,2,46210:0:0:0:0:
320,192,46039,1,0,0:0:0:0:
448,192,46039,128,0,46210:0:0:0:0:
192,192,46210,1,4,0:0:0:0:
320,192,46210,1,0,0:0:0:0:
192,192,46382,128,2,46553:0:0:0:0:
448,192,46382,128,0,46553:0:0:0:0:
320,192,46382,1,0,0:0:0:0:
64,192,46553,1,0,0:0:0:0:
192,192,46639,128,2,46810:0:0:0:0:
320,192,46639,128,0,46810:0:0:0:0:
448,192,46639,1,0,0:0:0:0:
64,192,46810,1,0,0:0:0:0:
192,192,46896,1,2,0:0:0:0:
320,192,46896,128,0,47068:0:0:0:0:
448,192,46896,128,0,47068:0:0:0:0:
192,192,47153,128,2,47325:0:0:0:0:
320,192,47153,128,0,47325:0:0:0:0:
448,192,47153,1,0,0:0:0:0:
64,192,47410,128,2,47496:0:0:0:0:
192,192,47410,128,0,47496:0:0:0:0:
320,192,47496,1,2,0:0:0:0:
448,192,47496,1,0,0:0:0:0:
64,192,47582,1,4,0:0:0:0:
320,192,47582,128,0,47753:0:0:0:0:
448,192,47582,128,0,47753:0:0:0:0:
64,192,47753,1,2,0:0:0:0:
192,192,47753,1,0,0:0:0:0:
192,192,47839,128,2,48010:0:0:0:0:
320,192,47839,128,0,48010:0:0:0:0:
448,192,47839,1,0,0:0:0:0:
64,192,48096,1,2,0:0:0:0:
192,192,48096,128,0,48182:0:0:0:0:
320,192,48096,128,0,48182:0:0:0:0:
64,192,48268,1,2,0:0:0:0:
192,192,48268,128,0,48439:0:0:0:0:
448,192,48268,128,0,48439:0:0:0:0:
64,192,48525,128,2,48696:0:0:0:0:
320,192,48525,128,0,48696:0:0:0:0:
448,192,48525,1,0,0:0:0:0:
64,192,48782,128,2,48953:0:0:0:0:
192,192,48782,1,0,0:0:0:0:
448,192,48782,128,0,48953:0:0:0:0:
192,192,48953,1,4,0:0:0:0:
320,192,48953,1,0,0:0:0:0:
64,192,49125,1,2,0:0:0:0:
192,192,49125,1,0,0:0:0:0:
448,192,49210,1,0,0:0:0:0:
320,192,49296,1,0,0:0:0:0:
192,192,49296,1,4,0:0:0:0:
448,192,49468,1,2,0:0:0:0:
320,192,49468,1,0,0:0:0:0:
320,192,49553,1,2,0:0:0:0:
448,192,49553,1,0,0:0:0:0:
64,192,49639,128,2,49810:0:0:0:0:
192,192,49639,128,0,49810:0:0:0:0:
64,192,49896,1,2,0:0:0:0:
192,192,49896,128,0,50068:0:0:0:0:
320,192,49896,128,0,50068:0:0:0:0:
192,192,50153,1,2,0:0:0:0:
320,192,50153,128,0,50325:0:0:0:0:
448,192,50153,128,0,50325:0:0:0:0:
64,192,50325,1,4,0:0:0:0:
192,192,50325,1,0,0:0:0:0:
64,192,50496,128,2,50668:0:0:0:0:
448,192,50496,128,0,50668:0:0:0:0:
192,192,50496,1,0,0:0:0:0:
320,192,50668,1,0,0:0:0:0:
64,192,50753,128,2,50925:0:0:0:0:
192,192,50753,128,0,50925:0:0:0:0:
448,192,50753,1,0,0:0:0:0:
320,192,50925,1,0,0:0:0:0:
64,192,51010,128,2,51182:0:0:0:0:
192,192,51010,128,0,51182:0:0:0:0:
448,192,51010,1,0,0:0:0:0:
64,192,51268,1,2,0:0:0:0:
192,192,51268,128,0,51439:0:0:0:0:
320,192,51268,128,0,51439:0:0:0:0:
192,192,51525,1,2,0:0:0:0:
320,192,51525,128,0,51696:0:0:0:0:
448,192,51525,128,0,51696:0:0:0:0:
64,192,51696,1,4,0:0:0:0:
192,192,51696,1,0,0:0:0:0:
64,192,51868,128,2,52039:0:0:0:0:
448,192,51868,128,0,52039:0:0:0:0:
192,192,51868,1,0,0:0:0:0:
320,192,52039,1,0,0:0:0:0:
64,192,52125,128,2,52296:0:0:0:0:
192,192,52125,128,0,52296:0:0:0:0:
448,192,52125,1,0,0:0:0:0:
320,192,52296,1,0,0:0:0:0:
64,192,52382,1,2,0:0:0:0:
448,192,52382,1,0,0:0:0:0:
192,192,52639,1,2,0:0:0:0:
320,192,52639,128,0,52810:0:0:0:0:
448,192,52639,128,0,52810:0:0:0:0:
64,192,52896,128,2,53068:0:0:0:0:
192,192,52896,128,0,53068:0:0:0:0:
320,192,52982,1,2,0:0:0:0:
448,192,52982,1,0,0:0:0:0:
320,192,53068,1,4,0:0:0:0:
448,192,53068,1,0,0:0:0:0:
64,192,53239,1,2,0:0:0:0:
192,192,53239,1,0,0:0:0:0:
192,192,53325,1,2,0:0:0:0:
320,192,53325,128,0,53496:0:0:0:0:
448,192,53325,128,0,53496:0:0:0:0:
64,192,53582,128,2,53753:0:0:0:0:
192,192,53582,128,0,53753:0:0:0:0:
448,192,53582,1,0,0:0:0:0:
320,192,53753,1,2,0:0:0:0:
448,192,53753,1,0,0:0:0:0:
192,192,54010,1,2,0:0:0:0:
320,192,54010,128,0,54182:0:0:0:0:
448,192,54010,128,0,54182:0:0:0:0:
192,192,54268,1,2,0:0:0:0:
320,192,54268,128,0,54439:0:0:0:0:
448,192,54268,128,0,54439:0:0:0:0:
64,192,54439,1,4,0:0:0:0:
192,192,54439,1,0,0:0:0:0:
64,192,54610,1,2,0:0:0:0:
448,192,54610,1,0,0:0:0:0:
320,192,54696,1,0,0:0:0:0:
64,192,54782,1,4,0:0:0:0:
192,192,54782,1,0,0:0:0:0:
320,192,54953,1,2,0:0:0:0:
448,192,54953,1,0,0:0:0:0:
448,192,55039,1,2,0:0:0:0:
320,192,55039,1,0,0:0:0:0:
192,192,55125,1,0,0:0:0:0:
64,192,55125,1,0,0:0:0:0:
448,192,55210,1,0,0:0:0:0:
320,192,55296,1,0,0:0:0:0:
64,192,55382,1,0,0:0:0:0:
448,192,55468,1,0,0:0:0:0:
192,192,55468,1,0,0:0:0:0:
320,192,55553,1,0,0:0:0:0:
64,192,55639,1,0,0:0:0:0:
448,192,55725,1,0,0:0:0:0:
320,192,55810,1,4,0:0:0:0:
192,192,55810,1,0,0:0:0:0:
64,192,55982,1,2,0:0:0:0:
320,192,55982,128,0,56153:0:0:0:0:
448,192,55982,128,0,56153:0:0:0:0:
64,192,56153,1,0,0:0:0:0:
192,192,56239,1,2,0:0:0:0:
320,192,56239,128,0,56410:0:0:0:0:
448,192,56239,128,0,56410:0:0:0:0:
192,192,56410,1,0,0:0:0:0:
64,192,56496,1,2,0:0:0:0:
320,192,56496,128,0,56668:0:0:0:0:
448,192,56496,128,0,56668:0:0:0:0:
192,192,56753,1,2,0:0:0:0:
320,192,56753,128,0,56925:0:0:0:0:
448,192,56753,128,0,56925:0:0:0:0:
64,192,57010,1,2,0:0:0:0:
320,192,57010,128,0,57182:0:0:0:0:
448,192,57010,128,0,57182:0:0:0:0:
64,192,57182,1,4,0:0:0:0:
192,192,57182,1,0,0:0:0:0:
64,192,57353,128,2,57525:0:0:0:0:
192,192,57353,128,0,57525:0:0:0:0:
448,192,57353,1,0,0:0:0:0:
448,192,57525,1,0,0:0:0:0:
64,192,57610,1,2,0:0:0:0:
192,192,57610,128,0,57782:0:0:0:0:
320,192,57610,128,0,57782:0:0:0:0:
64,192,57782,1,0,0:0:0:0:
192,192,57868,1,2,0:0:0:0:
320,192,57868,128,0,58039:0:0:0:0:
448,192,57868,128,0,58039:0:0:0:0:
192,192,58125,128,2,58296:0:0:0:0:
320,192,58125,128,0,58296:0:0:0:0:
448,192,58125,1,0,0:0:0:0:
64,192,58382,128,2,58468:0:0:0:0:
192,192,58382,128,0,58468:0:0:0:0:
320,192,58468,1,2,0:0:0:0:
448,192,58468,1,0,0:0:0:0:
64,192,58553,1,4,0:0:0:0:
320,192,58553,128,0,58725:0:0:0:0:
448,192,58553,128,0,58725:0:0:0:0:
64,192,58725,1,2,0:0:0:0:
192,192,58725,1,0,0:0:0:0:
192,192,58810,128,2,58982:0:0:0:0:
320,192,58810,128,0,58982:0:0:0:0:
448,192,58810,1,0,0:0:0:0:
64,192,59068,128,2,59153:0:0:0:0:
192,192,59068,128,0,59153:0:0:0:0:
320,192,59068,1,0,0:0:0:0:
64,192,59239,128,2,59410:0:0:0:0:
192,192,59239,128,0,59410:0:0:0:0:
320,192,59239,1,0,0:0:0:0:
64,192,59496,1,2,0:0:0:0:
192,192,59496,128,0,59668:0:0:0:0:
320,192,59496,128,0,59668:0:0:0:0:
192,192,59753,1,2,0:0:0:0:
320,192,59753,128,0,59925:0:0:0:0:
448,192,59753,128,0,59925:0:0:0:0:
64,192,59925,1,4,0:0:0:0:
192,192,59925,1,0,0:0:0:0:
64,192,60096,1,2,0:0:0:0:
448,192,60096,1,0,0:0:0:0:
320,192,60182,1,0,0:0:0:0:
192,192,60268,1,4,0:0:0:0:
64,192,60268,1,0,0:0:0:0:
320,192,60439,1,2,0:0:0:0:
448,192,60439,1,0,0:0:0:0:
64,192,60525,1,2,0:0:0:0:
192,192,60525,1,0,0:0:0:0:
64,192,60610,128,2,60782:0:0:0:0:
320,192,60610,128,0,60782:0:0:0:0:
192,192,60610,1,0,0:0:0:0:
64,192,60868,1,2,0:0:0:0:
192,192,60868,128,0,61039:0:0:0:0:
320,192,60868,128,0,61039:0:0:0:0:
192,192,61125,128,2,61296:0:0:0:0:
320,192,61125,1,0,0:0:0:0:
448,192,61125,128,0,61296:0:0:0:0:
64,192,61296,1,4,0:0:0:0:
320,192,61296,1,0,0:0:0:0:
64,192,61468,1,2,0:0:0:0:
192,192,61468,128,0,61639:0:0:0:0:
448,192,61468,128,0,61639:0:0:0:0:
64,192,61639,1,0,0:0:0:0:
192,192,61725,128,2,61896:0:0:0:0:
320,192,61725,128,0,61896:0:0:0:0:
448,192,61725,1,0,0:0:0:0:
448,192,61896,1,0,0:0:0:0:
64,192,61982,128,2,62153:0:0:0:0:
192,192,61982,1,0,0:0:0:0:
320,192,61982,128,0,62153:0:0:0:0:
64,192,62239,1,2,0:0:0:0:
192,192,62239,128,0,62410:0:0:0:0:
320,192,62239,128,0,62410:0:0:0:0:
192,192,62496,128,2,62668:0:0:0:0:
320,192,62496,1,0,0:0:0:0:
448,192,62496,128,0,62668:0:0:0:0:
64,192,62668,1,4,0:0:0:0:
320,192,62668,1,0,0:0:0:0:
64,192,62839,1,2,0:0:0:0:
192,192,62839,128,0,63010:0:0:0:0:
448,192,62839,128,0,63010:0:0:0:0:
64,192,63010,1,0,0:0:0:0:
192,192,63096,128,2,63268:0:0:0:0:
320,192,63096,128,0,63268:0:0:0:0:
448,192,63096,1,0,0:0:0:0:
448,192,63268,1,0,0:0:0:0:
64,192,63353,1,2,0:0:0:0:
192,192,63353,1,0,0:0:0:0:
448,192,63610,1,2,0:0:0:0:
192,192,63610,1,0,0:0:0:0:
320,192,63696,1,0,0:0:0:0:
64,192,63782,1,0,0:0:0:0:
448,192,63868,1,2,0:0:0:0:
320,192,63868,1,0,0:0:0:0:
320,192,63953,1,2,0:0:0:0:
448,192,63953,1,0,0:0:0:0:
64,192,64039,1,4,0:0:0:0:
192,192,64039,1,0,0:0:0:0:
448,192,64210,1,2,0:0:0:0:
320,192,64210,1,0,0:0:0:0:
192,192,64296,1,2,0:0:0:0:
64,192,64296,1,0,0:0:0:0:
320,192,64382,1,0,0:0:0:0:
64,192,64468,1,0,0:0:0:0:
448,192,64553,1,2,0:0:0:0:
192,192,64553,1,0,0:0:0:0:
320,192,64639,1,0,0:0:0:0:
192,192,64725,1,2,0:0:0:0:
64,192,64725,1,0,0:0:0:0:
64,192,64982,1,2,0:0:0:0:
320,192,64982,128,0,65153:0:0:0:0:
448,192,64982,128,0,65153:0:0:0:0:
64,192,65239,1,2,0:0:0:0:
320,192,65239,128,0,65410:0:0:0:0:
448,192,65239,128,0,65410:0:0:0:0:
64,192,65410,1,4,0:0:0:0:
192,192,65410,1,0,0:0:0:0:
448,192,65496,1,0,0:0:0:0:
64,192,65582,1,2,0:0:0:0:
192,192,65582,1,0,0:0:0:0:
320,192,65668,1,2,0:0:0:0:
448,192,65668,1,0,0:0:0:0:
64,192,65753,1,4,0:0:0:0:
192,192,65753,1,0,0:0:0:0:
320,192,65925,1,2,0:0:0:0:
448,192,65925,1,0,0:0:0:0:
448,192,66010,1,2,0:0:0:0:
320,192,66010,1,0,0:0:0:0:
64,192,66096,1,2,0:0:0:0:
192,192,66096,1,0,0:0:0:0:
64,192,66439,128,4,66696:0:0:0:0:
192,192,66439,128,0,66696:0:0:0:0:
448,192,66439,128,0,66610:0:0:0:0:
448,192,66696,128,0,66782:0:0:0:0:
64,192,66782,1,2,0:0:0:0:
192,192,66782,1,0,0:0:0:0:
192,192,67125,128,0,67382:0:0:0:0:
448,192,67125,128,0,67296:0:0:0:0:
64,192,67125,128,4,67382:0:0:0:0:
448,192,67382,128,0,67468:0:0:0:0:
64,192,67468,1,2,0:0:0:0:
192,192,67468,1,0,0:0:0:0:
64,192,67810,128,4,68068:0:0:0:0:
448,192,67810,128,0,67982:0:0:0:0:
192,192,67810,128,0,68068:0:0:0:0:
448,192,68068,128,0,68153:0:0:0:0:
192,192,68153,1,0,0:0:0:0:
64,192,68153,1,2,0:0:0:0:
192,192,68496,128,0,68753:0:0:0:0:
448,192,68496,128,0,68668:0:0:0:0:
64,192,68496,128,4,68753:0:0:0:0:
448,192,68753,128,0,68839:0:0:0:0:
64,192,68839,1,2,0:0:0:0:
192,192,68839,1,0,0:0:0:0:
64,192,69182,128,4,69439:0:0:0:0:
448,192,69182,128,0,69353:0:0:0:0:
192,192,69182,128,0,69439:0:0:0:0:
448,192,69439,128,0,69525:0:0:0:0:
192,192,69525,1,0,0:0:0:0:
64,192,69525,1,2,0:0:0:0:
192,192,69868,128,0,70125:0:0:0:0:
448,192,69868,128,0,70039:0:0:0:0:
64,192,69868,128,4,70125:0:0:0:0:
448,192,70125,128,0,70210:0:0:0:0:
64,192,70210,1,2,0:0:0:0:
192,192,70210,1,0,0:0:0:0:
448,192,70382,1,0,0:0:0:0:
320,192,70468,1,0,0:0:0:0:
448,192,70553,1,0,0:0:0:0:
320,192,70810,1,0,0:0:0:0:
192,192,71068,1,0,0:0:0:0:
192,192,71239,1,0,0:0:0:0:
64,192,71410,1,0,0:0:0:0:
64,192,71582,1,2,0:0:0:0:
192,192,71582,1,0,0:0:0:0:
448,192,71582,1,0,0:0:0:0:
320,192,71668,1,0,0:0:0:0:
64,192,71753,1,2,0:0:0:0:
192,192,71753,1,0,0:0:0:0:
448,192,71839,1,0,0:0:0:0:
320,192,71925,1,0,0:0:0:0:
64,192,72010,1,2,0:0:0:0:
192,192,72010,1,0,0:0:0:0:
320,192,72096,1,2,0:0:0:0:
448,192,72096,1,0,0:0:0:0:
192,192,72182,1,0,0:0:0:0:
64,192,72268,1,4,0:0:0:0:
448,192,72268,1,0,0:0:0:0:
320,192,72353,1,0,0:0:0:0:
64,192,72439,1,2,0:0:0:0:
192,192,72439,1,0,0:0:0:0:
448,192,72525,1,0,0:0:0:0:
64,192,72610,1,2,0:0:0:0:
192,192,72610,1,0,0:0:0:0:
320,192,72696,1,0,0:0:0:0:
64,192,72782,1,2,0:0:0:0:
192,192,72782,1,0,0:0:0:0:
320,192,72868,1,2,0:0:0:0:
448,192,72868,1,0,0:0:0:0:
192,192,72953,1,0,0:0:0:0:
320,192,73039,1,0,0:0:0:0:
64,192,73125,1,2,0:0:0:0:
192,192,73125,1,0,0:0:0:0:
448,192,73210,1,0,0:0:0:0:
320,192,73296,1,0,0:0:0:0:
64,192,73382,1,2,0:0:0:0:
192,192,73382,1,0,0:0:0:0:
320,192,73468,1,2,0:0:0:0:
448,192,73468,1,0,0:0:0:0:
192,192,73553,1,0,0:0:0:0:
64,192,73639,1,4,0:0:0:0:
448,192,73639,1,0,0:0:0:0:
320,192,73725,1,0,0:0:0:0:
64,192,73810,1,2,0:0:0:0:
192,192,73810,1,0,0:0:0:0:
448,192,73896,1,0,0:0:0:0:
64,192,73982,1,2,0:0:0:0:
192,192,73982,1,0,0:0:0:0:
320,192,74068,1,0,0:0:0:0:
64,192,74153,1,2,0:0:0:0:
192,192,74153,1,0,0:0:0:0:
64,192,74239,1,2,0:0:0:0:
192,192,74239,1,0,0:0:0:0:
320,192,74325,1,2,0:0:0:0:
448,192,74325,1,0,0:0:0:0:
192,192,74410,1,0,0:0:0:0:
320,192,74496,1,2,0:0:0:0:
448,192,74496,1,0,0:0:0:0:
64,192,74582,1,0,0:0:0:0:
192,192,74668,1,0,0:0:0:0:
320,192,74753,1,2,0:0:0:0:
448,192,74753,1,0,0:0:0:0:
64,192,74839,1,2,0:0:0:0:
192,192,74839,1,0,0:0:0:0:
320,192,74925,1,0,0:0:0:0:
64,192,75010,1,4,0:0:0:0:
448,192,75010,1,0,0:0:0:0:
192,192,75096,1,0,0:0:0:0:
320,192,75182,1,2,0:0:0:0:
448,192,75182,1,0,0:0:0:0:
64,192,75268,1,0,0:0:0:0:
320,192,75353,1,2,0:0:0:0:
448,192,75353,1,0,0:0:0:0:
192,192,75439,1,0,0:0:0:0:
320,192,75525,1,2,0:0:0:0:
448,192,75525,1,0,0:0:0:0:
64,192,75610,1,2,0:0:0:0:
192,192,75610,1,0,0:0:0:0:
320,192,75696,1,0,0:0:0:0:
192,192,75782,1,0,0:0:0:0:
320,192,75868,1,2,0:0:0:0:
448,192,75868,1,0,0:0:0:0:
64,192,75953,1,0,0:0:0:0:
192,192,76039,1,0,0:0:0:0:
320,192,76125,1,2,0:0:0:0:
448,192,76125,1,0,0:0:0:0:
64,192,76210,1,2,0:0:0:0:
192,192,76210,1,0,0:0:0:0:
320,192,76296,1,0,0:0:0:0:
64,192,76382,1,4,0:0:0:0:
448,192,76382,1,0,0:0:0:0:
192,192,76468,1,0,0:0:0:0:
320,192,76553,1,2,0:0:0:0:
448,192,76553,1,0,0:0:0:0:
64,192,76639,1,0,0:0:0:0:
320,192,76725,1,2,0:0:0:0:
448,192,76725,1,0,0:0:0:0:
192,192,76810,1,0,0:0:0:0:
320,192,76896,1,2,0:0:0:0:
448,192,76896,1,0,0:0:0:0:
320,192,76982,1,2,0:0:0:0:
448,192,76982,1,0,0:0:0:0:
64,192,77068,1,2,0:0:0:0:
192,192,77068,1,0,0:0:0:0:
320,192,77153,1,0,0:0:0:0:
64,192,77239,1,2,0:0:0:0:
192,192,77239,1,0,0:0:0:0:
448,192,77325,1,0,0:0:0:0:
320,192,77410,1,0,0:0:0:0:
64,192,77496,1,2,0:0:0:0:
192,192,77496,1,0,0:0:0:0:
320,192,77582,1,2,0:0:0:0:
448,192,77582,1,0,0:0:0:0:
192,192,77668,1,0,0:0:0:0:
64,192,77753,1,4,0:0:0:0:
448,192,77753,1,0,0:0:0:0:
320,192,77839,1,0,0:0:0:0:
64,192,77925,1,2,0:0:0:0:
192,192,77925,1,0,0:0:0:0:
448,192,78010,1,0,0:0:0:0:
64,192,78096,1,2,0:0:0:0:
192,192,78096,1,0,0:0:0:0:
320,192,78182,1,0,0:0:0:0:
64,192,78268,1,2,0:0:0:0:
192,192,78268,1,0,0:0:0:0:
320,192,78353,1,2,0:0:0:0:
448,192,78353,1,0,0:0:0:0:
192,192,78439,1,0,0:0:0:0:
320,192,78525,1,0,0:0:0:0:
64,192,78610,1,2,0:0:0:0:
192,192,78610,1,0,0:0:0:0:
448,192,78696,1,0,0:0:0:0:
320,192,78782,1,0,0:0:0:0:
64,192,78868,1,2,0:0:0:0:
192,192,78868,1,0,0:0:0:0:
320,192,78953,1,2,0:0:0:0:
448,192,78953,1,0,0:0:0:0:
192,192,79039,1,0,0:0:0:0:
64,192,79125,1,4,0:0:0:0:
448,192,79125,1,0,0:0:0:0:
320,192,79210,1,0,0:0:0:0:
64,192,79296,1,2,0:0:0:0:
192,192,79296,1,0,0:0:0:0:
448,192,79382,1,0,0:0:0:0:
64,192,79468,1,2,0:0:0:0:
192,192,79468,1,0,0:0:0:0:
320,192,79553,1,0,0:0:0:0:
64,192,79639,1,2,0:0:0:0:
192,192,79639,1,0,0:0:0:0:
64,192,79725,1,2,0:0:0:0:
192,192,79725,1,0,0:0:0:0:
320,192,79810,1,2,0:0:0:0:
448,192,79810,1,0,0:0:0:0:
192,192,79896,1,0,0:0:0:0:
320,192,79982,1,2,0:0:0:0:
448,192,79982,1,0,0:0:0:0:
64,192,80068,1,0,0:0:0:0:
192,192,80153,1,0,0:0:0:0:
320,192,80239,1,2,0:0:0:0:
448,192,80239,1,0,0:0:0:0:
64,192,80325,1,2,0:0:0:0:
192,192,80325,1,0,0:0:0:0:
320,192,80410,1,0,0:0:0:0:
64,192,80496,1,4,0:0:0:0:
448,192,80496,1,0,0:0:0:0:
192,192,80582,1,0,0:0:0:0:
320,192,80668,1,2,0:0:0:0:
448,192,80668,1,0,0:0:0:0:
64,192,80753,1,0,0:0:0:0:
320,192,80839,1,2,0:0:0:0:
448,192,80839,1,0,0:0:0:0:
192,192,80925,1,0,0:0:0:0:
320,192,81010,1,2,0:0:0:0:
448,192,81010,1,0,0:0:0:0:
64,192,81096,1,2,0:0:0:0:
192,192,81096,1,0,0:0:0:0:
320,192,81182,1,0,0:0:0:0:
192,192,81268,1,0,0:0:0:0:
320,192,81353,1,2,0:0:0:0:
448,192,81353,1,0,0:0:0:0:
64,192,81439,1,0,0:0:0:0:
192,192,81525,1,0,0:0:0:0:
320,192,81610,1,2,0:0:0:0:
448,192,81610,1,0,0:0:0:0:
64,192,81696,1,2,0:0:0:0:
192,192,81696,1,0,0:0:0:0:
320,192,81782,1,0,0:0:0:0:
64,192,81868,1,4,0:0:0:0:
448,192,81868,1,0,0:0:0:0:
192,192,81953,1,0,0:0:0:0:
320,192,82039,1,4,0:0:0:0:
448,192,82039,1,0,0:0:0:0:
320,192,82125,1,4,0:0:0:0:
448,192,82125,1,0,0:0:0:0:
64,192,82210,1,2,0:0:0:0:
192,192,82210,1,0,0:0:0:0:
64,192,82382,1,2,0:0:0:0:
192,192,82382,1,0,0:0:0:0:
64,192,82468,1,2,0:0:0:0:
192,192,82468,1,0,0:0:0:0:
320,192,82553,128,2,82725:0:0:0:0:
448,192,82553,128,0,82725:0:0:0:0:
64,192,82725,128,0,82810:0:0:0:0:
320,192,82810,128,2,82896:0:0:0:0:
448,192,82810,128,0,82896:0:0:0:0:
320,192,82982,128,2,83153:0:0:0:0:
448,192,82982,128,0,83153:0:0:0:0:
64,192,83153,128,2,83239:0:0:0:0:
192,192,83153,1,0,0:0:0:0:
320,192,83239,128,2,83410:0:0:0:0:
448,192,83239,128,0,83410:0:0:0:0:
64,192,83410,128,2,83496:0:0:0:0:
192,192,83410,1,0,0:0:0:0:
320,192,83496,128,2,83582:0:0:0:0:
448,192,83496,128,0,83582:0:0:0:0:
64,192,83582,128,2,83668:0:0:0:0:
192,192,83582,1,0,0:0:0:0:
320,192,83668,128,2,83839:0:0:0:0:
448,192,83668,128,0,83839:0:0:0:0:
64,192,83839,1,2,0:0:0:0:
192,192,83839,1,0,0:0:0:0:
64,192,83925,128,2,84010:0:0:0:0:
192,192,83925,1,0,0:0:0:0:
320,192,84010,128,2,84096:0:0:0:0:
448,192,84010,128,0,84096:0:0:0:0:
320,192,84182,128,2,84353:0:0:0:0:
448,192,84182,128,0,84353:0:0:0:0:
64,192,84353,128,2,84439:0:0:0:0:
192,192,84353,1,0,0:0:0:0:
320,192,84439,128,2,84610:0:0:0:0:
448,192,84439,128,0,84610:0:0:0:0:
64,192,84610,128,2,84696:0:0:0:0:
192,192,84610,1,0,0:0:0:0:
320,192,84696,128,2,84782:0:0:0:0:
448,192,84696,128,0,84782:0:0:0:0:
64,192,84782,128,2,84868:0:0:0:0:
192,192,84782,1,0,0:0:0:0:
320,192,84868,128,2,85039:0:0:0:0:
448,192,84868,128,0,85039:0:0:0:0:
64,192,85039,1,2,0:0:0:0:
192,192,85039,128,0,85125:0:0:0:0:
320,192,85125,128,2,85210:0:0:0:0:
448,192,85125,128,0,85210:0:0:0:0:
192,192,85210,128,0,85296:0:0:0:0:
320,192,85296,128,2,85468:0:0:0:0:
448,192,85296,128,0,85468:0:0:0:0:
64,192,85468,128,0,85553:0:0:0:0:
320,192,85553,128,2,85639:0:0:0:0:
448,192,85553,128,0,85639:0:0:0:0:
320,192,85725,128,2,85896:0:0:0:0:
448,192,85725,128,0,85896:0:0:0:0:
64,192,85896,128,2,85982:0:0:0:0:
192,192,85896,1,0,0:0:0:0:
320,192,85982,128,2,86153:0:0:0:0:
448,192,85982,128,0,86153:0:0:0:0:
64,192,86153,128,2,86239:0:0:0:0:
192,192,86153,1,0,0:0:0:0:
320,192,86239,128,2,86325:0:0:0:0:
448,192,86239,128,0,86325:0:0:0:0:
64,192,86325,128,2,86410:0:0:0:0:
192,192,86325,1,0,0:0:0:0:
320,192,86410,128,2,86582:0:0:0:0:
448,192,86410,128,0,86582:0:0:0:0:
64,192,86582,1,2,0:0:0:0:
192,192,86582,1,0,0:0:0:0:
64,192,86668,128,2,86753:0:0:0:0:
192,192,86668,1,0,0:0:0:0:
320,192,86753,128,2,86839:0:0:0:0:
448,192,86753,128,0,86839:0:0:0:0:
320,192,86925,128,2,87096:0:0:0:0:
448,192,86925,128,0,87096:0:0:0:0:
64,192,87096,128,2,87182:0:0:0:0:
192,192,87096,1,0,0:0:0:0:
320,192,87182,128,2,87353:0:0:0:0:
448,192,87182,128,0,87353:0:0:0:0:
64,192,87353,128,2,87439:0:0:0:0:
192,192,87353,1,0,0:0:0:0:
320,192,87439,128,2,87525:0:0:0:0:
448,192,87439,128,0,87525:0:0:0:0:
64,192,87525,128,2,87610:0:0:0:0:
192,192,87525,1,0,0:0:0:0:
320,192,87610,128,2,87782:0:0:0:0:
448,192,87610,128,0,87782:0:0:0:0:
64,192,87782,1,2,0:0:0:0:
192,192,87782,128,0,87868:0:0:0:0:
320,192,87868,128,2,87953:0:0:0:0:
448,192,87868,128,0,87953:0:0:0:0:
192,192,87953,128,0,88039:0:0:0:0:
64,192,88039,128,2,88210:0:0:0:0:
448,192,88039,128,0,88210:0:0:0:0:
320,192,88210,128,0,88296:0:0:0:0:
64,192,88296,128,2,88382:0:0:0:0:
192,192,88296,128,0,88382:0:0:0:0:
64,192,88468,128,2,88639:0:0:0:0:
192,192,88468,128,0,88639:0:0:0:0:
320,192,88639,128,2,88725:0:0:0:0:
448,192,88639,1,0,0:0:0:0:
64,192,88725,128,2,88896:0:0:0:0:
192,192,88725,128,0,88896:0:0:0:0:
320,192,88896,128,2,88982:0:0:0:0:
448,192,88896,1,0,0:0:0:0:
64,192,88982,128,2,89068:0:0:0:0:
192,192,88982,128,0,89068:0:0:0:0:
320,192,89068,128,2,89153:0:0:0:0:
448,192,89068,1,0,0:0:0:0:
64,192,89153,128,2,89325:0:0:0:0:
192,192,89153,128,0,89325:0:0:0:0:
320,192,89325,1,2,0:0:0:0:
448,192,89325,1,0,0:0:0:0:
320,192,89410,128,2,89496:0:0:0:0:
448,192,89410,1,0,0:0:0:0:
64,192,89496,128,2,89582:0:0:0:0:
192,192,89496,128,0,89582:0:0:0:0:
64,192,89668,128,2,89839:0:0:0:0:
192,192,89668,128,0,89839:0:0:0:0:
320,192,89839,128,2,89925:0:0:0:0:
448,192,89839,1,0,0:0:0:0:
64,192,89925,128,2,90096:0:0:0:0:
192,192,89925,128,0,90096:0:0:0:0:
320,192,90096,128,2,90182:0:0:0:0:
448,192,90096,1,0,0:0:0:0:
64,192,90182,128,2,90268:0:0:0:0:
192,192,90182,128,0,90268:0:0:0:0:
320,192,90268,128,2,90353:0:0:0:0:
448,192,90268,1,0,0:0:0:0:
64,192,90353,128,2,90525:0:0:0:0:
192,192,90353,128,0,90525:0:0:0:0:
320,192,90525,1,2,0:0:0:0:
448,192,90525,128,0,90610:0:0:0:0:
64,192,90610,128,2,90696:0:0:0:0:
192,192,90610,128,0,90696:0:0:0:0:
448,192,90696,128,0,90782:0:0:0:0:
64,192,90782,128,2,90953:0:0:0:0:
192,192,90782,128,0,90953:0:0:0:0:
320,192,90953,128,0,91039:0:0:0:0:
64,192,91039,128,2,91125:0:0:0:0:
192,192,91039,128,0,91125:0:0:0:0:
64,192,91210,128,2,91382:0:0:0:0:
192,192,91210,128,0,91382:0:0:0:0:
320,192,91382,128,2,91468:0:0:0:0:
448,192,91382,1,0,0:0:0:0:
64,192,91468,128,2,91639:0:0:0:0:
192,192,91468,128,0,91639:0:0:0:0:
320,192,91639,128,2,91725:0:0:0:0:
448,192,91639,1,0,0:0:0:0:
64,192,91725,128,2,91810:0:0:0:0:
192,192,91725,128,0,91810:0:0:0:0:
320,192,91810,128,2,91896:0:0:0:0:
448,192,91810,1,0,0:0:0:0:
64,192,91896,128,2,92068:0:0:0:0:
192,192,91896,128,0,92068:0:0:0:0:
320,192,92068,1,2,0:0:0:0:
448,192,92068,1,0,0:0:0:0:
320,192,92153,128,2,92239:0:0:0:0:
448,192,92153,1,0,0:0:0:0:
64,192,92239,128,2,92325:0:0:0:0:
192,192,92239,128,0,92325:0:0:0:0:
64,192,92410,128,2,92582:0:0:0:0:
192,192,92410,128,0,92582:0:0:0:0:
320,192,92582,128,2,92668:0:0:0:0:
448,192,92582,1,0,0:0:0:0:
64,192,92668,128,2,92839:0:0:0:0:
192,192,92668,128,0,92839:0:0:0:0:
320,192,92839,128,2,92925:0:0:0:0:
448,192,92839,1,0,0:0:0:0:
64,192,92925,128,2,93010:0:0:0:0:
192,192,92925,128,0,93010:0:0:0:0:
320,192,93010,128,2,93096:0:0:0:0:
448,192,93010,1,0,0:0:0:0:
64,192,93096,128,2,93182:0:0:0:0:
192,192,93096,128,0,93182:0:0:0:0:
320,192,93182,1,4,0:0:0:0:
448,192,93182,1,0,0:0:0:0:
192,192,93268,1,0,0:0:0:0:
64,192,93353,1,0,0:0:0:0:
320,192,93439,1,0,0:0:0:0:
64,192,93525,128,8,93696:0:0:0:0:
192,192,93525,128,0,93696:0:0:0:0:
448,192,93525,128,0,93696:0:0:0:0:
320,192,93696,1,0,0:0:0:0:
64,192,93782,128,8,93868:0:0:0:0:
192,192,93782,128,0,93868:0:0:0:0:
448,192,93782,128,0,93868:0:0:0:0:
64,192,93953,128,8,94125:0:0:0:0:
192,192,93953,128,0,94125:0:0:0:0:
448,192,93953,128,0,94125:0:0:0:0:
320,192,94125,1,8,0:0:0:0:
64,192,94210,128,8,94382:0:0:0:0:
192,192,94210,128,0,94382:0:0:0:0:
448,192,94210,128,0,94382:0:0:0:0:
320,192,94382,1,8,0:0:0:0:
64,192,94468,128,8,94553:0:0:0:0:
192,192,94468,128,0,94553:0:0:0:0:
448,192,94468,128,0,94553:0:0:0:0:
320,192,94553,1,8,0:0:0:0:
64,192,94639,128,8,94725:0:0:0:0:
192,192,94639,128,0,94725:0:0:0:0:
448,192,94639,128,0,94725:0:0:0:0:
320,192,94810,1,8,0:0:0:0:
448,192,94810,1,0,0:0:0:0:
320,192,94896,1,8,0:0:0:0:
448,192,94896,1,0,0:0:0:0:
64,192,94982,128,8,95068:0:0:0:0:
192,192,94982,128,0,95068:0:0:0:0:
64,192,95153,128,8,95325:0:0:0:0:
192,192,95153,128,0,95325:0:0:0:0:
448,192,95153,128,0,95325:0:0:0:0:
320,192,95325,1,8,0:0:0:0:
64,192,95410,128,8,95582:0:0:0:0:
192,192,95410,128,0,95582:0:0:0:0:
448,192,95410,128,0,95582:0:0:0:0:
320,192,95582,1,8,0:0:0:0:
64,192,95668,128,8,95753:0:0:0:0:
192,192,95668,128,0,95753:0:0:0:0:
448,192,95668,128,0,95753:0:0:0:0:
320,192,95753,1,8,0:0:0:0:
64,192,95839,128,8,96010:0:0:0:0:
192,192,95839,128,0,96010:0:0:0:0:
448,192,95839,128,0,95925:0:0:0:0:
320,192,96010,1,8,0:0:0:0:
448,192,96010,1,0,0:0:0:0:
448,192,96096,128,0,96182:0:0:0:0:
320,192,96096,128,8,96182:0:0:0:0:
192,192,96182,1,0,0:0:0:0:
64,192,96268,128,8,96439:0:0:0:0:
320,192,96268,128,0,96439:0:0:0:0:
448,192,96268,128,0,96439:0:0:0:0:
192,192,96439,1,0,0:0:0:0:
64,192,96525,128,8,96610:0:0:0:0:
320,192,96525,128,0,96610:0:0:0:0:
448,192,96525,128,0,96610:0:0:0:0:
64,192,96696,128,8,96868:0:0:0:0:
320,192,96696,128,0,96868:0:0:0:0:
448,192,96696,128,0,96868:0:0:0:0:
192,192,96868,1,8,0:0:0:0:
64,192,96953,128,8,97125:0:0:0:0:
320,192,96953,128,0,97125:0:0:0:0:
448,192,96953,128,0,97125:0:0:0:0:
192,192,97125,1,8,0:0:0:0:
64,192,97210,128,8,97296:0:0:0:0:
320,192,97210,128,0,97296:0:0:0:0:
448,192,97210,128,0,97296:0:0:0:0:
192,192,97296,1,8,0:0:0:0:
64,192,97382,128,8,97468:0:0:0:0:
320,192,97382,128,0,97468:0:0:0:0:
448,192,97382,128,0,97468:0:0:0:0:
64,192,97553,1,8,0:0:0:0:
192,192,97553,1,0,0:0:0:0:
64,192,97639,1,8,0:0:0:0:
192,192,97639,1,0,0:0:0:0:
320,192,97725,128,8,97810:0:0:0:0:
448,192,97725,128,0,97810:0:0:0:0:
64,192,97896,128,8,98068:0:0:0:0:
320,192,97896,128,0,98068:0:0:0:0:
448,192,97896,128,0,98068:0:0:0:0:
192,192,98068,1,8,0:0:0:0:
64,192,98153,128,8,98325:0:0:0:0:
320,192,98153,128,0,98325:0:0:0:0:
448,192,98153,128,0,98325:0:0:0:0:
192,192,98325,1,8,0:0:0:0:
64,192,98410,128,8,98496:0:0:0:0:
320,192,98410,128,0,98496:0:0:0:0:
448,192,98410,128,0,98496:0:0:0:0:
192,192,98496,1,8,0:0:0:0:
320,192,98582,1,8,0:0:0:0:
448,192,98582,1,0,0:0:0:0:
64,192,98753,1,8,0:0:0:0:
192,192,98753,1,0,0:0:0:0:
192,192,98839,128,0,98925:0:0:0:0:
64,192,98839,128,8,98925:0:0:0:0:
320,192,98925,1,0,0:0:0:0:
64,192,99010,128,8,99182:0:0:0:0:
192,192,99010,128,0,99182:0:0:0:0:
448,192,99010,128,0,99182:0:0:0:0:
320,192,99182,1,0,0:0:0:0:
64,192,99268,128,8,99353:0:0:0:0:
192,192,99268,128,0,99353:0:0:0:0:
448,192,99268,128,0,99353:0:0:0:0:
64,192,99439,128,8,99610:0:0:0:0:
192,192,99439,128,0,99610:0:0:0:0:
448,192,99439,128,0,99610:0:0:0:0:
320,192,99610,1,8,0:0:0:0:
64,192,99696,128,8,99868:0:0:0:0:
192,192,99696,128,0,99868:0:0:0:0:
448,192,99696,128,0,99868:0:0:0:0:
320,192,99868,1,8,0:0:0:0:
64,192,99953,128,8,100039:0:0:0:0:
192,192,99953,128,0,100039:0:0:0:0:
448,192,99953,128,0,100039:0:0:0:0:
320,192,100039,1,8,0:0:0:0:
64,192,100125,128,8,100210:0:0:0:0:
192,192,100125,128,0,100210:0:0:0:0:
448,192,100125,128,0,100210:0:0:0:0:
320,192,100296,1,8,0:0:0:0:
448,192,100296,1,0,0:0:0:0:
320,192,100382,1,8,0:0:0:0:
448,192,100382,1,0,0:0:0:0:
64,192,100468,128,8,100553:0:0:0:0:
192,192,100468,128,0,100553:0:0:0:0:
64,192,100639,128,8,100810:0:0:0:0:
192,192,100639,128,0,100810:0:0:0:0:
448,192,100639,128,0,100810:0:0:0:0:
320,192,100810,1,8,0:0:0:0:
64,192,100896,128,8,101068:0:0:0:0:
192,192,100896,128,0,101068:0:0:0:0:
448,192,100896,128,0,101068:0:0:0:0:
320,192,101068,1,8,0:0:0:0:
64,192,101153,128,8,101239:0:0:0:0:
192,192,101153,128,0,101239:0:0:0:0:
448,192,101153,128,0,101239:0:0:0:0:
320,192,101239,1,8,0:0:0:0:
192,192,101325,1,0,0:0:0:0:
64,192,101325,1,8,0:0:0:0:
320,192,101496,1,8,0:0:0:0:
448,192,101496,1,0,0:0:0:0:
320,192,101582,128,8,101668:0:0:0:0:
448,192,101582,128,0,101668:0:0:0:0:
192,192,101668,1,0,0:0:0:0:
64,192,101753,128,8,101925:0:0:0:0:
320,192,101753,128,0,101925:0:0:0:0:
448,192,101753,128,0,101925:0:0:0:0:
192,192,101925,1,0,0:0:0:0:
64,192,102010,128,8,102096:0:0:0:0:
320,192,102010,128,0,102096:0:0:0:0:
448,192,102010,128,0,102096:0:0:0:0:
64,192,102182,128,8,102353:0:0:0:0:
320,192,102182,128,0,102353:0:0:0:0:
448,192,102182,128,0,102353:0:0:0:0:
192,192,102353,1,8,0:0:0:0:
64,192,102439,128,8,102610:0:0:0:0:
320,192,102439,128,0,102610:0:0:0:0:
448,192,102439,128,0,102610:0:0:0:0:
192,192,102610,1,8,0:0:0:0:
64,192,102696,128,8,102782:0:0:0:0:
320,192,102696,128,0,102782:0:0:0:0:
448,192,102696,128,0,102782:0:0:0:0:
192,192,102782,1,8,0:0:0:0:
64,192,102868,128,8,102953:0:0:0:0:
320,192,102868,128,0,102953:0:0:0:0:
448,192,102868,128,0,102953:0:0:0:0:
64,192,103039,1,8,0:0:0:0:
192,192,103039,1,0,0:0:0:0:
320,192,103125,1,8,0:0:0:0:
448,192,103125,1,0,0:0:0:0:
64,192,103210,128,8,103296:0:0:0:0:
448,192,103210,128,0,103296:0:0:0:0:
64,192,103382,128,8,103553:0:0:0:0:
448,192,103382,128,0,103553:0:0:0:0:
192,192,103553,1,2,0:0:0:0:
320,192,103553,1,0,0:0:0:0:
64,192,103639,128,2,103810:0:0:0:0:
320,192,103810,1,2,0:0:0:0:
448,192,103810,1,0,0:0:0:0:
64,192,103896,128,2,103982:0:0:0:0:
320,192,103982,1,2,0:0:0:0:
448,192,103982,1,0,0:0:0:0:
192,192,104068,1,2,0:0:0:0:
192,192,104239,1,2,0:0:0:0:
448,192,104325,1,2,0:0:0:0:
64,192,104410,1,0,0:0:0:0:
192,192,104496,1,2,0:0:0:0:
320,192,104496,1,0,0:0:0:0:
320,192,104668,1,0,0:0:0:0:
192,192,104753,1,2,0:0:0:0:
192,192,104925,1,2,0:0:0:0:
320,192,105096,1,2,0:0:0:0:
192,192,105182,1,2,0:0:0:0:
320,192,105353,1,2,0:0:0:0:
192,192,105439,1,2,0:0:0:0:
320,192,105525,1,2,0:0:0:0:
192,192,105610,1,2,0:0:0:0:
320,192,105782,1,2,0:0:0:0:
192,192,105868,1,2,0:0:0:0:
448,192,105953,1,2,0:0:0:0:
448,192,106125,1,2,0:0:0:0:
64,192,106296,1,2,0:0:0:0:
448,192,106382,1,2,0:0:0:0:
64,192,106553,1,2,0:0:0:0:
448,192,106639,1,2,0:0:0:0:
64,192,106725,1,2,0:0:0:0:
448,192,106810,1,2,0:0:0:0:
64,192,106982,1,2,0:0:0:0:
320,192,107068,1,2,0:0:0:0:
64,192,107153,1,0,0:0:0:0:
320,192,107239,1,2,0:0:0:0:
64,192,107410,1,0,0:0:0:0:
320,192,107496,1,2,0:0:0:0:
320,192,107668,1,2,0:0:0:0:
64,192,107839,1,2,0:0:0:0:
320,192,107925,1,2,0:0:0:0:
64,192,108096,1,2,0:0:0:0:
320,192,108182,1,2,0:0:0:0:
64,192,108268,1,2,0:0:0:0:
320,192,108353,1,2,0:0:0:0:
192,192,108525,1,2,0:0:0:0:
448,192,108610,1,2,0:0:0:0:
64,192,108696,1,2,0:0:0:0:
192,192,108696,1,0,0:0:0:0:
64,192,108868,1,2,0:0:0:0:
192,192,108868,1,0,0:0:0:0:
320,192,109039,1,2,0:0:0:0:
448,192,109039,1,0,0:0:0:0:
64,192,109125,1,2,0:0:0:0:
192,192,109125,1,0,0:0:0:0:
320,192,109296,1,2,0:0:0:0:
448,192,109296,1,0,0:0:0:0:
64,192,109382,1,2,0:0:0:0:
192,192,109382,1,0,0:0:0:0:
320,192,109468,1,2,0:0:0:0:
448,192,109468,1,0,0:0:0:0:
64,192,109553,1,2,0:0:0:0:
192,192,109553,1,0,0:0:0:0:
320,192,109725,1,2,0:0:0:0:
448,192,109725,1,0,0:0:0:0:
64,192,109810,1,2,0:0:0:0:
192,192,109810,1,0,0:0:0:0:
320,192,109896,1,0,0:0:0:0:
448,192,109896,1,0,0:0:0:0:
64,192,109982,1,2,0:0:0:0:
192,192,109982,1,0,0:0:0:0:
192,192,110153,1,0,0:0:0:0:
64,192,110239,1,2,0:0:0:0:
320,192,110239,1,0,0:0:0:0:
64,192,110410,1,2,0:0:0:0:
320,192,110410,1,0,0:0:0:0:
64,192,110582,1,2,0:0:0:0:
320,192,110582,1,0,0:0:0:0:
192,192,110668,1,2,0:0:0:0:
448,192,110668,1,0,0:0:0:0:
64,192,110839,1,2,0:0:0:0:
320,192,110839,1,0,0:0:0:0:
192,192,110925,1,2,0:0:0:0:
448,192,110925,1,0,0:0:0:0:
64,192,111010,1,2,0:0:0:0:
320,192,111010,1,0,0:0:0:0:
192,192,111096,1,2,0:0:0:0:
448,192,111096,1,0,0:0:0:0:
192,192,111268,1,2,0:0:0:0:
448,192,111268,1,0,0:0:0:0:
320,192,111353,1,2,0:0:0:0:
64,192,111439,1,2,0:0:0:0:
448,192,111439,1,0,0:0:0:0:
64,192,111610,1,2,0:0:0:0:
448,192,111610,1,0,0:0:0:0:
64,192,111782,1,2,0:0:0:0:
448,192,111782,1,0,0:0:0:0:
192,192,111868,1,2,0:0:0:0:
320,192,111868,1,0,0:0:0:0:
64,192,112039,1,2,0:0:0:0:
448,192,112039,1,0,0:0:0:0:
192,192,112125,1,2,0:0:0:0:
320,192,112125,1,0,0:0:0:0:
64,192,112210,1,2,0:0:0:0:
448,192,112210,1,0,0:0:0:0:
192,192,112296,1,2,0:0:0:0:
320,192,112296,1,0,0:0:0:0:
192,192,112468,1,2,0:0:0:0:
320,192,112468,1,0,0:0:0:0:
64,192,112553,1,2,0:0:0:0:
448,192,112553,1,0,0:0:0:0:
320,192,112639,1,0,0:0:0:0:
64,192,112725,1,2,0:0:0:0:
192,192,112725,1,0,0:0:0:0:
192,192,112810,1,2,0:0:0:0:
64,192,112810,1,0,0:0:0:0:
448,192,112896,1,2,0:0:0:0:
320,192,112896,1,0,0:0:0:0:
192,192,112982,1,2,0:0:0:0:
64,192,112982,1,0,0:0:0:0:
448,192,113068,1,2,0:0:0:0:
320,192,113068,1,0,0:0:0:0:
192,192,113153,1,2,0:0:0:0:
64,192,113153,1,0,0:0:0:0:
448,192,113239,1,2,0:0:0:0:
320,192,113239,1,0,0:0:0:0:
192,192,113325,1,2,0:0:0:0:
64,192,113325,1,0,0:0:0:0:
448,192,113410,1,2,0:0:0:0:
320,192,113410,1,0,0:0:0:0:
320,192,113496,1,2,0:0:0:0:
448,192,113496,1,0,0:0:0:0:
64,192,113582,1,2,0:0:0:0:
192,192,113582,1,0,0:0:0:0:
320,192,113668,1,2,0:0:0:0:
448,192,113668,1,0,0:0:0:0:
64,192,113753,1,2,0:0:0:0:
192,192,113753,1,0,0:0:0:0:
320,192,113839,1,2,0:0:0:0:
448,192,113839,1,0,0:0:0:0:
64,192,113925,1,2,0:0:0:0:
192,192,113925,1,0,0:0:0:0:
320,192,114010,1,2,0:0:0:0:
448,192,114010,1,0,0:0:0:0:
64,192,114096,1,2,0:0:0:0:
192,192,114096,1,0,0:0:0:0:
64,192,114182,1,2,0:0:0:0:
192,192,114182,1,0,0:0:0:0:
448,192,114268,1,2,0:0:0:0:
320,192,114268,1,0,0:0:0:0:
192,192,114353,1,2,0:0:0:0:
64,192,114353,1,0,0:0:0:0:
448,192,114439,1,2,0:0:0:0:
320,192,114439,1,0,0:0:0:0:
320,192,114525,1,2,0:0:0:0:
448,192,114525,1,0,0:0:0:0:
64,192,114610,1,2,0:0:0:0:
192,192,114610,1,0,0:0:0:0:
320,192,114696,1,2,0:0:0:0:
448,192,114696,1,0,0:0:0:0:
64,192,114782,128,2,115210:0:0:0:0:
448,192,114868,128,0,115210:0:0:0:0:
192,192,115039,128,0,115210:0:0:0:0:
320,192,115210,1,0,0:0:0:0:
192,192,115296,1,0,0:0:0:0:
448,192,115382,1,0,0:0:0:0:
64,192,115468,128,2,115553:0:0:0:0:
192,192,115468,1,0,0:0:0:0:
320,192,115468,1,0,0:0:0:0:
448,192,115553,1,0,0:0:0:0:
320,192,115639,128,0,115725:0:0:0:0:
192,192,115725,128,0,115810:0:0:0:0:
64,192,115810,1,4,0:0:0:0:
448,192,115810,1,0,0:0:0:0:
192,192,115896,128,0,115982:0:0:0:0:
64,192,115982,1,0,0:0:0:0:
320,192,116068,128,0,116153:0:0:0:0:
192,192,116153,128,2,116325:0:0:0:0:
448,192,116153,1,0,0:0:0:0:
64,192,116239,1,0,0:0:0:0:
320,192,116325,128,0,116410:0:0:0:0:
192,192,116410,128,0,116496:0:0:0:0:
64,192,116496,1,4,0:0:0:0:
448,192,116496,1,0,0:0:0:0:
192,192,116582,128,0,116668:0:0:0:0:
320,192,116668,1,0,0:0:0:0:
448,192,116753,128,0,116839:0:0:0:0:
64,192,116839,1,2,0:0:0:0:
320,192,116839,128,0,116925:0:0:0:0:
192,192,116925,128,0,117010:0:0:0:0:
448,192,117010,1,0,0:0:0:0:
192,192,117096,128,0,117182:0:0:0:0:
64,192,117182,1,4,0:0:0:0:
448,192,117182,1,0,0:0:0:0:
320,192,117268,128,0,117353:0:0:0:0:
192,192,117353,128,0,117525:0:0:0:0:
448,192,117439,1,0,0:0:0:0:
64,192,117525,1,2,0:0:0:0:
320,192,117525,128,0,117610:0:0:0:0:
192,192,117610,128,0,117696:0:0:0:0:
448,192,117696,1,0,0:0:0:0:
320,192,117782,128,0,117868:0:0:0:0:
64,192,117868,1,4,0:0:0:0:
192,192,117868,1,0,0:0:0:0:
320,192,117953,1,0,0:0:0:0:
448,192,117953,1,0,0:0:0:0:
64,192,118039,1,0,0:0:0:0:
192,192,118039,1,0,0:0:0:0:
320,192,118125,1,0,0:0:0:0:
448,192,118125,1,0,0:0:0:0:
64,192,118210,128,2,118296:0:0:0:0:
192,192,118210,1,0,0:0:0:0:
448,192,118296,1,0,0:0:0:0:
320,192,118382,128,0,118468:0:0:0:0:
192,192,118468,128,0,118553:0:0:0:0:
64,192,118553,1,4,0:0:0:0:
448,192,118553,1,0,0:0:0:0:
192,192,118639,128,0,118725:0:0:0:0:
448,192,118725,1,0,0:0:0:0:
320,192,118810,128,0,118896:0:0:0:0:
64,192,118896,1,2,0:0:0:0:
192,192,118896,128,0,119068:0:0:0:0:
448,192,118982,1,0,0:0:0:0:
320,192,119068,128,0,119153:0:0:0:0:
192,192,119153,128,0,119239:0:0:0:0:
64,192,119239,1,4,0:0:0:0:
448,192,119239,1,0,0:0:0:0:
192,192,119325,128,0,119410:0:0:0:0:
320,192,119410,1,0,0:0:0:0:
448,192,119496,128,0,119582:0:0:0:0:
64,192,119582,1,2,0:0:0:0:
320,192,119582,128,0,119668:0:0:0:0:
192,192,119668,128,0,119753:0:0:0:0:
448,192,119753,1,0,0:0:0:0:
192,192,119839,128,0,119925:0:0:0:0:
64,192,119925,1,4,0:0:0:0:
448,192,119925,1,0,0:0:0:0:
320,192,120010,128,0,120096:0:0:0:0:
192,192,120096,128,0,120268:0:0:0:0:
448,192,120182,1,0,0:0:0:0:
64,192,120268,1,2,0:0:0:0:
320,192,120268,128,0,120353:0:0:0:0:
192,192,120353,128,0,120439:0:0:0:0:
448,192,120439,1,0,0:0:0:0:
320,192,120525,128,0,120610:0:0:0:0:
64,192,120610,1,4,0:0:0:0:
192,192,120610,1,0,0:0:0:0:
64,192,120696,1,0,0:0:0:0:
192,192,120696,1,0,0:0:0:0:
320,192,120782,1,0,0:0:0:0:
448,192,120782,1,0,0:0:0:0:
64,192,120868,1,0,0:0:0:0:
192,192,120868,1,0,0:0:0:0:
320,192,120953,1,2,0:0:0:0:
448,192,120953,128,0,121039:0:0:0:0:
64,192,121039,1,0,0:0:0:0:
192,192,121125,128,0,121210:0:0:0:0:
320,192,121210,128,0,121296:0:0:0:0:
64,192,121296,1,4,0:0:0:0:
448,192,121296,1,0,0:0:0:0:
320,192,121382,128,0,121468:0:0:0:0:
448,192,121468,1,0,0:0:0:0:
192,192,121553,128,0,121639:0:0:0:0:
64,192,121639,1,2,0:0:0:0:
320,192,121639,128,0,121810:0:0:0:0:
448,192,121725,1,0,0:0:0:0:
192,192,121810,128,0,121896:0:0:0:0:
320,192,121896,128,0,121982:0:0:0:0:
64,192,121982,1,4,0:0:0:0:
448,192,121982,1,0,0:0:0:0:
320,192,122068,128,0,122153:0:0:0:0:
192,192,122153,1,0,0:0:0:0:
64,192,122239,128,0,122325:0:0:0:0:
192,192,122325,128,2,122410:0:0:0:0:
448,192,122325,1,0,0:0:0:0:
320,192,122410,128,0,122496:0:0:0:0:
64,192,122496,1,0,0:0:0:0:
320,192,122582,128,0,122668:0:0:0:0:
64,192,122668,1,4,0:0:0:0:
448,192,122668,1,0,0:0:0:0:
192,192,122753,128,0,122839:0:0:0:0:
320,192,122839,128,0,123010:0:0:0:0:
64,192,122925,1,0,0:0:0:0:
192,192,123010,128,2,123096:0:0:0:0:
448,192,123010,1,0,0:0:0:0:
320,192,123096,128,0,123182:0:0:0:0:
64,192,123182,1,0,0:0:0:0:
192,192,123268,128,0,123353:0:0:0:0:
320,192,123353,1,4,0:0:0:0:
448,192,123353,1,0,0:0:0:0:
64,192,123439,1,0,0:0:0:0:
192,192,123439,1,0,0:0:0:0:
320,192,123525,1,0,0:0:0:0:
448,192,123525,1,0,0:0:0:0:
64,192,123610,1,0,0:0:0:0:
192,192,123610,1,0,0:0:0:0:
320,192,123696,1,2,0:0:0:0:
448,192,123696,128,0,123782:0:0:0:0:
64,192,123782,1,0,0:0:0:0:
192,192,123868,128,0,123953:0:0:0:0:
320,192,123953,128,0,124039:0:0:0:0:
64,192,124039,1,4,0:0:0:0:
448,192,124039,1,0,0:0:0:0:
320,192,124125,128,0,124210:0:0:0:0:
64,192,124210,1,0,0:0:0:0:
192,192,124296,128,0,124382:0:0:0:0:
320,192,124382,128,2,124553:0:0:0:0:
448,192,124382,1,0,0:0:0:0:
64,192,124468,1,0,0:0:0:0:
192,192,124553,128,0,124639:0:0:0:0:
320,192,124639,128,0,124725:0:0:0:0:
64,192,124725,1,4,0:0:0:0:
448,192,124725,1,0,0:0:0:0:
320,192,124810,128,0,124896:0:0:0:0:
192,192,124896,1,0,0:0:0:0:
64,192,124982,128,0,125068:0:0:0:0:
192,192,125068,128,2,125153:0:0:0:0:
448,192,125068,1,0,0:0:0:0:
320,192,125153,128,0,125239:0:0:0:0:
64,192,125239,1,0,0:0:0:0:
320,192,125325,128,0,125410:0:0:0:0:
64,192,125410,1,4,0:0:0:0:
448,192,125410,1,0,0:0:0:0:
192,192,125496,128,0,125582:0:0:0:0:
320,192,125582,128,0,125753:0:0:0:0:
64,192,125668,1,0,0:0:0:0:
192,192,125753,128,2,125839:0:0:0:0:
448,192,125753,1,0,0:0:0:0:
320,192,125839,128,2,125925:0:0:0:0:
64,192,125925,1,0,0:0:0:0:
192,192,126010,128,2,126096:0:0:0:0:
320,192,126096,1,4,0:0:0:0:
448,192,126096,1,0,0:0:0:0:
320,192,126182,1,0,0:0:0:0:
448,192,126182,1,0,0:0:0:0:
64,192,126268,1,2,0:0:0:0:
192,192,126268,1,0,0:0:0:0:
64,192,126353,1,2,0:0:0:0:
192,192,126353,1,0,0:0:0:0:
320,192,126439,128,8,126610:0:0:0:0:
448,192,126439,128,0,126610:0:0:0:0:
64,192,126610,128,0,126696:0:0:0:0:
320,192,126696,128,8,126782:0:0:0:0:
448,192,126696,128,0,126782:0:0:0:0:
320,192,126868,128,8,127039:0:0:0:0:
448,192,126868,128,0,127039:0:0:0:0:
64,192,127039,128,8,127125:0:0:0:0:
192,192,127039,1,0,0:0:0:0:
320,192,127125,128,8,127296:0:0:0:0:
448,192,127125,128,0,127296:0:0:0:0:
64,192,127296,128,8,127382:0:0:0:0:
192,192,127296,1,0,0:0:0:0:
320,192,127382,128,8,127468:0:0:0:0:
448,192,127382,128,0,127468:0:0:0:0:
64,192,127468,128,8,127553:0:0:0:0:
192,192,127468,1,0,0:0:0:0:
320,192,127553,128,8,127725:0:0:0:0:
448,192,127553,128,0,127725:0:0:0:0:
64,192,127725,1,8,0:0:0:0:
192,192,127725,1,0,0:0:0:0:
64,192,127810,128,8,127896:0:0:0:0:
192,192,127810,1,0,0:0:0:0:
320,192,127896,128,8,127982:0:0:0:0:
448,192,127896,128,0,127982:0:0:0:0:
320,192,128068,128,8,128239:0:0:0:0:
448,192,128068,128,0,128239:0:0:0:0:
64,192,128239,128,8,128325:0:0:0:0:
192,192,128239,1,0,0:0:0:0:
320,192,128325,128,8,128496:0:0:0:0:
448,192,128325,128,0,128496:0:0:0:0:
64,192,128496,128,8,128582:0:0:0:0:
192,192,128496,1,0,0:0:0:0:
320,192,128582,128,8,128668:0:0:0:0:
448,192,128582,128,0,128668:0:0:0:0:
64,192,128668,128,8,128753:0:0:0:0:
192,192,128668,1,0,0:0:0:0:
320,192,128753,128,8,128925:0:0:0:0:
448,192,128753,128,0,128925:0:0:0:0:
64,192,128925,1,8,0:0:0:0:
192,192,128925,128,0,129010:0:0:0:0:
320,192,129010,128,8,129096:0:0:0:0:
448,192,129010,128,0,129096:0:0:0:0:
192,192,129096,128,0,129182:0:0:0:0:
64,192,129182,128,8,129353:0:0:0:0:
448,192,129182,128,0,129353:0:0:0:0:
320,192,129353,128,0,129439:0:0:0:0:
64,192,129439,128,8,129525:0:0:0:0:
192,192,129439,128,0,129525:0:0:0:0:
64,192,129610,128,8,129782:0:0:0:0:
192,192,129610,128,0,129782:0:0:0:0:
320,192,129782,1,8,0:0:0:0:
448,192,129782,128,0,129868:0:0:0:0:
64,192,129868,128,8,130039:0:0:0:0:
192,192,129868,128,0,130039:0:0:0:0:
320,192,130039,1,8,0:0:0:0:
448,192,130039,128,0,130125:0:0:0:0:
64,192,130125,128,8,130210:0:0:0:0:
192,192,130125,128,0,130210:0:0:0:0:
320,192,130210,1,8,0:0:0:0:
448,192,130210,128,0,130296:0:0:0:0:
64,192,130296,128,8,130468:0:0:0:0:
192,192,130296,128,0,130468:0:0:0:0:
320,192,130468,1,8,0:0:0:0:
448,192,130468,1,0,0:0:0:0:
320,192,130553,1,8,0:0:0:0:
448,192,130553,128,0,130639:0:0:0:0:
64,192,130639,128,8,130725:0:0:0:0:
192,192,130639,128,0,130725:0:0:0:0:
64,192,130810,128,8,130982:0:0:0:0:
192,192,130810,128,0,130982:0:0:0:0:
320,192,130982,1,8,0:0:0:0:
448,192,130982,128,0,131068:0:0:0:0:
64,192,131068,128,8,131239:0:0:0:0:
192,192,131068,128,0,131239:0:0:0:0:
320,192,131239,1,8,0:0:0:0:
448,192,131239,128,0,131325:0:0:0:0:
64,192,131325,128,8,131410:0:0:0:0:
192,192,131325,128,0,131410:0:0:0:0:
320,192,131410,1,8,0:0:0:0:
448,192,131410,128,0,131496:0:0:0:0:
64,192,131496,128,0,131582:0:0:0:0:
192,192,131496,128,0,131582:0:0:0:0:
320,192,131582,1,8,0:0:0:0:
448,192,131582,1,4,0:0:0:0:
192,192,131753,1,0,0:0:0:0:
448,192,131839,1,0,0:0:0:0:
64,192,131925,128,8,132096:0:0:0:0:
192,192,131925,128,0,132096:0:0:0:0:
320,192,131925,128,0,132096:0:0:0:0:
448,192,132096,1,0,0:0:0:0:
64,192,132182,128,8,132268:0:0:0:0:
192,192,132182,128,0,132268:0:0:0:0:
320,192,132182,128,0,132268:0:0:0:0:
64,192,132353,128,8,132525:0:0:0:0:
192,192,132353,128,0,132525:0:0:0:0:
320,192,132353,128,0,132525:0:0:0:0:
448,192,132525,1,8,0:0:0:0:
64,192,132610,128,8,132782:0:0:0:0:
192,192,132610,128,0,132782:0:0:0:0:
320,192,132610,128,0,132782:0:0:0:0:
448,192,132782,1,8,0:0:0:0:
64,192,132868,128,8,132953:0:0:0:0:
192,192,132868,128,0,132953:0:0:0:0:
320,192,132868,128,0,132953:0:0:0:0:
448,192,132953,1,8,0:0:0:0:
64,192,133039,128,8,133125:0:0:0:0:
192,192,133039,128,0,133125:0:0:0:0:
320,192,133039,128,0,133125:0:0:0:0:
320,192,133210,1,8,0:0:0:0:
448,192,133210,1,0,0:0:0:0:
64,192,133296,1,8,0:0:0:0:
192,192,133296,1,0,0:0:0:0:
64,192,133382,128,8,133468:0:0:0:0:
192,192,133382,128,0,133468:0:0:0:0:
320,192,133382,128,0,133468:0:0:0:0:
64,192,133553,128,8,133725:0:0:0:0:
192,192,133553,128,0,133725:0:0:0:0:
320,192,133553,128,0,133725:0:0:0:0:
448,192,133725,1,8,0:0:0:0:
64,192,133810,128,8,133982:0:0:0:0:
192,192,133810,128,0,133982:0:0:0:0:
320,192,133810,128,0,133982:0:0:0:0:
448,192,133982,1,8,0:0:0:0:
64,192,134068,128,8,134153:0:0:0:0:
192,192,134068,128,0,134153:0:0:0:0:
448,192,134153,1,8,0:0:0:0:
320,192,134153,1,0,0:0:0:0:
320,192,134239,1,8,0:0:0:0:
448,192,134239,1,0,0:0:0:0:
64,192,134410,1,8,0:0:0:0:
192,192,134410,1,0,0:0:0:0:
320,192,134496,128,8,134582:0:0:0:0:
448,192,134496,128,0,134582:0:0:0:0:
192,192,134668,128,8,134839:0:0:0:0:
320,192,134668,128,0,134839:0:0:0:0:
448,192,134668,128,0,134839:0:0:0:0:
64,192,134839,1,0,0:0:0:0:
192,192,134925,128,8,135010:0:0:0:0:
320,192,134925,128,0,135010:0:0:0:0:
448,192,134925,128,0,135010:0:0:0:0:
192,192,135096,128,8,135268:0:0:0:0:
320,192,135096,128,0,135268:0:0:0:0:
448,192,135096,128,0,135268:0:0:0:0:
64,192,135268,1,8,0:0:0:0:
192,192,135353,128,8,135525:0:0:0:0:
320,192,135353,128,0,135525:0:0:0:0:
448,192,135353,128,0,135525:0:0:0:0:
64,192,135525,1,8,0:0:0:0:
192,192,135610,128,8,135696:0:0:0:0:
320,192,135610,128,0,135696:0:0:0:0:
448,192,135610,128,0,135696:0:0:0:0:
64,192,135696,1,8,0:0:0:0:
192,192,135782,128,8,135868:0:0:0:0:
320,192,135782,128,0,135868:0:0:0:0:
448,192,135782,128,0,135868:0:0:0:0:
64,192,135953,1,8,0:0:0:0:
192,192,135953,1,0,0:0:0:0:
320,192,136039,1,8,0:0:0:0:
448,192,136039,1,0,0:0:0:0:
192,192,136125,128,8,136210:0:0:0:0:
320,192,136125,128,0,136210:0:0:0:0:
448,192,136125,128,0,136210:0:0:0:0:
192,192,136296,128,8,136468:0:0:0:0:
320,192,136296,128,0,136468:0:0:0:0:
448,192,136296,128,0,136468:0:0:0:0:
64,192,136468,1,8,0:0:0:0:
192,192,136553,128,8,136725:0:0:0:0:
320,192,136553,128,0,136725:0:0:0:0:
448,192,136553,128,0,136725:0:0:0:0:
64,192,136725,1,8,0:0:0:0:
320,192,136810,128,8,136896:0:0:0:0:
448,192,136810,128,0,136896:0:0:0:0:
64,192,136896,1,8,0:0:0:0:
192,192,136896,1,0,0:0:0:0:
192,192,136982,1,0,0:0:0:0:
64,192,136982,1,8,0:0:0:0:
320,192,137153,1,8,0:0:0:0:
448,192,137153,1,0,0:0:0:0:
192,192,137239,128,8,137325:0:0:0:0:
320,192,137239,128,0,137325:0:0:0:0:
448,192,137239,128,0,137325:0:0:0:0:
64,192,137410,1,2,0:0:0:0:
320,192,137410,1,0,0:0:0:0:
448,192,137410,1,0,0:0:0:0:
192,192,137582,1,0,0:0:0:0:
448,192,137668,128,0,137753:0:0:0:0:
448,192,137839,128,0,138010:0:0:0:0:
192,192,138010,1,0,0:0:0:0:
448,192,138096,128,0,138268:0:0:0:0:
192,192,138268,1,0,0:0:0:0:
448,192,138353,128,0,138439:0:0:0:0:
448,192,138525,128,0,138696:0:0:0:0:
64,192,138696,1,0,0:0:0:0:
192,192,138782,1,0,0:0:0:0:
320,192,138868,128,0,138953:0:0:0:0:
320,192,139039,128,0,139210:0:0:0:0:
64,192,139210,1,0,0:0:0:0:
320,192,139296,128,0,139468:0:0:0:0:
64,192,139468,1,0,0:0:0:0:
320,192,139553,128,0,139639:0:0:0:0:
320,192,139725,128,0,139896:0:0:0:0:
64,192,139896,1,0,0:0:0:0:
448,192,139982,1,0,0:0:0:0:
320,192,140068,1,0,0:0:0:0:
192,192,140153,128,0,140239:0:0:0:0:
448,192,140325,1,0,0:0:0:0:
192,192,140410,128,0,140496:0:0:0:0:
192,192,140582,128,0,140668:0:0:0:0:
448,192,140753,1,0,0:0:0:0:
192,192,140839,128,0,140925:0:0:0:0:
448,192,141010,1,0,0:0:0:0:
192,192,141096,128,0,141182:0:0:0:0:
320,192,141182,1,0,0:0:0:0:
192,192,141268,128,0,141353:0:0:0:0:
448,192,141439,1,0,0:0:0:0:
320,192,141525,1,0,0:0:0:0:
64,192,141610,128,0,141696:0:0:0:0:
64,192,141782,128,0,141868:0:0:0:0:
320,192,141953,1,0,0:0:0:0:
64,192,142039,128,0,142125:0:0:0:0:
320,192,142210,1,0,0:0:0:0:
64,192,142296,128,0,142382:0:0:0:0:
64,192,142468,128,0,142553:0:0:0:0:
320,192,142639,1,0,0:0:0:0:
64,192,142725,1,0,0:0:0:0:
192,192,142810,1,0,0:0:0:0:
320,192,142896,1,0,0:0:0:0:
448,192,142896,1,0,0:0:0:0:
192,192,143068,1,0,0:0:0:0:
448,192,143153,1,0,0:0:0:0:
448,192,143325,1,0,0:0:0:0:
192,192,143496,1,0,0:0:0:0:
448,192,143582,1,0,0:0:0:0:
192,192,143753,1,0,0:0:0:0:
448,192,143839,1,0,0:0:0:0:
448,192,144010,1,0,0:0:0:0:
64,192,144182,1,0,0:0:0:0:
192,192,144268,1,0,0:0:0:0:
320,192,144353,1,0,0:0:0:0:
320,192,144525,1,0,0:0:0:0:
192,192,144696,1,0,0:0:0:0:
320,192,144782,1,0,0:0:0:0:
192,192,144953,1,0,0:0:0:0:
320,192,145039,1,0,0:0:0:0:
320,192,145210,1,0,0:0:0:0:
192,192,145382,1,0,0:0:0:0:
320,192,145468,1,0,0:0:0:0:
64,192,145553,1,0,0:0:0:0:
192,192,145639,1,0,0:0:0:0:
64,192,145810,1,0,0:0:0:0:
192,192,145896,1,0,0:0:0:0:
192,192,146068,1,0,0:0:0:0:
320,192,146239,1,0,0:0:0:0:
192,192,146325,1,0,0:0:0:0:
448,192,146410,1,0,0:0:0:0:
192,192,146496,1,0,0:0:0:0:
64,192,146582,1,0,0:0:0:0:
320,192,146668,1,0,0:0:0:0:
192,192,146753,1,0,0:0:0:0:
448,192,146839,1,0,0:0:0:0:
320,192,146925,1,0,0:0:0:0:
64,192,147010,1,0,0:0:0:0:
192,192,147096,1,0,0:0:0:0:
448,192,147182,1,0,0:0:0:0:
64,192,147268,1,0,0:0:0:0:
192,192,147353,1,0,0:0:0:0:
448,192,147439,1,0,0:0:0:0:
320,192,147525,1,0,0:0:0:0:
64,192,147610,1,0,0:0:0:0:
192,192,147696,1,0,0:0:0:0:
320,192,147782,1,0,0:0:0:0:
64,192,147868,1,0,0:0:0:0:
448,192,147953,1,0,0:0:0:0:
192,192,148039,128,0,148125:0:0:0:0:
320,192,148039,128,0,148125:0:0:0:0:
