osu file format v14

[General]
AudioFilename: audio.mp3
AudioLeadIn: 0
PreviewTime: 115446
Countdown: 0
SampleSet: Normal
StackLeniency: 0.7
Mode: 3
LetterboxInBreaks: 0
SpecialStyle: 0
WidescreenStoryboard: 1

[Editor]
Bookmarks: 11231,22031,22117,22202,22288,22374,33174,43974,44060,44145,44231,44317,55974,66088,71402,71488,71574,71660,71745,82374,82460,82545,82631,82717,93517,104317,104402,104488,104574,104660,115288,115374,115460,115545,115631,131917,137231,137317,137402,137488,137574
DistanceSpacing: 1.4
BeatDivisor: 4
GridSize: 4
TimelineZoom: 2.1

[Metadata]
Title:Floating
TitleUnicode:Floating
Artist:Hachito
ArtistUnicode:ハチト
Creator:AHHHHHHHHHHHHHH
Version:Easy
Source:
Tags:mmcc DCKS-0084 juke footwork breakcore hardcore electronic instrumental footcore compilation mamachacha phase epsilon phaseepsilon
BeatmapID:2333585
BeatmapSetID:1101599

[Difficulty]
HPDrainRate:6.5
CircleSize:4
OverallDifficulty:6.5
ApproachRate:5
SliderMultiplier:1.4
SliderTickRate:1

[Events]
//Background and Video events
0,0,"13252218_p0.png",0,0
//Break Periods
//Storyboard Layer 0 (Background)
//Storyboard Layer 1 (Fail)
//Storyboard Layer 2 (Pass)
//Storyboard Layer 3 (Foreground)
//Storyboard Layer 4 (Overlay)
//Storyboard Sound Samples

[TimingPoints]
268,342.857142857143,4,1,1,60,1,0
115468,-100,4,1,1,60,0,1
126353,-100,4,1,1,60,0,0
126439,-100,4,1,1,60,0,1
137410,-100,4,1,1,60,0,0

[HitObjects]
320,192,268,5,2,0:0:0:0:
64,192,525,1,0,0:0:0:0:
448,192,782,1,0,0:0:0:0:
192,192,1125,1,0,0:0:0:0:
320,192,1382,1,0,0:0:0:0:
64,192,1639,1,0,0:0:0:0:
448,192,1896,1,0,0:0:0:0:
192,192,2153,1,0,0:0:0:0:
320,192,2496,1,0,0:0:0:0:
64,192,2753,1,0,0:0:0:0:
448,192,3010,1,0,0:0:0:0:
192,192,3268,1,0,0:0:0:0:
320,192,3525,1,0,0:0:0:0:
64,192,3868,1,0,0:0:0:0:
448,192,4125,1,0,0:0:0:0:
192,192,4382,1,0,0:0:0:0:
320,192,4639,1,0,0:0:0:0:
64,192,4896,1,0,0:0:0:0:
192,192,5239,1,0,0:0:0:0:
448,192,5496,1,0,0:0:0:0:
64,192,5753,1,0,0:0:0:0:
320,192,6010,1,0,0:0:0:0:
192,192,6268,1,0,0:0:0:0:
448,192,6610,1,0,0:0:0:0:
64,192,6868,1,0,0:0:0:0:
320,192,7125,1,0,0:0:0:0:
192,192,7382,1,0,0:0:0:0:
448,192,7639,1,0,0:0:0:0:
64,192,7982,1,0,0:0:0:0:
320,192,8239,1,0,0:0:0:0:
192,192,8496,1,0,0:0:0:0:
448,192,8753,1,0,0:0:0:0:
64,192,9010,1,0,0:0:0:0:
320,192,9353,1,0,0:0:0:0:
192,192,9610,1,0,0:0:0:0:
448,192,9868,1,0,0:0:0:0:
64,192,10125,1,0,0:0:0:0:
320,192,10382,1,0,0:0:0:0:
192,192,10725,1,0,0:0:0:0:
448,192,10982,1,0,0:0:0:0:
64,192,11239,1,2,0:0:0:0:
320,192,11410,1,0,0:0:0:0:
192,192,11582,1,0,0:0:0:0:
448,192,11925,1,0,0:0:0:0:
320,192,12096,1,0,0:0:0:0:
64,192,12268,1,0,0:0:0:0:
192,192,12953,1,0,0:0:0:0:
448,192,13296,1,0,0:0:0:0:
320,192,13468,1,0,0:0:0:0:
64,192,13639,1,0,0:0:0:0:
192,192,14325,1,0,0:0:0:0:
448,192,14668,1,0,0:0:0:0:
320,192,14839,1,0,0:0:0:0:
64,192,15010,1,0,0:0:0:0:
192,192,15696,1,0,0:0:0:0:
448,192,16039,1,0,0:0:0:0:
320,192,16210,1,0,0:0:0:0:
64,192,16382,1,0,0:0:0:0:
448,192,16725,1,0,0:0:0:0:
192,192,16896,1,0,0:0:0:0:
320,192,17068,1,0,0:0:0:0:
64,192,17410,1,0,0:0:0:0:
192,192,17582,1,0,0:0:0:0:
448,192,17753,1,0,0:0:0:0:
320,192,18439,1,0,0:0:0:0:
64,192,18782,1,0,0:0:0:0:
192,192,18953,1,0,0:0:0:0:
448,192,19125,1,0,0:0:0:0:
320,192,19810,1,0,0:0:0:0:
64,192,20153,1,0,0:0:0:0:
192,192,20325,1,0,0:0:0:0:
448,192,20496,128,0,20839:0:0:0:0:
192,192,20839,1,0,0:0:0:0:
64,192,20839,128,2,22210:0:0:0:0:
448,192,22210,1,0,0:0:0:0:
192,192,22468,1,0,0:0:0:0:
448,192,22725,1,0,0:0:0:0:
64,192,22982,1,0,0:0:0:0:
192,192,23239,1,0,0:0:0:0:
448,192,23496,1,0,0:0:0:0:
320,192,23753,1,0,0:0:0:0:
192,192,24010,1,0,0:0:0:0:
448,192,24268,1,0,0:0:0:0:
64,192,24525,1,0,0:0:0:0:
192,192,24782,1,0,0:0:0:0:
320,192,25039,1,0,0:0:0:0:
64,192,25296,1,0,0:0:0:0:
448,192,25553,1,0,0:0:0:0:
320,192,25810,1,0,0:0:0:0:
192,192,26068,1,0,0:0:0:0:
448,192,26325,1,0,0:0:0:0:
192,192,26582,1,0,0:0:0:0:
320,192,26839,1,0,0:0:0:0:
64,192,27096,1,0,0:0:0:0:
448,192,27353,1,0,0:0:0:0:
192,192,27353,1,0,0:0:0:0:
64,192,27696,1,0,0:0:0:0:
448,192,27953,1,0,0:0:0:0:
192,192,28210,1,0,0:0:0:0:
320,192,28468,1,0,0:0:0:0:
64,192,28725,1,0,0:0:0:0:
448,192,28982,1,0,0:0:0:0:
320,192,29239,1,0,0:0:0:0:
64,192,29496,1,0,0:0:0:0:
192,192,29753,1,0,0:0:0:0:
320,192,30010,1,0,0:0:0:0:
448,192,30268,1,0,0:0:0:0:
192,192,30525,1,0,0:0:0:0:
320,192,30782,1,0,0:0:0:0:
64,192,31039,1,0,0:0:0:0:
448,192,31296,1,0,0:0:0:0:
320,192,31553,1,0,0:0:0:0:
64,192,31810,1,0,0:0:0:0:
320,192,32068,1,0,0:0:0:0:
192,192,32325,1,0,0:0:0:0:
448,192,32582,1,0,0:0:0:0:
320,192,32839,1,0,0:0:0:0:
448,192,33182,1,0,0:0:0:0:
64,192,33182,1,2,0:0:0:0:
192,192,33525,1,4,0:0:0:0:
320,192,33868,1,2,0:0:0:0:
64,192,34210,1,4,0:0:0:0:
192,192,34553,1,2,0:0:0:0:
320,192,34725,1,2,0:0:0:0:
64,192,34896,1,4,0:0:0:0:
448,192,35239,1,2,0:0:0:0:
64,192,35582,1,4,0:0:0:0:
192,192,35925,1,2,0:0:0:0:
320,192,36096,1,2,0:0:0:0:
64,192,36268,1,4,0:0:0:0:
448,192,36610,1,2,0:0:0:0:
64,192,36953,1,4,0:0:0:0:
448,192,37296,1,2,0:0:0:0:
320,192,37468,1,2,0:0:0:0:
192,192,37639,1,4,0:0:0:0:
320,192,37982,1,2,0:0:0:0:
64,192,38325,1,4,0:0:0:0:
448,192,38668,1,2,0:0:0:0:
320,192,38839,1,2,0:0:0:0:
64,192,39010,1,4,0:0:0:0:
320,192,39353,1,2,0:0:0:0:
448,192,39525,1,2,0:0:0:0:
192,192,39696,1,4,0:0:0:0:
448,192,40039,1,2,0:0:0:0:
320,192,40210,1,2,0:0:0:0:
64,192,40382,1,4,0:0:0:0:
320,192,40725,1,2,0:0:0:0:
448,192,40896,1,2,0:0:0:0:
192,192,41068,1,4,0:0:0:0:
448,192,41410,1,2,0:0:0:0:
64,192,41582,1,2,0:0:0:0:
448,192,41753,1,6,0:0:0:0:
192,192,42096,1,2,0:0:0:0:
448,192,42268,1,2,0:0:0:0:
192,192,42439,1,6,0:0:0:0:
64,192,42782,1,0,0:0:0:0:
320,192,42782,1,2,0:0:0:0:
64,192,43639,1,0,0:0:0:0:
192,192,43896,1,0,0:0:0:0:
448,192,44153,1,0,0:0:0:0:
320,192,44153,1,2,0:0:0:0:
192,192,44410,1,2,0:0:0:0:
64,192,44668,1,2,0:0:0:0:
448,192,44839,1,4,0:0:0:0:
192,192,45010,1,2,0:0:0:0:
320,192,45268,1,2,0:0:0:0:
64,192,45525,1,2,0:0:0:0:
192,192,45782,1,2,0:0:0:0:
448,192,46039,1,2,0:0:0:0:
64,192,46210,1,4,0:0:0:0:
320,192,46382,1,2,0:0:0:0:
448,192,46639,1,2,0:0:0:0:
192,192,46896,1,2,0:0:0:0:
64,192,47153,1,2,0:0:0:0:
320,192,47410,1,2,0:0:0:0:
448,192,47582,1,4,0:0:0:0:
192,192,47839,1,2,0:0:0:0:
64,192,48096,1,2,0:0:0:0:
192,192,48268,1,2,0:0:0:0:
320,192,48525,1,2,0:0:0:0:
448,192,48782,1,2,0:0:0:0:
192,192,48953,1,4,0:0:0:0:
64,192,49125,1,2,0:0:0:0:
448,192,49296,1,4,0:0:0:0:
64,192,49639,1,2,0:0:0:0:
320,192,49896,1,2,0:0:0:0:
448,192,50153,1,2,0:0:0:0:
64,192,50325,1,4,0:0:0:0:
320,192,50496,1,2,0:0:0:0:
192,192,50753,1,2,0:0:0:0:
64,192,51010,1,2,0:0:0:0:
320,192,51268,1,2,0:0:0:0:
448,192,51525,1,2,0:0:0:0:
64,192,51696,1,4,0:0:0:0:
320,192,51868,1,2,0:0:0:0:
192,192,52125,1,2,0:0:0:0:
64,192,52382,1,2,0:0:0:0:
320,192,52639,1,2,0:0:0:0:
192,192,52896,1,2,0:0:0:0:
448,192,53068,1,4,0:0:0:0:
320,192,53325,1,2,0:0:0:0:
192,192,53582,1,2,0:0:0:0:
64,192,53753,1,2,0:0:0:0:
320,192,54010,1,2,0:0:0:0:
64,192,54268,1,2,0:0:0:0:
448,192,54439,1,4,0:0:0:0:
192,192,54610,1,2,0:0:0:0:
320,192,54782,1,4,0:0:0:0:
64,192,55125,1,0,0:0:0:0:
320,192,55382,1,0,0:0:0:0:
64,192,55639,1,0,0:0:0:0:
192,192,55810,1,4,0:0:0:0:
448,192,55982,1,2,0:0:0:0:
320,192,56239,1,2,0:0:0:0:
64,192,56496,1,2,0:0:0:0:
192,192,56753,1,2,0:0:0:0:
448,192,57010,1,2,0:0:0:0:
320,192,57182,1,4,0:0:0:0:
64,192,57353,1,2,0:0:0:0:
192,192,57610,1,2,0:0:0:0:
448,192,57868,1,2,0:0:0:0:
320,192,58125,1,2,0:0:0:0:
64,192,58382,1,2,0:0:0:0:
448,192,58553,1,4,0:0:0:0:
320,192,58810,1,2,0:0:0:0:
64,192,59068,1,2,0:0:0:0:
192,192,59239,1,2,0:0:0:0:
320,192,59496,1,2,0:0:0:0:
448,192,59753,1,2,0:0:0:0:
64,192,59925,1,4,0:0:0:0:
192,192,60096,1,2,0:0:0:0:
448,192,60268,1,4,0:0:0:0:
64,192,60610,1,2,0:0:0:0:
320,192,60868,1,2,0:0:0:0:
448,192,61125,1,2,0:0:0:0:
64,192,61296,1,4,0:0:0:0:
320,192,61468,1,2,0:0:0:0:
192,192,61725,1,2,0:0:0:0:
64,192,61982,1,2,0:0:0:0:
320,192,62239,1,2,0:0:0:0:
448,192,62496,1,2,0:0:0:0:
64,192,62668,1,4,0:0:0:0:
320,192,62839,1,2,0:0:0:0:
192,192,63096,1,2,0:0:0:0:
64,192,63353,1,2,0:0:0:0:
448,192,63610,1,2,0:0:0:0:
320,192,63868,1,2,0:0:0:0:
64,192,64039,1,4,0:0:0:0:
448,192,64296,1,2,0:0:0:0:
320,192,64553,1,2,0:0:0:0:
64,192,64725,1,2,0:0:0:0:
448,192,64982,1,2,0:0:0:0:
192,192,65239,1,2,0:0:0:0:
64,192,65410,1,4,0:0:0:0:
320,192,65582,1,2,0:0:0:0:
448,192,65753,1,4,0:0:0:0:
64,192,66096,1,2,0:0:0:0:
448,192,66439,1,4,0:0:0:0:
192,192,66696,1,0,0:0:0:0:
448,192,67125,1,4,0:0:0:0:
192,192,67382,1,0,0:0:0:0:
448,192,67810,1,4,0:0:0:0:
192,192,68068,1,0,0:0:0:0:
448,192,68496,1,4,0:0:0:0:
192,192,68753,1,0,0:0:0:0:
448,192,69182,1,4,0:0:0:0:
192,192,69439,1,0,0:0:0:0:
448,192,69868,1,4,0:0:0:0:
192,192,70125,1,0,0:0:0:0:
320,192,70382,1,0,0:0:0:0:
64,192,70553,1,0,0:0:0:0:
448,192,70810,1,0,0:0:0:0:
192,192,71068,1,0,0:0:0:0:
320,192,71239,1,0,0:0:0:0:
64,192,71582,1,2,0:0:0:0:
192,192,71753,1,2,0:0:0:0:
320,192,72096,1,2,0:0:0:0:
448,192,72268,1,4,0:0:0:0:
64,192,72439,1,2,0:0:0:0:
192,192,72610,1,2,0:0:0:0:
448,192,72868,1,2,0:0:0:0:
320,192,73125,1,2,0:0:0:0:
64,192,73468,1,2,0:0:0:0:
192,192,73639,1,4,0:0:0:0:
320,192,73810,1,2,0:0:0:0:
448,192,73982,1,2,0:0:0:0:
64,192,74325,1,2,0:0:0:0:
192,192,74496,1,2,0:0:0:0:
320,192,74839,1,2,0:0:0:0:
448,192,75010,1,4,0:0:0:0:
64,192,75182,1,2,0:0:0:0:
192,192,75353,1,2,0:0:0:0:
448,192,75610,1,2,0:0:0:0:
320,192,75868,1,2,0:0:0:0:
64,192,76210,1,2,0:0:0:0:
192,192,76382,1,4,0:0:0:0:
320,192,76553,1,2,0:0:0:0:
448,192,76725,1,2,0:0:0:0:
64,192,77068,1,2,0:0:0:0:
192,192,77239,1,2,0:0:0:0:
320,192,77582,1,2,0:0:0:0:
448,192,77753,1,4,0:0:0:0:
64,192,77925,1,2,0:0:0:0:
192,192,78096,1,2,0:0:0:0:
448,192,78353,1,2,0:0:0:0:
320,192,78610,1,2,0:0:0:0:
64,192,78953,1,2,0:0:0:0:
192,192,79125,1,4,0:0:0:0:
320,192,79296,1,2,0:0:0:0:
448,192,79468,1,2,0:0:0:0:
64,192,79810,1,2,0:0:0:0:
192,192,79982,1,2,0:0:0:0:
320,192,80325,1,2,0:0:0:0:
448,192,80496,1,4,0:0:0:0:
64,192,80668,1,2,0:0:0:0:
192,192,80839,1,2,0:0:0:0:
448,192,81096,1,2,0:0:0:0:
320,192,81353,1,2,0:0:0:0:
64,192,81696,1,2,0:0:0:0:
192,192,81868,1,4,0:0:0:0:
320,192,82039,1,4,0:0:0:0:
448,192,82210,1,2,0:0:0:0:
192,192,82553,1,0,0:0:0:0:
64,192,82553,1,2,0:0:0:0:
320,192,82810,1,2,0:0:0:0:
192,192,82982,1,2,0:0:0:0:
448,192,83239,1,2,0:0:0:0:
64,192,83496,1,2,0:0:0:0:
192,192,83668,1,2,0:0:0:0:
320,192,83839,1,2,0:0:0:0:
448,192,84010,1,2,0:0:0:0:
64,192,84182,1,2,0:0:0:0:
320,192,84439,1,2,0:0:0:0:
64,192,84696,1,2,0:0:0:0:
192,192,84868,1,2,0:0:0:0:
448,192,85125,1,2,0:0:0:0:
320,192,85296,1,2,0:0:0:0:
64,192,85553,1,2,0:0:0:0:
192,192,85725,1,2,0:0:0:0:
448,192,85982,1,2,0:0:0:0:
64,192,86239,1,2,0:0:0:0:
192,192,86410,1,2,0:0:0:0:
320,192,86582,1,2,0:0:0:0:
448,192,86753,1,2,0:0:0:0:
64,192,86925,1,2,0:0:0:0:
320,192,87182,1,2,0:0:0:0:
192,192,87439,1,2,0:0:0:0:
64,192,87610,1,2,0:0:0:0:
448,192,87868,1,2,0:0:0:0:
320,192,88039,1,2,0:0:0:0:
64,192,88296,1,2,0:0:0:0:
192,192,88468,1,2,0:0:0:0:
320,192,88725,1,2,0:0:0:0:
64,192,88982,1,2,0:0:0:0:
192,192,89153,1,2,0:0:0:0:
320,192,89325,1,2,0:0:0:0:
448,192,89496,1,2,0:0:0:0:
64,192,89668,1,2,0:0:0:0:
320,192,89925,1,2,0:0:0:0:
192,192,90182,1,2,0:0:0:0:
64,192,90353,1,2,0:0:0:0:
320,192,90610,1,2,0:0:0:0:
448,192,90782,1,2,0:0:0:0:
192,192,91039,1,2,0:0:0:0:
64,192,91210,1,2,0:0:0:0:
448,192,91468,1,2,0:0:0:0:
192,192,91725,1,2,0:0:0:0:
320,192,91896,1,2,0:0:0:0:
448,192,92068,1,2,0:0:0:0:
64,192,92239,1,2,0:0:0:0:
192,192,92410,1,2,0:0:0:0:
320,192,92668,1,2,0:0:0:0:
192,192,92925,1,2,0:0:0:0:
64,192,93182,1,4,0:0:0:0:
448,192,93525,1,0,0:0:0:0:
320,192,93525,1,8,0:0:0:0:
64,192,93782,1,8,0:0:0:0:
192,192,93953,1,8,0:0:0:0:
448,192,94210,1,8,0:0:0:0:
64,192,94468,1,8,0:0:0:0:
192,192,94639,1,8,0:0:0:0:
320,192,94810,1,8,0:0:0:0:
448,192,94982,1,8,0:0:0:0:
64,192,95153,1,8,0:0:0:0:
448,192,95410,1,8,0:0:0:0:
64,192,95668,1,8,0:0:0:0:
192,192,95839,1,8,0:0:0:0:
448,192,96096,1,8,0:0:0:0:
192,192,96268,1,8,0:0:0:0:
448,192,96525,1,8,0:0:0:0:
192,192,96696,1,8,0:0:0:0:
448,192,96953,1,8,0:0:0:0:
64,192,97210,1,8,0:0:0:0:
192,192,97382,1,8,0:0:0:0:
320,192,97553,1,8,0:0:0:0:
448,192,97725,1,8,0:0:0:0:
64,192,97896,1,8,0:0:0:0:
448,192,98153,1,8,0:0:0:0:
192,192,98410,1,8,0:0:0:0:
448,192,98582,1,8,0:0:0:0:
320,192,98839,1,8,0:0:0:0:
64,192,99010,1,8,0:0:0:0:
448,192,99268,1,8,0:0:0:0:
320,192,99439,1,8,0:0:0:0:
64,192,99696,1,8,0:0:0:0:
448,192,99953,1,8,0:0:0:0:
320,192,100125,1,8,0:0:0:0:
192,192,100296,1,8,0:0:0:0:
64,192,100468,1,8,0:0:0:0:
448,192,100639,1,8,0:0:0:0:
64,192,100896,1,8,0:0:0:0:
320,192,101153,1,8,0:0:0:0:
64,192,101325,1,8,0:0:0:0:
320,192,101582,1,8,0:0:0:0:
64,192,101753,1,8,0:0:0:0:
192,192,102010,1,8,0:0:0:0:
448,192,102182,1,8,0:0:0:0:
320,192,102439,1,8,0:0:0:0:
64,192,102696,1,8,0:0:0:0:
192,192,102868,1,8,0:0:0:0:
320,192,103039,1,8,0:0:0:0:
448,192,103210,1,8,0:0:0:0:
64,192,103382,1,8,0:0:0:0:
320,192,103639,1,2,0:0:0:0:
192,192,103896,1,2,0:0:0:0:
448,192,104068,1,2,0:0:0:0:
320,192,104325,1,2,0:0:0:0:
64,192,104496,128,2,105868:0:0:0:0:
192,192,105868,128,2,107239:0:0:0:0:
320,192,107239,128,2,108610:0:0:0:0:
448,192,108610,128,2,109810:0:0:0:0:
64,192,109810,1,2,0:0:0:0:
192,192,109982,1,2,0:0:0:0:
448,192,110239,1,2,0:0:0:0:
320,192,110410,1,2,0:0:0:0:
192,192,110668,1,2,0:0:0:0:
64,192,110925,1,2,0:0:0:0:
320,192,111096,1,2,0:0:0:0:
448,192,111268,1,2,0:0:0:0:
64,192,111439,1,2,0:0:0:0:
192,192,111610,1,2,0:0:0:0:
320,192,111868,1,2,0:0:0:0:
448,192,112125,1,2,0:0:0:0:
192,192,112296,1,2,0:0:0:0:
64,192,112553,1,2,0:0:0:0:
448,192,112725,1,2,0:0:0:0:
320,192,112982,1,2,0:0:0:0:
64,192,113153,1,2,0:0:0:0:
192,192,113410,1,2,0:0:0:0:
448,192,113668,1,2,0:0:0:0:
64,192,113839,1,2,0:0:0:0:
320,192,114096,1,2,0:0:0:0:
64,192,114268,1,2,0:0:0:0:
192,192,114439,1,2,0:0:0:0:
448,192,114610,1,2,0:0:0:0:
320,192,114782,1,2,0:0:0:0:
192,192,115039,1,0,0:0:0:0:
448,192,115210,1,0,0:0:0:0:
64,192,115468,1,0,0:0:0:0:
320,192,115468,1,2,0:0:0:0:
192,192,115725,1,0,0:0:0:0:
448,192,115896,1,0,0:0:0:0:
64,192,116153,1,2,0:0:0:0:
192,192,116410,1,0,0:0:0:0:
448,192,116582,1,0,0:0:0:0:
64,192,116839,1,2,0:0:0:0:
320,192,117096,1,0,0:0:0:0:
192,192,117353,1,0,0:0:0:0:
64,192,117525,1,2,0:0:0:0:
320,192,117868,1,4,0:0:0:0:
192,192,118039,1,0,0:0:0:0:
448,192,118210,1,2,0:0:0:0:
320,192,118468,1,0,0:0:0:0:
64,192,118639,1,0,0:0:0:0:
448,192,118896,1,2,0:0:0:0:
320,192,119153,1,0,0:0:0:0:
64,192,119325,1,0,0:0:0:0:
448,192,119582,1,2,0:0:0:0:
64,192,119839,1,0,0:0:0:0:
320,192,120096,1,0,0:0:0:0:
448,192,120268,1,2,0:0:0:0:
192,192,120610,1,4,0:0:0:0:
320,192,120782,1,0,0:0:0:0:
64,192,120953,1,2,0:0:0:0:
320,192,121210,1,0,0:0:0:0:
448,192,121382,1,0,0:0:0:0:
64,192,121639,1,2,0:0:0:0:
320,192,121896,1,0,0:0:0:0:
448,192,122068,1,0,0:0:0:0:
64,192,122325,1,2,0:0:0:0:
320,192,122582,1,0,0:0:0:0:
192,192,122839,1,0,0:0:0:0:
64,192,123010,1,2,0:0:0:0:
320,192,123353,1,4,0:0:0:0:
192,192,123525,1,0,0:0:0:0:
448,192,123696,1,2,0:0:0:0:
192,192,123953,1,0,0:0:0:0:
64,192,124125,1,0,0:0:0:0:
448,192,124382,1,2,0:0:0:0:
192,192,124639,1,0,0:0:0:0:
64,192,124810,1,0,0:0:0:0:
448,192,125068,1,2,0:0:0:0:
192,192,125325,1,0,0:0:0:0:
320,192,125582,1,0,0:0:0:0:
448,192,125753,1,2,0:0:0:0:
192,192,126096,1,4,0:0:0:0:
320,192,126268,1,2,0:0:0:0:
448,192,126439,1,8,0:0:0:0:
64,192,126696,1,8,0:0:0:0:
192,192,126868,1,8,0:0:0:0:
320,192,127125,1,8,0:0:0:0:
448,192,127382,1,8,0:0:0:0:
64,192,127553,1,8,0:0:0:0:
192,192,127725,1,8,0:0:0:0:
320,192,127896,1,8,0:0:0:0:
448,192,128068,1,8,0:0:0:0:
64,192,128325,1,8,0:0:0:0:
192,192,128582,1,8,0:0:0:0:
448,192,128753,1,8,0:0:0:0:
320,192,129010,1,8,0:0:0:0:
64,192,129182,1,8,0:0:0:0:
448,192,129439,1,8,0:0:0:0:
320,192,129610,1,8,0:0:0:0:
192,192,129868,1,8,0:0:0:0:
64,192,130125,1,8,0:0:0:0:
448,192,130296,1,8,0:0:0:0:
320,192,130468,1,8,0:0:0:0:
192,192,130639,1,8,0:0:0:0:
64,192,130810,1,8,0:0:0:0:
448,192,131068,1,8,0:0:0:0:
320,192,131239,1,8,0:0:0:0:
64,192,131410,1,8,0:0:0:0:
192,192,131582,1,12,0:0:0:0:
448,192,131925,1,8,0:0:0:0:
64,192,132182,1,8,0:0:0:0:
448,192,132353,1,8,0:0:0:0:
64,192,132610,1,8,0:0:0:0:
448,192,132868,1,8,0:0:0:0:
64,192,133039,1,8,0:0:0:0:
448,192,133210,1,8,0:0:0:0:
64,192,133382,1,8,0:0:0:0:
448,192,133553,1,8,0:0:0:0:
64,192,133810,1,8,0:0:0:0:
448,192,134068,1,8,0:0:0:0:
64,192,134239,1,8,0:0:0:0:
320,192,134496,1,8,0:0:0:0:
192,192,134668,1,8,0:0:0:0:
320,192,134925,1,8,0:0:0:0:
192,192,135096,1,8,0:0:0:0:
320,192,135353,1,8,0:0:0:0:
192,192,135610,1,8,0:0:0:0:
320,192,135782,1,8,0:0:0:0:
192,192,135953,1,8,0:0:0:0:
320,192,136125,1,8,0:0:0:0:
192,192,136296,1,8,0:0:0:0:
320,192,136553,1,8,0:0:0:0:
192,192,136810,1,8,0:0:0:0:
320,192,136982,1,8,0:0:0:0:
192,192,137239,1,8,0:0:0:0:
448,192,137410,128,0,140153:0:0:0:0:
64,192,137410,1,2,0:0:0:0:
320,192,140153,128,0,142896:0:0:0:0:
192,192,142896,128,0,145639:0:0:0:0:
64,192,145639,128,0,147010:0:0:0:0:
320,192,147010,128,0,148039:0:0:0:0:
192,192,148039,1,0,0:0:0:0:
