osu file format v14

[General]
AudioFilename: audio.mp3
AudioLeadIn: 0
PreviewTime: 91768
Countdown: 0
SampleSet: Normal
StackLeniency: 0.7
Mode: 1
LetterboxInBreaks: 0
WidescreenStoryboard: 1

[Editor]
Bookmarks: 152222
DistanceSpacing: 0.8
BeatDivisor: 4
GridSize: 16
TimelineZoom: 3.899998

[Metadata]
Title:Fireworks
TitleUnicode:Fireworks
Artist:Hachito
ArtistUnicode:ハチト
Creator:Ideal
Version:Inner Oni
Source:
Tags:hatito たんこぶちん 花火 hanabi tancobuchin breakcore lolicore hardcore bootleg remix amenbreak 7_7 japanese electronic miso-013 amenpunk amen punk festival in summer 味噌煮込み夏のアーメンパンク祭 miso-nicomi records
BeatmapID:3977362
BeatmapSetID:1926192

[Difficulty]
HPDrainRate:6.5
CircleSize:5
OverallDifficulty:6.5
ApproachRate:5
SliderMultiplier:1.4
SliderTickRate:1

[Events]
//Background and Video events
0,0,"867614.jpg",0,80
//Break Periods
//Storyboard Layer 0 (Background)
//Storyboard Layer 1 (Fail)
//Storyboard Layer 2 (Pass)
//Storyboard Layer 3 (Foreground)
//Storyboard Layer 4 (Overlay)
//Storyboard Sound Samples

[TimingPoints]
597,272.727272727273,4,1,0,75,1,0
8233,-95.2380952380952,4,1,0,78,0,0
8369,-88.8888888888889,4,1,0,81,0,0
8506,-83.3333333333333,4,1,0,84,0,0
8642,-78.4313725490196,4,1,0,87,0,0
8778,-74.0740740740741,4,1,0,90,0,0
8915,-70.1754385964912,4,1,0,95,0,0
9051,-66.6666666666667,4,1,0,100,0,0
9324,-90.9090909090909,4,1,0,90,0,1
17778,-93.0232558139535,4,1,0,90,0,1
17847,-95.1474785918173,4,1,0,90,0,1
17915,-97.3709834469328,4,1,0,90,0,1
18051,-100,4,1,0,85,0,0
34415,-98.0392156862745,4,1,0,85,0,0
34551,-95.9340280875647,4,1,0,85,0,0
34687,-93.9172607716054,4,1,0,85,0,0
34824,-91.9836269144092,4,1,0,85,0,0
34960,-90.1279275804076,4,1,0,86,0,0
35097,-88.3457002589413,4,1,0,87,0,0
35234,-86.6325161288087,4,1,0,88,0,0
35370,-84.9845837964993,4,1,0,89,0,0
35506,-83.3981754147183,4,1,0,90,0,0
35778,-86.9565217391304,4,1,0,90,0,0
38778,-89.2857142857143,4,1,0,85,0,0
38847,-90.9004966803139,4,1,0,84,0,0
38915,-92.5748490798523,4,1,0,83,0,0
38983,-94.3119518707247,4,1,0,82,0,0
39051,-96.1154923756386,4,1,0,81,0,0
39119,-97.989452415342,4,1,0,80,0,0
39187,-99.9378386643508,4,1,0,79,0,0
39256,-101.965382752556,4,1,0,78,0,0
39324,-104.076792020224,4,1,0,77,0,0
39460,-108.573389096626,4,1,0,70,0,0
39597,-113.475949907177,4,1,0,62,0,0
39733,-118.842333065146,4,1,0,56,0,0
39869,-124.741473296593,4,1,0,44,0,0
40142,-123.456790123457,4,1,0,32,0,0
40278,-121.124031007752,4,1,0,36,0,0
40347,-119.990400767939,4,1,0,37,0,0
40415,-118.87779362815,4,1,0,38,0,0
40551,-116.71335200747,4,1,0,40,0,0
40687,-114.626318202659,4,1,0,44,0,0
40824,-112.612612612613,4,1,0,48,0,0
40960,-110.668437361664,4,1,0,52,0,0
41097,-108.790252393386,4,1,0,56,0,0
41165,-107.874865156419,4,1,0,57,0,0
41233,-106.974753958066,4,1,0,58,0,0
41369,-105.218855218855,4,1,0,62,0,0
41437,-104.36234606554,4,1,0,64,0,0
41506,-103.51966873706,4,1,0,66,0,0
41574,-102.690490860546,4,1,0,68,0,0
41642,-101.874490627547,4,1,0,70,0,0
41778,-100.280786201364,4,1,0,74,0,0
41915,-98.7361769352291,4,1,0,78,0,0
41983,-97.981579463061,4,1,0,79,0,0
42051,-97.2384286269934,4,1,0,80,0,0
42187,-95.7854406130268,4,1,0,81,0,0
42256,-95.0751093363757,4,1,0,82,0,0
42324,-94.3752359380898,4,1,0,83,0,0
42460,-93.0059523809524,4,1,0,84,0,0
42597,-91.6758342500917,4,1,0,85,0,0
42665,-91.0249408337885,4,1,0,86,0,0
42733,-90.3832248734635,4,1,0,87,0,0
42801,-89.7504936277149,4,1,0,88,0,0
42869,-89.126559714795,4,1,0,89,0,0
43006,-87.9043600562588,4,1,0,90,0,0
43142,-86.7152271938952,4,1,0,90,0,0
43210,-86.1326442721791,4,1,0,90,0,0
43278,-85.5578370978782,4,1,0,90,0,0
43347,-84.9906510283869,4,1,0,90,0,0
43415,-84.4309354947653,4,1,0,90,0,0
43483,-83.8785438684784,4,1,0,90,0,0
43551,-83.3333333333333,4,1,0,90,0,0
43687,-66.6666666666667,4,1,0,100,0,0
44233,-83.3333333333333,4,1,0,95,0,1
44847,-74.0740740740741,4,1,0,100,0,1
45119,-83.3333333333333,4,1,0,95,0,1
47028,-74.0740740740741,4,1,0,100,0,1
47301,-83.3333333333333,4,1,0,95,0,1
49210,-74.0740740740741,4,1,0,100,0,1
49483,-83.3333333333333,4,1,0,95,0,1
51869,-74.0740740740741,4,1,0,100,0,1
52619,-83.3333333333333,4,1,0,95,0,1
52960,-74.0740740740741,4,1,0,100,0,1
53097,-83.3333333333333,4,1,0,95,0,1
53233,-66.6666666666667,4,1,0,100,0,1
53369,-83.3333333333333,4,1,0,95,0,1
53506,-60.6060606060606,4,1,0,100,0,1
53642,-83.3333333333333,4,1,0,95,0,1
53778,-55.5555555555556,4,1,0,100,0,1
53915,-83.3333333333333,4,1,0,95,0,1
54051,-51.2820512820513,4,1,0,100,0,1
54187,-83.3333333333333,4,1,0,95,0,1
54324,-47.6190476190476,4,1,0,100,0,1
54460,-83.3333333333333,4,1,0,95,0,1
54597,-44.4444444444445,4,1,0,100,0,1
54733,-83.3333333333333,4,1,0,95,0,1
54869,-41.6666666666667,4,1,0,100,0,1
55006,-83.3333333333333,4,1,0,95,0,1
55142,-39.2156862745098,4,1,0,100,0,1
55278,-83.3333333333333,4,1,0,95,0,1
55415,-37.037037037037,4,1,0,100,0,1
55551,-83.3333333333333,4,1,0,95,0,1
55687,-35.0877192982456,4,1,0,100,0,1
55824,-83.3333333333333,4,1,0,95,0,1
55960,-33.3333333333333,4,1,0,100,0,1
56097,-83.3333333333333,4,1,0,95,0,1
56233,-31.7460317460317,4,1,0,100,0,1
56369,-83.3333333333333,4,1,0,95,0,1
56506,-30.3030303030303,4,1,0,100,0,1
56642,-83.3333333333333,4,1,0,95,0,1
56778,-28.9855072463768,4,1,0,100,0,1
56915,-83.3333333333333,4,1,0,95,0,1
57051,-27.7777777777778,4,1,0,100,0,1
57187,-83.3333333333333,4,1,0,95,0,1
57256,-74.0740740740741,4,1,0,100,0,1
57460,-83.3333333333333,4,1,0,95,0,1
57665,-74.0740740740741,4,1,0,100,0,1
57869,-83.3333333333333,4,1,0,95,0,1
58347,-74.0740740740741,4,1,0,100,0,1
58483,-83.3333333333333,4,1,0,95,0,1
58756,-74.0740740740741,4,1,0,100,0,1
58892,-83.3333333333333,4,1,0,95,0,1
59165,-74.0740740740741,4,1,0,100,0,1
59301,-83.3333333333333,4,1,0,95,0,1
60528,-84.7457627118644,4,1,0,94,0,1
60665,-86.4553064970298,4,1,0,93,0,1
60733,-88.2353200692118,4,1,0,92,0,1
60801,-90.0900900900901,4,1,0,91,0,1
60869,-92.0245116489228,4,1,0,90,0,1
60937,-94.043916628187,4,1,0,89,0,1
61006,-96.1538461538461,4,1,0,88,0,1
61074,-98.3606234883202,4,1,0,87,0,1
61142,-100.671174721871,4,1,0,86,0,1
61210,-103.092783505155,4,1,0,85,0,1
61278,-105.633765621914,4,1,0,84,0,1
61347,-108.303288196133,4,1,0,83,0,1
61415,-111.111111111111,4,1,0,82,0,1
61687,-111.111111111111,4,1,0,80,0,0
66051,-100,4,1,0,85,0,0
82415,-98.0392156862745,4,1,0,85,0,0
82551,-95.9340280875647,4,1,0,85,0,0
82687,-93.9172607716054,4,1,0,85,0,0
82824,-91.9836269144092,4,1,0,85,0,0
82960,-90.1279275804076,4,1,0,86,0,0
83097,-88.3457002589413,4,1,0,87,0,0
83233,-86.6325161288087,4,1,0,88,0,0
83369,-84.9845837964993,4,1,0,89,0,0
83506,-83.3981754147183,4,1,0,90,0,0
83778,-86.9565217391304,4,1,0,90,0,0
86778,-89.2857142857143,4,1,0,85,0,0
86847,-90.9004966803139,4,1,0,84,0,0
86915,-92.5748490798523,4,1,0,83,0,0
86983,-94.3119518707247,4,1,0,82,0,0
87051,-96.1154923756386,4,1,0,81,0,0
87119,-97.989452415342,4,1,0,80,0,0
87187,-99.9378386643508,4,1,0,79,0,0
87256,-101.965382752556,4,1,0,78,0,0
87324,-104.076792020224,4,1,0,77,0,0
87460,-108.573389096626,4,1,0,70,0,0
87597,-113.475949907177,4,1,0,62,0,0
87733,-118.842333065146,4,1,0,56,0,0
87869,-124.741473296593,4,1,0,44,0,0
88142,-123.456790123457,4,1,0,32,0,0
88278,-121.124031007752,4,1,0,36,0,0
88347,-119.990400767939,4,1,0,37,0,0
88415,-118.87779362815,4,1,0,38,0,0
88551,-116.71335200747,4,1,0,40,0,0
88687,-114.626318202659,4,1,0,44,0,0
88824,-113.636363636364,4,1,0,48,0,0
88892,-112.612612612613,4,1,0,48,0,0
88960,-110.668437361664,4,1,0,52,0,0
89097,-108.790252393386,4,1,0,56,0,0
89165,-107.874865156419,4,1,0,57,0,0
89233,-106.974753958066,4,1,0,58,0,0
89369,-105.218855218855,4,1,0,62,0,0
89506,-103.51966873706,4,1,0,66,0,0
89574,-102.690490860546,4,1,0,68,0,0
89642,-101.874490627547,4,1,0,70,0,0
89710,-101.010101010101,4,1,0,70,0,0
89778,-100.280786201364,4,1,0,74,0,0
89915,-98.7361769352291,4,1,0,78,0,0
90051,-97.2384286269934,4,1,0,80,0,0
90187,-95.7854406130268,4,1,0,81,0,0
90256,-95.0751093363757,4,1,0,82,0,0
90324,-94.3752359380898,4,1,0,83,0,0
90392,-93.4579439252336,4,1,0,83,0,0
90460,-93.0059523809524,4,1,0,84,0,0
90597,-91.6758342500917,4,1,0,85,0,0
90733,-90.3832248734635,4,1,0,87,0,0
90801,-89.7504936277149,4,1,0,88,0,0
90869,-89.126559714795,4,1,0,89,0,0
90937,-88.4955752212389,4,1,0,89,0,0
91006,-87.9043600562588,4,1,0,90,0,0
91142,-86.7152271938952,4,1,0,90,0,0
91210,-86.1326442721791,4,1,0,90,0,0
91278,-85.5578370978782,4,1,0,90,0,0
91347,-84.9906510283869,4,1,0,90,0,0
91415,-84.4309354947653,4,1,0,90,0,0
91483,-83.8785438684784,4,1,0,90,0,0
91551,-83.3333333333333,4,1,0,90,0,0
91687,-66.6666666666667,4,1,0,100,0,0
91824,-74.0740740740741,4,1,0,90,0,0
91892,-75.7575757575758,4,1,0,90,0,0
91960,-77.5193798449612,4,1,0,90,0,0
92028,-79.3650793650794,4,1,0,90,0,0
92097,-81.3008130081301,4,1,0,90,0,0
92233,-83.3333333333333,4,1,0,95,0,1
98778,-80,4,1,0,95,0,1
100415,-74.0740740740741,4,1,0,100,0,1
100687,-83.3333333333333,4,1,0,95,0,1
100960,-74.0740740740741,4,1,0,100,0,1
101097,-83.3333333333333,4,1,0,95,0,1
101233,-66.6666666666667,4,1,0,100,0,1
101369,-83.3333333333333,4,1,0,95,0,1
101506,-60.6060606060606,4,1,0,100,0,1
101642,-83.3333333333333,4,1,0,95,0,1
101778,-55.5555555555556,4,1,0,100,0,1
101915,-83.3333333333333,4,1,0,95,0,1
102051,-51.2820512820513,4,1,0,100,0,1
102187,-83.3333333333333,4,1,0,95,0,1
102324,-47.6190476190476,4,1,0,100,0,1
102460,-83.3333333333333,4,1,0,95,0,1
102597,-44.4444444444445,4,1,0,100,0,1
102733,-83.3333333333333,4,1,0,95,0,1
102869,-41.6666666666667,4,1,0,100,0,1
103006,-83.3333333333333,4,1,0,95,0,1
103142,-39.2156862745098,4,1,0,100,0,1
103278,-83.3333333333333,4,1,0,95,0,1
103415,-37.037037037037,4,1,0,100,0,1
103551,-83.3333333333333,4,1,0,95,0,1
103687,-35.0877192982456,4,1,0,100,0,1
103824,-83.3333333333333,4,1,0,95,0,1
103960,-33.3333333333333,4,1,0,100,0,1
104097,-83.3333333333333,4,1,0,95,0,1
104233,-31.7460317460317,4,1,0,100,0,1
104369,-83.3333333333333,4,1,0,95,0,1
104506,-30.3030303030303,4,1,0,100,0,1
104642,-83.3333333333333,4,1,0,95,0,1
104778,-28.9855072463768,4,1,0,100,0,1
104915,-83.3333333333333,4,1,0,95,0,1
105051,-27.7777777777778,4,1,0,100,0,1
105187,-83.3333333333333,4,1,0,95,0,1
105256,-74.0740740740741,4,1,0,100,0,1
105460,-83.3333333333333,4,1,0,95,0,1
105665,-74.0740740740741,4,1,0,100,0,1
105869,-83.3333333333333,4,1,0,95,0,1
106347,-74.0740740740741,4,1,0,100,0,1
106483,-83.3333333333333,4,1,0,95,0,1
106756,-74.0740740740741,4,1,0,100,0,1
106892,-83.3333333333333,4,1,0,95,0,1
107165,-74.0740740740741,4,1,0,100,0,1
107301,-83.3333333333333,4,1,0,95,0,1
107506,-76.9230769230769,4,1,0,100,0,1
109687,-90.9090909090909,4,1,0,90,0,0
124960,-83.3333333333333,4,1,0,95,0,0
125028,-90.9090909090909,4,1,0,90,0,0
125301,-83.3333333333333,4,1,0,95,0,0
125437,-90.9090909090909,4,1,0,90,0,0
125983,-83.3333333333333,4,1,0,95,0,0
126119,-95.2380952380952,4,1,0,90,0,0
126256,-86.9565217391304,4,1,0,95,0,0
126392,-100,4,1,0,90,0,0
126528,-90.9090909090909,4,1,0,95,0,0
126733,-105.263157894737,4,1,0,90,0,0
126801,-108.108108108108,4,1,0,85,0,0
126869,-111.111111111111,4,1,0,80,0,0
127006,-117.647058823529,4,1,0,75,0,0
127142,-125,4,1,0,70,0,0
135324,-121.951219512195,4,1,0,72,0,0
135460,-119.047619047619,4,1,0,74,0,0
135597,-116.279069767442,4,1,0,76,0,0
135733,-113.636363636364,4,1,0,78,0,0
135869,-111.111111111111,4,1,0,80,0,0
139415,-113.636363636364,4,1,0,72,0,0
139551,-116.279069767442,4,1,0,64,0,0
139687,-119.047619047619,4,1,0,56,0,0
139960,-121.951219512195,4,1,0,44,0,0
140233,-125,4,1,0,32,0,0
140506,-123.456790123457,4,1,0,32,0,0
140642,-121.124031007752,4,1,0,36,0,0
140711,-119.990400767939,4,1,0,37,0,0
140778,-118.87779362815,4,1,0,38,0,0
140915,-116.71335200747,4,1,0,40,0,0
141051,-114.626318202659,4,1,0,44,0,0
141188,-112.612612612613,4,1,0,48,0,0
141324,-110.668437361664,4,1,0,52,0,0
141461,-108.790252393386,4,1,0,56,0,0
141529,-107.874865156419,4,1,0,57,0,0
141597,-106.974753958066,4,1,0,58,0,0
141733,-105.218855218855,4,1,0,62,0,0
141801,-104.36234606554,4,1,0,64,0,0
141870,-103.51966873706,4,1,0,66,0,0
141938,-102.690490860546,4,1,0,68,0,0
142006,-101.874490627547,4,1,0,70,0,0
142142,-100.280786201364,4,1,0,74,0,0
142279,-98.7361769352291,4,1,0,78,0,0
142347,-97.981579463061,4,1,0,79,0,0
142415,-97.2384286269934,4,1,0,80,0,0
142551,-95.7854406130268,4,1,0,81,0,0
142620,-95.0751093363757,4,1,0,82,0,0
142688,-94.3752359380898,4,1,0,83,0,0
142824,-93.0059523809524,4,1,0,84,0,0
142961,-91.6758342500917,4,1,0,85,0,0
143029,-91.0249408337885,4,1,0,86,0,0
143097,-90.3832248734635,4,1,0,87,0,0
143165,-89.7504936277149,4,1,0,88,0,0
143233,-89.126559714795,4,1,0,89,0,0
143370,-87.9043600562588,4,1,0,90,0,0
143506,-86.7152271938952,4,1,0,90,0,0
143574,-86.1326442721791,4,1,0,90,0,0
143642,-85.5578370978782,4,1,0,90,0,0
143711,-84.9906510283869,4,1,0,90,0,0
143779,-84.4309354947653,4,1,0,90,0,0
143847,-83.8785438684784,4,1,0,90,0,0
143915,-83.3333333333333,4,1,0,90,0,0
144051,-66.6666666666667,4,1,0,100,0,0
144187,-74.0740740740741,4,1,0,90,0,0
144255,-75.7575757575758,4,1,0,90,0,0
144323,-77.5193798449612,4,1,0,90,0,0
144391,-79.3650793650794,4,1,0,90,0,0
144460,-81.3008130081301,4,1,0,90,0,0
144596,-83.3333333333333,4,1,0,95,0,0
144597,-83.3333333333333,4,1,0,95,0,1
145210,-74.0740740740741,4,1,0,100,0,1
145687,-83.3333333333333,4,1,0,95,0,1
147392,-74.0740740740741,4,1,0,100,0,1
147665,-83.3333333333333,4,1,0,95,0,1
149574,-74.0740740740741,4,1,0,100,0,1
149847,-83.3333333333333,4,1,0,95,0,1
152233,-74.0740740740741,4,1,0,100,0,1
152983,-83.3333333333333,4,1,0,95,0,1
153324,-74.0740740740741,4,1,0,100,0,1
153461,-83.3333333333333,4,1,0,95,0,1
153597,-66.6666666666667,4,1,0,100,0,1
153733,-83.3333333333333,4,1,0,95,0,1
153869,-60.6060606060606,4,1,0,100,0,1
154006,-83.3333333333333,4,1,0,95,0,1
154142,-55.5555555555556,4,1,0,100,0,1
154279,-83.3333333333333,4,1,0,95,0,1
154415,-51.2820512820513,4,1,0,100,0,1
154551,-83.3333333333333,4,1,0,95,0,1
154687,-47.6190476190476,4,1,0,100,0,1
154824,-83.3333333333333,4,1,0,95,0,1
154960,-44.4444444444445,4,1,0,100,0,1
155097,-83.3333333333333,4,1,0,95,0,1
155233,-41.6666666666667,4,1,0,100,0,1
155370,-83.3333333333333,4,1,0,95,0,1
155506,-39.2156862745098,4,1,0,100,0,1
155642,-83.3333333333333,4,1,0,95,0,1
155778,-37.037037037037,4,1,0,100,0,1
155915,-83.3333333333333,4,1,0,95,0,1
156051,-35.0877192982456,4,1,0,100,0,1
156188,-83.3333333333333,4,1,0,95,0,1
156324,-33.3333333333333,4,1,0,100,0,1
156461,-83.3333333333333,4,1,0,95,0,1
156596,-31.7460317460317,4,1,0,100,0,1
156733,-83.3333333333333,4,1,0,95,0,1
156869,-30.3030303030303,4,1,0,100,0,1
157006,-83.3333333333333,4,1,0,95,0,1
157142,-28.9855072463768,4,1,0,100,0,1
157279,-83.3333333333333,4,1,0,95,0,1
157415,-27.7777777777778,4,1,0,100,0,1
157551,-83.3333333333333,4,1,0,95,0,1
157620,-74.0740740740741,4,1,0,100,0,1
157824,-83.3333333333333,4,1,0,95,0,1
158029,-74.0740740740741,4,1,0,100,0,1
158233,-83.3333333333333,4,1,0,95,0,1
158711,-74.0740740740741,4,1,0,100,0,1
158847,-83.3333333333333,4,1,0,95,0,1
159120,-74.0740740740741,4,1,0,100,0,1
159256,-83.3333333333333,4,1,0,95,0,1
159529,-74.0740740740741,4,1,0,100,0,1
159665,-83.3333333333333,4,1,0,95,0,1
161779,-82.6446280991736,4,1,0,95,0,1
161847,-81.9672131147541,4,1,0,95,0,1
161915,-81.3008130081301,4,1,0,95,0,1
161983,-80.6451612903226,4,1,0,95,0,1
162051,-80,4,1,0,95,0,1
168324,-66.6666666666667,4,1,0,100,0,1
168528,-76.9230769230769,4,1,0,100,0,1
170778,-80,4,1,0,95,0,1
179437,-66.6666666666667,4,1,0,100,0,1
179574,-76.9230769230769,4,1,0,95,0,1
179847,-66.6666666666667,4,1,0,100,0,1
179983,-76.9230769230769,4,1,0,95,0,1
180256,-66.6666666666667,4,1,0,100,0,1
180460,-66.6666666666667,4,1,0,100,0,0

[HitObjects]
256,192,597,5,0,0:0:0:0:
256,192,1687,1,8,0:0:0:0:
256,192,2778,1,0,0:0:0:0:
229,200,3869,1,8,0:0:0:0:
236,197,4960,1,0,0:0:0:0:
236,197,5506,1,8,0:0:0:0:
236,197,6051,1,0,0:0:0:0:
221,187,6597,1,8,0:0:0:0:
221,187,7142,1,0,0:0:0:0:
221,187,7415,1,0,0:0:0:0:
221,187,7687,1,0,0:0:0:0:
221,187,7960,1,0,0:0:0:0:
221,187,8233,1,0,0:0:0:0:
221,187,8369,1,0,0:0:0:0:
221,187,8506,1,0,0:0:0:0:
221,187,8642,1,0,0:0:0:0:
221,187,8778,1,0,0:0:0:0:
221,187,8915,1,12,0:0:0:0:
221,187,9051,1,12,0:0:0:0:
226,177,9324,1,12,0:0:0:0:
226,177,9460,1,0,0:0:0:0:
226,177,9528,1,0,0:0:0:0:
226,177,9597,1,8,0:0:0:0:
226,177,9733,1,8,0:0:0:0:
226,177,9801,1,0,0:0:0:0:
226,177,9869,1,8,0:0:0:0:
226,177,9937,1,8,0:0:0:0:
226,177,10006,1,0,0:0:0:0:
226,177,10142,1,8,0:0:0:0:
226,168,10210,1,8,0:0:0:0:
226,168,10278,1,8,0:0:0:0:
241,174,10415,1,0,0:0:0:0:
241,174,10551,1,8,0:0:0:0:
241,174,10619,1,0,0:0:0:0:
241,174,10687,1,8,0:0:0:0:
241,174,10756,1,8,0:0:0:0:
241,174,10824,1,0,0:0:0:0:
241,174,10960,1,8,0:0:0:0:
234,180,11097,1,0,0:0:0:0:
234,180,11165,1,0,0:0:0:0:
234,180,11233,1,8,0:0:0:0:
234,180,11301,1,8,0:0:0:0:
234,180,11369,1,0,0:0:0:0:
234,180,11506,1,8,0:0:0:0:
234,180,11574,1,0,0:0:0:0:
234,180,11642,1,8,0:0:0:0:
236,173,11778,1,8,0:0:0:0:
236,173,11824,1,8,0:0:0:0:
236,173,11869,1,8,0:0:0:0:
236,173,11915,1,0,0:0:0:0:
231,170,12051,1,8,0:0:0:0:
231,170,12119,1,0,0:0:0:0:
231,170,12187,1,0,0:0:0:0:
231,170,12324,1,0,0:0:0:0:
217,172,12460,1,8,0:0:0:0:
236,173,12597,1,0,0:0:0:0:
236,173,12665,1,0,0:0:0:0:
231,170,12733,1,0,0:0:0:0:
231,170,12869,1,8,0:0:0:0:
231,170,13006,1,0,0:0:0:0:
222,163,13074,1,0,0:0:0:0:
222,163,13142,1,0,0:0:0:0:
222,163,13278,1,0,0:0:0:0:
222,163,13415,1,12,0:0:0:0:
222,163,13551,1,12,0:0:0:0:
223,166,13687,1,0,0:0:0:0:
222,163,13824,1,8,0:0:0:0:
222,163,13892,1,0,0:0:0:0:
222,163,13960,1,8,0:0:0:0:
214,162,14097,1,8,0:0:0:0:
214,162,14165,1,8,0:0:0:0:
214,162,14233,1,0,0:0:0:0:
214,162,14301,1,8,0:0:0:0:
214,162,14369,1,0,0:0:0:0:
213,163,14506,1,8,0:0:0:0:
213,163,14574,1,8,0:0:0:0:
213,163,14642,1,8,0:0:0:0:
214,162,14778,1,0,0:0:0:0:
214,162,14847,1,8,0:0:0:0:
214,162,14915,1,0,0:0:0:0:
214,162,14983,1,0,0:0:0:0:
214,162,15051,1,8,0:0:0:0:
213,163,15187,1,0,0:0:0:0:
213,163,15324,1,8,0:0:0:0:
213,163,15392,1,0,0:0:0:0:
214,162,15460,1,8,0:0:0:0:
199,155,15597,1,0,0:0:0:0:
202,156,15733,1,8,0:0:0:0:
202,156,15869,1,8,0:0:0:0:
213,163,15937,1,0,0:0:0:0:
213,163,16006,1,0,0:0:0:0:
213,163,16142,1,0,0:0:0:0:
214,163,16278,1,8,0:0:0:0:
214,163,16347,1,8,0:0:0:0:
214,163,16415,1,8,0:0:0:0:
214,163,16551,1,0,0:0:0:0:
213,163,16687,1,8,0:0:0:0:
213,163,16756,1,0,0:0:0:0:
213,163,16824,1,8,0:0:0:0:
208,169,16960,1,0,0:0:0:0:
208,169,17097,1,8,0:0:0:0:
208,169,17165,1,0,0:0:0:0:
208,169,17233,1,8,0:0:0:0:
208,169,17301,1,8,0:0:0:0:
208,169,17369,1,0,0:0:0:0:
208,169,17437,1,0,0:0:0:0:
208,169,17506,1,8,0:0:0:0:
208,169,17642,1,0,0:0:0:0:
208,169,17778,1,8,0:0:0:0:
208,169,17847,1,8,0:0:0:0:
208,169,17915,1,0,0:0:0:0:
208,169,18051,1,8,0:0:0:0:
230,170,18324,1,8,0:0:0:0:
230,170,18460,1,0,0:0:0:0:
230,170,18597,1,8,0:0:0:0:
230,170,18665,1,0,0:0:0:0:
230,170,18733,1,0,0:0:0:0:
230,170,18801,1,0,0:0:0:0:
230,170,18869,1,8,0:0:0:0:
230,170,19006,1,0,0:0:0:0:
230,170,19142,1,8,0:0:0:0:
230,170,19278,1,0,0:0:0:0:
230,170,19347,1,0,0:0:0:0:
230,170,19415,1,8,0:0:0:0:
230,170,19551,1,8,0:0:0:0:
220,162,19824,1,8,0:0:0:0:
220,162,19892,1,0,0:0:0:0:
220,162,19960,1,8,0:0:0:0:
220,162,20097,1,0,0:0:0:0:
220,162,20233,1,8,0:0:0:0:
220,162,20369,1,0,0:0:0:0:
220,162,20437,1,0,0:0:0:0:
220,162,20506,1,8,0:0:0:0:
220,162,20642,1,8,0:0:0:0:
220,162,20710,1,8,0:0:0:0:
220,162,20778,1,0,0:0:0:0:
220,162,20847,1,8,0:0:0:0:
220,162,20915,1,0,0:0:0:0:
220,162,21051,1,8,0:0:0:0:
210,170,21119,1,0,0:0:0:0:
210,170,21187,1,0,0:0:0:0:
210,170,21324,1,8,0:0:0:0:
210,170,21460,1,0,0:0:0:0:
210,170,21528,1,0,0:0:0:0:
210,170,21597,1,8,0:0:0:0:
210,170,21869,1,8,0:0:0:0:
210,170,21937,1,0,0:0:0:0:
210,170,22006,1,8,0:0:0:0:
210,170,22074,1,8,0:0:0:0:
210,170,22142,1,0,0:0:0:0:
210,170,22278,1,0,0:0:0:0:
210,171,22415,1,8,0:0:0:0:
201,168,22551,1,0,0:0:0:0:
201,168,22619,1,0,0:0:0:0:
201,168,22687,1,8,0:0:0:0:
202,169,22824,1,0,0:0:0:0:
202,169,22960,1,8,0:0:0:0:
202,169,23028,1,8,0:0:0:0:
202,169,23097,1,0,0:0:0:0:
202,169,23165,1,0,0:0:0:0:
201,168,23233,1,8,0:0:0:0:
201,168,23369,1,0,0:0:0:0:
202,169,23506,1,8,0:0:0:0:
202,169,23642,1,8,0:0:0:0:
202,169,23710,1,0,0:0:0:0:
202,169,23778,1,8,0:0:0:0:
189,171,23915,1,0,0:0:0:0:
188,171,24051,1,8,0:0:0:0:
188,171,24119,1,0,0:0:0:0:
188,171,24187,1,8,0:0:0:0:
188,171,24256,1,0,0:0:0:0:
188,171,24324,1,0,0:0:0:0:
187,171,24460,1,0,0:0:0:0:
189,171,24597,1,8,0:0:0:0:
201,164,24733,1,8,0:0:0:0:
201,164,24801,1,8,0:0:0:0:
201,164,24869,1,8,0:0:0:0:
190,166,25006,1,0,0:0:0:0:
190,166,25142,1,8,0:0:0:0:
190,166,25210,1,8,0:0:0:0:
189,171,25278,1,8,0:0:0:0:
190,166,25415,1,0,0:0:0:0:
190,166,25551,1,8,0:0:0:0:
190,166,25687,1,0,0:0:0:0:
190,166,25824,1,0,0:0:0:0:
190,166,25892,1,0,0:0:0:0:
190,166,25960,1,8,0:0:0:0:
197,152,26097,1,8,0:0:0:0:
197,152,26369,1,8,0:0:0:0:
197,152,26506,1,0,0:0:0:0:
197,152,26574,1,0,0:0:0:0:
197,152,26642,1,0,0:0:0:0:
197,152,26778,1,8,0:0:0:0:
214,145,26915,1,0,0:0:0:0:
212,146,26983,1,0,0:0:0:0:
212,146,27051,1,8,0:0:0:0:
212,146,27187,1,8,0:0:0:0:
212,146,27256,1,0,0:0:0:0:
212,146,27324,1,8,0:0:0:0:
213,152,27460,1,0,0:0:0:0:
213,152,27597,1,8,0:0:0:0:
213,152,27665,1,0,0:0:0:0:
213,152,27733,1,0,0:0:0:0:
213,152,27869,1,8,0:0:0:0:
213,152,27937,1,8,0:0:0:0:
213,152,28006,1,8,0:0:0:0:
213,152,28074,1,8,0:0:0:0:
213,152,28142,1,0,0:0:0:0:
213,152,28278,1,8,0:0:0:0:
213,152,28551,1,0,0:0:0:0:
213,152,28619,1,0,0:0:0:0:
213,152,28687,1,8,0:0:0:0:
213,152,28756,1,0,0:0:0:0:
213,152,28824,1,8,0:0:0:0:
213,152,28960,1,8,0:0:0:0:
213,152,29097,1,8,0:0:0:0:
213,152,29165,1,0,0:0:0:0:
213,152,29233,1,8,0:0:0:0:
213,152,29301,1,8,0:0:0:0:
213,152,29369,1,0,0:0:0:0:
213,152,29506,1,8,0:0:0:0:
202,147,29642,1,0,0:0:0:0:
202,147,29710,1,0,0:0:0:0:
202,147,29778,1,0,0:0:0:0:
202,147,29915,1,8,0:0:0:0:
202,147,30051,1,0,0:0:0:0:
202,147,30324,1,8,0:0:0:0:
202,147,30460,1,0,0:0:0:0:
206,154,30597,1,8,0:0:0:0:
205,154,30665,1,0,0:0:0:0:
205,154,30733,1,0,0:0:0:0:
205,154,30801,1,0,0:0:0:0:
205,154,30869,1,8,0:0:0:0:
205,154,31006,1,8,0:0:0:0:
205,154,31142,1,0,0:0:0:0:
206,154,31278,1,0,0:0:0:0:
206,154,31347,1,0,0:0:0:0:
205,154,31415,1,8,0:0:0:0:
192,151,31551,1,0,0:0:0:0:
192,151,31687,1,8,0:0:0:0:
192,151,31756,1,0,0:0:0:0:
192,151,31824,1,8,0:0:0:0:
192,151,31892,1,0,0:0:0:0:
192,151,31960,1,8,0:0:0:0:
191,150,32028,1,8,0:0:0:0:
191,150,32097,1,0,0:0:0:0:
192,151,32233,1,8,0:0:0:0:
192,151,32369,1,0,0:0:0:0:
192,151,32437,1,0,0:0:0:0:
192,151,32506,1,8,0:0:0:0:
192,151,32642,1,8,0:0:0:0:
191,150,32778,1,0,0:0:0:0:
192,151,32915,1,8,0:0:0:0:
192,151,32983,1,8,0:0:0:0:
192,151,33051,1,0,0:0:0:0:
192,151,33187,1,0,0:0:0:0:
192,151,33324,1,8,0:0:0:0:
192,151,33597,1,0,0:0:0:0:
192,151,33733,1,8,0:0:0:0:
192,151,33801,1,0,0:0:0:0:
192,151,33869,1,8,0:0:0:0:
192,151,33937,1,8,0:0:0:0:
192,151,34006,1,0,0:0:0:0:
192,151,34142,1,8,0:0:0:0:
192,151,34278,1,8,0:0:0:0:
192,151,34347,1,8,0:0:0:0:
192,151,34415,1,0,0:0:0:0:
192,151,34551,1,0,0:0:0:0:
192,151,34687,1,8,0:0:0:0:
192,151,34824,1,8,0:0:0:0:
197,147,34960,1,4,0:0:0:0:
192,151,35097,1,4,0:0:0:0:
192,151,35234,1,12,0:0:0:0:
192,151,35370,1,12,0:0:0:0:
216,157,35506,1,4,0:0:0:0:
193,159,35778,1,8,0:0:0:0:
193,159,35915,1,0,0:0:0:0:
193,159,35983,1,0,0:0:0:0:
193,159,36051,1,8,0:0:0:0:
204,164,36187,1,8,0:0:0:0:
205,163,36256,1,0,0:0:0:0:
205,163,36324,1,8,0:0:0:0:
205,163,36460,1,0,0:0:0:0:
201,162,36597,1,8,0:0:0:0:
201,162,36665,1,8,0:0:0:0:
201,162,36733,1,0,0:0:0:0:
201,162,36801,1,0,0:0:0:0:
204,164,36869,1,8,0:0:0:0:
205,163,37006,1,0,0:0:0:0:
205,163,37142,1,8,0:0:0:0:
206,166,37278,1,0,0:0:0:0:
206,166,37347,1,0,0:0:0:0:
206,166,37415,1,8,0:0:0:0:
206,166,37551,1,0,0:0:0:0:
204,164,37687,1,8,0:0:0:0:
206,168,37824,1,0,0:0:0:0:
206,168,37892,1,0,0:0:0:0:
206,166,37960,1,8,0:0:0:0:
206,166,38097,1,0,0:0:0:0:
206,166,38233,1,8,0:0:0:0:
206,168,38369,1,0,0:0:0:0:
206,168,38437,1,0,0:0:0:0:
206,168,38506,1,8,0:0:0:0:
206,168,38642,1,0,0:0:0:0:
206,166,38778,1,8,0:0:0:0:
206,166,38847,1,0,0:0:0:0:
206,166,38915,1,0,0:0:0:0:
206,166,38983,1,0,0:0:0:0:
206,168,39051,1,8,0:0:0:0:
206,168,39119,1,0,0:0:0:0:
206,168,39187,1,0,0:0:0:0:
206,168,39256,1,0,0:0:0:0:
206,168,39324,1,8,0:0:0:0:
206,166,39460,1,8,0:0:0:0:
206,166,39597,1,0,0:0:0:0:
206,166,39733,1,0,0:0:0:0:
206,168,39869,1,0,0:0:0:0:
201,167,40142,1,0,0:0:0:0:
201,167,40278,1,0,0:0:0:0:
201,167,40347,1,0,0:0:0:0:
201,167,40415,1,0,0:0:0:0:
206,168,40551,1,0,0:0:0:0:
201,167,40687,1,8,0:0:0:0:
201,167,40824,1,8,0:0:0:0:
201,167,40960,1,0,0:0:0:0:
201,167,41097,1,8,0:0:0:0:
201,167,41165,1,0,0:0:0:0:
197,169,41233,1,8,0:0:0:0:
201,167,41369,1,8,0:0:0:0:
201,167,41437,1,8,0:0:0:0:
201,167,41506,1,0,0:0:0:0:
201,167,41574,1,0,0:0:0:0:
201,167,41642,1,8,0:0:0:0:
201,167,41778,1,0,0:0:0:0:
213,162,41915,1,8,0:0:0:0:
213,162,41983,1,8,0:0:0:0:
213,162,42051,1,0,0:0:0:0:
204,159,42187,1,0,0:0:0:0:
204,159,42256,1,0,0:0:0:0:
204,159,42324,1,8,0:0:0:0:
204,159,42460,1,0,0:0:0:0:
204,159,42597,1,8,0:0:0:0:
204,159,42665,1,8,0:0:0:0:
204,159,42733,1,0,0:0:0:0:
204,159,42801,1,0,0:0:0:0:
217,154,42869,1,8,0:0:0:0:
206,153,43006,1,0,0:0:0:0:
206,153,43142,1,8,0:0:0:0:
206,153,43210,1,0,0:0:0:0:
206,153,43278,1,8,0:0:0:0:
206,153,43347,1,0,0:0:0:0:
206,153,43415,1,8,0:0:0:0:
206,153,43483,1,8,0:0:0:0:
206,153,43551,1,0,0:0:0:0:
202,152,43687,1,12,0:0:0:0:
206,153,44233,1,4,0:0:0:0:
201,151,44369,1,8,0:0:0:0:
202,152,44437,1,8,0:0:0:0:
201,151,44506,1,0,0:0:0:0:
201,151,44642,1,8,0:0:0:0:
201,151,44710,1,8,0:0:0:0:
201,151,44778,1,0,0:0:0:0:
192,150,44915,1,4,0:0:0:0:
201,152,45051,1,12,0:0:0:0:
217,148,45324,1,8,0:0:0:0:
216,147,45460,1,0,0:0:0:0:
216,147,45597,1,8,0:0:0:0:
216,147,45665,1,8,0:0:0:0:
216,147,45733,1,8,0:0:0:0:
216,147,45801,1,8,0:0:0:0:
217,148,45869,1,0,0:0:0:0:
217,148,46006,1,8,0:0:0:0:
218,141,46074,1,0,0:0:0:0:
216,147,46142,1,0,0:0:0:0:
216,147,46278,1,8,0:0:0:0:
216,147,46415,1,0,0:0:0:0:
210,144,46551,1,8,0:0:0:0:
210,144,46619,1,8,0:0:0:0:
210,144,46687,1,0,0:0:0:0:
210,144,46824,1,8,0:0:0:0:
210,144,46892,1,8,0:0:0:0:
210,144,46960,1,0,0:0:0:0:
206,147,47097,1,12,0:0:0:0:
206,147,47233,1,4,0:0:0:0:
206,147,47369,1,8,0:0:0:0:
206,147,47437,1,8,0:0:0:0:
206,147,47506,1,0,0:0:0:0:
206,147,47574,1,0,0:0:0:0:
206,147,47642,1,0,0:0:0:0:
206,147,47778,1,8,0:0:0:0:
206,147,47915,1,0,0:0:0:0:
206,147,47983,1,0,0:0:0:0:
206,147,48051,1,8,0:0:0:0:
215,153,48187,1,8,0:0:0:0:
215,153,48233,1,8,0:0:0:0:
215,153,48278,1,8,0:0:0:0:
215,153,48324,1,0,0:0:0:0:
229,141,48392,1,0,0:0:0:0:
229,141,48460,1,8,0:0:0:0:
230,152,48597,1,0,0:0:0:0:
230,152,48733,1,8,0:0:0:0:
230,152,48801,1,8,0:0:0:0:
230,152,48869,1,0,0:0:0:0:
230,152,49006,1,8,0:0:0:0:
230,152,49074,1,8,0:0:0:0:
230,152,49142,1,0,0:0:0:0:
230,152,49278,1,4,0:0:0:0:
230,152,49415,1,12,0:0:0:0:
230,152,49687,1,0,0:0:0:0:
230,152,49824,1,0,0:0:0:0:
230,152,49960,1,8,0:0:0:0:
230,152,50028,1,0,0:0:0:0:
230,152,50097,1,0,0:0:0:0:
242,161,50233,1,8,0:0:0:0:
242,161,50301,1,8,0:0:0:0:
242,161,50369,1,8,0:0:0:0:
242,161,50437,1,8,0:0:0:0:
242,161,50506,1,0,0:0:0:0:
242,161,50574,1,0,0:0:0:0:
242,161,50642,1,0,0:0:0:0:
242,161,50710,1,0,0:0:0:0:
242,161,50778,1,0,0:0:0:0:
225,168,50915,1,8,0:0:0:0:
241,167,50983,1,0,0:0:0:0:
225,168,51051,1,8,0:0:0:0:
239,167,51187,1,0,0:0:0:0:
239,167,51324,1,8,0:0:0:0:
239,167,51392,1,8,0:0:0:0:
239,167,51460,1,8,0:0:0:0:
239,167,51597,1,0,0:0:0:0:
241,167,51733,1,0,0:0:0:0:
239,167,51801,1,0,0:0:0:0:
239,167,51869,1,12,0:0:0:0:
239,167,52142,1,12,0:0:0:0:
241,167,52415,1,12,0:0:0:0:
239,167,52619,1,0,0:0:0:0:
239,167,52687,1,8,0:0:0:0:
239,167,52756,1,8,0:0:0:0:
239,167,52824,1,0,0:0:0:0:
239,167,52892,1,0,0:0:0:0:
241,167,52960,1,12,0:0:0:0:
241,167,53097,1,0,0:0:0:0:
239,167,53233,1,12,0:0:0:0:
241,167,53369,1,0,0:0:0:0:
239,167,53506,1,12,0:0:0:0:
241,167,53642,1,0,0:0:0:0:
239,167,53778,1,12,0:0:0:0:
241,167,53915,1,0,0:0:0:0:
239,167,53983,1,0,0:0:0:0:
239,167,54051,1,12,0:0:0:0:
241,167,54187,1,0,0:0:0:0:
239,167,54324,1,12,0:0:0:0:
241,167,54460,1,0,0:0:0:0:
239,167,54597,1,12,0:0:0:0:
241,167,54733,1,0,0:0:0:0:
239,167,54869,1,12,0:0:0:0:
241,167,55006,1,0,0:0:0:0:
239,167,55142,1,12,0:0:0:0:
241,167,55278,1,0,0:0:0:0:
239,167,55415,1,12,0:0:0:0:
241,167,55551,1,0,0:0:0:0:
239,167,55687,1,12,0:0:0:0:
241,167,55824,1,0,0:0:0:0:
239,167,55960,1,12,0:0:0:0:
239,167,56097,1,0,0:0:0:0:
239,167,56165,1,0,0:0:0:0:
241,167,56233,1,12,0:0:0:0:
239,167,56369,1,0,0:0:0:0:
241,167,56506,1,12,0:0:0:0:
239,167,56642,1,0,0:0:0:0:
239,167,56778,1,12,0:0:0:0:
239,167,56915,1,0,0:0:0:0:
239,167,57051,1,12,0:0:0:0:
231,162,57187,1,0,0:0:0:0:
239,167,57324,1,12,0:0:0:0:
233,157,57528,1,8,0:0:0:0:
233,157,57597,1,0,0:0:0:0:
233,157,57733,1,12,0:0:0:0:
215,152,57937,1,8,0:0:0:0:
215,152,58006,1,0,0:0:0:0:
233,157,58142,1,8,0:0:0:0:
233,157,58278,1,0,0:0:0:0:
233,157,58415,1,12,0:0:0:0:
211,155,58619,1,8,0:0:0:0:
211,155,58687,1,0,0:0:0:0:
211,155,58824,1,12,0:0:0:0:
212,157,59029,1,8,0:0:0:0:
212,157,59097,1,0,0:0:0:0:
211,155,59233,1,12,0:0:0:0:
225,153,59369,1,0,0:0:0:0:
218,151,59506,1,8,0:0:0:0:
218,151,59642,1,0,0:0:0:0:
218,151,59710,1,0,0:0:0:0:
218,151,59778,1,8,0:0:0:0:
217,151,59847,1,8,0:0:0:0:
217,151,59915,1,0,0:0:0:0:
217,151,60051,1,8,0:0:0:0:
223,147,60187,1,8,0:0:0:0:
223,147,60256,1,0,0:0:0:0:
223,147,60324,1,8,0:0:0:0:
223,147,60392,1,8,0:0:0:0:
223,147,60460,1,0,0:0:0:0:
223,147,60597,1,8,0:0:0:0:
223,147,60665,1,0,0:0:0:0:
223,147,60733,1,0,0:0:0:0:
223,147,60801,1,0,0:0:0:0:
223,147,60869,1,8,0:0:0:0:
223,147,60937,1,0,0:0:0:0:
223,147,61006,1,0,0:0:0:0:
223,147,61074,1,0,0:0:0:0:
223,147,61142,1,8,0:0:0:0:
223,147,61210,1,8,0:0:0:0:
223,147,61278,1,8,0:0:0:0:
223,147,61347,1,8,0:0:0:0:
223,147,61415,1,0,0:0:0:0:
223,147,61687,1,8,0:0:0:0:
227,152,61892,1,0,0:0:0:0:
227,152,61960,1,8,0:0:0:0:
227,152,62097,1,8,0:0:0:0:
227,152,62165,1,8,0:0:0:0:
227,152,62233,1,0,0:0:0:0:
227,152,62301,1,8,0:0:0:0:
227,152,62369,1,0,0:0:0:0:
227,152,62506,1,8,0:0:0:0:
227,152,62710,1,0,0:0:0:0:
227,152,62778,1,0,0:0:0:0:
227,152,62915,1,0,0:0:0:0:
227,152,63051,1,8,0:0:0:0:
227,152,63187,1,0,0:0:0:0:
227,152,63256,1,8,0:0:0:0:
227,152,63324,1,0,0:0:0:0:
227,152,63392,1,0,0:0:0:0:
227,152,63460,1,8,0:0:0:0:
227,152,63597,1,8,0:0:0:0:
227,152,63665,1,8,0:0:0:0:
227,152,63801,1,0,0:0:0:0:
227,152,63869,1,0,0:0:0:0:
208,153,64006,1,0,0:0:0:0:
208,153,64142,1,8,0:0:0:0:
208,156,64278,1,8,0:0:0:0:
208,156,64347,1,0,0:0:0:0:
208,156,64415,1,8,0:0:0:0:
208,156,64483,1,8,0:0:0:0:
208,156,64551,1,0,0:0:0:0:
208,153,64687,1,0,0:0:0:0:
211,159,64756,1,0,0:0:0:0:
208,153,64824,1,8,0:0:0:0:
208,156,64960,1,0,0:0:0:0:
208,156,65028,1,8,0:0:0:0:
208,156,65097,1,0,0:0:0:0:
208,156,65233,1,8,0:0:0:0:
208,153,65369,1,0,0:0:0:0:
208,153,65437,1,0,0:0:0:0:
208,153,65506,1,8,0:0:0:0:
226,156,65642,1,8,0:0:0:0:
226,156,65778,1,0,0:0:0:0:
226,156,65847,1,0,0:0:0:0:
226,156,65915,1,0,0:0:0:0:
226,156,66051,1,12,0:0:0:0:
214,159,66324,1,8,0:0:0:0:
214,159,66460,1,0,0:0:0:0:
213,147,66528,1,0,0:0:0:0:
213,147,66597,1,8,0:0:0:0:
213,147,66665,1,8,0:0:0:0:
213,147,66733,1,0,0:0:0:0:
213,147,66869,1,8,0:0:0:0:
213,147,67006,1,0,0:0:0:0:
213,147,67142,1,8,0:0:0:0:
213,147,67278,1,0,0:0:0:0:
213,147,67347,1,0,0:0:0:0:
213,147,67415,1,8,0:0:0:0:
199,157,67551,1,0,0:0:0:0:
199,157,67824,1,8,0:0:0:0:
199,157,67892,1,0,0:0:0:0:
199,157,67960,1,8,0:0:0:0:
199,157,68028,1,8,0:0:0:0:
199,157,68097,1,0,0:0:0:0:
199,157,68233,1,8,0:0:0:0:
217,163,68369,1,0,0:0:0:0:
217,163,68437,1,0,0:0:0:0:
217,163,68506,1,8,0:0:0:0:
217,163,68642,1,8,0:0:0:0:
217,163,68710,1,8,0:0:0:0:
217,163,68778,1,0,0:0:0:0:
217,163,68847,1,0,0:0:0:0:
217,163,68915,1,8,0:0:0:0:
217,163,68983,1,0,0:0:0:0:
217,163,69051,1,8,0:0:0:0:
217,163,69187,1,0,0:0:0:0:
217,163,69324,1,8,0:0:0:0:
201,165,69460,1,0,0:0:0:0:
201,165,69528,1,0,0:0:0:0:
201,165,69597,1,8,0:0:0:0:
201,165,69733,1,0,0:0:0:0:
201,165,69869,1,8,0:0:0:0:
201,165,69937,1,0,0:0:0:0:
201,165,70006,1,0,0:0:0:0:
201,165,70074,1,0,0:0:0:0:
201,165,70142,1,8,0:0:0:0:
201,165,70278,1,0,0:0:0:0:
201,165,70415,1,8,0:0:0:0:
206,170,70619,1,0,0:0:0:0:
206,170,70687,1,8,0:0:0:0:
206,170,70824,1,0,0:0:0:0:
206,170,70960,1,8,0:0:0:0:
206,170,71028,1,0,0:0:0:0:
206,170,71097,1,8,0:0:0:0:
206,170,71165,1,8,0:0:0:0:
206,170,71233,1,0,0:0:0:0:
206,170,71369,1,0,0:0:0:0:
206,170,71506,1,8,0:0:0:0:
192,163,71710,1,8,0:0:0:0:
192,163,71778,1,0,0:0:0:0:
192,163,71915,1,8,0:0:0:0:
192,163,72051,1,0,0:0:0:0:
192,163,72119,1,0,0:0:0:0:
192,163,72187,1,8,0:0:0:0:
192,163,72256,1,8,0:0:0:0:
192,163,72324,1,0,0:0:0:0:
192,163,72460,1,0,0:0:0:0:
192,163,72597,1,8,0:0:0:0:
192,163,72733,1,8,0:0:0:0:
192,163,72801,1,0,0:0:0:0:
192,163,72869,1,8,0:0:0:0:
192,163,73006,1,0,0:0:0:0:
192,163,73142,1,8,0:0:0:0:
192,163,73210,1,8,0:0:0:0:
191,152,73278,1,8,0:0:0:0:
191,152,73415,1,0,0:0:0:0:
191,152,73551,1,8,0:0:0:0:
191,152,73619,1,0,0:0:0:0:
191,152,73687,1,0,0:0:0:0:
191,152,73824,1,0,0:0:0:0:
191,152,73892,1,8,0:0:0:0:
191,152,73960,1,0,0:0:0:0:
191,152,74097,1,8,0:0:0:0:
191,159,74369,1,8,0:0:0:0:
191,159,74437,1,8,0:0:0:0:
191,159,74506,1,0,0:0:0:0:
191,159,74642,1,8,0:0:0:0:
183,161,74778,1,0,0:0:0:0:
183,161,74915,1,0,0:0:0:0:
183,161,74983,1,0,0:0:0:0:
183,161,75051,1,8,0:0:0:0:
183,161,75187,1,8,0:0:0:0:
183,161,75256,1,0,0:0:0:0:
183,161,75324,1,8,0:0:0:0:
195,168,75460,1,0,0:0:0:0:
195,168,75528,1,0,0:0:0:0:
195,168,75597,1,8,0:0:0:0:
195,168,75665,1,8,0:0:0:0:
195,168,75733,1,0,0:0:0:0:
195,168,75801,1,0,0:0:0:0:
195,168,75869,1,8,0:0:0:0:
188,174,76006,1,8,0:0:0:0:
188,174,76074,1,0,0:0:0:0:
188,174,76142,1,8,0:0:0:0:
188,174,76278,1,0,0:0:0:0:
186,193,76551,1,8,0:0:0:0:
186,193,76619,1,0,0:0:0:0:
186,193,76687,1,8,0:0:0:0:
186,193,76756,1,8,0:0:0:0:
186,193,76824,1,0,0:0:0:0:
186,193,76892,1,0,0:0:0:0:
186,193,76960,1,8,0:0:0:0:
186,193,77097,1,0,0:0:0:0:
186,193,77165,1,0,0:0:0:0:
186,193,77233,1,8,0:0:0:0:
186,193,77369,1,0,0:0:0:0:
186,193,77506,1,8,0:0:0:0:
191,188,77642,1,8,0:0:0:0:
191,188,77710,1,8,0:0:0:0:
191,188,77778,1,8,0:0:0:0:
191,188,77915,1,0,0:0:0:0:
191,188,78051,1,8,0:0:0:0:
191,188,78187,1,0,0:0:0:0:
198,183,78256,1,0,0:0:0:0:
198,183,78324,1,8,0:0:0:0:
191,188,78392,1,8,0:0:0:0:
191,188,78460,1,0,0:0:0:0:
191,188,78597,1,8,0:0:0:0:
188,183,78733,1,0,0:0:0:0:
188,183,78801,1,0,0:0:0:0:
188,183,78869,1,8,0:0:0:0:
187,183,79006,1,8,0:0:0:0:
187,183,79142,1,0,0:0:0:0:
179,165,79415,1,8,0:0:0:0:
179,165,79551,1,0,0:0:0:0:
179,165,79687,1,8,0:0:0:0:
179,165,79756,1,8,0:0:0:0:
179,165,79824,1,0,0:0:0:0:
179,165,79892,1,8,0:0:0:0:
179,165,79960,1,0,0:0:0:0:
179,165,80097,1,8,0:0:0:0:
179,165,80233,1,0,0:0:0:0:
179,165,80369,1,0,0:0:0:0:
179,165,80437,1,0,0:0:0:0:
179,165,80506,1,8,0:0:0:0:
179,165,80642,1,0,0:0:0:0:
179,165,80778,1,8,0:0:0:0:
179,165,80847,1,8,0:0:0:0:
179,165,80915,1,0,0:0:0:0:
179,165,80983,1,0,0:0:0:0:
179,165,81051,1,8,0:0:0:0:
179,165,81187,1,0,0:0:0:0:
179,165,81324,1,8,0:0:0:0:
179,165,81597,1,0,0:0:0:0:
179,165,81733,1,0,0:0:0:0:
179,165,81801,1,0,0:0:0:0:
179,165,81869,1,8,0:0:0:0:
179,165,81937,1,8,0:0:0:0:
179,165,82006,1,0,0:0:0:0:
179,165,82142,1,0,0:0:0:0:
179,165,82278,1,8,0:0:0:0:
179,165,82415,1,0,0:0:0:0:
179,165,82551,1,0,0:0:0:0:
179,165,82687,1,8,0:0:0:0:
179,165,82824,1,8,0:0:0:0:
179,165,82960,1,4,0:0:0:0:
179,165,83097,1,4,0:0:0:0:
179,165,83233,1,12,0:0:0:0:
179,165,83369,1,12,0:0:0:0:
179,165,83506,1,4,0:0:0:0:
179,165,83778,1,8,0:0:0:0:
179,165,83915,1,0,0:0:0:0:
179,165,83983,1,8,0:0:0:0:
179,165,84051,1,0,0:0:0:0:
179,165,84119,1,0,0:0:0:0:
179,165,84187,1,8,0:0:0:0:
179,165,84324,1,0,0:0:0:0:
179,165,84460,1,8,0:0:0:0:
179,165,84528,1,0,0:0:0:0:
179,165,84597,1,8,0:0:0:0:
171,162,84733,1,8,0:0:0:0:
187,146,84801,1,8,0:0:0:0:
187,146,84869,1,0,0:0:0:0:
171,162,85006,1,8,0:0:0:0:
171,162,85142,1,0,0:0:0:0:
177,151,85210,1,0,0:0:0:0:
177,151,85278,1,0,0:0:0:0:
177,151,85347,1,0,0:0:0:0:
177,151,85415,1,8,0:0:0:0:
161,152,85551,1,0,0:0:0:0:
158,152,85687,1,8,0:0:0:0:
187,162,85824,1,0,0:0:0:0:
189,163,85892,1,0,0:0:0:0:
189,163,85960,1,8,0:0:0:0:
189,163,86097,1,0,0:0:0:0:
187,162,86233,1,8,0:0:0:0:
187,162,86369,1,0,0:0:0:0:
187,162,86437,1,0,0:0:0:0:
187,162,86506,1,8,0:0:0:0:
189,163,86642,1,0,0:0:0:0:
189,163,86778,1,8,0:0:0:0:
189,163,86847,1,0,0:0:0:0:
187,162,86915,1,0,0:0:0:0:
187,162,86983,1,0,0:0:0:0:
187,162,87051,1,8,0:0:0:0:
187,162,87119,1,0,0:0:0:0:
187,162,87187,1,0,0:0:0:0:
187,162,87256,1,0,0:0:0:0:
189,163,87324,1,8,0:0:0:0:
189,163,87460,1,8,0:0:0:0:
189,163,87597,1,0,0:0:0:0:
187,162,87733,1,0,0:0:0:0:
187,162,87869,1,0,0:0:0:0:
182,161,88142,1,0,0:0:0:0:
182,161,88278,1,0,0:0:0:0:
182,161,88347,1,0,0:0:0:0:
187,162,88415,1,0,0:0:0:0:
187,162,88551,1,0,0:0:0:0:
182,161,88687,1,8,0:0:0:0:
182,161,88824,1,0,0:0:0:0:
182,161,88892,1,0,0:0:0:0:
182,161,88960,1,8,0:0:0:0:
167,146,89097,1,8,0:0:0:0:
167,146,89165,1,0,0:0:0:0:
167,146,89233,1,8,0:0:0:0:
167,146,89369,1,0,0:0:0:0:
167,146,89506,1,8,0:0:0:0:
157,142,89574,1,0,0:0:0:0:
167,146,89642,1,0,0:0:0:0:
167,146,89710,1,0,0:0:0:0:
167,146,89778,1,8,0:0:0:0:
167,146,89915,1,0,0:0:0:0:
167,146,90051,1,8,0:0:0:0:
156,142,90187,1,0,0:0:0:0:
156,142,90256,1,0,0:0:0:0:
157,142,90324,1,8,0:0:0:0:
161,140,90392,1,8,0:0:0:0:
156,142,90460,1,0,0:0:0:0:
156,142,90597,1,8,0:0:0:0:
159,140,90733,1,8,0:0:0:0:
159,140,90801,1,0,0:0:0:0:
156,142,90869,1,8,0:0:0:0:
156,142,90937,1,8,0:0:0:0:
156,142,91006,1,0,0:0:0:0:
161,140,91142,1,8,0:0:0:0:
156,142,91210,1,8,0:0:0:0:
156,142,91278,1,0,0:0:0:0:
156,142,91347,1,0,0:0:0:0:
159,140,91415,1,8,0:0:0:0:
159,140,91483,1,0,0:0:0:0:
159,140,91551,1,0,0:0:0:0:
150,137,91687,1,12,0:0:0:0:
151,138,91824,1,0,0:0:0:0:
151,138,91892,1,0,0:0:0:0:
151,138,91960,1,8,0:0:0:0:
151,138,92028,1,0,0:0:0:0:
151,139,92097,1,8,0:0:0:0:
206,153,92233,1,4,0:0:0:0:
201,151,92369,1,8,0:0:0:0:
202,152,92437,1,8,0:0:0:0:
201,151,92506,1,0,0:0:0:0:
201,151,92642,1,8,0:0:0:0:
201,151,92710,1,8,0:0:0:0:
201,151,92778,1,0,0:0:0:0:
192,150,92915,1,0,0:0:0:0:
196,156,92983,1,0,0:0:0:0:
201,152,93051,1,8,0:0:0:0:
196,156,93187,1,0,0:0:0:0:
217,148,93324,1,8,0:0:0:0:
216,147,93460,1,0,0:0:0:0:
216,147,93597,1,8,0:0:0:0:
216,147,93665,1,8,0:0:0:0:
216,147,93733,1,8,0:0:0:0:
216,147,93801,1,8,0:0:0:0:
217,148,93869,1,0,0:0:0:0:
217,148,94006,1,8,0:0:0:0:
218,141,94074,1,0,0:0:0:0:
216,147,94142,1,0,0:0:0:0:
216,147,94278,1,8,0:0:0:0:
216,147,94415,1,0,0:0:0:0:
210,144,94551,1,8,0:0:0:0:
210,144,94619,1,8,0:0:0:0:
210,144,94687,1,0,0:0:0:0:
204,149,94824,1,0,0:0:0:0:
204,149,94960,1,8,0:0:0:0:
204,149,95028,1,0,0:0:0:0:
204,149,95097,1,0,0:0:0:0:
204,149,95165,1,0,0:0:0:0:
204,150,95233,1,8,0:0:0:0:
204,150,95301,1,8,0:0:0:0:
204,150,95369,1,8,0:0:0:0:
210,144,95437,1,8,0:0:0:0:
206,147,95506,1,0,0:0:0:0:
206,147,95642,1,8,0:0:0:0:
206,147,95710,1,0,0:0:0:0:
206,147,95847,1,8,0:0:0:0:
206,147,95915,1,0,0:0:0:0:
206,147,96051,1,8,0:0:0:0:
215,153,96119,1,8,0:0:0:0:
215,153,96187,1,0,0:0:0:0:
229,141,96256,1,0,0:0:0:0:
229,141,96324,1,8,0:0:0:0:
216,149,96392,1,8,0:0:0:0:
216,150,96460,1,0,0:0:0:0:
230,152,96597,1,0,0:0:0:0:
230,152,96733,1,8,0:0:0:0:
230,152,96801,1,8,0:0:0:0:
230,152,96869,1,0,0:0:0:0:
230,152,97006,1,8,0:0:0:0:
230,152,97051,1,8,0:0:0:0:
228,157,97097,1,8,0:0:0:0:
230,152,97142,1,0,0:0:0:0:
230,152,97278,1,0,0:0:0:0:
217,151,97347,1,0,0:0:0:0:
230,152,97415,1,8,0:0:0:0:
223,152,97483,1,0,0:0:0:0:
223,152,97551,1,8,0:0:0:0:
230,152,97687,1,0,0:0:0:0:
241,154,97824,1,8,0:0:0:0:
231,164,97892,1,8,0:0:0:0:
231,164,97960,1,0,0:0:0:0:
231,164,98028,1,0,0:0:0:0:
231,164,98097,1,8,0:0:0:0:
242,161,98233,1,8,0:0:0:0:
242,161,98301,1,0,0:0:0:0:
242,161,98369,1,8,0:0:0:0:
242,161,98437,1,0,0:0:0:0:
242,161,98506,1,8,0:0:0:0:
242,161,98574,1,8,0:0:0:0:
242,161,98642,1,0,0:0:0:0:
242,161,98778,1,8,0:0:0:0:
225,168,98847,1,0,0:0:0:0:
241,167,98915,1,0,0:0:0:0:
225,168,98983,1,8,0:0:0:0:
228,166,99051,1,0,0:0:0:0:
229,166,99119,1,0,0:0:0:0:
239,167,99187,1,8,0:0:0:0:
239,167,99324,1,8,0:0:0:0:
239,167,99392,1,0,0:0:0:0:
244,166,99460,1,0,0:0:0:0:
244,166,99528,1,8,0:0:0:0:
244,166,99597,1,8,0:0:0:0:
241,167,99665,1,0,0:0:0:0:
244,166,99733,1,8,0:0:0:0:
239,167,99869,1,8,0:0:0:0:
242,162,99937,1,8,0:0:0:0:
242,162,100006,1,0,0:0:0:0:
242,162,100074,1,8,0:0:0:0:
242,162,100142,1,0,0:0:0:0:
244,166,100210,1,0,0:0:0:0:
244,166,100278,1,8,0:0:0:0:
241,167,100415,1,12,0:0:0:0:
239,167,100687,1,8,0:0:0:0:
239,167,100756,1,8,0:0:0:0:
239,167,100824,1,0,0:0:0:0:
239,167,100892,1,0,0:0:0:0:
241,167,100960,1,12,0:0:0:0:
241,167,101097,1,0,0:0:0:0:
239,167,101233,1,12,0:0:0:0:
241,167,101369,1,0,0:0:0:0:
239,167,101506,1,12,0:0:0:0:
241,167,101642,1,0,0:0:0:0:
239,167,101778,1,12,0:0:0:0:
241,167,101915,1,0,0:0:0:0:
239,167,101983,1,0,0:0:0:0:
239,167,102051,1,12,0:0:0:0:
241,167,102187,1,0,0:0:0:0:
239,167,102324,1,12,0:0:0:0:
241,167,102460,1,0,0:0:0:0:
239,167,102597,1,12,0:0:0:0:
241,167,102733,1,0,0:0:0:0:
239,167,102869,1,12,0:0:0:0:
241,167,103006,1,0,0:0:0:0:
239,167,103142,1,12,0:0:0:0:
241,167,103278,1,0,0:0:0:0:
239,167,103415,1,12,0:0:0:0:
241,167,103551,1,0,0:0:0:0:
239,167,103687,1,12,0:0:0:0:
241,167,103824,1,0,0:0:0:0:
239,167,103960,1,12,0:0:0:0:
239,167,104097,1,0,0:0:0:0:
239,167,104165,1,0,0:0:0:0:
241,167,104233,1,12,0:0:0:0:
239,167,104369,1,0,0:0:0:0:
241,167,104506,1,12,0:0:0:0:
239,167,104642,1,0,0:0:0:0:
239,167,104778,1,12,0:0:0:0:
239,167,104915,1,0,0:0:0:0:
239,167,105051,1,12,0:0:0:0:
231,162,105187,1,0,0:0:0:0:
239,167,105324,1,12,0:0:0:0:
233,157,105528,1,8,0:0:0:0:
233,157,105597,1,0,0:0:0:0:
233,157,105733,1,12,0:0:0:0:
215,152,105937,1,8,0:0:0:0:
215,152,106006,1,0,0:0:0:0:
233,157,106142,1,8,0:0:0:0:
233,157,106278,1,0,0:0:0:0:
233,157,106415,1,12,0:0:0:0:
211,155,106619,1,8,0:0:0:0:
211,155,106687,1,0,0:0:0:0:
211,155,106824,1,12,0:0:0:0:
212,157,107029,1,8,0:0:0:0:
212,157,107097,1,0,0:0:0:0:
211,155,107233,1,12,0:0:0:0:
218,151,107506,1,8,0:0:0:0:
231,162,107574,1,0,0:0:0:0:
231,162,107642,1,0,0:0:0:0:
231,162,107710,1,8,0:0:0:0:
231,162,107778,1,0,0:0:0:0:
231,162,107847,1,0,0:0:0:0:
231,162,107915,1,8,0:0:0:0:
231,162,107983,1,0,0:0:0:0:
231,162,108051,1,8,0:0:0:0:
231,162,108119,1,8,0:0:0:0:
231,162,108187,1,0,0:0:0:0:
231,162,108256,1,8,0:0:0:0:
231,162,108324,1,8,0:0:0:0:
231,162,108392,1,0,0:0:0:0:
231,162,108460,1,8,0:0:0:0:
231,162,108528,1,0,0:0:0:0:
231,162,108597,1,8,0:0:0:0:
231,162,108665,1,8,0:0:0:0:
231,162,108733,1,0,0:0:0:0:
231,162,108801,1,8,0:0:0:0:
231,162,108869,1,0,0:0:0:0:
231,162,108937,1,0,0:0:0:0:
231,162,109006,1,8,0:0:0:0:
223,168,109074,1,8,0:0:0:0:
226,167,109142,1,0,0:0:0:0:
226,167,109210,1,0,0:0:0:0:
226,167,109278,1,8,0:0:0:0:
226,167,109347,1,0,0:0:0:0:
226,167,109415,1,8,0:0:0:0:
211,166,109687,1,0,0:0:0:0:
223,168,109824,1,8,0:0:0:0:
223,171,109892,1,8,0:0:0:0:
223,171,109960,1,0,0:0:0:0:
217,164,110097,1,8,0:0:0:0:
219,164,110233,1,0,0:0:0:0:
211,166,110369,1,8,0:0:0:0:
213,170,110437,1,0,0:0:0:0:
213,170,110506,1,0,0:0:0:0:
213,170,110642,1,8,0:0:0:0:
206,167,110710,1,8,0:0:0:0:
213,170,110778,1,0,0:0:0:0:
213,170,110915,1,8,0:0:0:0:
213,170,111051,1,0,0:0:0:0:
213,170,111187,1,8,0:0:0:0:
213,170,111324,1,0,0:0:0:0:
213,170,111460,1,8,0:0:0:0:
213,170,111528,1,0,0:0:0:0:
213,170,111597,1,0,0:0:0:0:
207,178,111733,1,8,0:0:0:0:
223,159,111869,1,0,0:0:0:0:
219,157,112006,1,0,0:0:0:0:
219,157,112074,1,0,0:0:0:0:
219,157,112142,1,8,0:0:0:0:
235,155,112278,1,0,0:0:0:0:
206,170,112415,1,8,0:0:0:0:
206,170,112551,1,8,0:0:0:0:
206,170,112619,1,0,0:0:0:0:
206,170,112687,1,0,0:0:0:0:
206,170,112824,1,8,0:0:0:0:
206,170,112892,1,8,0:0:0:0:
206,170,112960,1,0,0:0:0:0:
206,170,113097,1,8,0:0:0:0:
206,170,113165,1,0,0:0:0:0:
206,170,113233,1,8,0:0:0:0:
206,170,113369,1,0,0:0:0:0:
202,162,113506,1,8,0:0:0:0:
202,162,113540,1,8,0:0:0:0:
202,162,113642,1,0,0:0:0:0:
200,167,113778,1,0,0:0:0:0:
200,167,113915,1,0,0:0:0:0:
200,167,114051,1,8,0:0:0:0:
202,162,114187,1,0,0:0:0:0:
202,162,114256,1,0,0:0:0:0:
202,162,114324,1,8,0:0:0:0:
201,161,114460,1,0,0:0:0:0:
201,161,114597,1,8,0:0:0:0:
193,156,114733,1,8,0:0:0:0:
193,156,114801,1,0,0:0:0:0:
193,156,114869,1,8,0:0:0:0:
193,156,115006,1,8,0:0:0:0:
190,146,115074,1,8,0:0:0:0:
193,156,115142,1,0,0:0:0:0:
190,146,115278,1,8,0:0:0:0:
190,146,115415,1,0,0:0:0:0:
196,162,115551,1,8,0:0:0:0:
196,162,115619,1,8,0:0:0:0:
183,150,115687,1,8,0:0:0:0:
170,156,115824,1,8,0:0:0:0:
168,156,115960,1,0,0:0:0:0:
184,150,116097,1,8,0:0:0:0:
184,150,116165,1,0,0:0:0:0:
183,149,116233,1,0,0:0:0:0:
168,156,116301,1,0,0:0:0:0:
168,156,116369,1,8,0:0:0:0:
168,156,116506,1,0,0:0:0:0:
168,156,116642,1,8,0:0:0:0:
168,156,116710,1,0,0:0:0:0:
167,156,116778,1,8,0:0:0:0:
167,156,116915,1,8,0:0:0:0:
168,156,117051,1,0,0:0:0:0:
168,156,117187,1,8,0:0:0:0:
168,156,117256,1,8,0:0:0:0:
168,156,117324,1,0,0:0:0:0:
172,157,117392,1,0,0:0:0:0:
172,157,117460,1,8,0:0:0:0:
172,157,117597,1,0,0:0:0:0:
172,157,117733,1,8,0:0:0:0:
172,157,117801,1,0,0:0:0:0:
172,157,117869,1,8,0:0:0:0:
172,157,117937,1,8,0:0:0:0:
172,157,118006,1,8,0:0:0:0:
165,150,118142,1,0,0:0:0:0:
164,143,118278,1,0,0:0:0:0:
164,143,118415,1,12,0:0:0:0:
170,151,118551,1,0,0:0:0:0:
170,151,118619,1,0,0:0:0:0:
170,152,118687,1,8,0:0:0:0:
170,152,118824,1,8,0:0:0:0:
170,152,118892,1,0,0:0:0:0:
170,152,118960,1,8,0:0:0:0:
170,152,119028,1,8,0:0:0:0:
170,152,119097,1,0,0:0:0:0:
170,151,119233,1,8,0:0:0:0:
174,157,119369,1,0,0:0:0:0:
174,157,119437,1,0,0:0:0:0:
174,157,119506,1,8,0:0:0:0:
174,158,119574,1,0,0:0:0:0:
174,158,119642,1,8,0:0:0:0:
170,157,119778,1,8,0:0:0:0:
174,162,119847,1,8,0:0:0:0:
170,157,119915,1,0,0:0:0:0:
174,157,120051,1,0,0:0:0:0:
181,164,120187,1,8,0:0:0:0:
181,164,120256,1,0,0:0:0:0:
181,164,120324,1,0,0:0:0:0:
204,157,120460,1,8,0:0:0:0:
204,157,120597,1,0,0:0:0:0:
204,157,120733,1,0,0:0:0:0:
204,157,120801,1,0,0:0:0:0:
199,162,120869,1,8,0:0:0:0:
208,148,120937,1,8,0:0:0:0:
199,162,121006,1,0,0:0:0:0:
199,162,121142,1,8,0:0:0:0:
207,148,121278,1,0,0:0:0:0:
207,148,121347,1,0,0:0:0:0:
207,148,121415,1,8,0:0:0:0:
207,148,121483,1,0,0:0:0:0:
207,148,121551,1,8,0:0:0:0:
207,147,121619,1,8,0:0:0:0:
208,148,121687,1,0,0:0:0:0:
207,148,121824,1,8,0:0:0:0:
207,148,121892,1,0,0:0:0:0:
207,148,121960,1,8,0:0:0:0:
207,148,122097,1,0,0:0:0:0:
207,148,122233,1,8,0:0:0:0:
207,148,122267,1,8,0:0:0:0:
207,147,122369,1,0,0:0:0:0:
208,148,122506,1,0,0:0:0:0:
207,148,122574,1,0,0:0:0:0:
207,148,122642,1,8,0:0:0:0:
207,148,122778,1,0,0:0:0:0:
207,148,122915,1,8,0:0:0:0:
207,148,122983,1,8,0:0:0:0:
207,148,123051,1,0,0:0:0:0:
208,148,123187,1,8,0:0:0:0:
207,148,123324,1,0,0:0:0:0:
207,148,123460,1,8,0:0:0:0:
207,148,123528,1,8,0:0:0:0:
207,148,123597,1,0,0:0:0:0:
207,148,123665,1,0,0:0:0:0:
207,148,123733,1,8,0:0:0:0:
208,148,123869,1,0,0:0:0:0:
207,148,124006,1,8,0:0:0:0:
207,148,124074,1,8,0:0:0:0:
207,148,124142,1,0,0:0:0:0:
200,152,124210,1,0,0:0:0:0:
201,152,124278,1,8,0:0:0:0:
201,152,124415,1,0,0:0:0:0:
201,152,124449,1,0,0:0:0:0:
201,152,124551,1,8,0:0:0:0:
201,152,124687,1,0,0:0:0:0:
192,152,124824,1,0,0:0:0:0:
192,152,124892,1,0,0:0:0:0:
192,152,124960,1,12,0:0:0:0:
192,152,125165,1,0,0:0:0:0:
192,152,125233,1,0,0:0:0:0:
192,152,125369,1,12,0:0:0:0:
192,152,125574,1,0,0:0:0:0:
192,152,125642,1,0,0:0:0:0:
192,152,125778,1,8,0:0:0:0:
192,152,125915,1,0,0:0:0:0:
192,152,126051,1,12,0:0:0:0:
192,152,126187,1,0,0:0:0:0:
192,152,126324,1,12,0:0:0:0:
192,152,126460,1,0,0:0:0:0:
192,152,126597,1,12,0:0:0:0:
199,152,126733,1,0,0:0:0:0:
199,152,126801,1,0,0:0:0:0:
192,152,126869,1,0,0:0:0:0:
199,152,127006,1,0,0:0:0:0:
192,152,127142,1,8,0:0:0:0:
195,138,127415,1,8,0:0:0:0:
201,160,127687,1,0,0:0:0:0:
205,158,127960,1,8,0:0:0:0:
205,158,128097,1,0,0:0:0:0:
201,160,128369,1,8,0:0:0:0:
205,158,128642,1,0,0:0:0:0:
205,158,128915,1,8,0:0:0:0:
201,160,129051,1,0,0:0:0:0:
205,158,129187,1,0,0:0:0:0:
205,158,129324,1,8,0:0:0:0:
205,158,129597,1,0,0:0:0:0:
205,158,129869,1,8,0:0:0:0:
205,158,130142,1,8,0:0:0:0:
205,158,130278,1,0,0:0:0:0:
215,150,130960,1,0,0:0:0:0:
215,150,131233,1,0,0:0:0:0:
215,150,131506,1,8,0:0:0:0:
215,150,131778,1,8,0:0:0:0:
215,150,132051,1,0,0:0:0:0:
215,150,132324,1,0,0:0:0:0:
215,150,132597,1,8,0:0:0:0:
215,150,133142,1,0,0:0:0:0:
215,150,133415,1,8,0:0:0:0:
215,150,133687,1,0,0:0:0:0:
215,150,133960,1,8,0:0:0:0:
215,150,134233,1,8,0:0:0:0:
215,150,134506,1,0,0:0:0:0:
215,150,134778,1,8,0:0:0:0:
194,147,135051,1,0,0:0:0:0:
194,147,135324,1,8,0:0:0:0:
194,147,135460,1,0,0:0:0:0:
194,147,135597,1,8,0:0:0:0:
194,147,135733,1,8,0:0:0:0:
194,147,135869,1,0,0:0:0:0:
186,144,136142,1,8,0:0:0:0:
181,145,136415,1,0,0:0:0:0:
181,145,136687,1,8,0:0:0:0:
181,145,136824,1,8,0:0:0:0:
181,145,137097,1,0,0:0:0:0:
181,145,137369,1,8,0:0:0:0:
181,145,137642,1,0,0:0:0:0:
166,144,137778,1,8,0:0:0:0:
166,144,137915,1,0,0:0:0:0:
166,144,138051,1,8,0:0:0:0:
146,139,138324,1,0,0:0:0:0:
160,135,138597,1,8,0:0:0:0:
155,137,138869,1,0,0:0:0:0:
155,137,139006,1,8,0:0:0:0:
155,137,139142,1,0,0:0:0:0:
155,137,139415,1,0,0:0:0:0:
155,137,139551,1,0,0:0:0:0:
155,137,139687,1,8,0:0:0:0:
155,137,139960,1,0,0:0:0:0:
155,137,140233,1,0,0:0:0:0:
201,167,140506,1,0,0:0:0:0:
201,167,140642,1,0,0:0:0:0:
201,167,140711,1,0,0:0:0:0:
155,137,140778,1,0,0:0:0:0:
206,168,140915,1,0,0:0:0:0:
201,167,141051,1,8,0:0:0:0:
201,167,141188,1,8,0:0:0:0:
201,167,141324,1,0,0:0:0:0:
201,167,141461,1,8,0:0:0:0:
201,167,141529,1,0,0:0:0:0:
197,169,141597,1,8,0:0:0:0:
201,167,141733,1,8,0:0:0:0:
201,167,141801,1,8,0:0:0:0:
201,167,141870,1,0,0:0:0:0:
201,167,141938,1,0,0:0:0:0:
201,167,142006,1,8,0:0:0:0:
201,167,142142,1,0,0:0:0:0:
213,162,142279,1,8,0:0:0:0:
213,162,142347,1,8,0:0:0:0:
213,162,142415,1,0,0:0:0:0:
204,159,142551,1,0,0:0:0:0:
204,159,142620,1,0,0:0:0:0:
204,159,142688,1,8,0:0:0:0:
204,159,142824,1,0,0:0:0:0:
204,159,142961,1,8,0:0:0:0:
204,159,143029,1,8,0:0:0:0:
204,159,143097,1,0,0:0:0:0:
204,159,143165,1,0,0:0:0:0:
217,154,143233,1,8,0:0:0:0:
206,153,143370,1,0,0:0:0:0:
206,153,143506,1,8,0:0:0:0:
206,153,143574,1,0,0:0:0:0:
206,153,143642,1,8,0:0:0:0:
206,153,143711,1,0,0:0:0:0:
206,153,143779,1,8,0:0:0:0:
206,153,143847,1,8,0:0:0:0:
206,153,143915,1,0,0:0:0:0:
206,153,143983,1,0,0:0:0:0:
202,152,144051,1,12,0:0:0:0:
211,155,144187,1,0,0:0:0:0:
211,155,144256,1,0,0:0:0:0:
211,155,144324,1,8,0:0:0:0:
211,155,144392,1,0,0:0:0:0:
211,155,144460,1,8,0:0:0:0:
206,153,144597,1,4,0:0:0:0:
201,151,144733,1,8,0:0:0:0:
202,152,144801,1,8,0:0:0:0:
201,151,144870,1,0,0:0:0:0:
201,151,145006,1,8,0:0:0:0:
201,151,145074,1,8,0:0:0:0:
201,151,145142,1,0,0:0:0:0:
192,150,145279,1,4,0:0:0:0:
201,152,145415,1,12,0:0:0:0:
217,148,145688,1,8,0:0:0:0:
216,147,145824,1,0,0:0:0:0:
216,147,145961,1,8,0:0:0:0:
216,147,146029,1,8,0:0:0:0:
216,147,146097,1,8,0:0:0:0:
216,147,146165,1,8,0:0:0:0:
217,148,146233,1,0,0:0:0:0:
217,148,146370,1,8,0:0:0:0:
218,141,146403,1,8,0:0:0:0:
216,147,146506,1,0,0:0:0:0:
216,147,146642,1,8,0:0:0:0:
216,147,146779,1,0,0:0:0:0:
210,144,146915,1,8,0:0:0:0:
210,144,146983,1,8,0:0:0:0:
210,144,147051,1,0,0:0:0:0:
210,144,147188,1,8,0:0:0:0:
210,144,147256,1,8,0:0:0:0:
210,144,147324,1,0,0:0:0:0:
206,147,147461,1,12,0:0:0:0:
206,147,147597,1,4,0:0:0:0:
206,147,147733,1,8,0:0:0:0:
206,147,147801,1,8,0:0:0:0:
206,147,147870,1,0,0:0:0:0:
206,147,147938,1,0,0:0:0:0:
206,147,148006,1,0,0:0:0:0:
206,147,148142,1,8,0:0:0:0:
206,147,148279,1,0,0:0:0:0:
206,147,148347,1,0,0:0:0:0:
206,147,148415,1,8,0:0:0:0:
215,153,148551,1,8,0:0:0:0:
215,153,148597,1,8,0:0:0:0:
215,153,148642,1,8,0:0:0:0:
215,153,148688,1,0,0:0:0:0:
229,141,148756,1,0,0:0:0:0:
229,141,148824,1,8,0:0:0:0:
230,152,148961,1,0,0:0:0:0:
230,152,149097,1,8,0:0:0:0:
230,152,149165,1,8,0:0:0:0:
230,152,149233,1,0,0:0:0:0:
230,152,149370,1,8,0:0:0:0:
230,152,149438,1,8,0:0:0:0:
230,152,149506,1,0,0:0:0:0:
230,152,149642,1,4,0:0:0:0:
230,152,149779,1,12,0:0:0:0:
230,152,150051,1,0,0:0:0:0:
230,152,150188,1,0,0:0:0:0:
230,152,150324,1,8,0:0:0:0:
230,152,150392,1,0,0:0:0:0:
230,152,150461,1,0,0:0:0:0:
242,161,150597,1,8,0:0:0:0:
242,161,150665,1,8,0:0:0:0:
242,161,150733,1,8,0:0:0:0:
242,161,150801,1,8,0:0:0:0:
242,161,150870,1,0,0:0:0:0:
242,161,150938,1,0,0:0:0:0:
242,161,151006,1,0,0:0:0:0:
242,161,151074,1,0,0:0:0:0:
242,161,151142,1,0,0:0:0:0:
225,168,151279,1,8,0:0:0:0:
241,167,151347,1,0,0:0:0:0:
225,168,151415,1,8,0:0:0:0:
239,167,151551,1,0,0:0:0:0:
239,167,151688,1,8,0:0:0:0:
239,167,151756,1,8,0:0:0:0:
239,167,151824,1,8,0:0:0:0:
239,167,151961,1,0,0:0:0:0:
241,167,152097,1,0,0:0:0:0:
239,167,152165,1,0,0:0:0:0:
239,167,152233,1,12,0:0:0:0:
239,167,152506,1,12,0:0:0:0:
241,167,152779,1,12,0:0:0:0:
239,167,152983,1,0,0:0:0:0:
239,167,153051,1,8,0:0:0:0:
239,167,153120,1,8,0:0:0:0:
239,167,153188,1,0,0:0:0:0:
239,167,153256,1,0,0:0:0:0:
241,167,153324,1,12,0:0:0:0:
241,167,153461,1,0,0:0:0:0:
239,167,153597,1,12,0:0:0:0:
241,167,153733,1,0,0:0:0:0:
239,167,153869,1,12,0:0:0:0:
241,167,154006,1,0,0:0:0:0:
239,167,154142,1,12,0:0:0:0:
241,167,154279,1,0,0:0:0:0:
239,167,154347,1,0,0:0:0:0:
239,167,154415,1,12,0:0:0:0:
241,167,154551,1,0,0:0:0:0:
239,167,154687,1,12,0:0:0:0:
241,167,154824,1,0,0:0:0:0:
239,167,154960,1,12,0:0:0:0:
241,167,155097,1,0,0:0:0:0:
239,167,155233,1,12,0:0:0:0:
241,167,155370,1,0,0:0:0:0:
239,167,155506,1,12,0:0:0:0:
241,167,155642,1,0,0:0:0:0:
239,167,155778,1,12,0:0:0:0:
241,167,155915,1,0,0:0:0:0:
239,167,156051,1,12,0:0:0:0:
241,167,156188,1,0,0:0:0:0:
239,167,156324,1,12,0:0:0:0:
239,167,156461,1,0,0:0:0:0:
239,167,156529,1,0,0:0:0:0:
241,167,156597,1,12,0:0:0:0:
239,167,156733,1,0,0:0:0:0:
241,167,156869,1,12,0:0:0:0:
239,167,157006,1,0,0:0:0:0:
239,167,157142,1,12,0:0:0:0:
239,167,157279,1,0,0:0:0:0:
239,167,157415,1,12,0:0:0:0:
231,162,157551,1,0,0:0:0:0:
239,167,157687,1,12,0:0:0:0:
233,157,157892,1,8,0:0:0:0:
233,157,157961,1,0,0:0:0:0:
233,157,158097,1,12,0:0:0:0:
215,152,158301,1,0,0:0:0:0:
215,152,158370,1,8,0:0:0:0:
233,157,158506,1,0,0:0:0:0:
233,157,158642,1,0,0:0:0:0:
233,157,158779,1,12,0:0:0:0:
211,155,158983,1,8,0:0:0:0:
211,155,159051,1,0,0:0:0:0:
211,155,159188,1,12,0:0:0:0:
212,157,159393,1,8,0:0:0:0:
212,157,159461,1,0,0:0:0:0:
211,155,159597,1,12,0:0:0:0:
225,153,159733,1,0,0:0:0:0:
218,151,159870,1,8,0:0:0:0:
218,151,160006,1,0,0:0:0:0:
218,151,160074,1,0,0:0:0:0:
218,151,160142,1,8,0:0:0:0:
217,151,160211,1,8,0:0:0:0:
217,151,160279,1,0,0:0:0:0:
217,151,160415,1,8,0:0:0:0:
223,147,160551,1,8,0:0:0:0:
223,147,160620,1,0,0:0:0:0:
223,147,160688,1,8,0:0:0:0:
223,147,160756,1,8,0:0:0:0:
223,147,160824,1,0,0:0:0:0:
223,147,160961,1,8,0:0:0:0:
223,147,161029,1,0,0:0:0:0:
223,147,161097,1,0,0:0:0:0:
223,147,161165,1,0,0:0:0:0:
223,147,161233,1,8,0:0:0:0:
223,147,161301,1,0,0:0:0:0:
223,147,161370,1,0,0:0:0:0:
223,147,161438,1,0,0:0:0:0:
223,147,161506,1,8,0:0:0:0:
223,147,161574,1,0,0:0:0:0:
223,147,161642,1,8,0:0:0:0:
223,147,161711,1,0,0:0:0:0:
223,147,161779,1,8,0:0:0:0:
223,147,161847,1,8,0:0:0:0:
223,147,161915,1,8,0:0:0:0:
223,147,161983,1,8,0:0:0:0:
223,147,162051,1,0,0:0:0:0:
215,147,162187,1,0,0:0:0:0:
215,147,162256,1,0,0:0:0:0:
215,147,162324,1,8,0:0:0:0:
215,147,162460,1,0,0:0:0:0:
215,147,162597,1,8,0:0:0:0:
206,152,162733,1,8,0:0:0:0:
206,152,162801,1,0,0:0:0:0:
206,152,162869,1,8,0:0:0:0:
206,159,163006,1,8,0:0:0:0:
206,159,163074,1,8,0:0:0:0:
206,159,163142,1,0,0:0:0:0:
207,159,163210,1,0,0:0:0:0:
208,160,163278,1,8,0:0:0:0:
209,160,163347,1,0,0:0:0:0:
209,160,163415,1,8,0:0:0:0:
209,160,163551,1,0,0:0:0:0:
206,159,163687,1,8,0:0:0:0:
206,159,163756,1,0,0:0:0:0:
206,159,163824,1,0,0:0:0:0:
207,159,163960,1,8,0:0:0:0:
202,154,164097,1,0,0:0:0:0:
202,154,164233,1,8,0:0:0:0:
202,154,164301,1,0,0:0:0:0:
202,154,164369,1,8,0:0:0:0:
202,154,164437,1,0,0:0:0:0:
202,154,164506,1,8,0:0:0:0:
202,155,164574,1,8,0:0:0:0:
202,155,164642,1,0,0:0:0:0:
204,154,164710,1,0,0:0:0:0:
202,154,164778,1,8,0:0:0:0:
200,167,164915,1,0,0:0:0:0:
200,167,164983,1,0,0:0:0:0:
206,167,165051,1,8,0:0:0:0:
185,162,165187,1,8,0:0:0:0:
185,162,165256,1,0,0:0:0:0:
185,162,165324,1,8,0:0:0:0:
185,162,165392,1,8,0:0:0:0:
185,162,165460,1,0,0:0:0:0:
185,162,165528,1,0,0:0:0:0:
185,162,165597,1,8,0:0:0:0:
169,163,165733,1,0,0:0:0:0:
169,163,165869,1,8,0:0:0:0:
169,163,165903,1,8,0:0:0:0:
169,163,166006,1,0,0:0:0:0:
168,163,166142,1,0,0:0:0:0:
168,163,166210,1,0,0:0:0:0:
168,163,166278,1,8,0:0:0:0:
169,163,166415,1,0,0:0:0:0:
169,163,166551,1,8,0:0:0:0:
169,163,166619,1,8,0:0:0:0:
169,163,166687,1,0,0:0:0:0:
168,163,166824,1,8,0:0:0:0:
168,163,166960,1,0,0:0:0:0:
169,163,167097,1,8,0:0:0:0:
169,163,167165,1,0,0:0:0:0:
169,163,167233,1,0,0:0:0:0:
151,164,167369,1,8,0:0:0:0:
151,164,167437,1,8,0:0:0:0:
151,164,167506,1,0,0:0:0:0:
151,164,167574,1,0,0:0:0:0:
151,164,167642,1,8,0:0:0:0:
137,164,167778,1,0,0:0:0:0:
137,164,167915,1,0,0:0:0:0:
137,164,167983,1,0,0:0:0:0:
137,164,168051,1,8,0:0:0:0:
137,163,168119,1,8,0:0:0:0:
137,163,168187,1,0,0:0:0:0:
137,163,168324,1,12,0:0:0:0:
137,164,168597,1,8,0:0:0:0:
137,164,168665,1,0,0:0:0:0:
137,164,168733,1,0,0:0:0:0:
137,164,168801,1,8,0:0:0:0:
137,163,168869,1,0,0:0:0:0:
137,163,168937,1,0,0:0:0:0:
137,163,169006,1,8,0:0:0:0:
137,163,169074,1,0,0:0:0:0:
137,164,169142,1,8,0:0:0:0:
137,164,169210,1,8,0:0:0:0:
137,164,169278,1,0,0:0:0:0:
137,164,169347,1,8,0:0:0:0:
137,164,169415,1,8,0:0:0:0:
137,164,169483,1,0,0:0:0:0:
137,164,169551,1,8,0:0:0:0:
137,163,169619,1,8,0:0:0:0:
137,163,169687,1,0,0:0:0:0:
137,163,169824,1,8,0:0:0:0:
137,164,169892,1,0,0:0:0:0:
137,164,169960,1,8,0:0:0:0:
137,164,170028,1,8,0:0:0:0:
137,164,170097,1,0,0:0:0:0:
140,157,170165,1,0,0:0:0:0:
140,157,170233,1,8,0:0:0:0:
140,157,170301,1,8,0:0:0:0:
140,157,170369,1,8,0:0:0:0:
140,157,170437,1,8,0:0:0:0:
140,157,170506,1,0,0:0:0:0:
140,157,170574,1,0,0:0:0:0:
140,157,170642,1,8,0:0:0:0:
140,157,170778,1,0,0:0:0:0:
140,157,170915,1,8,0:0:0:0:
140,157,170983,1,0,0:0:0:0:
140,157,171051,1,8,0:0:0:0:
140,157,171119,1,8,0:0:0:0:
140,157,171187,1,0,0:0:0:0:
140,157,171324,1,8,0:0:0:0:
125,155,171460,1,8,0:0:0:0:
125,155,171528,1,0,0:0:0:0:
125,155,171597,1,0,0:0:0:0:
125,155,171733,1,8,0:0:0:0:
125,155,171801,1,8,0:0:0:0:
125,155,171869,1,0,0:0:0:0:
113,154,172006,1,8,0:0:0:0:
113,154,172142,1,0,0:0:0:0:
113,154,172210,1,0,0:0:0:0:
113,154,172278,1,8,0:0:0:0:
113,154,172347,1,0,0:0:0:0:
113,154,172415,1,8,0:0:0:0:
107,154,172551,1,0,0:0:0:0:
107,153,172687,1,8,0:0:0:0:
107,153,172960,1,8,0:0:0:0:
131,137,173028,1,0,0:0:0:0:
131,137,173097,1,8,0:0:0:0:
131,137,173165,1,8,0:0:0:0:
131,137,173233,1,0,0:0:0:0:
131,137,173301,1,0,0:0:0:0:
131,137,173369,1,8,0:0:0:0:
131,137,173506,1,0,0:0:0:0:
107,153,173642,1,8,0:0:0:0:
107,153,173710,1,0,0:0:0:0:
108,147,173778,1,0,0:0:0:0:
108,147,173915,1,8,0:0:0:0:
108,147,173983,1,8,0:0:0:0:
108,147,174051,1,0,0:0:0:0:
108,147,174187,1,8,0:0:0:0:
108,147,174256,1,0,0:0:0:0:
108,147,174324,1,8,0:0:0:0:
108,147,174392,1,8,0:0:0:0:
108,147,174460,1,0,0:0:0:0:
108,147,174597,1,8,0:0:0:0:
98,147,174733,1,0,0:0:0:0:
98,147,174869,1,0,0:0:0:0:
98,147,174937,1,0,0:0:0:0:
98,147,175006,1,8,0:0:0:0:
98,147,175142,1,0,0:0:0:0:
102,135,175278,1,8,0:0:0:0:
102,135,175347,1,8,0:0:0:0:
102,135,175415,1,0,0:0:0:0:
102,135,175551,1,8,0:0:0:0:
102,135,175619,1,0,0:0:0:0:
102,135,175687,1,0,0:0:0:0:
102,135,175756,1,0,0:0:0:0:
102,135,175824,1,8,0:0:0:0:
102,135,175960,1,0,0:0:0:0:
102,135,176097,1,8,0:0:0:0:
102,135,176165,1,0,0:0:0:0:
102,135,176233,1,8,0:0:0:0:
102,135,176301,1,8,0:0:0:0:
102,135,176369,1,0,0:0:0:0:
102,135,176506,1,8,0:0:0:0:
140,127,176642,1,0,0:0:0:0:
140,127,176710,1,0,0:0:0:0:
140,127,176778,1,8,0:0:0:0:
140,127,176847,1,0,0:0:0:0:
140,127,176915,1,8,0:0:0:0:
140,127,176983,1,8,0:0:0:0:
140,127,177051,1,0,0:0:0:0:
136,134,177187,1,0,0:0:0:0:
136,134,177324,1,8,0:0:0:0:
136,134,177392,1,8,0:0:0:0:
136,134,177460,1,0,0:0:0:0:
136,134,177597,1,0,0:0:0:0:
136,134,177733,1,8,0:0:0:0:
136,134,177801,1,8,0:0:0:0:
136,134,177869,1,0,0:0:0:0:
122,136,178006,1,8,0:0:0:0:
122,136,178142,1,0,0:0:0:0:
122,136,178210,1,8,0:0:0:0:
136,134,178278,1,0,0:0:0:0:
122,136,178347,1,0,0:0:0:0:
122,136,178415,1,12,0:0:0:0:
117,135,178619,1,0,0:0:0:0:
122,136,178687,1,8,0:0:0:0:
132,133,178733,1,0,0:0:0:0:
132,133,178778,1,0,0:0:0:0:
132,133,178824,1,8,0:0:0:0:
133,134,178960,1,0,0:0:0:0:
136,135,179097,1,8,0:0:0:0:
136,135,179142,1,8,0:0:0:0:
136,135,179187,1,8,0:0:0:0:
136,135,179233,1,0,0:0:0:0:
136,135,179369,1,0,0:0:0:0:
132,133,179506,1,12,0:0:0:0:
133,134,179642,1,0,0:0:0:0:
133,134,179710,1,0,0:0:0:0:
136,135,179778,1,0,0:0:0:0:
136,135,179915,1,12,0:0:0:0:
136,135,180051,1,0,0:0:0:0:
136,135,180119,1,0,0:0:0:0:
136,135,180187,1,0,0:0:0:0:
133,134,180324,1,12,0:0:0:0:
133,134,180460,1,4,0:0:0:0:
