osu file format v14

[General]
AudioFilename: audio.mp3
AudioLeadIn: 0
PreviewTime: 91768
Countdown: 0
SampleSet: Normal
StackLeniency: 0.7
Mode: 1
LetterboxInBreaks: 0
WidescreenStoryboard: 1

[Editor]
Bookmarks: 152222
DistanceSpacing: 0.8
BeatDivisor: 2
GridSize: 16
TimelineZoom: 3.899998

[Metadata]
Title:Fireworks
TitleUnicode:Fireworks
Artist:Hachito
ArtistUnicode:ハチト
Creator:Ideal
Version:Futsuu
Source:
Tags:hatito たんこぶちん 花火 hanabi tancobuchin breakcore lolicore hardcore bootleg remix amenbreak 7_7 japanese electronic miso-013 amenpunk amen punk festival in summer 味噌煮込み夏のアーメンパンク祭 miso-nicomi records
BeatmapID:3977361
BeatmapSetID:1926192

[Difficulty]
HPDrainRate:7
CircleSize:5
OverallDifficulty:4
ApproachRate:5
SliderMultiplier:1.4
SliderTickRate:1

[Events]
//Background and Video events
0,0,"867614.jpg",0,80
//Break Periods
//Storyboard Layer 0 (Background)
//Storyboard Layer 1 (Fail)
//Storyboard Layer 2 (Pass)
//Storyboard Layer 3 (Foreground)
//Storyboard Layer 4 (Overlay)
//Storyboard Sound Samples

[TimingPoints]
597,272.727272727273,4,1,0,75,1,0
8233,-100,4,1,0,78,0,0
8369,-100,4,1,0,81,0,0
8506,-100,4,1,0,84,0,0
8642,-100,4,1,0,87,0,0
8778,-100,4,1,0,90,0,0
8915,-100,4,1,0,95,0,0
9051,-100,4,1,0,100,0,0
9324,-100,4,1,0,90,0,1
17778,-100,4,1,0,90,0,1
17847,-100,4,1,0,90,0,1
17915,-100,4,1,0,90,0,1
18051,-100,4,1,0,85,0,0
34415,-100,4,1,0,85,0,0
34551,-100,4,1,0,85,0,0
34687,-100,4,1,0,85,0,0
34824,-100,4,1,0,85,0,0
34960,-100,4,1,0,86,0,0
35097,-100,4,1,0,87,0,0
35234,-100,4,1,0,88,0,0
35370,-100,4,1,0,89,0,0
35506,-100,4,1,0,90,0,0
35778,-100,4,1,0,90,0,0
40142,-100,4,1,0,32,0,0
40278,-100,4,1,0,36,0,0
40347,-100,4,1,0,37,0,0
40415,-100,4,1,0,38,0,0
40551,-100,4,1,0,40,0,0
40687,-100,4,1,0,44,0,0
40824,-100,4,1,0,48,0,0
40960,-100,4,1,0,52,0,0
41097,-100,4,1,0,56,0,0
41165,-100,4,1,0,57,0,0
41233,-100,4,1,0,58,0,0
41369,-100,4,1,0,62,0,0
41437,-100,4,1,0,64,0,0
41506,-100,4,1,0,66,0,0
41574,-100,4,1,0,68,0,0
41642,-100,4,1,0,70,0,0
41778,-100,4,1,0,74,0,0
41915,-100,4,1,0,78,0,0
41983,-100,4,1,0,79,0,0
42051,-100,4,1,0,80,0,0
42187,-100,4,1,0,81,0,0
42256,-100,4,1,0,82,0,0
42324,-100,4,1,0,83,0,0
42460,-100,4,1,0,84,0,0
42597,-100,4,1,0,85,0,0
42665,-100,4,1,0,86,0,0
42733,-100,4,1,0,87,0,0
42801,-100,4,1,0,88,0,0
42869,-100,4,1,0,89,0,0
43006,-100,4,1,0,90,0,0
43142,-100,4,1,0,90,0,0
43210,-100,4,1,0,90,0,0
43278,-100,4,1,0,90,0,0
43347,-100,4,1,0,90,0,0
43415,-100,4,1,0,90,0,0
43483,-100,4,1,0,90,0,0
43551,-100,4,1,0,90,0,0
43687,-100,4,1,0,100,0,0
44233,-100,4,1,0,95,0,1
44847,-100,4,1,0,100,0,1
45119,-100,4,1,0,95,0,1
47028,-100,4,1,0,100,0,1
47301,-100,4,1,0,95,0,1
49210,-100,4,1,0,100,0,1
49483,-100,4,1,0,95,0,1
51869,-100,4,1,0,100,0,1
52619,-100,4,1,0,95,0,1
52960,-100,4,1,0,100,0,1
53097,-100,4,1,0,95,0,1
53233,-100,4,1,0,100,0,1
53369,-100,4,1,0,95,0,1
53506,-100,4,1,0,100,0,1
53642,-100,4,1,0,95,0,1
53778,-100,4,1,0,100,0,1
53915,-100,4,1,0,95,0,1
54051,-100,4,1,0,100,0,1
54187,-100,4,1,0,95,0,1
54324,-100,4,1,0,100,0,1
54460,-100,4,1,0,95,0,1
54597,-100,4,1,0,100,0,1
54733,-100,4,1,0,95,0,1
54869,-100,4,1,0,100,0,1
55006,-100,4,1,0,95,0,1
55142,-100,4,1,0,100,0,1
55278,-100,4,1,0,95,0,1
55415,-100,4,1,0,100,0,1
55551,-100,4,1,0,95,0,1
55687,-100,4,1,0,100,0,1
55824,-100,4,1,0,95,0,1
55960,-100,4,1,0,100,0,1
56097,-100,4,1,0,95,0,1
56233,-100,4,1,0,100,0,1
56369,-100,4,1,0,95,0,1
56506,-100,4,1,0,100,0,1
56642,-100,4,1,0,95,0,1
56778,-100,4,1,0,100,0,1
56915,-100,4,1,0,95,0,1
57051,-100,4,1,0,100,0,1
57187,-100,4,1,0,95,0,1
57256,-100,4,1,0,100,0,1
57460,-100,4,1,0,95,0,1
57665,-100,4,1,0,100,0,1
57869,-100,4,1,0,95,0,1
58347,-100,4,1,0,100,0,1
58483,-100,4,1,0,95,0,1
58756,-100,4,1,0,100,0,1
58892,-100,4,1,0,95,0,1
59165,-100,4,1,0,100,0,1
59301,-100,4,1,0,95,0,1
60528,-100,4,1,0,94,0,1
60665,-100,4,1,0,93,0,1
60733,-100,4,1,0,92,0,1
60801,-100,4,1,0,91,0,1
60869,-100,4,1,0,90,0,1
60937,-100,4,1,0,89,0,1
61006,-100,4,1,0,88,0,1
61074,-100,4,1,0,87,0,1
61142,-100,4,1,0,86,0,1
61210,-100,4,1,0,85,0,1
61278,-100,4,1,0,84,0,1
61347,-100,4,1,0,83,0,1
61415,-100,4,1,0,82,0,1
61687,-100,4,1,0,80,0,0
66051,-100,4,1,0,85,0,0
82415,-100,4,1,0,85,0,0
82551,-100,4,1,0,85,0,0
82687,-100,4,1,0,85,0,0
82824,-100,4,1,0,85,0,0
82960,-100,4,1,0,86,0,0
83097,-100,4,1,0,87,0,0
83233,-100,4,1,0,88,0,0
83369,-100,4,1,0,89,0,0
83506,-100,4,1,0,90,0,0
83778,-100,4,1,0,90,0,0
86778,-100,4,1,0,85,0,0
86847,-100,4,1,0,84,0,0
86915,-100,4,1,0,83,0,0
86983,-100,4,1,0,82,0,0
87051,-100,4,1,0,81,0,0
87119,-100,4,1,0,80,0,0
87187,-100,4,1,0,79,0,0
87256,-100,4,1,0,78,0,0
87324,-100,4,1,0,77,0,0
87460,-100,4,1,0,70,0,0
87597,-100,4,1,0,62,0,0
87733,-100,4,1,0,56,0,0
87869,-100,4,1,0,44,0,0
88142,-100,4,1,0,32,0,0
88278,-100,4,1,0,36,0,0
88347,-100,4,1,0,37,0,0
88415,-100,4,1,0,38,0,0
88551,-100,4,1,0,40,0,0
88687,-100,4,1,0,44,0,0
88824,-100,4,1,0,48,0,0
88892,-100,4,1,0,48,0,0
88960,-100,4,1,0,52,0,0
89097,-100,4,1,0,56,0,0
89165,-100,4,1,0,57,0,0
89233,-100,4,1,0,58,0,0
89369,-100,4,1,0,62,0,0
89506,-100,4,1,0,66,0,0
89574,-100,4,1,0,68,0,0
89642,-100,4,1,0,70,0,0
89710,-100,4,1,0,70,0,0
89778,-100,4,1,0,74,0,0
89915,-100,4,1,0,78,0,0
90051,-100,4,1,0,80,0,0
90187,-100,4,1,0,81,0,0
90256,-100,4,1,0,82,0,0
90324,-100,4,1,0,83,0,0
90392,-100,4,1,0,83,0,0
90460,-100,4,1,0,84,0,0
90597,-100,4,1,0,85,0,0
90733,-100,4,1,0,87,0,0
90801,-100,4,1,0,88,0,0
90869,-100,4,1,0,89,0,0
90937,-100,4,1,0,89,0,0
91006,-100,4,1,0,90,0,0
91142,-100,4,1,0,90,0,0
91210,-100,4,1,0,90,0,0
91278,-100,4,1,0,90,0,0
91347,-100,4,1,0,90,0,0
91415,-100,4,1,0,90,0,0
91483,-100,4,1,0,90,0,0
91551,-100,4,1,0,90,0,0
91687,-100,4,1,0,100,0,0
91824,-100,4,1,0,90,0,0
91892,-100,4,1,0,90,0,0
91960,-100,4,1,0,90,0,0
92028,-100,4,1,0,90,0,0
92097,-100,4,1,0,90,0,0
92233,-100,4,1,0,95,0,1
98778,-100,4,1,0,95,0,1
100415,-100,4,1,0,100,0,1
100687,-100,4,1,0,95,0,1
100960,-100,4,1,0,100,0,1
101097,-100,4,1,0,95,0,1
101233,-100,4,1,0,100,0,1
101369,-100,4,1,0,95,0,1
101506,-100,4,1,0,100,0,1
101642,-100,4,1,0,95,0,1
101778,-100,4,1,0,100,0,1
101915,-100,4,1,0,95,0,1
102051,-100,4,1,0,100,0,1
102187,-100,4,1,0,95,0,1
102324,-100,4,1,0,100,0,1
102460,-100,4,1,0,95,0,1
102597,-100,4,1,0,100,0,1
102733,-100,4,1,0,95,0,1
102869,-100,4,1,0,100,0,1
103006,-100,4,1,0,95,0,1
103142,-100,4,1,0,100,0,1
103278,-100,4,1,0,95,0,1
103415,-100,4,1,0,100,0,1
103551,-100,4,1,0,95,0,1
103687,-100,4,1,0,100,0,1
103824,-100,4,1,0,95,0,1
103960,-100,4,1,0,100,0,1
104097,-100,4,1,0,95,0,1
104233,-100,4,1,0,100,0,1
104369,-100,4,1,0,95,0,1
104506,-100,4,1,0,100,0,1
104642,-100,4,1,0,95,0,1
104778,-100,4,1,0,100,0,1
104915,-100,4,1,0,95,0,1
105051,-100,4,1,0,100,0,1
105187,-100,4,1,0,95,0,1
105256,-100,4,1,0,100,0,1
105460,-100,4,1,0,95,0,1
105665,-100,4,1,0,100,0,1
105869,-100,4,1,0,95,0,1
106347,-100,4,1,0,100,0,1
106483,-100,4,1,0,95,0,1
106756,-100,4,1,0,100,0,1
106892,-100,4,1,0,95,0,1
107165,-100,4,1,0,100,0,1
107301,-100,4,1,0,95,0,1
107506,-100,4,1,0,100,0,1
109687,-100,4,1,0,90,0,0
124960,-100,4,1,0,95,0,0
125028,-100,4,1,0,90,0,0
125301,-100,4,1,0,95,0,0
125437,-100,4,1,0,90,0,0
125983,-100,4,1,0,95,0,0
126119,-100,4,1,0,90,0,0
126256,-100,4,1,0,95,0,0
126392,-100,4,1,0,90,0,0
126528,-100,4,1,0,95,0,0
126733,-100,4,1,0,90,0,0
126801,-100,4,1,0,85,0,0
126869,-100,4,1,0,80,0,0
127006,-100,4,1,0,75,0,0
127142,-100,4,1,0,70,0,0
135324,-100,4,1,0,72,0,0
135460,-100,4,1,0,74,0,0
135597,-100,4,1,0,76,0,0
135733,-100,4,1,0,78,0,0
135869,-100,4,1,0,80,0,0
139415,-100,4,1,0,72,0,0
139551,-100,4,1,0,64,0,0
139687,-100,4,1,0,56,0,0
139960,-100,4,1,0,44,0,0
140233,-100,4,1,0,32,0,0
140506,-100,4,1,0,32,0,0
140642,-100,4,1,0,36,0,0
140711,-100,4,1,0,37,0,0
140778,-100,4,1,0,38,0,0
140915,-100,4,1,0,40,0,0
141051,-100,4,1,0,44,0,0
141188,-100,4,1,0,48,0,0
141324,-100,4,1,0,52,0,0
141461,-100,4,1,0,56,0,0
141529,-100,4,1,0,57,0,0
141597,-100,4,1,0,58,0,0
141733,-100,4,1,0,62,0,0
141801,-100,4,1,0,64,0,0
141870,-100,4,1,0,66,0,0
141938,-100,4,1,0,68,0,0
142006,-100,4,1,0,70,0,0
142142,-100,4,1,0,74,0,0
142279,-100,4,1,0,78,0,0
142347,-100,4,1,0,79,0,0
142415,-100,4,1,0,80,0,0
142551,-100,4,1,0,81,0,0
142620,-100,4,1,0,82,0,0
142688,-100,4,1,0,83,0,0
142824,-100,4,1,0,84,0,0
142961,-100,4,1,0,85,0,0
143029,-100,4,1,0,86,0,0
143097,-100,4,1,0,87,0,0
143165,-100,4,1,0,88,0,0
143233,-100,4,1,0,89,0,0
143370,-100,4,1,0,90,0,0
143506,-100,4,1,0,90,0,0
143574,-100,4,1,0,90,0,0
143642,-100,4,1,0,90,0,0
143711,-100,4,1,0,90,0,0
143779,-100,4,1,0,90,0,0
143847,-100,4,1,0,90,0,0
143915,-100,4,1,0,90,0,0
144051,-100,4,1,0,100,0,0
144187,-100,4,1,0,90,0,0
144255,-100,4,1,0,90,0,0
144323,-100,4,1,0,90,0,0
144391,-100,4,1,0,90,0,0
144460,-100,4,1,0,90,0,0
144596,-100,4,1,0,95,0,0
144597,-100,4,1,0,95,0,1
145210,-100,4,1,0,100,0,1
145687,-100,4,1,0,95,0,1
147392,-100,4,1,0,100,0,1
147665,-100,4,1,0,95,0,1
149574,-100,4,1,0,100,0,1
149847,-100,4,1,0,95,0,1
152233,-100,4,1,0,100,0,1
152983,-100,4,1,0,95,0,1
153324,-100,4,1,0,100,0,1
153461,-100,4,1,0,95,0,1
153597,-100,4,1,0,100,0,1
153733,-100,4,1,0,95,0,1
153869,-100,4,1,0,100,0,1
154006,-100,4,1,0,95,0,1
154142,-100,4,1,0,100,0,1
154279,-100,4,1,0,95,0,1
154415,-100,4,1,0,100,0,1
154551,-100,4,1,0,95,0,1
154687,-100,4,1,0,100,0,1
154824,-100,4,1,0,95,0,1
154960,-100,4,1,0,100,0,1
155097,-100,4,1,0,95,0,1
155233,-100,4,1,0,100,0,1
155370,-100,4,1,0,95,0,1
155506,-100,4,1,0,100,0,1
155642,-100,4,1,0,95,0,1
155778,-100,4,1,0,100,0,1
155915,-100,4,1,0,95,0,1
156051,-100,4,1,0,100,0,1
156188,-100,4,1,0,95,0,1
156324,-100,4,1,0,100,0,1
156461,-100,4,1,0,95,0,1
156596,-100,4,1,0,100,0,1
156733,-100,4,1,0,95,0,1
156869,-100,4,1,0,100,0,1
157006,-100,4,1,0,95,0,1
157142,-100,4,1,0,100,0,1
157279,-100,4,1,0,95,0,1
157415,-100,4,1,0,100,0,1
157551,-100,4,1,0,95,0,1
157620,-100,4,1,0,100,0,1
157824,-100,4,1,0,95,0,1
158029,-100,4,1,0,100,0,1
158233,-100,4,1,0,95,0,1
158711,-100,4,1,0,100,0,1
158847,-100,4,1,0,95,0,1
159120,-100,4,1,0,100,0,1
159256,-100,4,1,0,95,0,1
159529,-100,4,1,0,100,0,1
159665,-100,4,1,0,95,0,1
161779,-100,4,1,0,95,0,1
161847,-100,4,1,0,95,0,1
161915,-100,4,1,0,95,0,1
161983,-100,4,1,0,95,0,1
162051,-100,4,1,0,95,0,1
168324,-100,4,1,0,100,0,1
168528,-100,4,1,0,100,0,1
170778,-100,4,1,0,95,0,1
179437,-100,4,1,0,100,0,1
179574,-100,4,1,0,95,0,1
179847,-100,4,1,0,100,0,1
179983,-100,4,1,0,95,0,1
180256,-100,4,1,0,100,0,1
180460,-100,4,1,0,100,0,0

[HitObjects]
256,192,597,5,0,0:0:0:0:
256,192,1687,1,8,0:0:0:0:
256,192,2778,1,0,0:0:0:0:
229,200,3869,1,8,0:0:0:0:
236,197,4960,1,0,0:0:0:0:
236,197,5506,1,8,0:0:0:0:
236,197,6051,1,0,0:0:0:0:
221,187,6597,1,8,0:0:0:0:
221,187,7142,1,0,0:0:0:0:
221,187,7415,1,0,0:0:0:0:
221,187,7687,1,0,0:0:0:0:
221,187,7960,1,0,0:0:0:0:
221,187,8233,1,0,0:0:0:0:
221,187,8369,1,0,0:0:0:0:
221,187,8506,1,0,0:0:0:0:
221,187,8642,1,0,0:0:0:0:
221,187,8778,1,0,0:0:0:0:
221,187,9051,1,12,0:0:0:0:
226,177,9324,1,12,0:0:0:0:
226,177,9597,1,0,0:0:0:0:
226,177,9733,1,0,0:0:0:0:
226,177,9869,1,8,0:0:0:0:
226,177,10142,1,8,0:0:0:0:
241,174,10415,1,0,0:0:0:0:
241,174,10551,1,8,0:0:0:0:
241,174,10687,1,0,0:0:0:0:
241,174,10824,1,0,0:0:0:0:
241,174,10960,1,8,0:0:0:0:
234,180,11506,1,8,0:0:0:0:
234,180,11642,1,8,0:0:0:0:
236,173,11778,1,0,0:0:0:0:
236,173,11915,1,8,0:0:0:0:
231,170,12051,1,0,0:0:0:0:
202,166,12324,1,0,0:0:0:0:
217,172,12460,1,8,0:0:0:0:
236,173,12597,1,0,0:0:0:0:
231,170,12733,1,0,0:0:0:0:
231,170,12869,1,8,0:0:0:0:
222,163,13142,1,0,0:0:0:0:
222,163,13415,1,12,0:0:0:0:
223,166,13687,1,0,0:0:0:0:
222,163,13960,1,8,0:0:0:0:
214,162,14233,1,0,0:0:0:0:
213,163,14506,1,8,0:0:0:0:
213,163,14642,1,0,0:0:0:0:
214,162,14778,1,8,0:0:0:0:
214,162,14915,1,0,0:0:0:0:
214,162,15051,1,0,0:0:0:0:
213,163,15324,1,8,0:0:0:0:
202,156,15869,1,8,0:0:0:0:
213,163,16142,1,0,0:0:0:0:
214,163,16278,1,8,0:0:0:0:
214,163,16551,1,0,0:0:0:0:
213,163,16687,1,8,0:0:0:0:
213,163,16824,1,0,0:0:0:0:
208,169,17097,1,8,0:0:0:0:
208,169,17233,1,0,0:0:0:0:
208,169,17369,1,0,0:0:0:0:
208,169,17506,1,8,0:0:0:0:
208,169,17778,1,8,0:0:0:0:
208,169,18051,1,8,0:0:0:0:
230,170,18597,1,8,0:0:0:0:
230,170,18733,1,0,0:0:0:0:
230,170,18869,1,0,0:0:0:0:
230,170,19142,1,8,0:0:0:0:
230,170,19551,1,8,0:0:0:0:
220,162,19824,1,8,0:0:0:0:
220,162,19960,1,0,0:0:0:0:
220,162,20097,1,0,0:0:0:0:
220,162,20233,1,8,0:0:0:0:
220,162,20506,1,8,0:0:0:0:
220,162,20642,1,0,0:0:0:0:
220,162,20915,1,0,0:0:0:0:
220,162,21051,1,8,0:0:0:0:
210,170,21187,1,0,0:0:0:0:
210,170,21597,1,8,0:0:0:0:
210,170,21869,1,0,0:0:0:0:
210,170,22006,1,8,0:0:0:0:
210,170,22142,1,0,0:0:0:0:
210,171,22415,1,8,0:0:0:0:
202,169,22960,1,8,0:0:0:0:
202,169,23097,1,0,0:0:0:0:
201,168,23233,1,8,0:0:0:0:
202,169,23506,1,8,0:0:0:0:
188,171,24051,1,8,0:0:0:0:
188,171,24187,1,0,0:0:0:0:
188,171,24324,1,0,0:0:0:0:
189,171,24597,1,8,0:0:0:0:
201,164,24869,1,8,0:0:0:0:
190,166,25142,1,8,0:0:0:0:
190,166,25278,1,0,0:0:0:0:
170,160,25551,1,8,0:0:0:0:
190,166,25824,1,0,0:0:0:0:
190,166,25960,1,0,0:0:0:0:
197,152,26097,1,8,0:0:0:0:
197,152,26506,1,0,0:0:0:0:
197,152,26778,1,8,0:0:0:0:
212,146,27324,1,0,0:0:0:0:
213,152,27460,1,0,0:0:0:0:
213,152,27597,1,8,0:0:0:0:
213,152,27869,1,8,0:0:0:0:
213,152,28142,1,0,0:0:0:0:
213,152,28278,1,8,0:0:0:0:
213,152,28551,1,0,0:0:0:0:
213,152,28687,1,8,0:0:0:0:
213,152,28960,1,8,0:0:0:0:
213,152,29097,1,8,0:0:0:0:
213,152,29233,1,0,0:0:0:0:
213,152,29506,1,8,0:0:0:0:
202,147,30051,1,0,0:0:0:0:
202,147,30324,1,8,0:0:0:0:
206,154,30597,1,8,0:0:0:0:
205,154,30733,1,0,0:0:0:0:
205,154,30869,1,0,0:0:0:0:
205,154,31006,1,8,0:0:0:0:
205,154,31142,1,0,0:0:0:0:
205,154,31415,1,8,0:0:0:0:
192,151,31687,1,8,0:0:0:0:
192,151,31824,1,8,0:0:0:0:
192,151,31960,1,0,0:0:0:0:
192,151,32233,1,8,0:0:0:0:
192,151,32642,1,8,0:0:0:0:
191,150,32778,1,0,0:0:0:0:
192,151,33187,1,0,0:0:0:0:
192,151,33324,1,8,0:0:0:0:
192,151,33869,1,8,0:0:0:0:
192,151,34142,1,0,0:0:0:0:
192,151,34278,1,8,0:0:0:0:
192,151,34415,1,0,0:0:0:0:
192,151,34551,1,0,0:0:0:0:
192,151,34687,1,8,0:0:0:0:
197,147,34960,1,8,0:0:0:0:
192,151,35097,1,8,0:0:0:0:
192,151,35234,1,0,0:0:0:0:
216,157,35506,1,4,0:0:0:0:
193,159,36051,1,8,0:0:0:0:
205,163,36324,1,8,0:0:0:0:
205,163,36460,1,0,0:0:0:0:
201,162,36597,1,8,0:0:0:0:
204,164,36869,1,0,0:0:0:0:
205,163,37142,1,8,0:0:0:0:
206,166,37415,1,8,0:0:0:0:
206,166,37551,1,0,0:0:0:0:
204,164,37687,1,8,0:0:0:0:
206,166,37960,1,0,0:0:0:0:
206,166,38097,1,0,0:0:0:0:
206,166,38233,1,8,0:0:0:0:
206,168,38506,1,0,0:0:0:0:
206,168,38642,1,0,0:0:0:0:
206,166,38778,1,8,0:0:0:0:
206,166,38915,1,0,0:0:0:0:
206,168,39051,1,8,0:0:0:0:
206,168,39324,1,8,0:0:0:0:
206,166,39597,1,0,0:0:0:0:
201,167,40142,1,0,0:0:0:0:
201,167,40415,1,0,0:0:0:0:
206,168,40551,1,0,0:0:0:0:
201,167,40687,1,8,0:0:0:0:
201,167,40960,1,0,0:0:0:0:
197,169,41233,1,8,0:0:0:0:
201,167,41369,1,0,0:0:0:0:
201,167,41506,1,0,0:0:0:0:
201,167,41778,1,8,0:0:0:0:
213,162,42051,1,0,0:0:0:0:
204,159,42324,1,0,0:0:0:0:
204,159,42460,1,0,0:0:0:0:
204,159,42597,1,8,0:0:0:0:
217,154,42869,1,8,0:0:0:0:
206,153,43006,1,0,0:0:0:0:
206,153,43142,1,8,0:0:0:0:
206,153,43415,1,0,0:0:0:0:
202,152,43687,1,12,0:0:0:0:
206,153,44233,1,4,0:0:0:0:
201,151,44506,1,8,0:0:0:0:
201,151,44642,1,8,0:0:0:0:
201,151,44778,1,0,0:0:0:0:
201,152,45051,1,12,0:0:0:0:
217,148,45324,1,0,0:0:0:0:
216,147,45597,1,8,0:0:0:0:
216,147,45733,1,8,0:0:0:0:
217,148,45869,1,0,0:0:0:0:
216,147,46142,1,0,0:0:0:0:
216,147,46278,1,8,0:0:0:0:
216,147,46415,1,0,0:0:0:0:
210,144,46687,1,8,0:0:0:0:
210,144,46824,1,8,0:0:0:0:
210,144,46960,1,0,0:0:0:0:
206,147,47097,1,0,0:0:0:0:
206,147,47233,1,12,0:0:0:0:
206,147,47506,1,0,0:0:0:0:
206,147,47778,1,8,0:0:0:0:
206,147,47915,1,0,0:0:0:0:
206,147,48051,1,0,0:0:0:0:
230,152,48597,1,0,0:0:0:0:
208,161,48869,1,8,0:0:0:0:
230,152,49006,1,8,0:0:0:0:
230,152,49142,1,0,0:0:0:0:
230,152,49415,1,12,0:0:0:0:
230,152,49687,1,0,0:0:0:0:
230,152,49960,1,8,0:0:0:0:
230,152,50097,1,0,0:0:0:0:
242,161,50233,1,8,0:0:0:0:
242,161,50369,1,8,0:0:0:0:
242,161,50506,1,0,0:0:0:0:
242,161,50778,1,8,0:0:0:0:
225,168,50915,1,0,0:0:0:0:
225,168,51051,1,8,0:0:0:0:
239,167,51324,1,8,0:0:0:0:
239,167,51597,1,0,0:0:0:0:
241,167,51733,1,0,0:0:0:0:
239,167,51869,1,12,0:0:0:0:
239,167,52142,1,12,0:0:0:0:
241,167,52415,1,12,0:0:0:0:
241,167,52960,1,4,0:0:0:0:
239,167,53233,1,4,0:0:0:0:
239,167,53506,1,4,0:0:0:0:
239,167,53778,1,4,0:0:0:0:
239,167,54051,1,4,0:0:0:0:
239,167,54324,1,4,0:0:0:0:
239,167,54597,1,4,0:0:0:0:
239,167,55142,1,4,0:0:0:0:
239,167,55415,1,4,0:0:0:0:
239,167,55687,1,4,0:0:0:0:
239,167,55960,1,4,0:0:0:0:
241,167,56233,1,4,0:0:0:0:
241,167,56506,1,4,0:0:0:0:
239,167,56778,1,4,0:0:0:0:
239,167,57324,1,12,0:0:0:0:
233,157,57733,1,12,0:0:0:0:
233,157,58142,1,0,0:0:0:0:
233,157,58415,1,12,0:0:0:0:
211,155,58824,1,12,0:0:0:0:
211,155,59233,1,12,0:0:0:0:
218,151,59506,1,8,0:0:0:0:
218,151,59778,1,0,0:0:0:0:
217,151,59915,1,0,0:0:0:0:
217,151,60051,1,8,0:0:0:0:
223,147,60324,1,8,0:0:0:0:
223,147,60460,1,0,0:0:0:0:
223,147,60597,1,8,0:0:0:0:
223,147,60869,1,8,0:0:0:0:
223,147,61142,1,0,0:0:0:0:
223,147,61687,1,8,0:0:0:0:
227,152,61960,1,8,0:0:0:0:
227,152,62233,1,0,0:0:0:0:
227,152,62369,1,0,0:0:0:0:
227,152,62506,1,8,0:0:0:0:
227,152,62778,1,0,0:0:0:0:
227,152,63051,1,8,0:0:0:0:
227,152,63460,1,8,0:0:0:0:
227,152,63597,1,8,0:0:0:0:
227,152,63869,1,0,0:0:0:0:
208,153,64142,1,8,0:0:0:0:
208,156,64415,1,0,0:0:0:0:
208,156,64551,1,8,0:0:0:0:
208,153,64687,1,0,0:0:0:0:
208,156,64960,1,0,0:0:0:0:
208,156,65097,1,0,0:0:0:0:
208,156,65233,1,8,0:0:0:0:
208,153,65369,1,8,0:0:0:0:
208,153,65506,1,0,0:0:0:0:
226,156,66051,1,12,0:0:0:0:
214,159,66324,1,8,0:0:0:0:
213,147,66597,1,8,0:0:0:0:
213,147,66733,1,0,0:0:0:0:
213,147,66869,1,0,0:0:0:0:
213,147,67142,1,8,0:0:0:0:
213,147,67415,1,8,0:0:0:0:
199,157,67551,1,0,0:0:0:0:
199,157,67824,1,8,0:0:0:0:
199,157,67960,1,8,0:0:0:0:
199,157,68233,1,8,0:0:0:0:
217,163,68506,1,8,0:0:0:0:
217,163,68642,1,0,0:0:0:0:
217,163,68915,1,0,0:0:0:0:
217,163,69051,1,8,0:0:0:0:
217,163,69187,1,0,0:0:0:0:
201,165,69597,1,8,0:0:0:0:
201,165,69869,1,8,0:0:0:0:
201,165,70006,1,0,0:0:0:0:
201,165,70142,1,0,0:0:0:0:
201,165,70415,1,8,0:0:0:0:
206,170,70960,1,8,0:0:0:0:
206,170,71097,1,8,0:0:0:0:
206,170,71233,1,0,0:0:0:0:
206,170,71506,1,8,0:0:0:0:
192,163,72051,1,0,0:0:0:0:
192,163,72187,1,0,0:0:0:0:
192,163,72324,1,8,0:0:0:0:
192,163,72597,1,8,0:0:0:0:
192,163,72869,1,8,0:0:0:0:
192,163,73006,1,0,0:0:0:0:
192,163,73142,1,8,0:0:0:0:
191,152,73278,1,0,0:0:0:0:
191,152,73551,1,8,0:0:0:0:
191,152,73687,1,0,0:0:0:0:
191,152,73960,1,0,0:0:0:0:
191,152,74097,1,8,0:0:0:0:
191,159,74506,1,0,0:0:0:0:
183,161,74778,1,0,0:0:0:0:
178,155,75324,1,0,0:0:0:0:
195,168,75460,1,0,0:0:0:0:
195,168,75597,1,8,0:0:0:0:
195,168,75869,1,8,0:0:0:0:
188,174,76142,1,8,0:0:0:0:
188,174,76278,1,0,0:0:0:0:
186,193,76551,1,8,0:0:0:0:
186,193,76687,1,0,0:0:0:0:
186,193,76960,1,8,0:0:0:0:
186,193,77233,1,0,0:0:0:0:
186,193,77369,1,0,0:0:0:0:
186,193,77506,1,8,0:0:0:0:
191,188,78051,1,0,0:0:0:0:
198,183,78324,1,8,0:0:0:0:
191,188,78597,1,0,0:0:0:0:
188,183,78733,1,0,0:0:0:0:
188,183,78869,1,8,0:0:0:0:
187,183,79006,1,8,0:0:0:0:
187,183,79142,1,0,0:0:0:0:
179,165,79415,1,8,0:0:0:0:
179,165,79687,1,8,0:0:0:0:
179,165,79824,1,8,0:0:0:0:
179,165,79960,1,0,0:0:0:0:
179,165,80233,1,8,0:0:0:0:
179,165,80642,1,8,0:0:0:0:
179,165,80778,1,0,0:0:0:0:
179,165,81187,1,0,0:0:0:0:
179,165,81324,1,8,0:0:0:0:
179,165,81869,1,8,0:0:0:0:
179,165,82142,1,0,0:0:0:0:
179,165,82278,1,8,0:0:0:0:
179,165,82415,1,0,0:0:0:0:
179,165,82551,1,0,0:0:0:0:
179,165,82687,1,8,0:0:0:0:
179,165,82960,1,8,0:0:0:0:
179,165,83097,1,8,0:0:0:0:
179,165,83233,1,0,0:0:0:0:
179,165,83506,1,4,0:0:0:0:
179,165,83778,1,8,0:0:0:0:
179,165,84051,1,0,0:0:0:0:
179,165,84187,1,8,0:0:0:0:
179,165,84324,1,0,0:0:0:0:
179,165,84597,1,8,0:0:0:0:
187,146,84869,1,0,0:0:0:0:
171,162,85142,1,0,0:0:0:0:
177,151,85278,1,0,0:0:0:0:
177,151,85415,1,8,0:0:0:0:
158,152,85687,1,8,0:0:0:0:
189,163,85960,1,0,0:0:0:0:
189,163,86097,1,0,0:0:0:0:
187,162,86233,1,8,0:0:0:0:
183,163,86506,1,8,0:0:0:0:
189,163,86642,1,0,0:0:0:0:
189,163,86778,1,8,0:0:0:0:
187,155,86915,1,8,0:0:0:0:
187,155,87051,1,0,0:0:0:0:
189,163,87324,1,8,0:0:0:0:
189,163,87597,1,0,0:0:0:0:
182,161,88142,1,0,0:0:0:0:
187,162,88415,1,0,0:0:0:0:
187,162,88551,1,0,0:0:0:0:
182,161,88687,1,8,0:0:0:0:
182,161,88960,1,0,0:0:0:0:
167,146,89233,1,8,0:0:0:0:
180,153,89506,1,8,0:0:0:0:
180,153,89642,1,0,0:0:0:0:
167,146,89778,1,8,0:0:0:0:
167,146,90051,1,8,0:0:0:0:
157,142,90324,1,0,0:0:0:0:
156,142,90460,1,0,0:0:0:0:
156,142,90597,1,8,0:0:0:0:
156,142,90869,1,8,0:0:0:0:
156,142,91006,1,0,0:0:0:0:
161,140,91142,1,8,0:0:0:0:
156,142,91278,1,8,0:0:0:0:
159,140,91415,1,0,0:0:0:0:
150,137,91687,1,12,0:0:0:0:
206,153,92233,1,4,0:0:0:0:
201,151,92506,1,8,0:0:0:0:
201,151,92642,1,8,0:0:0:0:
192,150,92778,1,0,0:0:0:0:
201,152,93051,1,8,0:0:0:0:
217,148,93324,1,0,0:0:0:0:
216,147,93597,1,8,0:0:0:0:
216,147,93733,1,0,0:0:0:0:
217,148,93869,1,0,0:0:0:0:
216,147,94142,1,0,0:0:0:0:
216,147,94278,1,8,0:0:0:0:
216,147,94415,1,0,0:0:0:0:
210,144,94687,1,8,0:0:0:0:
204,149,94960,1,0,0:0:0:0:
204,149,95097,1,0,0:0:0:0:
204,150,95233,1,8,0:0:0:0:
206,147,95506,1,0,0:0:0:0:
206,147,96051,1,8,0:0:0:0:
229,141,96324,1,8,0:0:0:0:
230,152,96597,1,0,0:0:0:0:
230,152,96869,1,8,0:0:0:0:
230,152,97006,1,8,0:0:0:0:
230,152,97142,1,0,0:0:0:0:
230,152,97278,1,0,0:0:0:0:
230,152,97415,1,8,0:0:0:0:
230,152,97687,1,0,0:0:0:0:
231,164,97960,1,0,0:0:0:0:
231,164,98097,1,0,0:0:0:0:
242,161,98233,1,8,0:0:0:0:
242,161,98506,1,8,0:0:0:0:
242,161,98778,1,8,0:0:0:0:
239,167,99187,1,0,0:0:0:0:
239,167,99324,1,8,0:0:0:0:
244,166,99733,1,0,0:0:0:0:
239,167,99869,1,8,0:0:0:0:
244,166,100278,1,0,0:0:0:0:
241,167,100415,1,12,0:0:0:0:
241,167,100960,1,4,0:0:0:0:
239,167,101233,1,4,0:0:0:0:
239,167,101506,1,4,0:0:0:0:
239,167,101778,1,4,0:0:0:0:
239,167,102051,1,4,0:0:0:0:
239,167,102324,1,4,0:0:0:0:
239,167,102597,1,4,0:0:0:0:
239,167,103142,1,4,0:0:0:0:
239,167,103415,1,4,0:0:0:0:
239,167,103687,1,4,0:0:0:0:
239,167,103960,1,4,0:0:0:0:
241,167,104233,1,4,0:0:0:0:
241,167,104506,1,4,0:0:0:0:
239,167,104778,1,4,0:0:0:0:
239,167,105324,1,12,0:0:0:0:
233,157,105733,1,12,0:0:0:0:
233,157,106142,1,0,0:0:0:0:
233,157,106415,1,12,0:0:0:0:
211,155,106824,1,12,0:0:0:0:
211,155,107233,1,12,0:0:0:0:
218,151,107506,1,8,0:0:0:0:
231,162,107915,1,0,0:0:0:0:
231,162,108051,1,8,0:0:0:0:
231,162,108460,1,0,0:0:0:0:
231,162,108597,1,8,0:0:0:0:
231,162,109006,1,0,0:0:0:0:
226,167,109142,1,8,0:0:0:0:
226,167,109415,1,8,0:0:0:0:
211,166,109687,1,0,0:0:0:0:
223,171,109960,1,0,0:0:0:0:
219,164,110233,1,0,0:0:0:0:
211,166,110369,1,8,0:0:0:0:
213,170,110506,1,0,0:0:0:0:
213,170,110642,1,8,0:0:0:0:
213,170,110778,1,8,0:0:0:0:
213,170,111051,1,0,0:0:0:0:
213,170,111324,1,0,0:0:0:0:
176,156,111597,1,8,0:0:0:0:
223,159,111869,1,0,0:0:0:0:
219,157,112142,1,8,0:0:0:0:
235,155,112278,1,0,0:0:0:0:
206,170,112415,1,8,0:0:0:0:
206,170,112551,1,8,0:0:0:0:
206,170,112687,1,0,0:0:0:0:
206,170,112960,1,8,0:0:0:0:
206,170,113233,1,0,0:0:0:0:
206,170,113369,1,0,0:0:0:0:
202,162,113506,1,8,0:0:0:0:
200,167,114051,1,8,0:0:0:0:
202,162,114324,1,8,0:0:0:0:
201,161,114460,1,0,0:0:0:0:
201,161,114597,1,8,0:0:0:0:
193,156,114869,1,0,0:0:0:0:
193,156,115142,1,8,0:0:0:0:
190,146,115278,1,8,0:0:0:0:
190,146,115415,1,0,0:0:0:0:
196,162,115551,1,8,0:0:0:0:
168,156,115960,1,0,0:0:0:0:
184,150,116097,1,8,0:0:0:0:
183,149,116233,1,8,0:0:0:0:
168,156,116506,1,0,0:0:0:0:
167,156,116778,1,8,0:0:0:0:
168,156,117051,1,0,0:0:0:0:
168,156,117187,1,8,0:0:0:0:
168,156,117324,1,8,0:0:0:0:
172,157,117460,1,8,0:0:0:0:
172,157,117733,1,8,0:0:0:0:
172,157,118006,1,8,0:0:0:0:
165,150,118142,1,0,0:0:0:0:
164,143,118415,1,12,0:0:0:0:
170,152,118960,1,8,0:0:0:0:
170,152,119097,1,0,0:0:0:0:
170,151,119233,1,8,0:0:0:0:
174,157,119506,1,0,0:0:0:0:
174,158,119642,1,0,0:0:0:0:
170,157,119778,1,8,0:0:0:0:
174,157,120051,1,0,0:0:0:0:
181,164,120187,1,8,0:0:0:0:
204,157,120460,1,8,0:0:0:0:
199,162,120733,1,8,0:0:0:0:
199,162,121142,1,0,0:0:0:0:
207,148,121278,1,0,0:0:0:0:
207,148,121415,1,8,0:0:0:0:
207,148,121551,1,8,0:0:0:0:
207,148,121824,1,0,0:0:0:0:
207,148,121960,1,8,0:0:0:0:
207,148,122233,1,8,0:0:0:0:
207,147,122369,1,0,0:0:0:0:
208,148,122506,1,0,0:0:0:0:
207,148,122642,1,0,0:0:0:0:
207,148,122778,1,8,0:0:0:0:
207,148,123324,1,0,0:0:0:0:
207,148,123460,1,8,0:0:0:0:
207,148,123597,1,8,0:0:0:0:
207,148,123733,1,0,0:0:0:0:
207,148,124006,1,8,0:0:0:0:
207,148,124142,1,0,0:0:0:0:
201,152,124278,1,8,0:0:0:0:
201,152,124415,1,0,0:0:0:0:
201,152,124687,1,0,0:0:0:0:
192,152,124824,1,0,0:0:0:0:
192,152,124960,1,12,0:0:0:0:
192,152,125369,1,12,0:0:0:0:
192,152,125778,1,0,0:0:0:0:
192,152,126051,1,12,0:0:0:0:
192,152,126324,1,12,0:0:0:0:
192,152,126597,1,8,0:0:0:0:
192,152,127142,1,8,0:0:0:0:
201,160,127687,1,0,0:0:0:0:
201,160,128233,1,8,0:0:0:0:
177,164,128506,1,8,0:0:0:0:
205,158,128778,1,0,0:0:0:0:
205,158,129324,1,8,0:0:0:0:
205,158,129869,1,0,0:0:0:0:
205,158,130415,1,8,0:0:0:0:
215,150,130960,1,0,0:0:0:0:
215,150,131233,1,0,0:0:0:0:
215,150,131506,1,8,0:0:0:0:
215,150,132051,1,0,0:0:0:0:
215,150,132597,1,8,0:0:0:0:
215,150,133142,1,0,0:0:0:0:
215,150,133415,1,8,0:0:0:0:
215,150,133687,1,0,0:0:0:0:
215,150,134233,1,8,0:0:0:0:
215,150,134778,1,8,0:0:0:0:
194,147,135324,1,8,0:0:0:0:
194,147,135597,1,8,0:0:0:0:
194,147,135733,1,8,0:0:0:0:
194,147,135869,1,0,0:0:0:0:
186,144,136142,1,8,0:0:0:0:
181,145,136415,1,0,0:0:0:0:
175,150,136824,1,8,0:0:0:0:
181,145,137369,1,0,0:0:0:0:
166,144,137778,1,8,0:0:0:0:
166,144,138051,1,8,0:0:0:0:
146,139,138324,1,0,0:0:0:0:
160,135,138597,1,8,0:0:0:0:
155,137,139006,1,8,0:0:0:0:
155,137,139687,1,8,0:0:0:0:
155,137,140233,1,0,0:0:0:0:
201,167,140506,1,0,0:0:0:0:
155,137,140778,1,0,0:0:0:0:
201,167,141051,1,8,0:0:0:0:
201,167,141188,1,8,0:0:0:0:
201,167,141324,1,0,0:0:0:0:
197,169,141597,1,8,0:0:0:0:
201,167,141870,1,0,0:0:0:0:
213,162,142415,1,0,0:0:0:0:
204,159,142688,1,0,0:0:0:0:
204,159,142824,1,0,0:0:0:0:
204,159,142961,1,8,0:0:0:0:
217,154,143233,1,8,0:0:0:0:
206,153,143370,1,0,0:0:0:0:
206,153,143506,1,8,0:0:0:0:
206,153,143642,1,8,0:0:0:0:
206,153,143779,1,0,0:0:0:0:
202,152,144051,1,12,0:0:0:0:
206,153,144597,1,4,0:0:0:0:
201,151,144870,1,8,0:0:0:0:
201,151,145006,1,8,0:0:0:0:
201,151,145142,1,0,0:0:0:0:
201,152,145415,1,12,0:0:0:0:
217,148,145688,1,0,0:0:0:0:
216,147,145961,1,8,0:0:0:0:
216,147,146097,1,8,0:0:0:0:
217,148,146233,1,0,0:0:0:0:
216,147,146506,1,0,0:0:0:0:
216,147,146642,1,8,0:0:0:0:
216,147,146779,1,0,0:0:0:0:
210,144,147051,1,8,0:0:0:0:
210,144,147188,1,8,0:0:0:0:
210,144,147324,1,0,0:0:0:0:
206,147,147461,1,0,0:0:0:0:
206,147,147597,1,12,0:0:0:0:
206,147,147870,1,0,0:0:0:0:
206,147,148142,1,8,0:0:0:0:
206,147,148279,1,0,0:0:0:0:
206,147,148415,1,0,0:0:0:0:
230,152,148961,1,0,0:0:0:0:
208,161,149233,1,8,0:0:0:0:
230,152,149370,1,8,0:0:0:0:
230,152,149506,1,0,0:0:0:0:
230,152,149779,1,12,0:0:0:0:
230,152,150051,1,0,0:0:0:0:
230,152,150324,1,8,0:0:0:0:
230,152,150461,1,0,0:0:0:0:
242,161,150597,1,8,0:0:0:0:
242,161,150733,1,8,0:0:0:0:
242,161,150870,1,0,0:0:0:0:
242,161,151142,1,8,0:0:0:0:
225,168,151279,1,0,0:0:0:0:
225,168,151415,1,8,0:0:0:0:
239,167,151688,1,8,0:0:0:0:
239,167,151961,1,0,0:0:0:0:
241,167,152097,1,0,0:0:0:0:
239,167,152233,1,12,0:0:0:0:
239,167,152506,1,12,0:0:0:0:
241,167,152779,1,12,0:0:0:0:
241,167,153324,1,4,0:0:0:0:
239,167,153597,1,4,0:0:0:0:
239,167,153870,1,4,0:0:0:0:
239,167,154142,1,4,0:0:0:0:
239,167,154415,1,4,0:0:0:0:
239,167,154688,1,4,0:0:0:0:
239,167,154961,1,4,0:0:0:0:
239,167,155506,1,4,0:0:0:0:
239,167,155779,1,4,0:0:0:0:
239,167,156051,1,4,0:0:0:0:
239,167,156324,1,4,0:0:0:0:
241,167,156597,1,4,0:0:0:0:
241,167,156870,1,4,0:0:0:0:
239,167,157142,1,4,0:0:0:0:
239,167,157688,1,12,0:0:0:0:
233,157,158097,1,12,0:0:0:0:
233,157,158506,1,0,0:0:0:0:
233,157,158779,1,12,0:0:0:0:
211,155,159188,1,12,0:0:0:0:
211,155,159597,1,12,0:0:0:0:
218,151,159870,1,8,0:0:0:0:
218,151,160142,1,0,0:0:0:0:
217,151,160279,1,0,0:0:0:0:
217,151,160415,1,8,0:0:0:0:
223,147,160688,1,8,0:0:0:0:
223,147,160824,1,0,0:0:0:0:
223,147,160961,1,8,0:0:0:0:
223,147,161233,5,8,0:0:0:0:
223,147,161506,1,8,0:0:0:0:
223,147,161779,1,0,0:0:0:0:
223,147,162051,1,8,0:0:0:0:
215,147,162324,1,0,0:0:0:0:
215,147,162460,1,0,0:0:0:0:
215,147,162597,1,8,0:0:0:0:
206,159,163006,1,8,0:0:0:0:
206,159,163142,1,8,0:0:0:0:
208,160,163278,1,8,0:0:0:0:
209,160,163415,1,0,0:0:0:0:
206,159,163687,1,8,0:0:0:0:
202,154,164233,1,8,0:0:0:0:
202,154,164369,1,0,0:0:0:0:
202,154,164506,1,0,0:0:0:0:
202,155,164642,1,0,0:0:0:0:
202,154,164778,1,8,0:0:0:0:
206,167,165051,1,8,0:0:0:0:
185,162,165187,1,0,0:0:0:0:
185,162,165324,1,8,0:0:0:0:
185,162,165460,1,8,0:0:0:0:
185,162,165597,1,0,0:0:0:0:
169,163,165869,1,8,0:0:0:0:
168,163,166142,1,0,0:0:0:0:
169,163,166415,1,8,0:0:0:0:
168,163,166960,1,0,0:0:0:0:
169,163,167097,1,0,0:0:0:0:
169,163,167233,1,8,0:0:0:0:
151,164,167369,1,0,0:0:0:0:
151,164,167506,1,8,0:0:0:0:
137,164,167778,1,0,0:0:0:0:
137,164,167915,1,0,0:0:0:0:
137,164,168051,1,8,0:0:0:0:
137,163,168324,1,4,0:0:0:0:
137,164,168597,1,8,0:0:0:0:
137,163,169006,1,8,0:0:0:0:
137,164,169142,1,0,0:0:0:0:
137,164,169551,1,0,0:0:0:0:
137,163,169687,1,8,0:0:0:0:
137,164,169960,1,8,0:0:0:0:
137,164,170097,1,0,0:0:0:0:
140,157,170233,1,8,0:0:0:0:
140,157,170778,1,0,0:0:0:0:
140,157,171051,1,8,0:0:0:0:
140,157,171187,1,0,0:0:0:0:
140,157,171324,1,8,0:0:0:0:
125,155,171733,1,8,0:0:0:0:
125,155,171869,1,8,0:0:0:0:
113,154,172006,1,8,0:0:0:0:
113,154,172142,1,0,0:0:0:0:
113,154,172415,1,8,0:0:0:0:
107,153,172687,1,0,0:0:0:0:
107,153,172960,1,8,0:0:0:0:
131,137,173233,1,8,0:0:0:0:
131,137,173369,1,8,0:0:0:0:
131,137,173506,1,0,0:0:0:0:
108,147,173778,1,0,0:0:0:0:
108,147,174051,1,0,0:0:0:0:
108,147,174187,1,0,0:0:0:0:
108,147,174324,1,8,0:0:0:0:
108,147,174460,1,0,0:0:0:0:
108,147,174597,1,8,0:0:0:0:
98,147,175142,1,8,0:0:0:0:
102,135,175415,1,8,0:0:0:0:
102,135,175687,1,0,0:0:0:0:
102,135,175824,1,8,0:0:0:0:
102,135,175960,1,0,0:0:0:0:
102,135,176097,1,0,0:0:0:0:
102,135,176233,1,8,0:0:0:0:
102,135,176506,1,0,0:0:0:0:
140,127,176642,1,0,0:0:0:0:
140,127,176778,1,8,0:0:0:0:
140,127,177051,1,0,0:0:0:0:
136,134,177324,1,8,0:0:0:0:
136,134,177597,1,0,0:0:0:0:
136,134,177733,1,8,0:0:0:0:
122,136,178006,1,0,0:0:0:0:
122,136,178142,1,8,0:0:0:0:
136,134,178278,1,0,0:0:0:0:
131,151,178551,1,8,0:0:0:0:
132,151,178687,1,0,0:0:0:0:
132,151,178824,1,0,0:0:0:0:
132,151,178960,1,8,0:0:0:0:
136,135,179233,1,0,0:0:0:0:
132,133,179506,1,12,0:0:0:0:
136,135,179915,1,12,0:0:0:0:
133,134,180324,1,12,0:0:0:0:
