osu file format v14

[General]
AudioFilename: audio.mp3
AudioLeadIn: 0
PreviewTime: 63338
Countdown: 0
SampleSet: Soft
StackLeniency: 0.7
Mode: 0
LetterboxInBreaks: 0
WidescreenStoryboard: 1

[Editor]
Bookmarks: 3338,18807,33807,48807,63807,78807,93807,101775
DistanceSpacing: 0.9
BeatDivisor: 4
GridSize: 4
TimelineZoom: 1

[Metadata]
Title:take it easy
TitleUnicode:take it easy
Artist:HachioujiP feat. Hatsune Miku
ArtistUnicode:八王子P feat. 初音ミク
Creator:Seto Kousuke
Version:Collab Easy
Source:
Tags:8#Prince Hachioji P わかむらP wakamuraP ViViD WAVE vocaloid Nayarii enerugii alexsander
BeatmapID:1837915
BeatmapSetID:794069

[Difficulty]
HPDrainRate:2.5
CircleSize:3
OverallDifficulty:3
ApproachRate:2.5
SliderMultiplier:1
SliderTickRate:1

[Events]
//Background and Video events
0,0,"take it easy.jpg",0,0
Video,0,"easy.avi"
//Break Periods
//Storyboard Layer 0 (Background)
//Storyboard Layer 1 (Fail)
//Storyboard Layer 2 (Pass)
//Storyboard Layer 3 (Foreground)
//Storyboard Sound Samples

[TimingPoints]
57,468.75,4,2,1,50,1,0
7205,-100,4,2,1,5,0,0
7322,-100,4,2,1,50,0,0
11307,-100,4,2,1,60,0,0
17166,-100,4,2,1,40,0,0
17869,-100,4,2,1,60,0,0
18103,-100,4,2,1,60,0,0
18338,-100,4,2,2,50,0,0
18572,-100,4,2,1,5,0,0
18807,-100,4,2,1,60,0,1
26307,-100,4,2,1,40,0,0
26541,-100,4,2,1,5,0,0
26775,-100,4,2,1,60,0,1
33807,-100,4,2,1,50,0,0
63338,-100,4,2,1,60,0,0
63572,-100,4,2,1,5,0,0
63807,-100,4,2,1,60,0,1
77400,-100,4,2,1,60,0,0
77869,-100,4,2,1,40,0,0
78338,-100,4,2,1,60,0,0
78572,-100,4,2,1,5,0,0
78807,-100,4,2,1,60,0,1
91932,-100,4,2,1,40,0,0
92869,-100,4,2,1,40,0,0
93338,-100,4,2,2,40,0,0
93572,-100,4,2,1,5,0,0
93807,-100,4,2,1,60,0,1
101072,-100,4,2,1,60,0,0
101541,-100,4,2,1,5,0,0
101775,-100,4,2,1,60,0,1
108572,-100,4,2,1,50,0,0

[Colours]
Combo1 : 201,100,228
Combo2 : 96,223,242
Combo3 : 180,198,28
Combo4 : 254,115,154

[HitObjects]
282,104,3807,6,0,P|336:95|402:90,2,100,2|2|2,0:2|0:2|0:2,0:3:0:0:
227,175,5213,1,0,0:0:0:0:
300,227,5682,2,0,P|349:222|399:213,2,100,2|2|2,0:2|0:2|0:2,0:3:0:0:
233,287,7088,2,0,P|201:290|163:299,1,50,2|2,0:2|0:2,0:3:0:0:
125,362,7791,5,2,0:2:0:0:
214,379,8260,2,0,P|265:374|324:356,1,100,2|2,0:2|0:2,0:3:0:0:
423,284,9432,2,0,P|446:327|450:376,2,100,2|0|0,0:2|0:0|0:3,0:3:0:0:
365,214,10838,1,2,0:2:0:0:
432,154,11307,6,0,B|438:131|443:107|443:107|439:81|432:50,1,100,2|0,3:2|3:0,0:3:0:0:
356,9,12244,2,0,B|350:33|346:59|346:59|351:83|357:106,1,100,2|0,3:2|3:3,0:3:0:0:
350,196,13182,2,0,P|301:210|253:196,1,100,2|0,3:2|3:3,0:3:0:0:
213,118,14119,2,0,P|165:104|117:118,1,100,2|0,3:2|3:3,0:3:0:0:
165,195,15057,6,0,L|168:299,1,100,2|2,3:2|3:2,0:3:0:0:
94,348,15994,1,2,3:2:0:0:
26,288,16463,2,0,B|23:253|23:253|5:226|5:226|3:191,1,100,2|2,3:2|3:2,0:3:0:0:
0,104,17400,1,2,0:2:0:0:
48,28,17869,1,4,0:3:0:0:
127,70,18338,1,2,0:1:0:0:
204,23,18807,6,0,P|252:12|312:39,1,100,6|10,3:2|3:2,0:0:0:0:
251,104,19744,2,0,P|241:154|268:210,1,100,0|10,3:2|3:2,0:0:0:0:
336,242,20682,1,2,3:2:0:0:
418,205,21150,1,10,3:2:0:0:
495,250,21619,2,0,L|472:350,1,100,0|10,3:2|3:2,0:0:0:0:
384,366,22557,6,0,P|342:372|282:347,1,100,2|10,3:2|3:2,0:0:0:0:
205,319,23494,2,0,P|163:313|103:338,1,100,0|10,3:2|3:2,0:0:0:0:
60,256,24432,2,0,P|73:217|65:171,2,75,10|8|8,3:2|3:2|3:2,0:0:0:0:
6,327,25603,2,0,P|26:356|31:381,1,50,2|10,0:2|3:2,0:0:0:0:
109,332,26307,5,2,0:2:0:0:
192,361,26775,2,0,P|243:369|288:351,1,100,6|0,3:2|3:2,0:0:0:0:
347,284,27713,1,10,3:2:0:0:
346,193,28182,1,2,3:2:0:0:
274,138,28650,2,0,L|172:148,1,100,10|0,3:2|3:2,0:0:0:0:
110,211,29588,1,10,3:2:0:0:
43,149,30057,6,0,P|28:99|50:47,1,100,2|10,3:2|3:2,0:0:0:0:
127,24,30994,2,0,L|235:27,1,100,0|10,3:2|3:2,0:0:0:0:
286,94,31932,1,2,3:2:0:0:
345,26,32400,2,0,P|380:21|430:31,1,75,2|6,3:2|3:2,0:0:0:0:
449,233,33807,5,6,3:2:0:0:
378,176,34275,2,0,B|330:169|330:169|270:180,1,100,2|2,3:2|3:2,0:0:0:0:
213,242,35213,1,0,3:2:0:0:
154,310,35682,2,0,B|106:317|106:317|55:307,1,100,2|2,3:2|3:2,0:0:0:0:
0,235,36619,1,0,3:2:0:0:
32,151,37088,1,2,3:2:0:0:
12,62,37557,6,0,P|64:46|122:59,1,100,2|0,3:2|3:2,0:0:0:0:
186,96,38494,1,0,3:2:0:0:
262,143,38963,2,0,P|311:149|358:133,2,100,2|0|0,3:2|3:2|3:0,0:0:0:0:
185,95,40369,1,0,3:0:0:0:
137,171,40838,1,2,1:2:0:0:
212,220,41307,5,0,3:3:0:0:
297,200,41775,2,0,P|310:249|300:297,1,100,2|2,3:2|3:2,0:0:0:0:
212,318,42712,1,0,3:3:0:0:
123,298,43182,2,0,P|113:249|125:201,1,100,2|2,3:2|3:2,0:0:0:0:
179,128,44119,1,0,3:3:0:0:
129,52,44588,1,2,3:2:0:0:
205,4,45057,6,0,P|253:-1|320:9,1,100,2|0,3:2|3:0,0:0:0:0:
362,73,45994,1,0,3:3:0:0:
414,146,46463,2,0,B|460:158|460:158|534:146,2,100,2|0|0,3:2|3:2|3:3,0:0:0:0:
304,4,48338,1,2,1:2:0:0:
272,88,48807,5,4,3:2:0:0:
197,38,49275,2,0,P|144:21|97:36,1,100,8|2,3:2|3:2,0:0:0:0:
45,102,50213,1,8,3:2:0:0:
84,182,50682,2,0,P|101:235|86:282,1,100,2|10,3:2|3:2,0:0:0:0:
30,344,51619,1,0,3:0:0:0:
111,382,52088,1,10,3:2:0:0:
190,339,52557,6,0,P|232:318|295:327,2,100,2|8|0,3:2|3:2|3:3,0:0:0:0:
115,288,53963,2,0,L|116:175,1,100,10|0,3:2|3:2,0:0:0:0:
199,154,54900,2,0,L|200:41,1,100,8|0,3:2|3:0,0:0:0:0:
274,3,55838,1,2,3:2:0:0:
332,71,56307,5,0,3:3:0:0:
402,15,56775,2,0,P|452:0|498:24,1,100,10|2,3:2|3:2,0:0:0:0:
512,108,57713,1,8,3:2:0:0:
490,195,58182,2,0,P|443:210|398:190,1,100,2|10,3:2|3:2,0:0:0:0:
315,156,59119,1,2,3:2:0:0:
256,224,59588,1,10,3:2:0:0:
176,182,60057,6,0,P|139:161|67:172,1,100,4|0,3:2|1:0,0:0:0:0:
24,231,60994,1,0,3:3:0:0:
111,251,61463,1,0,3:3:0:0:
149,332,61932,1,4,3:2:0:0:
226,286,62400,1,0,3:0:0:0:
313,307,62869,1,0,3:0:0:0:
488,268,63807,6,0,P|498:209|481:155,1,100,6|10,3:2|3:2,0:0:0:0:
401,192,64744,2,0,P|342:202|288:185,1,100,2|8,3:2|3:2,0:0:0:0:
223,151,65682,1,2,3:2:0:0:
152,206,66150,1,10,3:2:0:0:
73,162,66619,1,2,3:2:0:0:
13,229,67088,2,0,P|4:268|5:301,1,50,10|2,3:2|1:2,0:0:0:0:
59,348,67791,5,2,1:2:0:0:
150,315,68260,2,0,P|175:310|261:319,1,100,2|2,1:2|1:2,0:0:0:0:
335,338,69197,2,0,B|345:299|323:266|323:266|291:220|326:177,1,150,2|10,1:2|3:2,0:0:0:0:
252,129,70369,1,0,3:0:0:0:
178,181,70838,1,8,3:2:0:0:
144,97,71307,6,0,B|164:47|136:43|160:-10,2,100,2|10|0,3:2|3:2|3:3,0:0:0:0:
87,167,72713,1,8,3:2:0:0:
149,232,73182,2,0,P|195:241|260:219,1,100,2|10,3:2|3:2,0:0:0:0:
305,155,74119,1,2,3:2:0:0:
358,82,74588,1,8,3:2:0:0:
411,9,75057,6,0,P|468:0|519:22,1,100,0|8,3:3|3:2,0:0:0:0:
455,87,75994,2,0,B|450:118|450:118|457:169|457:169|448:198,1,100,2|10,3:2|3:2,0:0:0:0:
383,249,76932,1,2,3:2:0:0:
301,211,77400,2,0,P|264:126|328:50,1,200,10|4,3:2|0:1,0:0:0:0:
411,80,78807,6,0,L|525:83,1,100,2|10,3:2|3:2,0:0:0:0:
510,172,79744,2,0,L|410:169,1,100,2|8,3:2|3:2,0:0:0:0:
331,212,80682,1,2,3:2:0:0:
241,204,81150,1,10,3:2:0:0:
161,246,81619,2,0,P|109:258|54:240,1,100,2|10,3:2|3:2,0:0:0:0:
12,174,82557,6,0,L|20:63,1,100,0|10,3:3|3:2,0:0:0:0:
88,17,83494,1,2,3:2:0:0:
161,69,83963,1,10,3:2:0:0:
241,28,84432,2,0,P|289:19|339:37,1,100,2|10,3:2|3:2,0:0:0:0:
375,116,85369,2,0,L|362:218,1,100,0|10,3:0|3:2,0:0:0:0:
312,290,86307,6,0,L|208:283,1,100,2|8,3:2|3:2,0:0:0:0:
212,373,87244,2,0,L|311:379,1,100,2|8,3:2|3:2,0:0:0:0:
393,340,88182,2,0,P|447:334|487:356,2,100,2|8|2,3:2|3:2|3:2,0:0:0:0:
317,291,89588,1,8,3:2:0:0:
339,204,90057,5,2,3:2:0:0:
297,124,90525,2,0,P|247:102|189:116,1,100,10|2,3:2|3:2,0:0:0:0:
134,166,91463,2,0,P|84:171|40:150,1,100,8|2,3:2|3:2,0:0:0:0:
6,66,92400,1,2,0:2:0:0:
77,10,92869,1,4,0:3:0:0:
161,183,93807,6,0,P|208:169|258:172,1,100,6|10,3:2|3:2,0:0:0:0:
336,218,94744,2,0,P|383:231|433:228,1,100,0|10,3:3|3:2,0:0:0:0:
494,162,95682,1,2,3:2:0:0:
435,94,96150,1,10,3:2:0:0:
347,115,96619,2,0,P|293:98|241:116,1,100,0|10,3:3|3:2,0:0:0:0:
171,148,97557,6,0,L|175:257,1,100,2|10,3:2|3:2,0:0:0:0:
87,270,98494,2,0,L|83:161,1,100,0|10,3:3|3:2,0:0:0:0:
109,83,99432,2,0,P|122:44|114:-2,2,75,10|8|8,3:2|3:2|3:2,0:0:0:0:
171,148,100603,2,0,P|193:158|218:161,1,50,2|10,0:2|0:2,0:0:0:0:
307,150,101307,5,2,0:2:0:0:
387,189,101775,1,6,3:2:0:0:
473,164,102244,2,0,L|471:60,1,100,0|10,3:0|3:2,0:0:0:0:
402,5,103182,1,2,3:2:0:0:
320,42,103650,1,10,3:2:0:0:
233,17,104119,2,0,P|186:13|131:36,1,100,0|10,3:0|3:2,0:0:0:0:
64,85,105057,5,2,3:2:0:0:
71,174,105525,1,10,3:2:0:0:
154,207,105994,2,0,P|203:210|249:192,1,100,0|10,3:0|3:2,0:0:0:0:
327,147,106932,1,2,3:2:0:0:
389,211,107400,2,0,L|377:301,1,75,2|6,3:2|3:2,0:0:0:0:
287,350,108338,2,0,L|218:348,1,50,2|2,0:2|0:2,0:0:0:0:
