osu file format v14

[General]
AudioFilename: audio.mp3
AudioLeadIn: 0
PreviewTime: 50245
Countdown: 0
SampleSet: Normal
StackLeniency: 0.7
Mode: 1
LetterboxInBreaks: 0
WidescreenStoryboard: 1

[Editor]
DistanceSpacing: 0.1
BeatDivisor: 4
GridSize: 32
TimelineZoom: 1.6

[Metadata]
Title:Violence Trigger feat. Hatsune Miku
TitleUnicode:バイオレンストリガー feat. 初音ミク
Artist:HachiojiP
ArtistUnicode:八王子P
Creator:snowball112
Version:Muzukashii
Source:#COMPASS
Tags:Megumegu メグメグ
BeatmapID:1902636
BeatmapSetID:911481

[Difficulty]
HPDrainRate:5
CircleSize:2
OverallDifficulty:5
ApproachRate:0
SliderMultiplier:1.4
SliderTickRate:1

[Events]
//Background and Video events
0,0,"megumeguBG.jpg",0,115
//Break Periods
//Storyboard Layer 0 (Background)
//Storyboard Layer 1 (Fail)
//Storyboard Layer 2 (Pass)
//Storyboard Layer 3 (Foreground)
//Storyboard Sound Samples

[TimingPoints]
1266,306.122448979592,4,1,0,100,1,0
50245,-100,4,1,0,100,0,1
60041,-100,4,1,0,100,0,0
109021,-100,4,1,0,100,0,1
118817,-100,4,1,0,100,0,0
149429,-100,4,1,0,100,0,1
169021,-100,4,1,0,100,0,0

[HitObjects]
256,192,6163,5,0,0:0:0:0:
256,192,6470,1,0,0:0:0:0:
256,192,6929,1,8,0:0:0:0:
256,192,7388,1,0,0:0:0:0:
256,192,7847,1,8,0:0:0:0:
256,192,8153,1,8,0:0:0:0:
256,192,8612,1,0,0:0:0:0:
256,192,8919,12,0,9531,0:0:0:0:
256,192,9684,5,4,0:0:0:0:
256,192,9990,1,4,0:0:0:0:
256,192,10296,1,4,0:0:0:0:
256,192,10755,1,12,0:0:0:0:
256,192,11061,1,4,0:0:0:0:
256,192,11368,1,0,0:0:0:0:
256,192,11674,1,8,0:0:0:0:
256,192,11827,1,8,0:0:0:0:
256,192,12133,1,0,0:0:0:0:
256,192,12286,1,0,0:0:0:0:
256,192,12592,1,0,0:0:0:0:
256,192,12745,1,0,0:0:0:0:
256,192,12898,1,8,0:0:0:0:
256,192,13204,1,8,0:0:0:0:
256,192,13510,1,0,0:0:0:0:
256,192,13817,1,0,0:0:0:0:
256,192,14123,1,8,0:0:0:0:
256,192,14276,1,0,0:0:0:0:
256,192,14582,1,8,0:0:0:0:
256,192,14735,1,0,0:0:0:0:
256,192,15041,1,0,0:0:0:0:
256,192,15194,1,8,0:0:0:0:
256,192,15347,1,8,0:0:0:0:
256,192,15653,1,0,0:0:0:0:
256,192,15959,5,4,0:0:0:0:
256,192,16266,1,0,0:0:0:0:
256,192,16572,1,8,0:0:0:0:
256,192,16725,1,0,0:0:0:0:
256,192,17031,1,0,0:0:0:0:
256,192,17184,1,4,0:0:0:0:
256,192,17490,1,0,0:0:0:0:
256,192,17796,1,8,0:0:0:0:
256,192,17949,1,0,0:0:0:0:
256,192,18102,1,8,0:0:0:0:
256,192,18408,5,4,0:0:0:0:
256,192,18714,1,8,0:0:0:0:
256,192,18868,1,0,0:0:0:0:
256,192,19021,1,0,0:0:0:0:
256,192,19174,1,8,0:0:0:0:
256,192,19480,1,8,0:0:0:0:
256,192,19633,12,0,20245,0:0:0:0:
256,192,20551,5,12,0:0:0:0:
256,192,20857,1,4,0:0:0:0:
256,192,21163,1,8,0:0:0:0:
256,192,21317,1,0,0:0:0:0:
256,192,21623,1,0,0:0:0:0:
256,192,21776,1,8,0:0:0:0:
256,192,22082,1,0,0:0:0:0:
256,192,22235,1,8,0:0:0:0:
256,192,22388,1,0,0:0:0:0:
256,192,22541,1,8,0:0:0:0:
256,192,22847,1,8,0:0:0:0:
256,192,23000,1,8,0:0:0:0:
256,192,23306,1,0,0:0:0:0:
256,192,23612,1,8,0:0:0:0:
256,192,23919,1,0,0:0:0:0:
256,192,24072,1,8,0:0:0:0:
256,192,24378,1,0,0:0:0:0:
256,192,24531,1,0,0:0:0:0:
256,192,24684,1,8,0:0:0:0:
256,192,24837,1,8,0:0:0:0:
256,192,24990,1,0,0:0:0:0:
256,192,25296,1,0,0:0:0:0:
256,192,25449,1,8,0:0:0:0:
256,192,25755,1,4,0:0:0:0:
256,192,26061,1,8,0:0:0:0:
256,192,26368,1,0,0:0:0:0:
256,192,26521,1,8,0:0:0:0:
256,192,26674,1,8,0:0:0:0:
256,192,26980,1,0,0:0:0:0:
256,192,27133,1,8,0:0:0:0:
256,192,27286,1,0,0:0:0:0:
256,192,27439,1,8,0:0:0:0:
256,192,27745,1,8,0:0:0:0:
256,192,27898,1,8,0:0:0:0:
256,192,28204,1,0,0:0:0:0:
256,192,28510,1,8,0:0:0:0:
256,192,28817,1,8,0:0:0:0:
256,192,28970,1,0,0:0:0:0:
256,192,29276,1,12,0:0:0:0:
256,192,29582,1,0,0:0:0:0:
256,192,29735,1,0,0:0:0:0:
256,192,29888,1,0,0:0:0:0:
256,192,30041,1,8,0:0:0:0:
256,192,30347,1,8,0:0:0:0:
256,192,30500,1,8,0:0:0:0:
256,192,30653,1,4,0:0:0:0:
256,192,30959,1,8,0:0:0:0:
256,192,31112,1,8,0:0:0:0:
256,192,31419,1,0,0:0:0:0:
256,192,31572,1,8,0:0:0:0:
256,192,31878,1,0,0:0:0:0:
256,192,32031,1,8,0:0:0:0:
256,192,32184,1,8,0:0:0:0:
256,192,32337,1,8,0:0:0:0:
256,192,32643,1,0,0:0:0:0:
256,192,32796,1,8,0:0:0:0:
256,192,32949,1,0,0:0:0:0:
256,192,33102,1,0,0:0:0:0:
256,192,33408,1,8,0:0:0:0:
256,192,33714,1,0,0:0:0:0:
256,192,33868,1,8,0:0:0:0:
256,192,34174,1,8,0:0:0:0:
256,192,34327,1,0,0:0:0:0:
256,192,34480,1,8,0:0:0:0:
256,192,34633,1,8,0:0:0:0:
256,192,34786,1,0,0:0:0:0:
256,192,35092,1,0,0:0:0:0:
256,192,35245,1,8,0:0:0:0:
256,192,35551,1,0,0:0:0:0:
256,192,35704,1,0,0:0:0:0:
256,192,35857,1,12,0:0:0:0:
256,192,36163,1,0,0:0:0:0:
256,192,36470,1,8,0:0:0:0:
256,192,36776,1,0,0:0:0:0:
256,192,36929,1,8,0:0:0:0:
256,192,37082,1,8,0:0:0:0:
256,192,37235,1,8,0:0:0:0:
256,192,37541,1,0,0:0:0:0:
256,192,37694,1,8,0:0:0:0:
256,192,37847,1,0,0:0:0:0:
256,192,38000,1,8,0:0:0:0:
256,192,38306,1,8,0:0:0:0:
256,192,38612,1,0,0:0:0:0:
256,192,38766,1,0,0:0:0:0:
256,192,39072,1,0,0:0:0:0:
256,192,39225,1,12,0:0:0:0:
256,192,39531,1,8,0:0:0:0:
256,192,39837,1,8,0:0:0:0:
256,192,39990,1,8,0:0:0:0:
256,192,40067,1,8,0:0:0:0:
256,192,40143,1,8,0:0:0:0:
256,192,40296,1,8,0:0:0:0:
256,192,40449,1,0,0:0:0:0:
256,192,41061,1,8,0:0:0:0:
256,192,41368,1,8,0:0:0:0:
256,192,41674,1,0,0:0:0:0:
256,192,42592,1,8,0:0:0:0:
256,192,42898,1,0,0:0:0:0:
256,192,43510,1,8,0:0:0:0:
256,192,43817,1,0,0:0:0:0:
256,192,44429,1,8,0:0:0:0:
256,192,44735,1,8,0:0:0:0:
256,192,45347,5,4,0:0:0:0:
256,192,45653,1,8,0:0:0:0:
256,192,45806,1,0,0:0:0:0:
256,192,45959,1,8,0:0:0:0:
256,192,46112,1,8,0:0:0:0:
256,192,46266,1,0,0:0:0:0:
256,192,46572,5,4,0:0:0:0:
256,192,46878,1,8,0:0:0:0:
256,192,47031,1,0,0:0:0:0:
256,192,47184,1,8,0:0:0:0:
256,192,47337,1,0,0:0:0:0:
256,192,47490,1,8,0:0:0:0:
256,192,47796,1,4,0:0:0:0:
256,192,48255,5,0,0:0:0:0:
256,192,48408,1,8,0:0:0:0:
256,192,48561,1,0,0:0:0:0:
256,192,48714,1,0,0:0:0:0:
256,192,48868,5,4,0:0:0:0:
256,192,49174,1,4,0:0:0:0:
256,192,49480,1,4,0:0:0:0:
256,192,49939,1,12,0:0:0:0:
256,192,50245,1,4,0:0:0:0:
256,192,50551,1,8,0:0:0:0:
256,192,50704,1,0,0:0:0:0:
256,192,50857,1,8,0:0:0:0:
256,192,51010,1,8,0:0:0:0:
256,192,51317,1,8,0:0:0:0:
256,192,51470,1,0,0:0:0:0:
256,192,51623,1,0,0:0:0:0:
256,192,51699,1,0,0:0:0:0:
256,192,51776,1,0,0:0:0:0:
256,192,51929,1,8,0:0:0:0:
256,192,52235,1,0,0:0:0:0:
256,192,52388,1,8,0:0:0:0:
256,192,52541,1,0,0:0:0:0:
256,192,52694,1,0,0:0:0:0:
256,192,53000,1,8,0:0:0:0:
256,192,53306,1,0,0:0:0:0:
256,192,53459,1,8,0:0:0:0:
256,192,53612,1,8,0:0:0:0:
256,192,53766,1,0,0:0:0:0:
256,192,54072,1,0,0:0:0:0:
256,192,54225,1,8,0:0:0:0:
256,192,54378,1,0,0:0:0:0:
256,192,54454,1,0,0:0:0:0:
256,192,54531,1,0,0:0:0:0:
256,192,54684,1,0,0:0:0:0:
256,192,54837,1,8,0:0:0:0:
256,192,55143,1,4,0:0:0:0:
256,192,55449,1,8,0:0:0:0:
256,192,55755,1,0,0:0:0:0:
256,192,55908,1,0,0:0:0:0:
256,192,56214,1,12,0:0:0:0:
256,192,56521,1,0,0:0:0:0:
256,192,56674,1,8,0:0:0:0:
256,192,56827,1,8,0:0:0:0:
256,192,57133,1,8,0:0:0:0:
256,192,57286,1,8,0:0:0:0:
256,192,57439,1,0,0:0:0:0:
256,192,57592,1,4,0:0:0:0:
256,192,57898,1,8,0:0:0:0:
256,192,58204,1,4,0:0:0:0:
256,192,58357,1,8,0:0:0:0:
256,192,58510,1,8,0:0:0:0:
256,192,58663,1,4,0:0:0:0:
256,192,58970,1,0,0:0:0:0:
256,192,59123,1,8,0:0:0:0:
256,192,59429,1,0,0:0:0:0:
256,192,59582,1,8,0:0:0:0:
256,192,59658,1,8,0:0:0:0:
256,192,59735,1,8,0:0:0:0:
256,192,59888,1,8,0:0:0:0:
256,192,60041,1,4,0:0:0:0:
256,192,60347,1,8,0:0:0:0:
256,192,60653,1,0,0:0:0:0:
256,192,60806,1,8,0:0:0:0:
256,192,60959,1,8,0:0:0:0:
256,192,61112,1,0,0:0:0:0:
256,192,61266,1,0,0:0:0:0:
256,192,61572,1,8,0:0:0:0:
256,192,61725,1,0,0:0:0:0:
256,192,62031,1,0,0:0:0:0:
256,192,62184,1,8,0:0:0:0:
256,192,62337,1,0,0:0:0:0:
256,192,62490,1,0,0:0:0:0:
256,192,62796,1,8,0:0:0:0:
256,192,63102,1,0,0:0:0:0:
256,192,63255,1,8,0:0:0:0:
256,192,63408,1,8,0:0:0:0:
256,192,63561,1,8,0:0:0:0:
256,192,63714,1,0,0:0:0:0:
256,192,64021,5,8,0:0:0:0:
256,192,64174,5,4,0:0:0:0:
256,192,64480,5,8,0:0:0:0:
256,192,64633,1,8,0:0:0:0:
256,192,64786,1,8,0:0:0:0:
256,192,64939,1,4,0:0:0:0:
256,192,65245,1,8,0:0:0:0:
256,192,65551,1,8,0:0:0:0:
256,192,65704,1,8,0:0:0:0:
256,192,66010,1,4,0:0:0:0:
256,192,66317,1,0,0:0:0:0:
256,192,66470,1,8,0:0:0:0:
256,192,66776,1,8,0:0:0:0:
256,192,66929,1,8,0:0:0:0:
256,192,67082,1,0,0:0:0:0:
256,192,67388,1,4,0:0:0:0:
256,192,67694,1,0,0:0:0:0:
256,192,68000,1,4,0:0:0:0:
256,192,68153,1,8,0:0:0:0:
256,192,68306,1,8,0:0:0:0:
256,192,68459,1,4,0:0:0:0:
256,192,68766,1,0,0:0:0:0:
256,192,68919,1,8,0:0:0:0:
256,192,69072,1,8,0:0:0:0:
256,192,69148,1,8,0:0:0:0:
256,192,69225,1,8,0:0:0:0:
256,192,69531,5,12,0:0:0:0:
256,192,69837,5,4,0:0:0:0:
256,192,70143,1,0,0:0:0:0:
256,192,70449,1,8,0:0:0:0:
256,192,70602,1,8,0:0:0:0:
256,192,70908,1,0,0:0:0:0:
256,192,71061,1,0,0:0:0:0:
256,192,71368,1,0,0:0:0:0:
256,192,71521,1,0,0:0:0:0:
256,192,71674,1,8,0:0:0:0:
256,192,71980,1,8,0:0:0:0:
256,192,72286,1,0,0:0:0:0:
256,192,72592,1,0,0:0:0:0:
256,192,72898,1,8,0:0:0:0:
256,192,73051,1,0,0:0:0:0:
256,192,73357,1,8,0:0:0:0:
256,192,73510,1,0,0:0:0:0:
256,192,73817,1,0,0:0:0:0:
256,192,73970,1,8,0:0:0:0:
256,192,74123,1,8,0:0:0:0:
256,192,74429,1,0,0:0:0:0:
256,192,74735,5,4,0:0:0:0:
256,192,75041,1,0,0:0:0:0:
256,192,75347,1,8,0:0:0:0:
256,192,75500,1,0,0:0:0:0:
256,192,75806,1,0,0:0:0:0:
256,192,75959,1,4,0:0:0:0:
256,192,76266,1,0,0:0:0:0:
256,192,76572,1,8,0:0:0:0:
256,192,76725,1,0,0:0:0:0:
256,192,76878,1,8,0:0:0:0:
256,192,77184,5,4,0:0:0:0:
256,192,77490,1,8,0:0:0:0:
256,192,77643,1,0,0:0:0:0:
256,192,77796,1,0,0:0:0:0:
256,192,77949,1,8,0:0:0:0:
256,192,78255,1,8,0:0:0:0:
256,192,78408,12,0,79021,0:0:0:0:
256,192,79327,5,12,0:0:0:0:
256,192,79633,1,4,0:0:0:0:
256,192,80245,1,8,0:0:0:0:
256,192,80551,1,0,0:0:0:0:
256,192,80704,1,0,0:0:0:0:
256,192,81163,1,0,0:0:0:0:
256,192,81470,1,8,0:0:0:0:
256,192,81776,1,8,0:0:0:0:
256,192,81929,1,8,0:0:0:0:
256,192,82082,1,0,0:0:0:0:
256,192,82388,1,0,0:0:0:0:
256,192,82694,1,8,0:0:0:0:
256,192,83000,1,0,0:0:0:0:
256,192,83153,1,0,0:0:0:0:
256,192,83612,1,0,0:0:0:0:
256,192,83919,1,8,0:0:0:0:
256,192,84225,1,8,0:0:0:0:
256,192,84378,1,8,0:0:0:0:
256,192,84531,1,0,0:0:0:0:
256,192,85143,1,8,0:0:0:0:
256,192,85449,1,0,0:0:0:0:
256,192,85602,1,0,0:0:0:0:
256,192,86061,1,0,0:0:0:0:
256,192,86368,1,8,0:0:0:0:
256,192,86674,1,8,0:0:0:0:
256,192,86827,1,8,0:0:0:0:
256,192,86980,1,8,0:0:0:0:
256,192,87592,1,0,0:0:0:0:
256,192,88204,12,0,89123,0:0:0:0:
256,192,89429,5,4,0:0:0:0:
256,192,89735,1,8,0:0:0:0:
256,192,89888,1,8,0:0:0:0:
256,192,90194,1,0,0:0:0:0:
256,192,90347,1,8,0:0:0:0:
256,192,90653,1,0,0:0:0:0:
256,192,90806,1,8,0:0:0:0:
256,192,90959,1,8,0:0:0:0:
256,192,91112,1,8,0:0:0:0:
256,192,91419,1,0,0:0:0:0:
256,192,91572,1,8,0:0:0:0:
256,192,91725,1,0,0:0:0:0:
256,192,91878,1,0,0:0:0:0:
256,192,92184,1,8,0:0:0:0:
256,192,92337,1,0,0:0:0:0:
256,192,92490,1,0,0:0:0:0:
256,192,92796,1,8,0:0:0:0:
256,192,93102,1,0,0:0:0:0:
256,192,93255,1,8,0:0:0:0:
256,192,93408,1,8,0:0:0:0:
256,192,93561,1,0,0:0:0:0:
256,192,93868,1,0,0:0:0:0:
256,192,94021,1,8,0:0:0:0:
256,192,94327,1,0,0:0:0:0:
256,192,94480,1,0,0:0:0:0:
256,192,94633,1,12,0:0:0:0:
256,192,94939,1,0,0:0:0:0:
256,192,95092,1,8,0:0:0:0:
256,192,95245,1,8,0:0:0:0:
256,192,95551,1,0,0:0:0:0:
256,192,95704,1,8,0:0:0:0:
256,192,95857,1,8,0:0:0:0:
256,192,96010,1,8,0:0:0:0:
256,192,96317,1,0,0:0:0:0:
256,192,96470,1,8,0:0:0:0:
256,192,96623,1,0,0:0:0:0:
256,192,96776,1,0,0:0:0:0:
256,192,97082,1,8,0:0:0:0:
256,192,97235,1,8,0:0:0:0:
256,192,97541,1,0,0:0:0:0:
256,192,97694,1,8,0:0:0:0:
256,192,98000,1,4,0:0:0:0:
256,192,98306,1,8,0:0:0:0:
256,192,98612,1,8,0:0:0:0:
256,192,98766,1,8,0:0:0:0:
256,192,98842,1,8,0:0:0:0:
256,192,98919,1,8,0:0:0:0:
256,192,99072,1,8,0:0:0:0:
256,192,99225,1,4,0:0:0:0:
256,192,99531,1,8,0:0:0:0:
256,192,99837,1,0,0:0:0:0:
256,192,99990,1,0,0:0:0:0:
256,192,100143,1,8,0:0:0:0:
256,192,100296,1,8,0:0:0:0:
256,192,100449,1,0,0:0:0:0:
256,192,100755,1,8,0:0:0:0:
256,192,100908,1,0,0:0:0:0:
256,192,101214,1,0,0:0:0:0:
256,192,101368,1,8,0:0:0:0:
256,192,101521,1,8,0:0:0:0:
256,192,101674,1,0,0:0:0:0:
256,192,101980,1,8,0:0:0:0:
256,192,102286,1,0,0:0:0:0:
256,192,102592,1,8,0:0:0:0:
256,192,102745,1,0,0:0:0:0:
256,192,103051,1,0,0:0:0:0:
256,192,103204,1,8,0:0:0:0:
256,192,103510,1,0,0:0:0:0:
256,192,103817,1,8,0:0:0:0:
256,192,103970,1,8,0:0:0:0:
256,192,104123,1,4,0:0:0:0:
256,192,104582,1,8,0:0:0:0:
256,192,104888,1,8,0:0:0:0:
256,192,105194,1,8,0:0:0:0:
256,192,105347,1,4,0:0:0:0:
256,192,105806,1,8,0:0:0:0:
256,192,106112,1,8,0:0:0:0:
256,192,106419,1,8,0:0:0:0:
256,192,106572,1,4,0:0:0:0:
256,192,106878,1,0,0:0:0:0:
256,192,107031,1,8,0:0:0:0:
256,192,107337,1,0,0:0:0:0:
256,192,107490,1,0,0:0:0:0:
256,192,107643,1,8,0:0:0:0:
256,192,107796,12,0,108714,0:0:0:0:
256,192,109021,5,4,0:0:0:0:
256,192,109327,1,8,0:0:0:0:
256,192,109480,1,8,0:0:0:0:
256,192,109633,1,0,0:0:0:0:
256,192,109786,1,8,0:0:0:0:
256,192,110093,1,0,0:0:0:0:
256,192,110246,1,0,0:0:0:0:
256,192,110399,1,0,0:0:0:0:
256,192,110475,1,0,0:0:0:0:
256,192,110552,1,0,0:0:0:0:
256,192,110705,1,8,0:0:0:0:
256,192,111011,1,0,0:0:0:0:
256,192,111164,1,8,0:0:0:0:
256,192,111317,1,0,0:0:0:0:
256,192,111470,1,0,0:0:0:0:
256,192,111776,1,8,0:0:0:0:
256,192,112082,1,0,0:0:0:0:
256,192,112235,1,8,0:0:0:0:
256,192,112388,1,8,0:0:0:0:
256,192,112542,1,0,0:0:0:0:
256,192,112848,1,0,0:0:0:0:
256,192,113001,1,8,0:0:0:0:
256,192,113154,1,0,0:0:0:0:
256,192,113230,1,0,0:0:0:0:
256,192,113307,1,0,0:0:0:0:
256,192,113460,1,0,0:0:0:0:
256,192,113613,1,8,0:0:0:0:
256,192,113919,1,4,0:0:0:0:
256,192,114225,1,8,0:0:0:0:
256,192,114531,1,0,0:0:0:0:
256,192,114684,1,0,0:0:0:0:
256,192,114990,1,12,0:0:0:0:
256,192,115296,1,0,0:0:0:0:
256,192,115449,1,8,0:0:0:0:
256,192,115602,1,8,0:0:0:0:
256,192,115908,1,8,0:0:0:0:
256,192,116061,1,8,0:0:0:0:
256,192,116214,1,0,0:0:0:0:
256,192,116367,1,4,0:0:0:0:
256,192,116673,1,8,0:0:0:0:
256,192,116979,1,4,0:0:0:0:
256,192,117132,1,8,0:0:0:0:
256,192,117285,1,8,0:0:0:0:
256,192,117438,1,4,0:0:0:0:
256,192,117745,1,0,0:0:0:0:
256,192,117898,1,8,0:0:0:0:
256,192,118204,1,0,0:0:0:0:
256,192,118357,1,8,0:0:0:0:
256,192,118433,1,8,0:0:0:0:
256,192,118510,1,8,0:0:0:0:
256,192,118663,1,8,0:0:0:0:
256,192,118817,1,4,0:0:0:0:
256,192,119123,1,8,0:0:0:0:
256,192,119429,1,0,0:0:0:0:
256,192,119582,1,0,0:0:0:0:
256,192,119735,1,8,0:0:0:0:
256,192,119888,1,8,0:0:0:0:
256,192,120041,1,0,0:0:0:0:
256,192,120347,1,8,0:0:0:0:
256,192,120500,1,8,0:0:0:0:
256,192,120806,1,0,0:0:0:0:
256,192,120959,1,8,0:0:0:0:
256,192,121112,1,0,0:0:0:0:
256,192,121266,1,4,0:0:0:0:
256,192,121572,1,8,0:0:0:0:
256,192,121878,1,0,0:0:0:0:
256,192,122031,1,0,0:0:0:0:
256,192,122184,1,8,0:0:0:0:
256,192,122337,1,8,0:0:0:0:
256,192,122490,1,0,0:0:0:0:
256,192,122796,1,8,0:0:0:0:
256,192,122949,1,12,0:0:0:0:
256,192,123561,1,0,0:0:0:0:
256,192,123714,1,4,0:0:0:0:
256,192,124021,1,8,0:0:0:0:
256,192,124327,1,0,0:0:0:0:
256,192,124480,1,8,0:0:0:0:
256,192,124633,1,8,0:0:0:0:
256,192,124786,1,8,0:0:0:0:
256,192,124939,1,4,0:0:0:0:
256,192,125245,1,0,0:0:0:0:
256,192,125398,1,8,0:0:0:0:
256,192,125704,1,8,0:0:0:0:
256,192,125857,1,0,0:0:0:0:
256,192,126010,1,0,0:0:0:0:
256,192,126163,5,4,0:0:0:0:
256,192,126470,1,0,0:0:0:0:
256,192,126623,1,8,0:0:0:0:
256,192,126776,1,4,0:0:0:0:
256,192,127082,1,0,0:0:0:0:
256,192,127235,1,8,0:0:0:0:
256,192,127388,1,0,0:0:0:0:
256,192,128000,1,8,0:0:0:0:
256,192,128612,5,4,0:0:0:0:
256,192,129378,1,8,0:0:0:0:
256,192,129837,1,0,0:0:0:0:
256,192,130296,1,0,0:0:0:0:
256,192,130602,1,8,0:0:0:0:
256,192,130908,1,8,0:0:0:0:
256,192,131061,1,0,0:0:0:0:
256,192,131827,1,8,0:0:0:0:
256,192,132286,1,0,0:0:0:0:
256,192,132745,1,8,0:0:0:0:
256,192,133051,1,8,0:0:0:0:
256,192,133510,1,0,0:0:0:0:
256,192,134276,1,8,0:0:0:0:
256,192,134735,1,0,0:0:0:0:
256,192,135194,1,8,0:0:0:0:
256,192,135500,1,8,0:0:0:0:
256,192,135806,1,8,0:0:0:0:
256,192,135959,1,0,0:0:0:0:
256,192,136725,1,8,0:0:0:0:
256,192,137184,1,0,0:0:0:0:
256,192,138408,1,0,0:0:0:0:
256,192,138714,1,0,0:0:0:0:
256,192,139633,1,0,0:0:0:0:
256,192,139939,1,0,0:0:0:0:
256,192,140857,1,0,0:0:0:0:
256,192,141163,1,0,0:0:0:0:
256,192,141623,1,0,0:0:0:0:
256,192,142082,1,0,0:0:0:0:
256,192,142388,1,0,0:0:0:0:
256,192,142847,1,0,0:0:0:0:
256,192,143306,1,0,0:0:0:0:
256,192,143612,1,0,0:0:0:0:
256,192,143919,1,0,0:0:0:0:
256,192,144225,1,0,0:0:0:0:
256,192,144531,1,0,0:0:0:0:
256,192,144837,1,0,0:0:0:0:
256,192,145143,5,0,0:0:0:0:
256,192,145449,1,0,0:0:0:0:
256,192,145755,1,0,0:0:0:0:
256,192,145908,1,0,0:0:0:0:
256,192,146061,1,0,0:0:0:0:
256,192,146368,1,0,0:0:0:0:
256,192,146521,1,0,0:0:0:0:
256,192,146597,1,0,0:0:0:0:
256,192,146674,1,0,0:0:0:0:
256,192,146827,1,4,0:0:0:0:
256,192,147133,5,4,0:0:0:0:
256,192,147439,1,4,0:0:0:0:
256,192,147745,1,4,0:0:0:0:
256,192,148051,1,4,0:0:0:0:
256,192,149429,1,4,0:0:0:0:
256,192,149735,1,8,0:0:0:0:
256,192,149888,1,0,0:0:0:0:
256,192,150041,1,8,0:0:0:0:
256,192,150194,1,8,0:0:0:0:
256,192,150500,1,0,0:0:0:0:
256,192,150653,1,0,0:0:0:0:
256,192,150806,1,0,0:0:0:0:
256,192,150883,1,0,0:0:0:0:
256,192,150959,1,0,0:0:0:0:
256,192,151112,1,8,0:0:0:0:
256,192,151419,1,0,0:0:0:0:
256,192,151572,1,8,0:0:0:0:
256,192,151725,1,0,0:0:0:0:
256,192,151878,1,0,0:0:0:0:
256,192,152184,1,8,0:0:0:0:
256,192,152490,1,0,0:0:0:0:
256,192,152643,1,8,0:0:0:0:
256,192,152796,1,8,0:0:0:0:
256,192,152949,1,0,0:0:0:0:
256,192,153255,1,0,0:0:0:0:
256,192,153408,1,8,0:0:0:0:
256,192,153561,1,0,0:0:0:0:
256,192,153638,1,0,0:0:0:0:
256,192,153714,1,0,0:0:0:0:
256,192,153868,1,0,0:0:0:0:
256,192,154021,1,8,0:0:0:0:
256,192,154327,1,4,0:0:0:0:
256,192,154633,1,8,0:0:0:0:
256,192,154939,1,0,0:0:0:0:
256,192,155092,1,0,0:0:0:0:
256,192,155398,1,12,0:0:0:0:
256,192,155704,1,0,0:0:0:0:
256,192,155857,1,8,0:0:0:0:
256,192,156010,1,8,0:0:0:0:
256,192,156317,1,8,0:0:0:0:
256,192,156470,1,8,0:0:0:0:
256,192,156623,1,0,0:0:0:0:
256,192,156776,1,4,0:0:0:0:
256,192,157082,1,8,0:0:0:0:
256,192,157388,1,4,0:0:0:0:
256,192,157541,1,8,0:0:0:0:
256,192,157694,1,8,0:0:0:0:
256,192,157847,1,4,0:0:0:0:
256,192,158153,1,0,0:0:0:0:
256,192,158306,1,8,0:0:0:0:
256,192,158612,1,0,0:0:0:0:
256,192,158766,1,8,0:0:0:0:
256,192,158842,1,8,0:0:0:0:
256,192,158919,1,8,0:0:0:0:
256,192,159072,1,8,0:0:0:0:
256,192,159225,1,4,0:0:0:0:
256,192,159684,1,0,0:0:0:0:
256,192,159837,1,8,0:0:0:0:
256,192,159990,1,8,0:0:0:0:
256,192,160296,1,12,0:0:0:0:
256,192,160602,1,0,0:0:0:0:
256,192,160679,1,0,0:0:0:0:
256,192,160755,1,0,0:0:0:0:
256,192,160908,1,8,0:0:0:0:
256,192,161214,1,0,0:0:0:0:
256,192,161368,1,8,0:0:0:0:
256,192,161520,1,0,0:0:0:0:
256,192,161674,1,0,0:0:0:0:
256,192,161980,1,8,0:0:0:0:
256,192,162286,1,0,0:0:0:0:
256,192,162439,1,8,0:0:0:0:
256,192,162592,1,8,0:0:0:0:
256,192,162746,1,0,0:0:0:0:
256,192,163052,1,0,0:0:0:0:
256,192,163205,1,8,0:0:0:0:
256,192,163358,1,0,0:0:0:0:
256,192,163434,1,0,0:0:0:0:
256,192,163511,1,0,0:0:0:0:
256,192,163664,1,0,0:0:0:0:
256,192,163817,1,8,0:0:0:0:
256,192,164123,1,4,0:0:0:0:
256,192,164429,1,8,0:0:0:0:
256,192,164735,1,0,0:0:0:0:
256,192,164888,1,0,0:0:0:0:
256,192,165194,1,4,0:0:0:0:
256,192,165500,1,0,0:0:0:0:
256,192,165576,1,0,0:0:0:0:
256,192,165653,1,0,0:0:0:0:
256,192,165806,1,8,0:0:0:0:
256,192,166112,1,8,0:0:0:0:
256,192,166265,1,8,0:0:0:0:
256,192,166418,1,0,0:0:0:0:
256,192,166572,1,4,0:0:0:0:
256,192,166878,1,8,0:0:0:0:
256,192,167184,1,4,0:0:0:0:
256,192,167337,1,8,0:0:0:0:
256,192,167490,1,8,0:0:0:0:
256,192,167643,1,4,0:0:0:0:
256,192,167949,1,0,0:0:0:0:
256,192,168102,1,8,0:0:0:0:
256,192,168408,1,0,0:0:0:0:
256,192,168561,1,8,0:0:0:0:
256,192,168638,1,8,0:0:0:0:
256,192,168714,1,8,0:0:0:0:
256,192,168868,1,8,0:0:0:0:
256,192,169021,1,4,0:0:0:0:
256,192,169327,1,8,0:0:0:0:
256,192,169633,1,0,0:0:0:0:
256,192,169786,1,8,0:0:0:0:
256,192,169939,1,8,0:0:0:0:
256,192,170092,1,0,0:0:0:0:
256,192,170245,1,0,0:0:0:0:
256,192,170551,1,8,0:0:0:0:
256,192,170704,1,0,0:0:0:0:
256,192,171010,1,0,0:0:0:0:
256,192,171163,1,8,0:0:0:0:
256,192,171317,1,0,0:0:0:0:
256,192,171470,1,0,0:0:0:0:
256,192,171776,1,8,0:0:0:0:
256,192,172082,1,0,0:0:0:0:
256,192,172235,1,8,0:0:0:0:
256,192,172388,1,8,0:0:0:0:
256,192,172541,1,8,0:0:0:0:
256,192,172694,1,0,0:0:0:0:
256,192,173000,5,8,0:0:0:0:
256,192,173153,5,4,0:0:0:0:
256,192,173459,5,8,0:0:0:0:
256,192,173612,1,8,0:0:0:0:
256,192,173766,1,8,0:0:0:0:
256,192,173919,1,4,0:0:0:0:
256,192,174225,1,8,0:0:0:0:
256,192,174531,1,8,0:0:0:0:
256,192,174684,1,8,0:0:0:0:
256,192,174990,1,4,0:0:0:0:
256,192,175296,1,0,0:0:0:0:
256,192,175449,1,8,0:0:0:0:
256,192,175755,1,8,0:0:0:0:
256,192,175908,1,8,0:0:0:0:
256,192,176061,1,0,0:0:0:0:
256,192,176368,1,4,0:0:0:0:
256,192,176674,1,8,0:0:0:0:
256,192,176980,1,4,0:0:0:0:
256,192,177133,1,8,0:0:0:0:
256,192,177286,1,0,0:0:0:0:
256,192,177439,1,4,0:0:0:0:
256,192,177745,1,0,0:0:0:0:
256,192,177898,1,8,0:0:0:0:
256,192,178051,1,0,0:0:0:0:
256,192,178128,1,0,0:0:0:0:
256,192,178204,1,0,0:0:0:0:
256,192,178510,5,8,0:0:0:0:
256,192,178663,1,8,0:0:0:0:
256,192,178817,1,4,0:0:0:0:
256,192,179123,1,8,0:0:0:0:
256,192,179429,1,8,0:0:0:0:
256,192,179582,1,8,0:0:0:0:
256,192,179888,1,4,0:0:0:0:
256,192,180194,1,0,0:0:0:0:
256,192,180347,1,8,0:0:0:0:
256,192,180653,1,0,0:0:0:0:
256,192,180806,1,0,0:0:0:0:
256,192,180959,1,8,0:0:0:0:
256,192,181266,1,4,0:0:0:0:
256,192,181572,1,8,0:0:0:0:
256,192,181725,1,8,0:0:0:0:
256,192,181801,1,8,0:0:0:0:
256,192,181878,1,8,0:0:0:0:
256,192,182031,1,0,0:0:0:0:
256,192,182184,1,0,0:0:0:0:
256,192,182337,1,8,0:0:0:0:
256,192,184939,1,8,0:0:0:0:
256,192,185245,1,8,0:0:0:0:
256,192,185551,1,8,0:0:0:0:
256,192,185857,1,12,0:0:0:0:
256,192,186163,1,4,0:0:0:0:
256,192,186470,1,0,0:0:0:0:
256,192,186776,1,8,0:0:0:0:
256,192,186929,1,8,0:0:0:0:
256,192,187235,1,0,0:0:0:0:
256,192,187388,1,0,0:0:0:0:
256,192,187694,1,0,0:0:0:0:
256,192,187847,1,0,0:0:0:0:
256,192,188000,1,8,0:0:0:0:
256,192,188306,1,8,0:0:0:0:
256,192,188612,1,0,0:0:0:0:
256,192,188919,1,0,0:0:0:0:
256,192,189225,1,8,0:0:0:0:
256,192,189378,1,0,0:0:0:0:
256,192,189684,1,8,0:0:0:0:
256,192,189837,1,0,0:0:0:0:
256,192,190143,1,0,0:0:0:0:
256,192,190296,1,8,0:0:0:0:
256,192,190449,1,8,0:0:0:0:
256,192,190755,1,0,0:0:0:0:
256,192,191061,5,4,0:0:0:0:
256,192,191368,1,0,0:0:0:0:
256,192,191674,1,8,0:0:0:0:
256,192,191827,1,0,0:0:0:0:
256,192,192133,1,0,0:0:0:0:
256,192,192286,1,4,0:0:0:0:
256,192,192592,1,0,0:0:0:0:
256,192,192898,1,8,0:0:0:0:
256,192,193051,1,0,0:0:0:0:
256,192,193204,1,8,0:0:0:0:
256,192,193510,5,4,0:0:0:0:
256,192,193817,1,8,0:0:0:0:
256,192,193970,1,0,0:0:0:0:
256,192,194123,1,0,0:0:0:0:
256,192,194276,1,8,0:0:0:0:
256,192,194429,1,0,0:0:0:0:
256,192,194582,1,12,0:0:0:0:
256,192,194888,1,12,0:0:0:0:
256,192,195194,1,12,0:0:0:0:
256,192,195500,1,12,0:0:0:0:
256,192,195806,1,4,0:0:0:0:
256,192,195959,12,0,200857,0:0:0:0:
