osu file format v14

[General]
AudioFilename: audio.mp3
AudioLeadIn: 0
PreviewTime: 109041
Countdown: 1
SampleSet: Normal
StackLeniency: 0.2
Mode: 0
LetterboxInBreaks: 0
WidescreenStoryboard: 0

[Editor]
DistanceSpacing: 1
BeatDivisor: 4
GridSize: 4
TimelineZoom: 3.999998

[Metadata]
Title:Violence Trigger
TitleUnicode:バイオレンストリガー
Artist:Hachioji-P feat. Hatsune Miku
ArtistUnicode:八王子P feat. 初音ミク
Creator:Leycia
Version:Megumegu
Source:#COMPASS
Tags:Megumegu, Compass, Hachioji-P, Hatsune Miku, Vocaloid
BeatmapID:1929164
BeatmapSetID:923776

[Difficulty]
HPDrainRate:5
CircleSize:3.8
OverallDifficulty:8.6
ApproachRate:9.4
SliderMultiplier:1.4
SliderTickRate:1

[Events]
//Background and Video events
0,0,"dcd4e7751f70a4cb63454630b35dd291069151e8.jpg",0,0
//Break Periods
2,40669,43603
2,128832,132990
//Storyboard Layer 0 (Background)
//Storyboard Layer 1 (Fail)
//Storyboard Layer 2 (Pass)
//Storyboard Layer 3 (Foreground)
//Storyboard Sound Samples

[TimingPoints]
1286,306.122448979592,4,1,0,100,1,0
1286,-66.6666666666667,4,1,0,100,0,0
1898,-100,4,1,0,100,0,0
3428,-66.6666666666667,4,1,0,100,0,0
4347,-100,4,1,0,100,0,0
5724,-66.6666666666667,4,1,0,100,0,0
6183,-133.333333333333,4,1,0,100,0,0
7408,-100,4,1,0,100,0,0
8632,-66.6666666666667,4,1,0,100,0,0
11081,-50,4,1,0,100,0,1
11234,-50,4,1,0,5,0,1
11388,-50,4,1,0,100,0,1
15826,-50,4,1,0,5,0,1
15979,-50,4,1,0,100,0,1
16132,-50,4,1,0,5,0,1
16286,-50,4,1,0,100,0,1
18734,-100,4,1,0,100,0,1
20877,-100,4,1,0,100,0,0
45367,-133.333333333333,4,1,0,100,0,0
46286,-100,4,1,0,100,0,0
47510,-66.6666666666667,4,1,0,100,0,0
50265,-100,4,1,0,100,0,1
54398,-66.6666666666667,4,1,0,100,0,1
55163,-100,4,1,0,100,0,1
69857,-50,4,1,0,100,0,1
77510,-100,4,1,0,100,0,1
79500,-133.333333333333,4,1,0,100,0,0
81796,-66.6666666666667,4,1,0,100,0,0
82255,-133.333333333333,4,1,0,100,0,0
84245,-66.6666666666667,4,1,0,100,0,0
84857,-133.333333333333,4,1,0,100,0,0
86694,-25,4,1,0,100,0,0
88990,-100,4,1,0,5,0,0
89143,-100,4,1,0,100,0,0
104143,-133.333333333333,4,1,0,100,0,0
105061,-100,4,1,0,100,0,0
106286,-66.6666666666667,4,1,0,100,0,0
108888,-66.6666666666667,4,1,0,5,0,0
109041,-100,4,1,0,100,0,1
123734,-66.6666666666667,4,1,0,100,0,1
127408,-100,4,1,0,100,0,0
138275,-100,4,1,0,5,0,0
138428,-200,4,1,0,100,0,0
139653,-133.333333333333,4,1,0,100,0,0
140877,-100,4,1,0,100,0,0
141490,-66.6666666666667,4,1,0,100,0,0
142408,-57.1428571428571,4,1,0,100,0,0
145775,-50,4,1,0,100,0,0
147000,-100,4,1,0,100,0,0
148224,-100,4,1,0,5,0,0
149449,-100,4,1,0,100,0,1
153581,-66.6666666666667,4,1,0,100,0,1
163377,-50,4,1,0,100,0,1
164143,-66.6666666666667,4,1,0,100,0,1
182357,-100,4,1,0,100,0,1
186183,-66.6666666666667,4,1,0,100,0,0
191081,-50,4,1,0,100,0,0
193530,-66.6666666666667,4,1,0,100,0,0
194984,-66.6666666666667,4,1,0,5,0,0
195214,-50,4,1,0,100,0,0
195291,-50,4,1,0,5,0,0
195520,-40,4,1,0,100,0,0
195597,-40,4,1,0,5,0,0
195826,-263.157894736842,4,1,0,100,0,0
200877,-263.157894736842,4,1,0,5,0,0

[HitObjects]
105,59,1286,6,4,P|80:144|145:359,1,315.000012016297,4|0,0:0|0:0,0:0:0:0:
261,288,2051,2,2,L|289:363,2,70,2|2|2,0:0|0:0|0:0,0:0:0:0:
236,223,2510,1,8,0:0:0:0:
224,189,2586,1,0,0:0:0:0:
220,155,2663,1,8,0:0:0:0:
224,120,2739,1,0,0:0:0:0:
235,87,2816,1,8,0:0:0:0:
254,57,2892,1,0,0:0:0:0:
278,32,2969,1,0,0:0:0:0:
358,41,3122,6,0,L|366:124,1,70,0|0,0:0|0:0,0:0:0:0:
414,159,3428,2,2,L|420:201,5,26.2500010013581,2|2|2|2|2|2,0:0|0:0|0:0|0:0|0:0|0:0,0:0:0:0:
459,240,3734,6,4,P|431:336|241:341,1,315.000012016297,4|0,0:0|0:0,0:0:0:0:
100,319,4500,2,2,L|25:350,2,70,2|2|2,0:0|0:0|0:0,0:0:0:0:
165,293,4959,1,8,0:0:0:0:
187,266,5035,1,0,0:0:0:0:
204,235,5112,1,8,0:0:0:0:
215,202,5188,1,0,0:0:0:0:
220,168,5265,1,8,0:0:0:0:
217,133,5341,1,0,0:0:0:0:
208,99,5418,1,0,0:0:0:0:
418,110,5724,2,2,L|422:149,11,26.2500010013581,2|2|2|2|2|2|2|2|2|2|2|2,0:0|0:0|0:0|0:0|0:0|0:0|0:0|0:0|0:0|0:0|0:0|0:0,0:0:0:0:
422,162,6183,5,12,0:0:0:0:
423,188,6259,1,8,0:0:0:0:
419,213,6336,1,8,0:0:0:0:
409,238,6412,1,8,0:0:0:0:
394,259,6489,1,8,0:0:0:0:
374,277,6565,1,8,0:0:0:0:
352,290,6642,1,8,0:0:0:0:
326,297,6718,1,8,0:0:0:0:
300,299,6795,5,8,0:0:0:0:
274,295,6871,1,8,0:0:0:0:
250,285,6948,1,8,0:0:0:0:
229,270,7024,1,8,0:0:0:0:
211,250,7101,1,8,0:0:0:0:
198,228,7177,1,8,0:0:0:0:
190,203,7254,1,8,0:0:0:0:
189,176,7330,1,8,0:0:0:0:
198,151,7408,5,8,0:0:0:0:
227,169,7484,1,8,0:0:0:0:
250,195,7561,1,8,0:0:0:0:
263,227,7637,1,8,0:0:0:0:
266,262,7714,1,8,0:0:0:0:
258,296,7790,1,8,0:0:0:0:
239,325,7867,1,8,0:0:0:0:
213,348,7943,1,8,0:0:0:0:
180,361,8020,1,8,0:0:0:0:
145,363,8096,5,8,0:0:0:0:
112,354,8173,1,8,0:0:0:0:
82,335,8249,1,8,0:0:0:0:
60,308,8326,1,8,0:0:0:0:
48,276,8402,1,8,0:0:0:0:
46,241,8479,1,8,0:0:0:0:
55,207,8555,1,8,0:0:0:0:
82,184,8632,5,8,0:0:0:0:
115,223,8708,1,8,0:0:0:0:
158,254,8785,1,8,0:0:0:0:
207,272,8861,1,8,0:0:0:0:
259,278,8938,1,8,0:0:0:0:
311,270,9014,1,8,0:0:0:0:
359,250,9091,1,8,0:0:0:0:
401,218,9167,1,8,0:0:0:0:
435,177,9245,5,8,0:0:0:0:
403,135,9321,1,8,0:0:0:0:
364,99,9398,1,8,0:0:0:0:
320,71,9474,1,8,0:0:0:0:
272,50,9551,1,8,0:0:0:0:
221,38,9627,1,8,0:0:0:0:
168,42,9704,2,8,P|109:101|92:140,1,105.000004005432,12|0,0:0|0:0,0:0:0:0:
99,119,10010,5,4,0:0:0:0:
99,119,10316,1,4,0:0:0:0:
99,119,10469,2,2,L|201:144,2,105.000004005432,2|2|2,0:0|0:0|0:0,0:0:0:0:
90,42,11081,6,4,L|66:194,1,140,4|4,0:0|0:0,0:0:0:0:
126,304,11388,2,0,L|196:234,1,70,10|2,0:3|0:0,0:0:0:0:
301,129,11541,2,0,L|371:59,1,70,2|0,0:0|0:0,0:0:0:0:
138,188,11694,6,0,L|236:179,1,70,10|0,0:0|0:0,0:0:0:0:
384,165,11847,2,0,L|482:156,1,70,2|0,0:0|0:0,0:0:0:0:
471,227,12000,2,0,P|405:308|349:328,1,140,2|0,0:0|0:0,0:0:0:0:
297,302,12306,6,0,L|298:226,1,70,10|0,0:3|0:0,0:0:0:0:
134,35,12459,2,0,L|134:130,1,70,2|0,0:0|0:0,0:0:0:0:
231,302,12612,6,0,L|232:226,1,70,2|0,0:0|0:0,0:0:0:0:
68,35,12765,2,0,L|68:130,1,70,2|0,0:0|0:0,0:0:0:0:
67,179,12918,2,0,P|167:173|231:137,1,140,10|0,0:0|0:0,0:0:0:0:
445,42,13224,2,0,P|375:40|309:63,1,140,2|0,0:0|0:0,0:0:0:0:
384,148,13530,6,0,L|447:285,1,140,6|0,0:0|0:0,0:0:0:0:
283,337,13837,2,0,P|222:326|214:318,1,70,10|0,0:3|0:0,0:0:0:0:
100,212,13990,2,0,P|137:260|148:263,1,70,2|0,0:0|0:0,0:0:0:0:
328,272,14143,6,0,P|267:261|259:253,1,70,10|0,0:0|0:0,0:0:0:0:
146,148,14296,2,0,P|183:196|194:199,1,70,2|0,0:0|0:0,0:0:0:0:
338,202,14449,6,0,P|249:159|212:123,1,140,2|0,0:0|0:0,0:0:0:0:
213,33,14755,6,0,L|145:70,1,70,10|0,0:3|0:0,0:0:0:0:
341,47,14908,2,0,L|268:91,1,70,2|0,0:0|0:0,0:0:0:0:
442,122,15061,6,0,L|467:56,1,70,2|0,0:0|0:0,0:0:0:0:
421,219,15214,2,0,L|387:280,1,70,2|0,0:0|0:0,0:0:0:0:
294,333,15367,2,0,P|128:313|250:175,1,420,10|0,0:0|0:0,0:0:0:0:
380,202,15979,6,0,P|290:269|259:278,1,140,4|0,0:0|0:0,0:0:0:0:
61,214,16286,2,0,L|66:133,1,70,10|0,0:3|0:0,0:0:0:0:
56,296,16439,2,0,L|29:368,1,70,2|0,0:0|0:0,0:0:0:0:
151,180,16592,6,2,L|156:99,1,70,10|2,0:0|0:0,0:0:0:0:
146,262,16745,2,2,L|119:334,1,70,2|2,0:0|0:0,0:0:0:0:
233,159,16898,6,0,P|264:57|292:28,1,140,2|0,0:0|0:0,0:0:0:0:
411,42,17204,6,0,L|468:106,1,70,10|0,0:3|0:0,0:0:0:0:
366,105,17357,2,0,L|326:166,1,70,2|0,0:0|0:0,0:0:0:0:
425,156,17510,2,0,L|466:212,1,70,2|0,0:0|0:0,0:0:0:0:
377,217,17663,2,0,L|335:273,1,70,2|0,0:0|0:0,0:0:0:0:
236,323,17816,6,0,B|164:238|164:238|172:192,1,140,10|0,0:0|0:0,0:0:0:0:
209,75,18122,2,0,B|281:160|281:160|273:206,1,140,2|0,0:0|0:0,0:0:0:0:
383,250,18428,5,4,0:0:0:0:
411,59,18581,1,0,0:0:0:0:
209,75,18734,1,8,0:0:0:0:
191,105,18810,1,0,0:0:0:0:
179,138,18887,1,8,0:0:0:0:
174,172,18963,1,0,0:0:0:0:
176,207,19040,1,0,0:0:0:0:
185,241,19116,1,0,0:0:0:0:
202,272,19194,2,8,P|236:308|280:321,1,70,8|8,0:0|0:0,0:0:0:0:
256,192,19500,12,4,20571,0:0:0:0:
136,93,20877,6,2,L|102:171,1,70,6|2,0:0|0:0,0:0:0:0:
119,266,21183,1,10,0:0:0:0:
142,292,21259,1,2,0:0:0:0:
171,310,21336,1,2,0:0:0:0:
204,321,21412,1,2,0:0:0:0:
239,322,21489,1,2,0:0:0:0:
354,306,21643,2,2,L|353:232,1,70,2|10,0:0|0:0,0:0:0:0:
250,34,21949,6,0,P|209:71|205:113,1,70,2|0,0:0|0:0,0:0:0:0:
235,179,22255,2,0,P|287:196|325:178,1,70,2|8,0:0|0:0,0:0:0:0:
359,121,22561,2,0,P|347:66|313:42,1,70,2|0,0:0|0:0,0:0:0:0:
119,119,22867,6,0,L|64:161,2,70,2|10|2,0:0|0:0|0:0,0:0:0:0:
216,48,23326,1,2,0:0:0:0:
249,109,23479,1,2,0:0:0:0:
282,171,23632,2,2,L|322:243,1,70,10|2,0:0|0:0,0:0:0:0:
389,289,23939,6,2,P|426:239|434:217,1,70
425,108,24245,2,0,P|398:123|347:112,1,70,8|2,0:0|0:0,0:0:0:0:
287,56,24551,2,2,P|241:50|209:61,1,70
113,86,24857,1,10,0:0:0:0:
115,120,24933,1,2,0:0:0:0:
122,155,25010,1,2,0:0:0:0:
131,189,25086,1,2,0:0:0:0:
143,221,25163,1,2,0:0:0:0:
214,325,25316,5,2,0:0:0:0:
281,71,25469,1,10,0:0:0:0:
346,316,25622,1,10,0:0:0:0:
212,173,25775,6,0,P|262:161|309:158,1,70,6|0,0:0|0:0,0:0:0:0:
375,148,26081,2,0,P|375:106|366:71,1,70,10|0,0:0|0:0,0:0:0:0:
239,44,26388,1,2,0:0:0:0:
239,44,26541,2,0,P|194:60|164:75,1,70,2|8,0:0|0:0,0:0:0:0:
75,117,26847,5,2,0:0:0:0:
263,277,27000,1,2,0:0:0:0:
58,177,27153,5,2,0:0:0:0:
301,221,27306,1,10,0:0:0:0:
55,248,27459,6,2,P|71:295|106:323,1,70
182,332,27765,2,2,L|191:365,2,35,0|0|8,0:0|0:0|0:0,0:0:0:0:
307,348,28071,1,2,0:0:0:0:
414,264,28224,5,6,0:0:0:0:
428,232,28300,1,2,0:0:0:0:
435,198,28377,1,2,0:0:0:0:
432,163,28453,1,2,0:0:0:0:
421,130,28530,1,10,0:0:0:0:
403,100,28606,1,2,0:0:0:0:
377,76,28683,1,2,0:0:0:0:
347,59,28759,1,0,0:0:0:0:
314,45,28837,5,10,0:0:0:0:
294,74,28913,1,2,0:0:0:0:
271,100,28990,1,2,0:0:0:0:
244,122,29066,1,2,0:0:0:0:
214,140,29143,1,8,0:0:0:0:
182,154,29219,1,2,0:0:0:0:
148,162,29296,2,0,B|101:176|111:310|111:310|205:263|315:332|315:332|315:250|340:202,1,490,14|8,0:0|0:0,0:0:0:0:
360,145,30520,5,2,0:0:0:0:
244,34,30673,1,6,0:0:0:0:
224,161,30826,2,2,P|232:202|258:230,1,70,0|8,0:0|0:0,0:0:0:0:
432,238,31132,2,0,P|416:269|386:286,1,70,2|0,0:0|0:0,0:0:0:0:
295,325,31439,2,0,P|254:333|221:327,1,70,2|8,0:0|0:0,0:0:0:0:
86,308,31745,6,2,P|65:258|66:219,2,70
147,246,32204,2,2,P|145:211|132:178,2,70,10|2|2,0:0|0:0|0:0,0:0:0:0:
211,298,32663,5,2,0:0:0:0:
234,271,32739,1,2,0:0:0:0:
254,243,32816,1,10,0:0:0:0:
271,213,32892,1,2,0:0:0:0:
286,181,32969,1,2,0:0:0:0:
320,47,33122,6,0,P|259:43|231:49,1,70,6|0,0:0|0:0,0:0:0:0:
202,109,33428,2,0,P|263:113|291:107,1,70,10|0,0:0|0:0,0:0:0:0:
427,112,33734,2,2,P|446:157|454:192,1,70
375,188,34041,2,2,P|384:221|399:253,1,70,10|2,0:0|0:0,0:0:0:0:
341,337,34347,5,2,0:0:0:0:
158,124,34500,1,2,0:0:0:0:
206,299,34653,5,10,0:0:0:0:
295,73,34806,2,0,P|347:61|371:63,1,70,2|0,0:0|0:0,0:0:0:0:
281,183,35112,1,2,0:0:0:0:
281,183,35265,2,2,P|226:206|197:214,1,70,10|2,0:0|0:0,0:0:0:0:
49,231,35571,6,0,P|51:271|75:314,1,70,6|0,0:0|0:0,0:0:0:0:
175,336,35877,1,10,0:0:0:0:
261,254,36030,1,0,0:0:0:0:
326,353,36183,1,2,0:0:0:0:
406,264,36337,1,0,0:0:0:0:
419,172,36490,2,2,P|418:108|416:71,1,70,10|2,0:0|0:0,0:0:0:0:
332,32,36796,5,2,0:0:0:0:
127,67,36949,1,2,0:0:0:0:
344,93,37102,1,10,0:0:0:0:
138,152,37255,2,0,P|107:191|96:213,1,70,2|0,0:0|0:0,0:0:0:0:
137,333,37561,5,2,0:0:0:0:
164,311,37638,1,2,0:0:0:0:
189,334,37714,1,10,0:0:0:0:
214,309,37791,1,2,0:0:0:0:
241,331,37868,1,2,0:0:0:0:
266,308,37944,1,2,0:0:0:0:
294,327,38020,5,6,0:0:0:0:
431,145,38173,1,2,0:0:0:0:
410,271,38326,5,10,0:0:0:0:
346,54,38479,1,2,0:0:0:0:
431,145,38632,5,2,0:0:0:0:
229,44,38786,1,2,0:0:0:0:
78,142,38939,2,0,P|74:171|78:225,1,70,10|2,0:0|0:0,0:0:0:0:
127,309,39245,6,2,P|175:282|201:245,1,70
268,143,39551,1,10,0:0:0:0:
406,85,39704,5,10,0:0:0:0:
385,112,39780,1,2,0:0:0:0:
377,146,39857,1,10,0:0:0:0:
380,181,39933,1,2,0:0:0:0:
386,216,40010,1,10,0:0:0:0:
392,250,40086,1,2,0:0:0:0:
391,285,40163,2,2,P|362:329|271:330,1,140,10|6,0:0|0:0,0:0:0:0:
256,192,44143,12,0,45214,0:0:0:0:
74,294,45367,5,6,3:0:0:0:
97,305,45443,1,2,3:0:0:0:
122,314,45520,1,2,3:0:0:0:
147,322,45596,1,2,3:0:0:0:
172,327,45673,1,2,3:0:0:0:
198,330,45749,1,2,3:0:0:0:
225,331,45826,1,2,3:0:0:0:
251,330,45902,1,2,3:0:0:0:
277,327,45979,1,2,3:0:0:0:
303,322,46055,1,2,3:0:0:0:
328,314,46132,1,2,3:0:0:0:
352,305,46208,1,2,3:0:0:0:
377,294,46286,2,0,P|405:262|426:227,1,70,2|0,3:0|3:0,3:0:0:0:
434,108,46592,5,6,3:0:0:0:
407,85,46668,1,2,3:0:0:0:
377,67,46745,1,2,3:0:0:0:
345,52,46821,1,2,3:0:0:0:
312,42,46898,1,2,3:0:0:0:
277,37,46974,1,2,3:0:0:0:
242,37,47051,1,2,3:0:0:0:
207,41,47127,1,2,3:0:0:0:
174,50,47204,1,2,3:0:0:0:
141,63,47280,1,2,3:0:0:0:
111,81,47357,1,2,3:0:0:0:
84,103,47433,1,2,3:0:0:0:
59,128,47510,2,0,P|44:175|41:242,1,105.000004005432,2|0,3:0|3:0,3:0:0:0:
65,323,47816,5,6,3:0:0:0:
117,324,47892,1,2,3:0:0:0:
169,321,47969,1,2,3:0:0:0:
221,313,48045,1,2,3:0:0:0:
271,298,48122,1,2,3:0:0:0:
318,275,48198,1,2,3:0:0:0:
357,252,48275,5,10,3:0:0:0:
340,202,48351,1,2,3:0:0:0:
343,150,48428,1,10,3:0:0:0:
366,103,48504,1,2,3:0:0:0:
404,67,48581,1,2,3:0:0:0:
452,48,48657,1,2,3:0:0:0:
477,95,48734,1,10,3:0:0:0:
478,147,48810,1,2,3:0:0:0:
460,195,48887,1,10,3:0:0:0:
460,195,49194,5,8,0:0:0:0:
460,195,49500,1,0,0:0:0:0:
460,195,49653,2,2,L|435:296,2,105.000004005432,2|2|6,0:0|0:0|0:0,0:0:0:0:
160,73,50265,5,6,0:0:0:0:
219,288,50418,1,2,0:0:0:0:
304,133,50571,1,10,0:0:0:0:
100,214,50724,1,2,0:0:0:0:
331,240,50877,2,2,P|391:223|407:216,2,70,2|2|10,0:0|0:0|0:0,0:0:0:0:
306,102,51337,6,0,L|328:24,1,70,2|0,0:0|0:0,0:0:0:0:
108,91,51643,2,0,L|130:13,1,70,2|8,0:0|0:0,0:0:0:0:
210,165,51949,6,0,L|229:232,1,70,2|0,0:0|0:0,0:0:0:0:
40,185,52255,2,0,L|59:252,1,70,2|8,0:0|0:0,0:0:0:0:
125,341,52561,5,2,0:0:0:0:
305,215,52714,1,14,0:0:0:0:
288,351,52867,1,2,0:0:0:0:
162,204,53020,5,14,0:0:0:0:
403,326,53173,1,2,0:0:0:0:
332,138,53326,1,14,0:0:0:0:
261,263,53479,5,2,0:0:0:0:
459,50,53632,1,14,0:0:0:0:
228,51,53786,1,14,0:0:0:0:
197,67,53862,1,2,0:0:0:0:
170,89,53939,1,2,0:0:0:0:
148,116,54015,1,2,0:0:0:0:
131,147,54092,2,2,P|114:192|106:230,1,70,2|2,0:0|0:0,0:0:0:0:
186,346,54398,5,14,0:0:0:0:
237,334,54474,1,2,0:0:0:0:
283,310,54551,1,2,0:0:0:0:
322,275,54627,1,2,0:0:0:0:
350,231,54704,2,2,P|377:170|382:122,2,105.000004005432,2|2|0,0:0|0:0|0:0,0:0:0:0:
283,310,55163,5,6,0:0:0:0:
194,83,55316,1,2,0:0:0:0:
172,308,55469,5,10,0:0:0:0:
331,81,55622,1,2,0:0:0:0:
441,267,55775,2,10,L|436:345,1,70
446,88,56234,6,0,L|443:33,1,35,14|0,0:0|0:0,0:0:0:0:
254,130,56541,2,0,L|254:43,1,70,14|0,0:0|0:0,0:0:0:0:
82,44,56846,1,14,0:0:0:0:
254,130,56999,1,2,0:0:0:0:
176,278,57152,1,2,0:0:0:0:
362,235,57305,1,10,0:0:0:0:
260,332,57459,5,0,0:0:0:0:
335,70,57612,1,14,0:0:0:0:
446,332,57765,5,0,0:0:0:0:
155,103,57918,1,14,0:0:0:0:
170,278,58071,5,0,0:0:0:0:
439,140,58224,1,14,0:0:0:0:
206,30,58377,1,2,0:0:0:0:
171,29,58453,1,2,0:0:0:0:
136,36,58530,1,10,0:0:0:0:
105,51,58606,1,2,0:0:0:0:
78,73,58683,2,2,P|54:132|49:153,2,70,2|10|2,0:0|0:0|0:0,0:0:0:0:
206,30,59143,6,0,L|284:40,1,70,14|0,0:0|0:0,0:0:0:0:
399,118,59449,2,0,L|321:108,1,70,14|0,0:0|0:0,0:0:0:0:
174,165,59755,1,12,0:0:0:0:
208,170,59831,1,8,0:0:0:0:
243,175,59908,1,8,0:0:0:0:
277,180,59984,1,8,0:0:0:0:
312,185,60061,5,14,0:0:0:0:
450,308,60214,1,2,0:0:0:0:
312,185,60367,5,10,0:0:0:0:
399,347,60520,1,2,0:0:0:0:
312,185,60673,5,10,0:0:0:0:
338,366,60826,1,2,0:0:0:0:
312,185,60979,5,10,0:0:0:0:
274,363,61132,1,2,0:0:0:0:
145,271,61286,6,2,P|117:216|116:187,1,70,10|2,0:0|0:0,0:0:0:0:
125,68,61592,1,10,0:0:0:0:
319,63,61745,1,10,0:0:0:0:
351,76,61821,1,2,0:0:0:0:
383,90,61898,1,2,0:0:0:0:
415,104,61974,1,2,0:0:0:0:
390,113,62051,1,10,0:0:0:0:
356,121,62127,1,2,0:0:0:0:
322,129,62204,2,2,L|245:149,1,70
289,227,62510,5,14,0:0:0:0:
101,125,62663,1,2,0:0:0:0:
243,284,62816,5,10,0:0:0:0:
101,125,62969,1,2,0:0:0:0:
181,323,63122,5,10,0:0:0:0:
101,125,63275,1,2,0:0:0:0:
109,339,63428,5,10,0:0:0:0:
101,125,63581,1,2,0:0:0:0:
36,329,63734,5,10,0:0:0:0:
274,183,63888,1,10,0:0:0:0:
75,179,64041,1,10,0:0:0:0:
328,315,64194,1,10,0:0:0:0:
352,289,64270,1,2,0:0:0:0:
370,259,64347,1,2,0:0:0:0:
381,226,64423,1,2,0:0:0:0:
384,191,64500,1,2,0:0:0:0:
380,157,64576,1,2,0:0:0:0:
369,124,64653,2,2,P|345:93|308:78,1,70,10|2,0:0|0:0,0:0:0:0:
94,113,64959,5,6,0:0:0:0:
165,284,65112,1,2,0:0:0:0:
303,172,65265,2,2,P|287:117|274:100,1,70,10|2,0:0|0:0,0:0:0:0:
70,222,65571,5,2,0:0:0:0:
251,262,65724,1,2,0:0:0:0:
192,83,65877,1,10,0:0:0:0:
70,222,66030,1,14,0:0:0:0:
76,256,66106,1,2,0:0:0:0:
92,287,66183,1,2,0:0:0:0:
117,311,66259,1,2,0:0:0:0:
149,327,66337,2,2,P|187:345|219:351,1,70,10|2,0:0|0:0,0:0:0:0:
304,351,66643,5,2,0:0:0:0:
366,113,66796,1,6,0:0:0:0:
452,272,66949,2,2,L|450:347,1,70,2|10,0:0|0:0,0:0:0:0:
349,211,67255,5,2,0:0:0:0:
126,77,67408,1,14,0:0:0:0:
165,322,67561,1,2,0:0:0:0:
257,211,67714,5,14,0:0:0:0:
277,182,67791,1,2,0:0:0:0:
296,150,67867,1,2,0:0:0:0:
316,121,67944,1,2,0:0:0:0:
333,91,68020,1,14,0:0:0:0:
425,63,68173,5,2,0:0:0:0:
315,251,68326,1,14,0:0:0:0:
124,169,68479,2,2,P|123:104|167:215,1,490,10|6,0:0|0:0,0:0:0:0:
57,275,69857,6,0,P|124:320|198:328,1,140,4|0,0:0|0:0,0:0:0:0:
391,297,70163,2,0,L|444:353,1,70,10|0,0:3|0:0,0:0:0:0:
376,174,70316,2,0,L|416:97,1,70,2|0,0:0|0:0,0:0:0:0:
279,295,70469,6,0,L|332:351,1,70,10|0,0:0|0:0,0:0:0:0:
264,172,70622,2,0,L|304:95,1,70,2|0,0:0|0:0,0:0:0:0:
181,329,70775,2,0,P|143:246|131:170,1,140,2|0,0:0|0:0,0:0:0:0:
135,65,71081,6,0,B|147:104|147:104|136:131,1,70,10|0,0:3|0:0,0:0:0:0:
294,33,71234,2,0,B|333:45|333:45|360:34,1,70,2|0,0:0|0:0,0:0:0:0:
133,199,71388,6,0,B|145:238|145:238|134:265,1,70,2|0,0:0|0:0,0:0:0:0:
303,165,71541,2,0,B|342:177|342:177|369:166,1,70,2|0,0:0|0:0,0:0:0:0:
450,288,71694,2,0,P|359:343|311:348,1,140,10|0,0:0|0:0,0:0:0:0:
62,288,72000,2,0,P|153:343|201:348,1,140,2|0,0:0|0:0,0:0:0:0:
279,295,72306,6,0,B|291:227|289:143,1,140,6|0,0:0|0:0,0:0:0:0:
46,46,72612,2,0,L|139:46,1,70,10|0,0:3|0:0,0:0:0:0:
72,96,72765,2,0,L|165:96,1,70,2|0,0:0|0:0,0:0:0:0:
359,155,72918,6,0,L|266:155,1,70,10|0,0:0|0:0,0:0:0:0:
333,205,73071,2,0,L|240:205,1,70,2|0,0:0|0:0,0:0:0:0:
66,235,73224,2,0,L|72:82,1,140,2|0,0:0|0:0,0:0:0:0:
297,97,73530,6,0,B|303:58|303:58|293:13,1,70,10|0,0:3|0:0,0:0:0:0:
392,188,73683,2,0,B|430:194|430:194|475:184,1,70,2|0,0:0|0:0,0:0:0:0:
291,276,73837,2,0,B|284:314|284:314|294:359,1,70,2|0,0:0|0:0,0:0:0:0:
189,190,73990,2,0,B|150:183|150:183|105:193,1,70,2|0,0:0|0:0,0:0:0:0:
54,67,74143,2,0,B|32:135|32:135|32:203|32:203|72:252|72:252|134:280|134:280|209:271,1,280,10|0,0:0|0:0,0:0:0:0:
348,201,74755,6,0,P|333:282|340:352,1,140,4|0,0:0|0:0,0:0:0:0:
289,101,75061,6,0,L|289:27,1,70,12|0,0:3|0:0,0:0:0:0:
243,213,75214,2,0,L|243:294,1,70
183,97,75367,2,0,L|183:23,1,70,8|0,0:0|0:0,0:0:0:0:
137,209,75520,2,0,L|137:290,1,70
66,94,75673,2,0,L|66:4,2,70
137,209,75979,6,0,L|137:290,1,70,8|0,0:3|0:0,0:0:0:0:
183,97,76132,2,0,L|183:23,1,70,0|0,0:0|0:0,0:0:0:0:
243,213,76286,2,0,L|243:294,1,70
289,101,76439,2,0,L|289:27,1,70,0|0,0:0|0:0,0:0:0:0:
356,213,76592,2,0,L|356:362,1,140,8|0,0:0|0:0,0:0:0:0:
461,188,76898,2,0,L|461:48,1,140,8|0,0:0|0:0,0:0:0:0:
331,44,77204,5,4,0:0:0:0:
171,154,77357,1,0,0:0:0:0:
342,282,77510,1,8,0:0:0:0:
366,257,77586,1,8,0:0:0:0:
386,228,77663,1,8,0:0:0:0:
401,196,77739,1,8,0:0:0:0:
409,162,77816,1,8,0:0:0:0:
411,128,77892,1,8,0:0:0:0:
406,93,77969,2,8,P|383:59|341:42,1,70,8|8,0:0|0:0,0:0:0:0:
256,192,78275,12,4,79347,0:0:0:0:
120,121,79653,6,0,L|108:192,1,52.5000020027161,6|0,2:0|2:0,2:0:0:0:
111,225,79959,1,0,2:0:0:0:
126,275,80112,1,0,2:0:0:0:
162,312,80265,1,8,2:0:0:0:
213,323,80418,1,0,2:0:0:0:
264,315,80571,1,0,2:0:0:0:
307,285,80724,1,0,2:0:0:0:
362,235,80877,5,0,2:0:0:0:
227,116,81030,1,0,2:0:0:0:
406,175,81183,5,0,2:0:0:0:
191,172,81337,2,0,P|150:121|158:77,1,105.000004005432,8|0,2:0|2:0,2:0:0:0:
308,102,81796,6,0,P|319:172|338:157,1,105.000004005432,2|0,2:0|2:0,2:0:0:0:
299,172,82102,2,0,P|288:242|269:227,1,105.000004005432,2|0,2:0|2:0,2:0:0:0:
256,248,82408,1,0,2:0:0:0:
204,240,82561,1,0,2:0:0:0:
160,212,82714,1,8,2:0:0:0:
128,168,82867,1,0,2:0:0:0:
116,116,83020,1,0,2:0:0:0:
136,68,83173,1,0,2:0:0:0:
184,48,83326,5,0,2:0:0:0:
368,88,83479,1,0,2:0:0:0:
256,136,83632,1,0,2:0:0:0:
380,216,83786,2,0,P|404:256|376:324,1,105.000004005432,8|0,2:0|2:0,2:0:0:0:
308,102,84245,6,0,P|319:172|338:157,1,105.000004005432,2|0,2:0|2:0,2:0:0:0:
299,172,84551,2,0,P|288:242|269:227,1,105.000004005432,2|0,2:0|2:0,2:0:0:0:
256,252,84857,1,0,2:0:0:0:
204,248,85010,2,0,P|171:237|144:216,1,52.5000020027161,0|8,2:0|2:0,2:0:0:0:
120,192,85316,1,0,2:0:0:0:
104,144,85469,1,0,2:0:0:0:
128,96,85622,1,0,2:0:0:0:
168,60,85775,5,0,2:0:0:0:
264,184,85928,1,0,2:0:0:0:
372,76,86081,1,0,2:0:0:0:
464,200,86234,2,0,P|472:240|444:296,1,105.000004005432,8|0,2:0|2:0,2:0:0:0:
112,304,86694,6,0,B|108:216|108:216|184:212|120:256|120:256|216:300|72:308,1,280,14|0,2:0|2:0,2:0:0:0:
248,232,87000,6,0,B|244:144|244:144|320:140|256:184|256:184|352:228|208:236,1,280,14|0,2:0|2:0,2:0:0:0:
256,192,87229,12,0,88990,0:0:0:0:
160,124,89143,6,2,L|128:216,1,70
104,290,89449,2,0,P|145:328|181:343,1,70,6|0,0:0|0:0,0:0:0:0:
356,334,89755,1,10,0:0:0:0:
331,142,89908,2,0,P|285:135|236:138,1,70,2|0,0:0|0:0,0:0:0:0:
257,256,90214,5,2,0:0:0:0:
441,183,90367,1,10,0:0:0:0:
277,57,90520,1,2,0:0:0:0:
104,127,90673,2,2,P|78:163|67:203,1,70
100,342,90979,2,2,P|78:314|65:282,1,70,10|2,0:0|0:0,0:0:0:0:
141,235,91286,5,0,0:0:0:0:
217,343,91439,2,2,P|251:353|295:345,2,70,2|10|2,0:0|0:0|0:0,0:0:0:0:
141,235,91898,1,2,0:0:0:0:
352,101,92051,1,2,0:0:0:0:
342,273,92204,5,10,0:0:0:0:
167,122,92357,1,2,0:0:0:0:
213,295,92510,5,2,0:0:0:0:
417,162,92663,1,2,0:0:0:0:
407,334,92816,5,8,0:0:0:0:
232,183,92969,1,0,0:0:0:0:
201,362,93122,2,0,P|249:367|275:364,3,70,2|2|10|2,0:0|0:0|0:0|0:0,0:0:0:0:
328,312,93734,1,0,0:0:0:0:
368,251,93888,5,2,0:0:0:0:
368,251,94041,2,2,P|390:205|392:170,1,70,10|2,0:0|0:0,0:0:0:0:
414,36,94347,1,6,0:0:0:0:
149,88,94500,1,2,0:0:0:0:
342,114,94653,1,14,0:0:0:0:
77,166,94806,1,2,0:0:0:0:
255,202,94959,6,2,L|230:286,1,70,6|2,0:0|0:0,0:0:0:0:
235,269,95265,1,10,0:0:0:0:
193,364,95418,2,2,P|256:359|339:323,1,140
431,200,95877,1,10,0:0:0:0:
217,202,96030,2,0,P|175:181|154:162,1,70,2|0,0:0|0:0,0:0:0:0:
191,84,96337,5,2,0:0:0:0:
191,84,96490,1,10,0:0:0:0:
191,84,96643,1,2,0:0:0:0:
61,41,96796,2,0,P|43:87|43:135,1,70,2|0,0:0|0:0,0:0:0:0:
87,227,97102,1,10,0:0:0:0:
191,84,97255,2,0,L|229:151,1,70,2|0,0:0|0:0,0:0:0:0:
321,84,97561,5,2,0:0:0:0:
321,84,97714,1,10,0:0:0:0:
321,84,97867,1,2,0:0:0:0:
451,41,98020,2,4,P|469:87|469:135,1,70,0|0,0:0|0:0,0:0:0:0:
425,227,98326,1,8,0:0:0:0:
321,84,98479,5,10,0:0:0:0:
310,117,98555,1,10,0:0:0:0:
300,151,98632,1,10,0:0:0:0:
290,184,98708,1,10,0:0:0:0:
279,218,98786,2,10,L|257:297,2,70,10|2|2,0:0|0:0|0:0,0:0:0:0:
310,117,99245,5,6,0:0:0:0:
94,44,99398,1,0,0:0:0:0:
158,229,99551,1,10,0:0:0:0:
241,53,99704,1,0,0:0:0:0:
265,183,99857,5,2,0:0:0:0:
369,332,100010,1,0,0:0:0:0:
229,287,100163,1,10,0:0:0:0:
393,218,100316,1,0,0:0:0:0:
455,94,100469,6,2,P|396:69|310:58,1,140,2|10,0:0|0:0,0:0:0:0:
189,154,100928,1,2,0:0:0:0:
199,187,101004,1,2,0:0:0:0:
209,220,101081,1,2,0:0:0:0:
219,254,101157,1,2,0:0:0:0:
229,287,101234,1,2,0:0:0:0:
375,326,101388,2,0,L|365:254,1,70,8|0,0:0|0:0,0:0:0:0:
362,91,101694,6,2,L|335:172,1,70
149,292,102000,2,2,L|177:212,1,70,10|2,0:0|0:0,0:0:0:0:
398,158,102306,6,2,L|334:214,1,70
113,225,102612,2,2,L|177:169,1,70,10|2,0:0|0:0,0:0:0:0:
396,234,102918,6,2,L|312:250,1,70
115,149,103224,2,2,L|199:133,1,70,10|10,0:0|0:0,0:0:0:0:
356,298,103530,5,0,0:0:0:0:
323,286,103606,1,0,0:0:0:0:
291,274,103683,1,0,0:0:0:0:
258,262,103759,1,0,0:0:0:0:
225,247,103837,2,0,L|140:202,1,70,8|0,0:0|0:0,0:0:0:0:
37,113,104143,5,14,3:0:0:0:
56,95,104219,1,8,3:0:0:0:
79,83,104296,1,10,3:0:0:0:
105,77,104372,1,8,3:0:0:0:
131,78,104449,1,10,3:0:0:0:
156,83,104525,1,8,3:0:0:0:
181,92,104602,1,10,3:0:0:0:
206,101,104678,1,8,3:0:0:0:
230,110,104755,1,10,3:0:0:0:
256,116,104831,1,8,3:0:0:0:
282,119,104908,1,10,3:0:0:0:
308,116,104984,1,8,3:0:0:0:
334,110,105061,2,10,P|374:82|426:67,1,70,10|10,3:0|3:0,3:0:0:0:
465,141,105367,5,14,3:0:0:0:
453,174,105443,1,8,3:0:0:0:
440,206,105520,1,10,3:0:0:0:
423,237,105596,1,8,3:0:0:0:
403,266,105673,1,10,3:0:0:0:
381,292,105749,1,8,3:0:0:0:
356,317,105826,1,10,3:0:0:0:
329,339,105902,1,8,3:0:0:0:
299,357,105979,5,10,3:0:0:0:
278,329,106055,1,8,3:0:0:0:
256,303,106132,1,10,3:0:0:0:
232,277,106208,1,8,3:0:0:0:
209,250,106286,2,10,P|169:201|126:165,1,105.000004005432,10|10,3:0|3:0,3:0:0:0:
61,96,106592,5,14,3:0:0:0:
111,81,106668,1,8,3:0:0:0:
163,74,106745,1,10,3:0:0:0:
215,74,106821,1,8,3:0:0:0:
267,85,106898,1,10,3:0:0:0:
315,106,106974,1,8,3:0:0:0:
357,137,107051,1,10,3:0:0:0:
393,175,107127,1,8,3:0:0:0:
424,217,107204,1,10,3:0:0:0:
449,263,107280,1,8,3:0:0:0:
472,311,107357,5,10,3:0:0:0:
421,324,107433,1,8,3:0:0:0:
369,334,107510,1,10,3:0:0:0:
317,341,107586,1,8,3:0:0:0:
265,345,107663,1,10,3:0:0:0:
256,192,107740,12,0,108888,0:0:0:0:
134,93,109041,5,6,0:0:0:0:
198,283,109194,1,2,0:0:0:0:
259,99,109347,1,10,0:0:0:0:
328,277,109500,1,2,0:0:0:0:
401,94,109653,1,2,0:0:0:0:
401,94,109806,2,2,L|429:176,1,70,2|10,0:0|0:0,0:0:0:0:
476,293,110112,6,0,L|389:318,1,70,2|0,0:0|0:0,0:0:0:0:
319,331,110418,2,0,L|238:354,1,70,2|8,0:0|0:0,0:0:0:0:
66,271,110724,6,0,L|133:251,1,70,2|0,0:0|0:0,0:0:0:0:
290,213,111030,2,0,L|222:232,1,70,2|8,0:0|0:0,0:0:0:0:
112,338,111337,5,2,0:0:0:0:
193,102,111490,1,4,0:0:0:0:
287,288,111643,1,2,0:0:0:0:
97,218,111796,1,8,0:0:0:0:
304,163,111949,1,2,0:0:0:0:
88,61,112102,2,2,P|71:105|61:141,2,70,6|2|10,0:0|0:0|0:0,0:0:0:0:
203,31,112561,5,4,0:0:0:0:
237,35,112637,1,0,0:0:0:0:
272,40,112714,1,2,0:0:0:0:
307,44,112790,1,2,0:0:0:0:
341,49,112867,2,2,L|425:62,1,70,2|10,0:0|0:0,0:0:0:0:
474,156,113173,5,6,0:0:0:0:
439,161,113249,1,2,0:0:0:0:
404,165,113326,1,2,0:0:0:0:
369,170,113402,1,2,0:0:0:0:
335,174,113479,2,2,L|251:186,2,70,2|10|2,0:0|0:0|0:0,0:0:0:0:
439,161,113939,5,6,0:0:0:0:
278,344,114092,1,2,0:0:0:0:
200,251,114245,5,10,0:0:0:0:
443,270,114398,1,2,0:0:0:0:
341,62,114551,1,6,0:0:0:0:
341,62,114704,2,0,L|250:68,1,70,4|8,0:0|0:0,0:0:0:0:
95,79,115010,6,0,L|76:174,1,70,6|0,0:0|0:0,0:0:0:0:
164,234,115316,2,0,L|145:329,1,70,2|8,0:0|0:0,0:0:0:0:
335,313,115622,6,0,L|348:244,1,70,2|0,0:0|0:0,0:0:0:0:
254,133,115928,2,0,L|267:64,1,70,2|8,0:0|0:0,0:0:0:0:
156,68,116234,5,2,0:0:0:0:
189,305,116388,1,6,0:0:0:0:
347,217,116541,1,10,0:0:0:0:
370,191,116617,1,2,0:0:0:0:
379,157,116694,1,6,0:0:0:0:
315,52,116847,5,2,0:0:0:0:
281,44,116923,1,2,0:0:0:0:
246,47,117000,1,6,0:0:0:0:
129,142,117153,5,10,0:0:0:0:
115,173,117229,1,2,0:0:0:0:
112,208,117306,1,6,0:0:0:0:
199,333,117459,2,2,P|248:348|350:308,1,140,6|2,0:0|0:0,0:0:0:0:
376,223,117918,5,8,0:0:0:0:
315,69,118071,1,0,0:0:0:0:
267,248,118224,5,8,0:0:0:0:
228,81,118377,1,0,0:0:0:0:
160,265,118530,5,8,0:0:0:0:
143,92,118683,1,0,0:0:0:0:
63,224,118837,6,6,P|75:278|128:356,1,140,6|10,0:0|0:0,0:0:0:0:
188,190,119449,2,6,B|173:90|173:90|202:36,1,140,6|10,0:0|0:0,0:0:0:0:
298,44,119908,1,2,0:0:0:0:
482,83,120061,1,6,0:0:0:0:
290,128,120214,1,2,0:0:0:0:
474,167,120367,1,10,0:0:0:0:
287,213,120520,2,2,L|275:289,2,70,6|10|2,0:0|0:0|0:0,0:0:0:0:
290,128,120979,2,0,L|293:49,1,70,12|0,0:0|0:0,0:0:0:0:
170,41,121286,6,2,P|93:68|54:121,1,140,6|10,0:0|0:0,0:0:0:0:
158,137,121898,2,2,P|157:194|115:274,1,140,6|10,0:0|0:0,0:0:0:0:
55,356,122357,1,2,0:0:0:0:
194,356,122510,1,6,0:0:0:0:
308,276,122663,1,2,0:0:0:0:
313,136,122816,1,10,0:0:0:0:
214,44,122969,2,2,L|124:60,1,70,6|2,0:0|0:0,0:0:0:0:
298,44,123275,2,0,L|388:60,2,70,6|8|0,0:0|0:0|0:0,0:0:0:0:
322,132,123734,6,12,B|319:237|319:237|411:297,1,210.000008010865
411,185,124347,2,12,B|413:52|413:52|308:53,1,210.000008010865
218,76,124806,1,2,0:0:0:0:
143,252,124959,1,14,0:0:0:0:
138,107,125112,1,2,0:0:0:0:
247,220,125265,1,12,0:0:0:0:
336,52,125418,6,2,P|322:109|329:169,1,105.000004005432,14|2,0:0|0:0,0:0:0:0:
329,264,125724,2,0,P|389:252|442:235,2,105.000004005432,12|8|2,0:0|0:0|0:0,0:0:0:0:
177,309,126183,5,6,0:0:0:0:
70,302,126337,1,8,0:0:0:0:
74,249,126413,1,8,0:0:0:0:
78,197,126490,1,8,0:0:0:0:
87,98,126643,1,2,0:0:0:0:
220,108,126796,1,14,0:0:0:0:
271,115,126872,1,10,0:0:0:0:
323,123,126949,1,10,0:0:0:0:
375,131,127025,1,10,0:0:0:0:
427,139,127102,2,10,L|494:149,2,52.5000020027161,10|10|10,0:0|0:0|0:0,0:0:0:0:
296,201,127408,6,0,P|287:306|449:314,2,280,4|0|4,0:0|0:0|0:0,0:0:0:0:
256,192,133530,12,0,138275,0:0:0:0:
256,204,138428,5,4,3:0:0:0:
243,192,138505,1,0,3:0:0:0:
256,179,138581,1,0,3:0:0:0:
268,192,138658,1,0,3:0:0:0:
256,204,138734,5,0,3:0:0:0:
243,192,138811,1,0,3:0:0:0:
256,179,138888,1,0,3:0:0:0:
268,192,138964,1,0,3:0:0:0:
256,204,139041,5,0,3:0:0:0:
243,192,139117,1,0,3:0:0:0:
256,179,139194,1,0,3:0:0:0:
268,192,139270,1,0,3:0:0:0:
256,204,139347,5,0,3:0:0:0:
243,192,139423,1,0,3:0:0:0:
256,179,139500,1,0,3:0:0:0:
268,192,139576,1,0,3:0:0:0:
269,209,139653,5,0,3:0:0:0:
248,223,139729,1,0,3:0:0:0:
226,212,139806,1,0,3:0:0:0:
224,187,139882,1,0,3:0:0:0:
240,166,139959,5,0,3:0:0:0:
264,156,140035,1,0,3:0:0:0:
290,159,140112,1,0,3:0:0:0:
309,176,140188,1,0,3:0:0:0:
315,201,140265,5,0,3:0:0:0:
308,226,140341,1,0,3:0:0:0:
293,247,140418,1,0,3:0:0:0:
271,262,140494,1,0,3:0:0:0:
246,268,140571,5,0,3:0:0:0:
220,264,140647,1,0,3:0:0:0:
196,253,140724,1,0,3:0:0:0:
178,235,140800,1,0,3:0:0:0:
164,212,140877,5,0,3:0:0:0:
166,177,140953,1,0,3:0:0:0:
178,145,141030,1,0,3:0:0:0:
201,119,141106,1,0,3:0:0:0:
232,102,141183,5,0,3:0:0:0:
266,95,141259,1,0,3:0:0:0:
301,98,141336,1,0,3:0:0:0:
334,110,141412,1,0,3:0:0:0:
364,128,141490,5,0,3:0:0:0:
383,175,141566,1,0,3:0:0:0:
376,227,141643,1,0,3:0:0:0:
349,271,141719,1,0,3:0:0:0:
307,303,141796,5,0,3:0:0:0:
257,319,141872,1,0,3:0:0:0:
205,319,141949,1,0,3:0:0:0:
155,303,142025,1,0,3:0:0:0:
115,270,142102,5,0,3:0:0:0:
92,223,142178,1,0,3:0:0:0:
89,171,142255,1,0,3:0:0:0:
106,121,142331,1,0,3:0:0:0:
137,79,142408,5,0,3:0:0:0:
190,50,142484,1,0,3:0:0:0:
249,35,142561,1,0,3:0:0:0:
310,33,142637,1,0,3:0:0:0:
369,49,142714,5,0,3:0:0:0:
414,89,142790,1,0,3:0:0:0:
435,146,142867,1,0,3:0:0:0:
434,207,142943,1,0,3:0:0:0:
413,265,143020,5,0,3:0:0:0:
374,311,143096,1,0,3:0:0:0:
322,343,143173,1,0,3:0:0:0:
263,361,143249,1,0,3:0:0:0:
203,367,143326,2,0,L|58:338,1,122.500001168251,4|0,3:0|3:0,3:0:0:0:
233,65,143632,2,0,L|88:36,1,122.500001168251,4|0,3:0|3:0,3:0:0:0:
147,354,143939,6,0,L|2:325,1,122.500001168251,4|0,3:0|3:0,3:0:0:0:
177,52,144245,2,0,L|32:23,1,122.500001168251,4|0,3:0|3:0,3:0:0:0:
26,329,144551,6,0,L|171:300,1,122.500001168251,4|0,3:0|3:0,3:0:0:0:
56,76,144857,2,0,L|201:47,1,122.500001168251,4|0,3:0|3:0,3:0:0:0:
94,315,145163,6,0,L|239:286,1,122.500001168251,4|0,3:0|3:0,3:0:0:0:
124,62,145469,2,0,L|269:33,1,122.500001168251,4|0,3:0|3:0,3:0:0:0:
343,16,145775,5,4,3:0:0:0:
398,57,145851,1,0,3:0:0:0:
434,117,145928,1,0,3:0:0:0:
446,185,146004,1,0,3:0:0:0:
431,253,146081,1,0,3:0:0:0:
393,311,146157,1,0,3:0:0:0:
335,351,146234,1,0,3:0:0:0:
267,366,146310,1,0,3:0:0:0:
199,355,146387,5,0,3:0:0:0:
139,320,146463,1,0,3:0:0:0:
96,265,146540,1,0,3:0:0:0:
77,198,146616,1,0,3:0:0:0:
84,128,146693,1,0,3:0:0:0:
117,67,146769,1,0,3:0:0:0:
169,21,146846,1,4,0:0:0:0:
169,21,147153,5,4,0:0:0:0:
169,21,147459,1,4,0:0:0:0:
169,21,147765,1,4,0:0:0:0:
169,21,148071,2,0,L|205:103,1,70,4|0,0:0|0:0,0:0:0:0:
184,310,149449,5,6,0:0:0:0:
282,84,149602,1,2,0:0:0:0:
352,293,149755,1,10,0:0:0:0:
142,184,149908,1,2,0:0:0:0:
378,113,150061,2,2,L|425:179,2,70,2|2|10,0:0|0:0|0:0,0:0:0:0:
220,40,150520,6,2,P|171:29|133:44,1,70
38,106,150826,2,2,P|87:95|125:110,1,70,2|10,0:0|0:0,0:0:0:0:
83,240,151132,6,2,L|71:171,1,70,2|2,0:0|0:0,0:0:0:0:
178,297,151439,2,2,L|191:372,1,70,2|10,0:0|0:0,0:0:0:0:
299,346,151745,5,2,0:0:0:0:
363,190,151898,1,6,0:0:0:0:
434,324,152051,1,2,0:0:0:0:
313,273,152204,5,10,0:0:0:0:
466,194,152357,1,2,0:0:0:0:
297,122,152510,1,6,0:0:0:0:
411,255,152663,5,2,0:0:0:0:
386,76,152816,1,8,0:0:0:0:
215,115,152969,1,6,0:0:0:0:
215,149,153045,1,2,0:0:0:0:
215,184,153122,1,2,0:0:0:0:
215,219,153198,1,2,0:0:0:0:
215,254,153275,2,2,P|244:305|283:318,1,70,2|10,0:0|0:0,0:0:0:0:
381,229,153581,5,6,0:0:0:0:
364,179,153657,1,2,0:0:0:0:
338,134,153734,1,2,0:0:0:0:
302,96,153810,1,2,0:0:0:0:
257,66,153888,2,0,P|194:56|135:56,2,105.000004005432,2|10|0,0:0|0:0|0:0,0:0:0:0:
426,74,154347,5,6,0:0:0:0:
131,232,154500,1,2,0:0:0:0:
431,270,154653,5,10,0:0:0:0:
136,112,154806,1,2,0:0:0:0:
412,177,154959,5,6,0:0:0:0:
412,177,155112,2,2,L|287:207,1,105.000004005432,6|10,0:0|0:0,0:0:0:0:
39,221,155418,6,4,L|29:329,1,105.000004005432,4|0,0:0|0:0,0:0:0:0:
309,201,155724,2,2,L|319:93,1,105.000004005432,2|10,0:0|0:0,0:0:0:0:
142,197,156030,6,2,L|132:305,1,105.000004005432,6|2,0:0|0:0,0:0:0:0:
412,177,156337,2,2,L|422:69,1,105.000004005432,2|10,0:0|0:0,0:0:0:0:
125,49,156643,5,2,0:0:0:0:
272,299,156796,1,4,0:0:0:0:
272,299,156949,2,10,L|317:242,1,52.5000020027161
340,197,157102,5,6,0:0:0:0:
340,197,157255,2,10,L|250:186,1,52.5000020027161
219,185,157408,5,6,0:0:0:0:
219,185,157561,2,10,L|235:253,1,52.5000020027161
272,299,157714,5,4,0:0:0:0:
272,299,157867,2,2,P|399:285|474:196,1,210.000008010865,10|2,0:0|0:0,0:0:0:0:
473,146,158326,6,0,L|359:83,1,105.000004005432,8|0,0:0|0:0,0:0:0:0:
258,51,158632,2,0,L|149:68,1,105.000004005432,8|0,0:0|0:0,0:0:0:0:
36,157,158939,1,8,0:0:0:0:
44,208,159015,1,8,0:0:0:0:
67,255,159092,1,8,0:0:0:0:
102,293,159168,1,8,0:0:0:0:
148,319,159245,5,14,0:0:0:0:
350,201,159398,1,2,0:0:0:0:
190,210,159551,5,10,0:0:0:0:
350,307,159704,1,2,0:0:0:0:
375,122,159857,1,6,0:0:0:0:
375,122,160010,2,0,L|266:95,1,105.000004005432,6|8,0:0|0:0,0:0:0:0:
89,129,160316,6,0,L|83:19,1,105.000004005432,6|0,0:0|0:0,0:0:0:0:
190,210,160622,2,0,L|196:320,1,105.000004005432,2|8,0:0|0:0,0:0:0:0:
397,315,160928,6,0,L|392:211,1,105.000004005432,2|0,0:0|0:0,0:0:0:0:
285,25,161234,2,0,L|291:130,1,105.000004005432,2|8,0:0|0:0,0:0:0:0:
299,326,161541,5,2,0:0:0:0:
386,132,161694,1,6,0:0:0:0:
231,255,161847,1,2,0:0:0:0:
442,183,162000,1,14,0:0:0:0:
229,176,162153,1,2,0:0:0:0:
434,265,162306,2,2,L|324:226,2,105.000004005432,6|2|12,0:0|0:0|0:0,0:0:0:0:
442,183,162765,5,6,0:0:0:0:
412,139,162841,1,2,0:0:0:0:
372,105,162918,1,2,0:0:0:0:
326,81,162994,1,2,0:0:0:0:
275,69,163071,2,2,P|210:68|148:79,1,105.000004005432,2|10,0:0|0:0,0:0:0:0:
50,108,163377,5,6,0:0:0:0:
49,177,163453,1,2,0:0:0:0:
70,244,163530,1,2,0:0:0:0:
110,301,163606,1,2,0:0:0:0:
166,343,163683,2,2,P|247:358|315:346,2,140,2|10|2,0:0|0:0|0:0,0:0:0:0:
70,244,164143,5,6,0:0:0:0:
366,100,164296,1,2,0:0:0:0:
106,113,164449,5,10,0:0:0:0:
393,232,164602,1,2,0:0:0:0:
182,277,164755,5,6,0:0:0:0:
182,277,164908,2,2,P|193:201|208:152,1,105.000004005432,6|10,0:0|0:0,0:0:0:0:
292,43,165214,6,0,L|407:36,1,105.000004005432,6|0,0:0|0:0,0:0:0:0:
300,338,165520,2,0,L|415:331,1,105.000004005432,2|8,0:0|0:0,0:0:0:0:
220,43,165826,6,0,L|105:36,1,105.000004005432,6|0,0:0|0:0,0:0:0:0:
212,338,166132,2,0,L|97:331,1,105.000004005432,2|8,0:0|0:0,0:0:0:0:
252,192,166439,5,2,0:0:0:0:
365,60,166592,1,14,0:0:0:0:
407,89,166668,1,10,0:0:0:0:
430,135,166745,1,10,0:0:0:0:
311,319,166898,5,14,0:0:0:0:
264,341,166974,1,10,0:0:0:0:
212,338,167051,1,10,0:0:0:0:
118,176,167204,5,14,0:0:0:0:
122,124,167280,1,10,0:0:0:0:
151,80,167357,1,10,0:0:0:0:
253,193,167510,5,14,0:0:0:0:
405,175,167663,2,2,P|275:28|76:211,1,525.000020027161,6|2,0:0|0:0,0:0:0:0:
75,209,168581,1,0,0:0:0:0:
85,320,168734,5,12,0:0:0:0:
137,321,168810,1,0,0:0:0:0:
189,314,168887,1,0,0:0:0:0:
239,298,168963,1,0,0:0:0:0:
286,274,169041,5,6,0:0:0:0:
450,107,169194,1,0,0:0:0:0:
286,286,169347,5,14,0:0:0:0:
449,118,169501,1,0,0:0:0:0:
287,296,169653,5,14,0:0:0:0:
450,128,169807,1,0,0:0:0:0:
288,306,169959,5,14,0:0:0:0:
451,138,170113,1,0,0:0:0:0:
293,85,170265,2,0,P|207:78|168:82,1,105.000004005432,14|0,0:0|0:0,0:0:0:0:
93,147,170571,1,2,0:0:0:0:
123,250,170724,2,0,P|178:217|200:180,1,105.000004005432,14|0,0:0|0:0,0:0:0:0:
295,234,171030,2,2,P|324:176|323:133,2,105.000004005432
222,305,171490,5,14,0:0:0:0:
131,98,171643,1,0,0:0:0:0:
202,297,171796,5,14,0:0:0:0:
149,77,171949,1,0,0:0:0:0:
185,286,172102,5,14,0:0:0:0:
170,60,172255,1,0,0:0:0:0:
170,272,172408,5,14,0:0:0:0:
194,48,172561,1,0,0:0:0:0:
364,87,172714,5,14,0:0:0:0:
100,143,172867,1,2,0:0:0:0:
363,213,173020,1,2,0:0:0:0:
83,257,173173,2,0,L|71:323,8,52.5000020027161,14|0|0|0|0|0|0|0|0,0:0|0:0|0:0|0:0|0:0|0:0|0:0|0:0|0:0,0:0:0:0:
238,327,173939,5,14,0:0:0:0:
341,156,174092,1,2,0:0:0:0:
125,115,174245,2,2,P|134:181|169:205,1,105.000004005432,10|2,0:0|0:0,0:0:0:0:
425,230,174551,5,2,0:0:0:0:
256,259,174704,1,2,0:0:0:0:
288,90,174857,1,10,0:0:0:0:
341,299,175010,5,6,0:0:0:0:
232,167,175163,1,2,0:0:0:0:
394,111,175316,1,2,0:0:0:0:
492,224,175469,2,0,P|481:290|464:332,4,105.000004005432,8|2|2|2|10,0:0|0:0|0:0|0:0|0:0,0:0:0:0:
471,86,176234,1,2,0:0:0:0:
236,107,176388,5,14,0:0:0:0:
314,268,176541,1,2,0:0:0:0:
185,250,176694,1,14,0:0:0:0:
369,114,176847,1,2,0:0:0:0:
133,180,177000,5,14,0:0:0:0:
421,230,177153,1,2,0:0:0:0:
292,81,177306,1,14,0:0:0:0:
253,332,177459,2,2,P|330:348|464:273,1,210.000008010865,14|2,0:0|0:0,0:0:0:0:
480,188,177918,6,0,L|469:73,1,105.000004005432,8|0,0:0|0:0,0:0:0:0:
359,32,178224,2,0,L|370:147,1,105.000004005432,8|0,0:0|0:0,0:0:0:0:
382,222,178530,1,8,0:0:0:0:
338,251,178606,1,8,0:0:0:0:
288,265,178683,1,8,0:0:0:0:
236,262,178759,1,8,0:0:0:0:
187,242,178836,5,14,0:0:0:0:
81,49,178990,1,2,0:0:0:0:
41,239,179143,2,0,L|116:332,1,105.000004005432,10|0,0:0|0:0,0:0:0:0:
228,327,179449,5,6,0:0:0:0:
427,266,179602,1,2,0:0:0:0:
216,208,179755,1,10,0:0:0:0:
421,137,179908,2,0,L|438:26,1,105.000004005432,6|0,0:0|0:0,0:0:0:0:
307,119,180214,2,4,L|324:8,1,105.000004005432,6|8,0:0|0:0,0:0:0:0:
135,15,180520,5,6,0:0:0:0:
143,66,180596,1,0,0:0:0:0:
152,118,180673,1,2,0:0:0:0:
161,170,180749,1,0,0:0:0:0:
170,222,180826,1,2,0:0:0:0:
178,273,180902,1,0,0:0:0:0:
187,325,180979,2,0,P|242:360|294:355,1,105.000004005432,12|0,0:0|0:0,0:0:0:0:
436,188,181286,5,14,0:0:0:0:
436,188,181439,2,10,L|411:127,1,52.5000020027161
374,42,181592,5,14,0:0:0:0:
374,42,181745,2,10,L|290:74,1,52.5000020027161
254,96,181898,5,14,0:0:0:0:
222,293,182051,1,10,0:0:0:0:
361,236,182204,1,2,0:0:0:0:
138,157,182357,2,0,P|161:81|286:79,1,210,14|0,0:0|0:0,0:0:0:0:
372,152,183122,5,2,0:0:0:0:
359,168,183275,1,2,0:0:0:0:
344,182,183428,1,2,0:0:0:0:
330,195,183581,1,2,0:0:0:0:
256,192,183734,12,8,185877,0:0:0:0:
131,61,186183,6,0,L|108:185,1,105.000004005432,4|0,0:0|0:0,0:0:0:0:
140,340,186490,2,0,L|211:321,1,52.5000020027161,10|0,0:3|0:0,0:0:0:0:
349,225,186643,2,0,L|278:244,1,52.5000020027161,2|0,0:0|0:0,0:0:0:0:
125,290,186796,6,0,L|197:303,1,52.5000020027161,10|0,0:0|0:0,0:0:0:0:
363,274,186949,2,0,L|291:261,1,52.5000020027161,2|0,0:0|0:0,0:0:0:0:
133,239,187102,2,0,P|126:175|145:116,1,105.000004005432,2|0,0:0|0:0,0:0:0:0:
261,32,187408,6,0,L|331:61,1,52.5000020027161,10|0,0:3|0:0,0:0:0:0:
453,226,187561,2,0,L|442:151,1,52.5000020027161,2|0,0:0|0:0,0:0:0:0:
238,61,187714,6,0,L|308:90,1,52.5000020027161
430,255,187867,2,0,L|419:180,1,52.5000020027161,2|0,0:0|0:0,0:0:0:0:
367,123,188020,2,0,L|298:219,1,105.000004005432,10|0,0:0|0:0,0:0:0:0:
244,293,188326,2,0,L|305:207,1,105.000004005432,2|0,0:0|0:0,0:0:0:0:
364,129,188632,6,0,B|387:59|387:59|368:24,1,105.000004005432,4|0,0:0|0:0,0:0:0:0:
182,27,188939,2,0,L|101:48,1,52.5000020027161,10|0,0:3|0:0,0:0:0:0:
69,112,189092,2,0,L|55:189,1,52.5000020027161,2|0,0:0|0:0,0:0:0:0:
155,220,189245,6,0,L|160:167,1,52.5000020027161,10|0,0:0|0:0,0:0:0:0:
250,262,189398,2,0,L|261:328,1,52.5000020027161,2|0,0:0|0:0,0:0:0:0:
340,237,189551,2,0,L|375:97,1,105.000004005432,2|0,0:0|0:0,0:0:0:0:
375,35,189857,6,0,L|286:53,1,52.5000020027161,10|0,0:3|0:0,0:0:0:0:
190,56,190010,2,0,L|112:30,1,52.5000020027161,2|0,0:0|0:0,0:0:0:0:
365,135,190163,6,0,L|276:153,1,52.5000020027161,2|0,0:0|0:0,0:0:0:0:
180,156,190316,2,0,L|102:130,1,52.5000020027161,2|0,0:0|0:0,0:0:0:0:
26,191,190469,2,0,P|50:280|262:354,1,315.000012016297,10|0,0:0|0:0,0:0:0:0:
344,335,191081,6,0,B|386:259|386:259|382:183,1,140,4|0,0:0|0:0,0:0:0:0:
353,52,191388,2,0,L|266:57,1,70,10|0,0:3|0:0,0:0:0:0:
122,106,191541,2,0,L|214:125,1,70,2|0,0:0|0:0,0:0:0:0:
383,205,191694,2,0,L|296:210,1,70,2|0,0:0|0:0,0:0:0:0:
152,259,191847,2,0,L|244:278,1,70,2|0,0:0|0:0,0:0:0:0:
449,324,192000,2,0,L|457:152,1,140,2|0,0:0|0:0,0:0:0:0:
449,92,192306,6,0,L|387:30,1,70,10|0,0:3|0:0,0:0:0:0:
342,117,192459,2,0,L|323:43,1,70,2|0,0:0|0:0,0:0:0:0:
223,127,192612,2,0,L|250:39,1,70,2|0,0:0|0:0,0:0:0:0:
113,111,192765,2,0,L|179:41,1,70,2|0,0:0|0:0,0:0:0:0:
27,173,192918,6,0,P|41:244|86:327,1,140,10|0,0:0|0:0,0:0:0:0:
209,340,193224,2,0,P|195:269|150:186,1,140,0|2,0:0|0:0,0:0:0:0:
70,304,193530,5,4,0:0:0:0:
368,317,193683,1,0,0:0:0:0:
341,175,193837,1,8,0:0:0:0:
315,129,193913,1,0,0:0:0:0:
273,100,193990,1,0,0:0:0:0:
230,127,194066,1,0,0:0:0:0:
218,172,194143,1,0,0:0:0:0:
211,224,194219,5,0,0:0:0:0:
208,276,194296,1,8,0:0:0:0:
185,323,194372,1,0,0:0:0:0:
141,351,194449,2,0,P|56:324|26:287,1,105.000004005432,2|4,0:0|0:0,0:0:0:0:
45,251,194908,2,0,L|83:165,1,52.5000020027161,4|0,0:0|0:0,0:0:0:0:
135,131,195214,2,0,L|206:86,1,70,4|0,0:0|0:0,0:0:0:0:
305,91,195520,2,0,L|414:89,1,87.5,4|0,0:0|0:0,0:0:0:0:
256,103,195826,6,0,B|145:-46|77:130|256:354|256:354|432:100|358:-32|255:104,1,877.799989284668,4|0,0:0|0:0,0:0:0:0:
