osu file format v14

[General]
AudioFilename: audio.mp3
AudioLeadIn: 0
PreviewTime: 75989
Countdown: 0
SampleSet: Normal
StackLeniency: 0.7
Mode: 3
LetterboxInBreaks: 0
SpecialStyle: 0
WidescreenStoryboard: 0

[Editor]
DistanceSpacing: 0.9
BeatDivisor: 4
GridSize: 4
TimelineZoom: 1.2

[Metadata]
Title:Blue Star
TitleUnicode:Blue Star
Artist:Hachioji-P feat. Hatsune Miku
ArtistUnicode:八王子P feat. 初音ミク
Creator:PnX
Version:Star
Source:
Tags:
BeatmapID:1319534
BeatmapSetID:625976

[Difficulty]
HPDrainRate:8
CircleSize:4
OverallDifficulty:8
ApproachRate:5
SliderMultiplier:1.4
SliderTickRate:1

[Events]
//Background and Video events
0,0,"bgmiku.jpg",0,0
//Break Periods
//Storyboard Layer 0 (Background)
//Storyboard Layer 1 (Fail)
//Storyboard Layer 2 (Pass)
//Storyboard Layer 3 (Foreground)
//Storyboard Sound Samples

[TimingPoints]
3717,454.545454545455,4,1,0,100,1,0

[HitObjects]
448,192,80,5,0,0:0:0:0:
192,192,307,1,0,0:0:0:0:
64,192,421,1,0,0:0:0:0:
320,192,648,1,0,0:0:0:0:
192,192,876,1,0,0:0:0:0:
192,192,1103,1,0,0:0:0:0:
448,192,1330,1,0,0:0:0:0:
320,192,1444,1,0,0:0:0:0:
64,192,1671,1,0,0:0:0:0:
448,192,1898,1,0,0:0:0:0:
192,192,2126,1,0,0:0:0:0:
64,192,2239,1,0,0:0:0:0:
320,192,2466,1,0,0:0:0:0:
192,192,2694,1,0,0:0:0:0:
192,192,2921,1,0,0:0:0:0:
448,192,3148,1,0,0:0:0:0:
64,192,3262,1,0,0:0:0:0:
192,192,3262,1,0,0:0:0:0:
320,192,3489,1,0,0:0:0:0:
448,192,3717,1,0,0:0:0:0:
192,192,3717,1,0,0:0:0:0:
64,192,3717,1,0,0:0:0:0:
448,192,4171,1,0,0:0:0:0:
320,192,4171,1,0,0:0:0:0:
64,192,4626,1,0,0:0:0:0:
192,192,4626,1,0,0:0:0:0:
448,192,5080,1,0,0:0:0:0:
320,192,5080,1,0,0:0:0:0:
192,192,5535,1,0,0:0:0:0:
64,192,5535,1,0,0:0:0:0:
448,192,5535,1,0,0:0:0:0:
320,192,5989,1,0,0:0:0:0:
192,192,5989,1,0,0:0:0:0:
448,192,6444,1,0,0:0:0:0:
64,192,6444,1,0,0:0:0:0:
320,192,6898,1,0,0:0:0:0:
192,192,6898,1,0,0:0:0:0:
64,192,7353,1,0,0:0:0:0:
320,192,7353,1,0,0:0:0:0:
448,192,7353,1,0,0:0:0:0:
448,192,7807,1,0,0:0:0:0:
192,192,7807,1,0,0:0:0:0:
320,192,8262,1,0,0:0:0:0:
64,192,8262,1,0,0:0:0:0:
192,192,8717,1,0,0:0:0:0:
448,192,8717,1,0,0:0:0:0:
448,192,9171,1,0,0:0:0:0:
320,192,9171,1,0,0:0:0:0:
64,192,9171,1,0,0:0:0:0:
64,192,9626,1,0,0:0:0:0:
192,192,9626,1,0,0:0:0:0:
320,192,10080,1,0,0:0:0:0:
448,192,10080,1,0,0:0:0:0:
192,192,10535,1,0,0:0:0:0:
64,192,10535,1,0,0:0:0:0:
320,192,10762,1,0,0:0:0:0:
320,192,10876,1,0,0:0:0:0:
64,192,10989,1,0,0:0:0:0:
192,192,10989,1,0,0:0:0:0:
448,192,10989,1,0,0:0:0:0:
320,192,11217,1,0,0:0:0:0:
192,192,11330,1,0,0:0:0:0:
448,192,11444,1,0,0:0:0:0:
64,192,11444,1,0,0:0:0:0:
448,192,11671,1,0,0:0:0:0:
320,192,11785,1,0,0:0:0:0:
192,192,11898,1,0,0:0:0:0:
64,192,11898,1,0,0:0:0:0:
192,192,12126,1,0,0:0:0:0:
320,192,12239,1,0,0:0:0:0:
448,192,12353,1,0,0:0:0:0:
64,192,12353,1,0,0:0:0:0:
64,192,12580,1,0,0:0:0:0:
192,192,12694,1,0,0:0:0:0:
320,192,12807,1,0,0:0:0:0:
448,192,12807,1,0,0:0:0:0:
320,192,13035,1,0,0:0:0:0:
192,192,13148,1,0,0:0:0:0:
64,192,13262,1,0,0:0:0:0:
448,192,13262,1,0,0:0:0:0:
448,192,13489,1,0,0:0:0:0:
320,192,13603,1,0,0:0:0:0:
64,192,13717,1,0,0:0:0:0:
192,192,13717,1,0,0:0:0:0:
192,192,13944,1,0,0:0:0:0:
320,192,14057,1,0,0:0:0:0:
64,192,14171,1,0,0:0:0:0:
448,192,14171,1,0,0:0:0:0:
64,192,14398,1,0,0:0:0:0:
192,192,14512,1,0,0:0:0:0:
448,192,14626,1,0,0:0:0:0:
320,192,14626,1,0,0:0:0:0:
320,192,14853,1,0,0:0:0:0:
192,192,14967,1,0,0:0:0:0:
64,192,15080,1,0,0:0:0:0:
448,192,15080,1,0,0:0:0:0:
448,192,15307,1,0,0:0:0:0:
320,192,15421,1,0,0:0:0:0:
64,192,15535,1,0,0:0:0:0:
192,192,15535,1,0,0:0:0:0:
192,192,15762,1,0,0:0:0:0:
448,192,15876,1,0,0:0:0:0:
320,192,15876,1,0,0:0:0:0:
64,192,15989,1,0,0:0:0:0:
192,192,15989,1,0,0:0:0:0:
448,192,16217,1,0,0:0:0:0:
64,192,16217,128,0,17807:0:0:0:0:
320,192,17807,1,0,0:0:0:0:
192,192,17807,1,0,0:0:0:0:
320,192,18262,128,0,18489:0:0:0:0:
64,192,18603,128,0,18830:0:0:0:0:
448,192,18944,128,0,19171:0:0:0:0:
192,192,19285,128,0,19512:0:0:0:0:
192,192,19626,128,0,19853:0:0:0:0:
448,192,19853,128,0,20080:0:0:0:0:
320,192,20080,128,0,20307:0:0:0:0:
64,192,20421,128,0,20648:0:0:0:0:
448,192,20762,128,0,20989:0:0:0:0:
192,192,21103,128,0,21330:0:0:0:0:
192,192,21444,128,0,21671:0:0:0:0:
448,192,21671,128,0,21898:0:0:0:0:
320,192,21898,128,0,22126:0:0:0:0:
64,192,22239,128,0,22467:0:0:0:0:
448,192,22580,128,0,22807:0:0:0:0:
192,192,22921,128,0,23148:0:0:0:0:
192,192,23262,128,0,23489:0:0:0:0:
448,192,23489,128,0,23717:0:0:0:0:
64,192,23717,128,0,23944:0:0:0:0:
320,192,24057,128,0,24285:0:0:0:0:
448,192,24398,128,0,24626:0:0:0:0:
192,192,24739,128,0,24967:0:0:0:0:
192,192,25080,128,0,25307:0:0:0:0:
320,192,25307,128,0,25535:0:0:0:0:
64,192,25535,1,0,0:0:0:0:
448,192,25535,1,0,0:0:0:0:
192,192,25535,1,0,0:0:0:0:
64,192,25762,1,0,0:0:0:0:
320,192,25989,1,0,0:0:0:0:
448,192,25989,1,0,0:0:0:0:
448,192,26217,1,0,0:0:0:0:
192,192,26444,1,0,0:0:0:0:
64,192,26444,1,0,0:0:0:0:
320,192,26557,1,0,0:0:0:0:
448,192,26557,1,0,0:0:0:0:
192,192,26671,1,0,0:0:0:0:
64,192,26671,1,0,0:0:0:0:
320,192,26898,1,0,0:0:0:0:
448,192,26898,1,0,0:0:0:0:
320,192,27126,1,0,0:0:0:0:
192,192,27353,1,0,0:0:0:0:
64,192,27353,1,0,0:0:0:0:
192,192,27580,1,0,0:0:0:0:
320,192,27807,1,0,0:0:0:0:
448,192,27807,1,0,0:0:0:0:
448,192,28035,1,0,0:0:0:0:
192,192,28262,1,0,0:0:0:0:
64,192,28262,1,0,0:0:0:0:
320,192,28376,1,0,0:0:0:0:
448,192,28376,1,0,0:0:0:0:
64,192,28489,1,0,0:0:0:0:
192,192,28489,1,0,0:0:0:0:
320,192,28717,1,0,0:0:0:0:
448,192,28717,1,0,0:0:0:0:
320,192,28944,1,0,0:0:0:0:
64,192,29171,1,0,0:0:0:0:
192,192,29171,1,0,0:0:0:0:
320,192,29285,1,0,0:0:0:0:
448,192,29285,1,0,0:0:0:0:
192,192,29398,1,0,0:0:0:0:
64,192,29398,1,0,0:0:0:0:
320,192,29512,1,0,0:0:0:0:
448,192,29512,1,0,0:0:0:0:
192,192,29626,1,0,0:0:0:0:
64,192,29626,1,0,0:0:0:0:
320,192,29739,1,0,0:0:0:0:
448,192,29739,1,0,0:0:0:0:
192,192,29853,1,0,0:0:0:0:
64,192,29853,1,0,0:0:0:0:
320,192,29967,1,0,0:0:0:0:
448,192,29967,1,0,0:0:0:0:
64,192,30080,1,0,0:0:0:0:
192,192,30080,1,0,0:0:0:0:
448,192,30194,1,0,0:0:0:0:
320,192,30194,1,0,0:0:0:0:
192,192,30307,1,0,0:0:0:0:
64,192,30307,1,0,0:0:0:0:
320,192,30421,1,0,0:0:0:0:
448,192,30421,1,0,0:0:0:0:
192,192,30535,1,0,0:0:0:0:
64,192,30535,1,0,0:0:0:0:
320,192,30648,1,0,0:0:0:0:
448,192,30648,1,0,0:0:0:0:
192,192,30762,1,0,0:0:0:0:
64,192,30762,1,0,0:0:0:0:
320,192,30876,1,0,0:0:0:0:
448,192,30876,1,0,0:0:0:0:
192,192,30989,1,0,0:0:0:0:
64,192,30989,128,0,32353:0:0:0:0:
192,192,32353,1,0,0:0:0:0:
320,192,32353,1,0,0:0:0:0:
320,192,32807,1,0,0:0:0:0:
448,192,32807,1,0,0:0:0:0:
64,192,32807,1,0,0:0:0:0:
192,192,33035,1,0,0:0:0:0:
320,192,33148,1,0,0:0:0:0:
448,192,33148,1,0,0:0:0:0:
64,192,33262,1,0,0:0:0:0:
192,192,33262,1,0,0:0:0:0:
448,192,33489,1,0,0:0:0:0:
320,192,33489,1,0,0:0:0:0:
64,192,33603,1,0,0:0:0:0:
320,192,33717,1,0,0:0:0:0:
64,192,33830,1,0,0:0:0:0:
192,192,33830,1,0,0:0:0:0:
448,192,33944,1,0,0:0:0:0:
192,192,34171,1,0,0:0:0:0:
320,192,34171,1,0,0:0:0:0:
448,192,34398,1,0,0:0:0:0:
320,192,34512,1,0,0:0:0:0:
192,192,34626,1,0,0:0:0:0:
64,192,34626,1,0,0:0:0:0:
192,192,34853,1,0,0:0:0:0:
320,192,34967,1,0,0:0:0:0:
448,192,34967,1,0,0:0:0:0:
64,192,35080,1,0,0:0:0:0:
192,192,35080,1,0,0:0:0:0:
448,192,35307,1,0,0:0:0:0:
320,192,35307,1,0,0:0:0:0:
64,192,35421,1,0,0:0:0:0:
320,192,35535,1,0,0:0:0:0:
64,192,35648,1,0,0:0:0:0:
192,192,35648,1,0,0:0:0:0:
448,192,35762,1,0,0:0:0:0:
192,192,35989,1,0,0:0:0:0:
320,192,35989,1,0,0:0:0:0:
64,192,36217,1,0,0:0:0:0:
192,192,36330,1,0,0:0:0:0:
448,192,36444,128,0,38035:0:0:0:0:
320,192,36444,128,0,36671:0:0:0:0:
64,192,36785,128,0,37012:0:0:0:0:
320,192,37126,128,0,37353:0:0:0:0:
192,192,37467,128,0,37694:0:0:0:0:
192,192,37807,128,0,38035:0:0:0:0:
320,192,38035,128,0,38148:0:0:0:0:
192,192,38148,128,0,38262:0:0:0:0:
64,192,38262,128,0,39853:0:0:0:0:
448,192,38262,128,0,38489:0:0:0:0:
192,192,38603,128,0,38830:0:0:0:0:
448,192,38944,128,0,39171:0:0:0:0:
320,192,39285,128,0,39512:0:0:0:0:
192,192,39626,128,0,39853:0:0:0:0:
448,192,39853,128,0,39967:0:0:0:0:
320,192,39967,128,0,40080:0:0:0:0:
192,192,40080,128,0,41671:0:0:0:0:
64,192,40080,128,0,40307:0:0:0:0:
320,192,40421,128,0,40648:0:0:0:0:
448,192,40762,128,0,40989:0:0:0:0:
320,192,41103,128,0,41330:0:0:0:0:
320,192,41444,128,0,41671:0:0:0:0:
64,192,41671,128,0,41785:0:0:0:0:
192,192,41785,128,0,41898:0:0:0:0:
320,192,41898,128,0,43489:0:0:0:0:
448,192,41898,128,0,42126:0:0:0:0:
64,192,42239,128,0,42467:0:0:0:0:
448,192,42580,128,0,42807:0:0:0:0:
192,192,42921,128,0,43148:0:0:0:0:
192,192,43262,128,0,43489:0:0:0:0:
64,192,43489,128,0,43603:0:0:0:0:
192,192,43603,128,0,43717:0:0:0:0:
448,192,43717,128,0,45535:0:0:0:0:
320,192,43717,128,0,43944:0:0:0:0:
64,192,44057,128,0,44285:0:0:0:0:
320,192,44398,128,0,44626:0:0:0:0:
192,192,44739,128,0,44967:0:0:0:0:
320,192,45080,1,0,0:0:0:0:
64,192,45080,1,0,0:0:0:0:
192,192,45307,1,0,0:0:0:0:
64,192,45307,1,0,0:0:0:0:
192,192,45535,1,0,0:0:0:0:
320,192,45535,1,0,0:0:0:0:
448,192,45648,1,0,0:0:0:0:
64,192,45648,1,0,0:0:0:0:
192,192,45762,1,0,0:0:0:0:
320,192,45762,1,0,0:0:0:0:
448,192,45876,1,0,0:0:0:0:
64,192,45989,1,0,0:0:0:0:
320,192,45989,1,0,0:0:0:0:
448,192,46103,1,0,0:0:0:0:
192,192,46103,1,0,0:0:0:0:
64,192,46217,1,0,0:0:0:0:
320,192,46217,1,0,0:0:0:0:
192,192,46330,1,0,0:0:0:0:
448,192,46444,1,0,0:0:0:0:
320,192,46444,1,0,0:0:0:0:
192,192,46557,1,0,0:0:0:0:
64,192,46557,1,0,0:0:0:0:
448,192,46671,1,0,0:0:0:0:
320,192,46671,1,0,0:0:0:0:
64,192,46785,1,0,0:0:0:0:
192,192,46898,1,0,0:0:0:0:
320,192,46898,1,0,0:0:0:0:
448,192,47353,5,0,0:0:0:0:
64,192,47353,1,0,0:0:0:0:
192,192,47580,1,0,0:0:0:0:
320,192,47694,1,0,0:0:0:0:
448,192,47807,1,0,0:0:0:0:
64,192,47807,1,0,0:0:0:0:
192,192,47921,1,0,0:0:0:0:
320,192,48035,1,0,0:0:0:0:
448,192,48148,1,0,0:0:0:0:
192,192,48262,1,0,0:0:0:0:
64,192,48262,1,0,0:0:0:0:
320,192,48376,1,0,0:0:0:0:
192,192,48489,1,0,0:0:0:0:
64,192,48603,1,0,0:0:0:0:
320,192,48717,1,0,0:0:0:0:
448,192,48717,1,0,0:0:0:0:
192,192,48944,1,0,0:0:0:0:
320,192,49057,1,0,0:0:0:0:
64,192,49171,5,0,0:0:0:0:
448,192,49171,1,0,0:0:0:0:
320,192,49398,1,0,0:0:0:0:
192,192,49512,1,0,0:0:0:0:
64,192,49626,1,0,0:0:0:0:
448,192,49626,1,0,0:0:0:0:
320,192,49739,1,0,0:0:0:0:
192,192,49853,1,0,0:0:0:0:
64,192,49967,1,0,0:0:0:0:
320,192,50080,1,0,0:0:0:0:
448,192,50080,1,0,0:0:0:0:
192,192,50194,1,0,0:0:0:0:
320,192,50307,1,0,0:0:0:0:
448,192,50421,1,0,0:0:0:0:
192,192,50535,1,0,0:0:0:0:
64,192,50535,1,0,0:0:0:0:
448,192,50762,1,0,0:0:0:0:
192,192,50989,1,0,0:0:0:0:
320,192,50989,1,0,0:0:0:0:
64,192,51217,1,0,0:0:0:0:
192,192,51330,1,0,0:0:0:0:
320,192,51444,1,0,0:0:0:0:
448,192,51444,1,0,0:0:0:0:
64,192,51557,1,0,0:0:0:0:
192,192,51671,1,0,0:0:0:0:
320,192,51785,1,0,0:0:0:0:
192,192,51898,1,0,0:0:0:0:
64,192,51898,1,0,0:0:0:0:
448,192,52012,1,0,0:0:0:0:
320,192,52126,1,0,0:0:0:0:
192,192,52239,1,0,0:0:0:0:
320,192,52353,1,0,0:0:0:0:
448,192,52353,1,0,0:0:0:0:
64,192,52580,1,0,0:0:0:0:
320,192,52807,1,0,0:0:0:0:
192,192,52807,1,0,0:0:0:0:
448,192,53035,1,0,0:0:0:0:
320,192,53148,1,0,0:0:0:0:
192,192,53262,1,0,0:0:0:0:
64,192,53262,1,0,0:0:0:0:
448,192,53376,1,0,0:0:0:0:
320,192,53489,1,0,0:0:0:0:
192,192,53603,1,0,0:0:0:0:
320,192,53717,1,0,0:0:0:0:
448,192,53717,1,0,0:0:0:0:
64,192,53830,1,0,0:0:0:0:
192,192,53944,1,0,0:0:0:0:
320,192,54057,1,0,0:0:0:0:
192,192,54171,1,0,0:0:0:0:
64,192,54171,1,0,0:0:0:0:
448,192,54398,1,0,0:0:0:0:
320,192,54626,1,0,0:0:0:0:
448,192,54626,1,0,0:0:0:0:
64,192,54853,1,0,0:0:0:0:
448,192,54967,1,0,0:0:0:0:
320,192,55080,1,0,0:0:0:0:
192,192,55080,1,0,0:0:0:0:
64,192,55194,1,0,0:0:0:0:
448,192,55307,1,0,0:0:0:0:
320,192,55421,1,0,0:0:0:0:
192,192,55535,1,0,0:0:0:0:
448,192,55535,1,0,0:0:0:0:
64,192,55648,1,0,0:0:0:0:
320,192,55762,1,0,0:0:0:0:
192,192,55876,1,0,0:0:0:0:
448,192,55989,1,0,0:0:0:0:
64,192,55989,1,0,0:0:0:0:
320,192,56217,1,0,0:0:0:0:
192,192,56444,1,0,0:0:0:0:
64,192,56444,1,0,0:0:0:0:
448,192,56671,1,0,0:0:0:0:
64,192,56785,1,0,0:0:0:0:
192,192,56898,1,0,0:0:0:0:
320,192,56898,1,0,0:0:0:0:
448,192,57012,1,0,0:0:0:0:
64,192,57126,1,0,0:0:0:0:
192,192,57239,1,0,0:0:0:0:
320,192,57353,1,0,0:0:0:0:
64,192,57353,1,0,0:0:0:0:
448,192,57467,1,0,0:0:0:0:
192,192,57580,1,0,0:0:0:0:
320,192,57694,1,0,0:0:0:0:
64,192,57807,1,0,0:0:0:0:
448,192,57807,1,0,0:0:0:0:
192,192,58035,1,0,0:0:0:0:
448,192,58262,1,0,0:0:0:0:
64,192,58262,1,0,0:0:0:0:
320,192,58489,1,0,0:0:0:0:
192,192,58603,1,0,0:0:0:0:
64,192,58717,1,0,0:0:0:0:
448,192,58717,1,0,0:0:0:0:
320,192,58830,1,0,0:0:0:0:
192,192,58944,1,0,0:0:0:0:
64,192,59057,1,0,0:0:0:0:
448,192,59171,1,0,0:0:0:0:
320,192,59171,1,0,0:0:0:0:
448,192,59398,1,0,0:0:0:0:
192,192,59512,1,0,0:0:0:0:
64,192,59512,1,0,0:0:0:0:
320,192,59853,1,0,0:0:0:0:
448,192,59853,1,0,0:0:0:0:
64,192,59853,1,0,0:0:0:0:
192,192,60080,1,0,0:0:0:0:
320,192,60307,1,0,0:0:0:0:
192,192,60421,1,0,0:0:0:0:
448,192,60648,1,0,0:0:0:0:
64,192,60876,1,0,0:0:0:0:
320,192,60989,1,0,0:0:0:0:
448,192,60989,1,0,0:0:0:0:
64,192,61103,1,0,0:0:0:0:
192,192,61103,1,0,0:0:0:0:
448,192,61217,1,0,0:0:0:0:
320,192,61330,1,0,0:0:0:0:
192,192,61444,1,0,0:0:0:0:
448,192,61444,1,0,0:0:0:0:
64,192,61444,1,0,0:0:0:0:
320,192,61557,1,0,0:0:0:0:
64,192,61671,1,0,0:0:0:0:
192,192,61785,1,0,0:0:0:0:
320,192,61898,1,0,0:0:0:0:
64,192,61898,1,0,0:0:0:0:
448,192,61898,128,0,63717:0:0:0:0:
192,192,62353,1,0,0:0:0:0:
64,192,62353,1,0,0:0:0:0:
320,192,62807,1,0,0:0:0:0:
192,192,63262,1,0,0:0:0:0:
64,192,63262,1,0,0:0:0:0:
192,192,63717,128,0,64626:0:0:0:0:
320,192,63717,1,0,0:0:0:0:
448,192,64171,1,0,0:0:0:0:
64,192,64171,1,0,0:0:0:0:
448,192,64626,128,0,65535:0:0:0:0:
320,192,64626,1,0,0:0:0:0:
192,192,65080,1,0,0:0:0:0:
64,192,65080,1,0,0:0:0:0:
64,192,65535,128,0,67353:0:0:0:0:
320,192,65535,1,0,0:0:0:0:
192,192,65989,1,0,0:0:0:0:
448,192,65989,1,0,0:0:0:0:
320,192,66444,1,0,0:0:0:0:
448,192,66898,1,0,0:0:0:0:
192,192,66898,1,0,0:0:0:0:
320,192,67353,128,0,68262:0:0:0:0:
192,192,67353,1,0,0:0:0:0:
448,192,67807,1,0,0:0:0:0:
64,192,67807,1,0,0:0:0:0:
448,192,68262,128,0,69171:0:0:0:0:
192,192,68262,1,0,0:0:0:0:
320,192,68717,1,0,0:0:0:0:
64,192,68717,1,0,0:0:0:0:
192,192,69171,128,0,70989:0:0:0:0:
64,192,69171,1,0,0:0:0:0:
320,192,69626,1,0,0:0:0:0:
448,192,69626,1,0,0:0:0:0:
64,192,70080,1,0,0:0:0:0:
320,192,70535,1,0,0:0:0:0:
448,192,70535,1,0,0:0:0:0:
448,192,70989,128,0,71898:0:0:0:0:
64,192,70989,1,0,0:0:0:0:
320,192,71444,1,0,0:0:0:0:
192,192,71444,1,0,0:0:0:0:
320,192,71898,128,0,72807:0:0:0:0:
64,192,71898,1,0,0:0:0:0:
192,192,72353,1,0,0:0:0:0:
448,192,72353,1,0,0:0:0:0:
64,192,72807,128,0,74398:0:0:0:0:
448,192,72807,1,0,0:0:0:0:
192,192,73262,1,0,0:0:0:0:
320,192,73262,1,0,0:0:0:0:
448,192,73717,1,0,0:0:0:0:
192,192,74057,1,0,0:0:0:0:
448,192,74398,1,0,0:0:0:0:
320,192,74455,1,0,0:0:0:0:
192,192,74512,1,0,0:0:0:0:
64,192,74569,1,0,0:0:0:0:
320,192,74626,1,0,0:0:0:0:
448,192,74626,1,0,0:0:0:0:
320,192,74739,1,0,0:0:0:0:
448,192,74739,1,0,0:0:0:0:
192,192,74853,1,0,0:0:0:0:
64,192,74853,1,0,0:0:0:0:
64,192,74967,1,0,0:0:0:0:
192,192,74967,1,0,0:0:0:0:
320,192,75080,1,0,0:0:0:0:
448,192,75080,1,0,0:0:0:0:
448,192,75194,1,0,0:0:0:0:
320,192,75194,1,0,0:0:0:0:
192,192,75307,1,0,0:0:0:0:
64,192,75307,1,0,0:0:0:0:
64,192,75421,1,0,0:0:0:0:
192,192,75421,1,0,0:0:0:0:
320,192,75535,1,0,0:0:0:0:
448,192,75535,1,0,0:0:0:0:
448,192,75648,1,0,0:0:0:0:
320,192,75648,1,0,0:0:0:0:
192,192,75762,1,0,0:0:0:0:
64,192,75762,1,0,0:0:0:0:
64,192,75876,1,0,0:0:0:0:
192,192,75876,1,0,0:0:0:0:
320,192,75989,1,0,0:0:0:0:
448,192,75989,1,0,0:0:0:0:
192,192,76444,1,0,0:0:0:0:
64,192,76444,1,0,0:0:0:0:
448,192,76444,1,0,0:0:0:0:
320,192,76671,1,0,0:0:0:0:
192,192,76785,1,0,0:0:0:0:
64,192,76785,1,0,0:0:0:0:
448,192,76898,1,0,0:0:0:0:
320,192,76898,1,0,0:0:0:0:
64,192,77126,128,0,77580:0:0:0:0:
192,192,77239,1,0,0:0:0:0:
448,192,77353,1,0,0:0:0:0:
320,192,77467,1,0,0:0:0:0:
320,192,77807,1,0,0:0:0:0:
192,192,77807,1,0,0:0:0:0:
64,192,78035,1,0,0:0:0:0:
448,192,78035,1,0,0:0:0:0:
320,192,78262,1,0,0:0:0:0:
448,192,78262,1,0,0:0:0:0:
192,192,78489,1,0,0:0:0:0:
320,192,78603,1,0,0:0:0:0:
448,192,78603,1,0,0:0:0:0:
64,192,78717,1,0,0:0:0:0:
192,192,78717,1,0,0:0:0:0:
448,192,78944,128,0,79398:0:0:0:0:
320,192,79057,1,0,0:0:0:0:
64,192,79171,1,0,0:0:0:0:
192,192,79285,1,0,0:0:0:0:
192,192,79626,1,0,0:0:0:0:
320,192,79626,1,0,0:0:0:0:
448,192,79853,1,0,0:0:0:0:
320,192,79967,1,0,0:0:0:0:
192,192,80080,1,0,0:0:0:0:
64,192,80080,1,0,0:0:0:0:
320,192,80307,1,0,0:0:0:0:
64,192,80421,1,0,0:0:0:0:
192,192,80421,1,0,0:0:0:0:
320,192,80535,1,0,0:0:0:0:
448,192,80535,1,0,0:0:0:0:
64,192,80762,128,0,81217:0:0:0:0:
192,192,80876,1,0,0:0:0:0:
448,192,80989,1,0,0:0:0:0:
320,192,81103,1,0,0:0:0:0:
320,192,81444,1,0,0:0:0:0:
192,192,81444,1,0,0:0:0:0:
448,192,81671,1,0,0:0:0:0:
64,192,81671,1,0,0:0:0:0:
64,192,81898,1,0,0:0:0:0:
192,192,81898,1,0,0:0:0:0:
320,192,82126,1,0,0:0:0:0:
64,192,82239,1,0,0:0:0:0:
192,192,82239,1,0,0:0:0:0:
320,192,82353,1,0,0:0:0:0:
448,192,82353,1,0,0:0:0:0:
64,192,82580,128,0,83035:0:0:0:0:
192,192,82694,1,0,0:0:0:0:
448,192,82807,1,0,0:0:0:0:
320,192,82921,1,0,0:0:0:0:
320,192,83262,1,0,0:0:0:0:
192,192,83262,1,0,0:0:0:0:
64,192,83489,1,0,0:0:0:0:
192,192,83603,1,0,0:0:0:0:
320,192,83717,1,0,0:0:0:0:
448,192,83717,1,0,0:0:0:0:
64,192,83944,1,0,0:0:0:0:
320,192,84057,1,0,0:0:0:0:
448,192,84057,1,0,0:0:0:0:
64,192,84171,1,0,0:0:0:0:
192,192,84171,1,0,0:0:0:0:
448,192,84398,1,0,0:0:0:0:
320,192,84398,1,0,0:0:0:0:
192,192,84512,1,0,0:0:0:0:
448,192,84626,1,0,0:0:0:0:
64,192,84739,1,0,0:0:0:0:
192,192,84739,1,0,0:0:0:0:
320,192,84853,1,0,0:0:0:0:
64,192,85080,1,0,0:0:0:0:
448,192,85080,1,0,0:0:0:0:
192,192,85307,1,0,0:0:0:0:
320,192,85421,1,0,0:0:0:0:
448,192,85535,1,0,0:0:0:0:
64,192,85535,1,0,0:0:0:0:
192,192,85762,1,0,0:0:0:0:
320,192,85876,1,0,0:0:0:0:
448,192,85876,1,0,0:0:0:0:
64,192,85989,1,0,0:0:0:0:
192,192,85989,1,0,0:0:0:0:
448,192,86217,1,0,0:0:0:0:
320,192,86217,1,0,0:0:0:0:
64,192,86330,1,0,0:0:0:0:
448,192,86444,1,0,0:0:0:0:
64,192,86557,1,0,0:0:0:0:
192,192,86557,1,0,0:0:0:0:
320,192,86671,1,0,0:0:0:0:
64,192,86898,1,0,0:0:0:0:
448,192,86898,1,0,0:0:0:0:
320,192,87126,1,0,0:0:0:0:
192,192,87126,128,0,87580:0:0:0:0:
320,192,87580,1,0,0:0:0:0:
448,192,87807,1,0,0:0:0:0:
64,192,87807,1,0,0:0:0:0:
192,192,88035,1,0,0:0:0:0:
320,192,88035,128,0,88489:0:0:0:0:
192,192,88489,1,0,0:0:0:0:
448,192,88717,1,0,0:0:0:0:
64,192,88717,1,0,0:0:0:0:
64,192,88944,1,0,0:0:0:0:
192,192,89001,1,0,0:0:0:0:
320,192,89057,1,0,0:0:0:0:
448,192,89114,1,0,0:0:0:0:
64,192,89171,1,0,0:0:0:0:
192,192,89228,1,0,0:0:0:0:
320,192,89285,1,0,0:0:0:0:
448,192,89285,1,0,0:0:0:0:
192,192,89398,1,0,0:0:0:0:
64,192,89455,1,0,0:0:0:0:
448,192,89512,1,0,0:0:0:0:
320,192,89569,1,0,0:0:0:0:
192,192,89626,1,0,0:0:0:0:
64,192,89626,1,0,0:0:0:0:
448,192,89853,1,0,0:0:0:0:
320,192,89910,1,0,0:0:0:0:
64,192,89967,1,0,0:0:0:0:
192,192,90023,1,0,0:0:0:0:
320,192,90080,1,0,0:0:0:0:
448,192,90080,1,0,0:0:0:0:
64,192,90194,1,0,0:0:0:0:
448,192,90194,1,0,0:0:0:0:
192,192,90307,1,0,0:0:0:0:
320,192,90307,1,0,0:0:0:0:
64,192,90421,1,0,0:0:0:0:
192,192,90421,1,0,0:0:0:0:
320,192,90535,1,0,0:0:0:0:
448,192,90535,1,0,0:0:0:0:
192,192,90648,1,0,0:0:0:0:
64,192,90648,1,0,0:0:0:0:
192,192,90762,1,0,0:0:0:0:
64,192,90762,1,0,0:0:0:0:
320,192,90876,1,0,0:0:0:0:
448,192,90876,1,0,0:0:0:0:
448,192,90989,1,0,0:0:0:0:
320,192,90989,1,0,0:0:0:0:
64,192,90989,128,0,91217:0:0:0:0:
320,192,91330,128,0,91557:0:0:0:0:
448,192,91444,1,0,0:0:0:0:
64,192,91444,1,0,0:0:0:0:
192,192,91671,128,0,91898:0:0:0:0:
64,192,91898,1,0,0:0:0:0:
448,192,92012,128,0,92239:0:0:0:0:
320,192,92353,1,0,0:0:0:0:
64,192,92353,128,0,92580:0:0:0:0:
192,192,92580,1,0,0:0:0:0:
320,192,92694,1,0,0:0:0:0:
448,192,92807,128,0,93035:0:0:0:0:
64,192,92807,1,0,0:0:0:0:
64,192,93148,128,0,93376:0:0:0:0:
192,192,93262,1,0,0:0:0:0:
448,192,93262,1,0,0:0:0:0:
320,192,93489,128,0,93717:0:0:0:0:
448,192,93717,1,0,0:0:0:0:
192,192,93830,128,0,94057:0:0:0:0:
64,192,94171,1,0,0:0:0:0:
448,192,94171,128,0,94398:0:0:0:0:
320,192,94398,1,0,0:0:0:0:
192,192,94512,1,0,0:0:0:0:
64,192,94626,128,0,94853:0:0:0:0:
448,192,94626,1,0,0:0:0:0:
448,192,94967,128,0,95194:0:0:0:0:
64,192,95080,1,0,0:0:0:0:
320,192,95080,1,0,0:0:0:0:
192,192,95307,128,0,95535:0:0:0:0:
64,192,95535,1,0,0:0:0:0:
320,192,95648,128,0,95876:0:0:0:0:
64,192,95989,128,0,96217:0:0:0:0:
448,192,95989,1,0,0:0:0:0:
192,192,96217,1,0,0:0:0:0:
320,192,96330,1,0,0:0:0:0:
64,192,96444,1,0,0:0:0:0:
448,192,96444,128,0,96671:0:0:0:0:
192,192,96785,128,0,97012:0:0:0:0:
64,192,96898,1,0,0:0:0:0:
448,192,96898,1,0,0:0:0:0:
320,192,97126,128,0,97353:0:0:0:0:
448,192,97353,1,0,0:0:0:0:
64,192,97467,128,0,97694:0:0:0:0:
192,192,97807,1,0,0:0:0:0:
448,192,97807,128,0,98035:0:0:0:0:
320,192,98035,1,0,0:0:0:0:
192,192,98148,1,0,0:0:0:0:
64,192,98262,1,0,0:0:0:0:
448,192,98262,1,0,0:0:0:0:
192,192,98489,1,0,0:0:0:0:
320,192,98489,1,0,0:0:0:0:
448,192,98717,1,0,0:0:0:0:
64,192,98717,1,0,0:0:0:0:
192,192,98944,1,0,0:0:0:0:
320,192,98944,1,0,0:0:0:0:
448,192,99171,1,0,0:0:0:0:
64,192,99171,1,0,0:0:0:0:
192,192,99398,1,0,0:0:0:0:
320,192,99398,1,0,0:0:0:0:
448,192,99626,1,0,0:0:0:0:
64,192,99626,1,0,0:0:0:0:
192,192,99853,1,0,0:0:0:0:
320,192,99853,1,0,0:0:0:0:
320,192,100080,1,0,0:0:0:0:
64,192,100080,1,0,0:0:0:0:
192,192,100307,1,0,0:0:0:0:
448,192,100307,1,0,0:0:0:0:
320,192,100535,1,0,0:0:0:0:
64,192,100535,1,0,0:0:0:0:
192,192,100762,1,0,0:0:0:0:
448,192,100762,1,0,0:0:0:0:
320,192,100989,1,0,0:0:0:0:
64,192,100989,1,0,0:0:0:0:
192,192,101217,1,0,0:0:0:0:
448,192,101217,1,0,0:0:0:0:
320,192,101444,1,0,0:0:0:0:
64,192,101444,1,0,0:0:0:0:
192,192,101671,1,0,0:0:0:0:
448,192,101671,1,0,0:0:0:0:
320,192,101898,1,0,0:0:0:0:
448,192,101898,1,0,0:0:0:0:
320,192,102012,1,0,0:0:0:0:
448,192,102012,1,0,0:0:0:0:
192,192,102126,1,0,0:0:0:0:
64,192,102126,1,0,0:0:0:0:
64,192,102239,1,0,0:0:0:0:
192,192,102239,1,0,0:0:0:0:
320,192,102353,1,0,0:0:0:0:
448,192,102353,1,0,0:0:0:0:
320,192,102467,1,0,0:0:0:0:
448,192,102467,1,0,0:0:0:0:
64,192,102580,1,0,0:0:0:0:
192,192,102580,1,0,0:0:0:0:
192,192,102694,1,0,0:0:0:0:
64,192,102694,1,0,0:0:0:0:
448,192,102807,1,0,0:0:0:0:
320,192,102807,1,0,0:0:0:0:
448,192,102921,1,0,0:0:0:0:
320,192,102921,1,0,0:0:0:0:
192,192,103035,1,0,0:0:0:0:
64,192,103035,1,0,0:0:0:0:
64,192,103148,1,0,0:0:0:0:
192,192,103148,1,0,0:0:0:0:
320,192,103262,1,0,0:0:0:0:
448,192,103262,1,0,0:0:0:0:
320,192,103376,1,0,0:0:0:0:
448,192,103376,1,0,0:0:0:0:
64,192,103489,1,0,0:0:0:0:
192,192,103489,1,0,0:0:0:0:
192,192,103603,1,0,0:0:0:0:
64,192,103603,1,0,0:0:0:0:
320,192,103717,1,0,0:0:0:0:
448,192,103717,1,0,0:0:0:0:
320,192,103830,1,0,0:0:0:0:
448,192,103830,1,0,0:0:0:0:
192,192,103944,1,0,0:0:0:0:
64,192,103944,1,0,0:0:0:0:
64,192,104057,1,0,0:0:0:0:
192,192,104057,1,0,0:0:0:0:
320,192,104171,1,0,0:0:0:0:
448,192,104171,1,0,0:0:0:0:
320,192,104285,1,0,0:0:0:0:
448,192,104285,1,0,0:0:0:0:
64,192,104398,1,0,0:0:0:0:
192,192,104398,1,0,0:0:0:0:
192,192,104512,1,0,0:0:0:0:
64,192,104512,1,0,0:0:0:0:
448,192,104626,1,0,0:0:0:0:
320,192,104626,1,0,0:0:0:0:
448,192,104739,1,0,0:0:0:0:
320,192,104739,1,0,0:0:0:0:
192,192,104853,1,0,0:0:0:0:
64,192,104853,1,0,0:0:0:0:
64,192,104967,1,0,0:0:0:0:
192,192,104967,1,0,0:0:0:0:
320,192,105080,1,0,0:0:0:0:
448,192,105080,1,0,0:0:0:0:
192,192,105307,1,0,0:0:0:0:
64,192,105307,1,0,0:0:0:0:
64,192,105535,128,0,105989:0:0:0:0:
448,192,105535,128,0,105989:0:0:0:0:
192,192,105989,1,0,0:0:0:0:
320,192,105989,1,0,0:0:0:0:
64,192,106217,1,0,0:0:0:0:
448,192,106217,1,0,0:0:0:0:
192,192,106444,128,0,106671:0:0:0:0:
64,192,106444,128,0,106671:0:0:0:0:
320,192,106785,128,0,107012:0:0:0:0:
192,192,106785,128,0,107012:0:0:0:0:
448,192,107126,128,0,107353:0:0:0:0:
320,192,107126,128,0,107353:0:0:0:0:
448,192,108717,1,0,0:0:0:0:
64,192,108717,1,0,0:0:0:0:
320,192,108773,1,0,0:0:0:0:
192,192,108830,1,0,0:0:0:0:
64,192,108887,1,0,0:0:0:0:
448,192,108944,128,0,109171:0:0:0:0:
320,192,108944,128,0,109171:0:0:0:0:
64,192,109171,128,0,109626:0:0:0:0:
192,192,109171,128,0,109626:0:0:0:0:
320,192,109626,1,0,0:0:0:0:
448,192,109626,1,0,0:0:0:0:
64,192,109853,1,0,0:0:0:0:
448,192,109853,1,0,0:0:0:0:
192,192,110080,128,0,110307:0:0:0:0:
320,192,110080,128,0,110307:0:0:0:0:
320,192,110421,128,0,110648:0:0:0:0:
448,192,110421,128,0,110648:0:0:0:0:
64,192,110762,128,0,110989:0:0:0:0:
192,192,110762,128,0,110989:0:0:0:0:
64,192,111898,1,0,0:0:0:0:
192,192,111955,1,0,0:0:0:0:
320,192,112012,1,0,0:0:0:0:
448,192,112069,1,0,0:0:0:0:
64,192,112126,1,0,0:0:0:0:
192,192,112182,1,0,0:0:0:0:
320,192,112239,1,0,0:0:0:0:
448,192,112296,1,0,0:0:0:0:
192,192,112353,1,0,0:0:0:0:
64,192,112353,1,0,0:0:0:0:
64,192,112580,1,0,0:0:0:0:
448,192,112580,1,0,0:0:0:0:
320,192,112807,128,0,113262:0:0:0:0:
192,192,112807,128,0,113262:0:0:0:0:
448,192,113262,1,0,0:0:0:0:
64,192,113262,1,0,0:0:0:0:
192,192,113489,1,0,0:0:0:0:
320,192,113489,1,0,0:0:0:0:
448,192,113717,128,0,113944:0:0:0:0:
320,192,113717,128,0,113944:0:0:0:0:
320,192,114057,128,0,114285:0:0:0:0:
192,192,114057,128,0,114285:0:0:0:0:
192,192,114398,128,0,114626:0:0:0:0:
64,192,114398,128,0,114626:0:0:0:0:
448,192,114626,1,0,0:0:0:0:
320,192,114626,1,0,0:0:0:0:
320,192,115080,1,0,0:0:0:0:
192,192,115080,1,0,0:0:0:0:
448,192,115535,128,0,115762:0:0:0:0:
64,192,115592,128,0,115762:0:0:0:0:
320,192,115762,128,0,115989:0:0:0:0:
192,192,115819,128,0,115989:0:0:0:0:
448,192,115989,128,0,116217:0:0:0:0:
64,192,115989,1,0,0:0:0:0:
192,192,116217,128,0,116444:0:0:0:0:
320,192,116217,1,0,0:0:0:0:
64,192,116444,128,0,116898:0:0:0:0:
448,192,116444,128,0,116898:0:0:0:0:
320,192,116898,1,0,0:0:0:0:
192,192,116898,1,0,0:0:0:0:
448,192,117126,1,0,0:0:0:0:
64,192,117126,1,0,0:0:0:0:
320,192,117353,128,0,117580:0:0:0:0:
192,192,117353,128,0,117580:0:0:0:0:
320,192,117694,128,0,117921:0:0:0:0:
448,192,117694,128,0,117921:0:0:0:0:
64,192,118035,128,0,118944:0:0:0:0:
192,192,118035,128,0,118944:0:0:0:0:
448,192,118262,1,0,0:0:0:0:
320,192,118262,1,0,0:0:0:0:
320,192,118717,1,0,0:0:0:0:
448,192,118717,1,0,0:0:0:0:
448,192,118944,128,0,120080:0:0:0:0:
320,192,118944,1,0,0:0:0:0:
64,192,119171,1,0,0:0:0:0:
192,192,119228,1,0,0:0:0:0:
320,192,119285,1,0,0:0:0:0:
64,192,119342,1,0,0:0:0:0:
192,192,119398,1,0,0:0:0:0:
320,192,119455,1,0,0:0:0:0:
64,192,119512,1,0,0:0:0:0:
192,192,119569,1,0,0:0:0:0:
320,192,119626,128,0,120080:0:0:0:0:
192,192,120080,1,0,0:0:0:0:
64,192,120080,1,0,0:0:0:0:
448,192,120307,1,0,0:0:0:0:
192,192,120421,1,0,0:0:0:0:
64,192,120421,1,0,0:0:0:0:
320,192,120535,1,0,0:0:0:0:
448,192,120535,1,0,0:0:0:0:
64,192,120762,1,0,0:0:0:0:
192,192,120762,1,0,0:0:0:0:
320,192,120876,1,0,0:0:0:0:
64,192,120989,1,0,0:0:0:0:
448,192,121103,1,0,0:0:0:0:
320,192,121103,1,0,0:0:0:0:
192,192,121217,1,0,0:0:0:0:
448,192,121444,1,0,0:0:0:0:
64,192,121444,1,0,0:0:0:0:
320,192,121671,1,0,0:0:0:0:
192,192,121671,1,0,0:0:0:0:
320,192,121898,1,0,0:0:0:0:
448,192,121898,1,0,0:0:0:0:
64,192,122126,128,0,123035:0:0:0:0:
192,192,122239,1,0,0:0:0:0:
448,192,122353,1,0,0:0:0:0:
320,192,122580,1,0,0:0:0:0:
448,192,122921,1,0,0:0:0:0:
192,192,123035,1,0,0:0:0:0:
64,192,123262,1,0,0:0:0:0:
448,192,123262,1,0,0:0:0:0:
320,192,123489,1,0,0:0:0:0:
192,192,123603,1,0,0:0:0:0:
64,192,123717,1,0,0:0:0:0:
448,192,123717,1,0,0:0:0:0:
320,192,123944,1,0,0:0:0:0:
64,192,124057,1,0,0:0:0:0:
192,192,124057,1,0,0:0:0:0:
448,192,124171,1,0,0:0:0:0:
320,192,124171,1,0,0:0:0:0:
192,192,124398,1,0,0:0:0:0:
64,192,124398,1,0,0:0:0:0:
448,192,124512,1,0,0:0:0:0:
64,192,124626,1,0,0:0:0:0:
320,192,124739,1,0,0:0:0:0:
448,192,124739,1,0,0:0:0:0:
192,192,124853,1,0,0:0:0:0:
64,192,125080,1,0,0:0:0:0:
448,192,125080,1,0,0:0:0:0:
192,192,125307,1,0,0:0:0:0:
320,192,125307,1,0,0:0:0:0:
64,192,125535,1,0,0:0:0:0:
448,192,125535,1,0,0:0:0:0:
320,192,125762,1,0,0:0:0:0:
64,192,125876,1,0,0:0:0:0:
320,192,125989,128,0,126671:0:0:0:0:
448,192,125989,1,0,0:0:0:0:
192,192,126217,1,0,0:0:0:0:
448,192,126557,1,0,0:0:0:0:
64,192,126671,1,0,0:0:0:0:
192,192,126898,1,0,0:0:0:0:
448,192,126898,1,0,0:0:0:0:
320,192,127126,1,0,0:0:0:0:
192,192,127126,1,0,0:0:0:0:
64,192,127353,1,0,0:0:0:0:
448,192,127353,1,0,0:0:0:0:
448,192,127580,1,0,0:0:0:0:
64,192,127580,1,0,0:0:0:0:
192,192,127807,1,0,0:0:0:0:
320,192,127807,1,0,0:0:0:0:
320,192,128035,1,0,0:0:0:0:
192,192,128035,1,0,0:0:0:0:
64,192,128262,1,0,0:0:0:0:
448,192,128262,1,0,0:0:0:0:
448,192,128489,1,0,0:0:0:0:
64,192,128489,1,0,0:0:0:0:
192,192,128717,1,0,0:0:0:0:
320,192,128717,1,0,0:0:0:0:
320,192,128944,1,0,0:0:0:0:
192,192,128944,1,0,0:0:0:0:
448,192,129171,1,0,0:0:0:0:
320,192,129171,1,0,0:0:0:0:
320,192,129398,1,0,0:0:0:0:
448,192,129398,1,0,0:0:0:0:
64,192,129626,1,0,0:0:0:0:
192,192,129626,1,0,0:0:0:0:
192,192,129853,1,0,0:0:0:0:
64,192,129853,1,0,0:0:0:0:
320,192,130080,1,0,0:0:0:0:
448,192,130080,1,0,0:0:0:0:
448,192,130307,1,0,0:0:0:0:
320,192,130307,1,0,0:0:0:0:
192,192,130535,1,0,0:0:0:0:
64,192,130535,1,0,0:0:0:0:
64,192,130762,1,0,0:0:0:0:
192,192,130762,1,0,0:0:0:0:
448,192,130989,1,0,0:0:0:0:
192,192,130989,1,0,0:0:0:0:
64,192,131103,1,0,0:0:0:0:
320,192,131103,1,0,0:0:0:0:
192,192,131217,1,0,0:0:0:0:
448,192,131217,1,0,0:0:0:0:
64,192,131330,1,0,0:0:0:0:
320,192,131444,1,0,0:0:0:0:
448,192,131444,1,0,0:0:0:0:
64,192,131557,1,0,0:0:0:0:
192,192,131557,1,0,0:0:0:0:
320,192,131671,1,0,0:0:0:0:
448,192,131671,1,0,0:0:0:0:
64,192,131785,1,0,0:0:0:0:
320,192,131898,1,0,0:0:0:0:
192,192,131898,1,0,0:0:0:0:
64,192,132012,1,0,0:0:0:0:
448,192,132012,1,0,0:0:0:0:
320,192,132126,1,0,0:0:0:0:
192,192,132126,1,0,0:0:0:0:
64,192,132239,1,0,0:0:0:0:
448,192,132353,1,0,0:0:0:0:
320,192,132353,1,0,0:0:0:0:
64,192,132467,1,0,0:0:0:0:
192,192,132467,1,0,0:0:0:0:
320,192,132580,1,0,0:0:0:0:
448,192,132580,1,0,0:0:0:0:
64,192,132694,1,0,0:0:0:0:
448,192,132807,1,0,0:0:0:0:
192,192,132807,1,0,0:0:0:0:
64,192,132921,1,0,0:0:0:0:
320,192,132921,1,0,0:0:0:0:
192,192,133035,1,0,0:0:0:0:
448,192,133035,1,0,0:0:0:0:
64,192,133148,1,0,0:0:0:0:
320,192,133262,1,0,0:0:0:0:
448,192,133262,1,0,0:0:0:0:
64,192,133376,1,0,0:0:0:0:
192,192,133376,1,0,0:0:0:0:
320,192,133489,1,0,0:0:0:0:
448,192,133489,1,0,0:0:0:0:
192,192,133603,1,0,0:0:0:0:
448,192,133717,1,0,0:0:0:0:
64,192,133717,1,0,0:0:0:0:
192,192,133830,1,0,0:0:0:0:
320,192,133830,1,0,0:0:0:0:
448,192,133944,1,0,0:0:0:0:
64,192,133944,1,0,0:0:0:0:
192,192,134057,1,0,0:0:0:0:
448,192,134171,1,0,0:0:0:0:
320,192,134171,1,0,0:0:0:0:
64,192,134285,1,0,0:0:0:0:
192,192,134285,1,0,0:0:0:0:
448,192,134398,1,0,0:0:0:0:
320,192,134398,1,0,0:0:0:0:
192,192,134512,1,0,0:0:0:0:
64,192,134512,128,0,135989:0:0:0:0:
448,192,136444,1,0,0:0:0:0:
64,192,136444,1,0,0:0:0:0:
320,192,136557,1,0,0:0:0:0:
192,192,136671,1,0,0:0:0:0:
64,192,136785,1,0,0:0:0:0:
448,192,136898,1,0,0:0:0:0:
320,192,137012,1,0,0:0:0:0:
64,192,137126,1,0,0:0:0:0:
192,192,137239,1,0,0:0:0:0:
448,192,137353,1,0,0:0:0:0:
320,192,137467,1,0,0:0:0:0:
64,192,137580,1,0,0:0:0:0:
448,192,137694,1,0,0:0:0:0:
320,192,137807,1,0,0:0:0:0:
192,192,137921,1,0,0:0:0:0:
64,192,138035,1,0,0:0:0:0:
448,192,138148,1,0,0:0:0:0:
192,192,138262,1,0,0:0:0:0:
64,192,138262,1,0,0:0:0:0:
448,192,138376,1,0,0:0:0:0:
320,192,138489,1,0,0:0:0:0:
64,192,138603,1,0,0:0:0:0:
448,192,138717,1,0,0:0:0:0:
320,192,138830,1,0,0:0:0:0:
192,192,138944,1,0,0:0:0:0:
64,192,139057,1,0,0:0:0:0:
448,192,139171,1,0,0:0:0:0:
320,192,139285,1,0,0:0:0:0:
192,192,139398,1,0,0:0:0:0:
448,192,139512,1,0,0:0:0:0:
320,192,139626,1,0,0:0:0:0:
64,192,139739,1,0,0:0:0:0:
192,192,139853,1,0,0:0:0:0:
448,192,139967,1,0,0:0:0:0:
320,192,140080,1,0,0:0:0:0:
192,192,140080,1,0,0:0:0:0:
448,192,140194,1,0,0:0:0:0:
64,192,140307,1,0,0:0:0:0:
192,192,140421,1,0,0:0:0:0:
448,192,140535,1,0,0:0:0:0:
64,192,140648,1,0,0:0:0:0:
192,192,140762,1,0,0:0:0:0:
320,192,140876,1,0,0:0:0:0:
64,192,140989,1,0,0:0:0:0:
192,192,141103,1,0,0:0:0:0:
320,192,141217,1,0,0:0:0:0:
448,192,141330,1,0,0:0:0:0:
64,192,141444,1,0,0:0:0:0:
320,192,141557,1,0,0:0:0:0:
448,192,141671,1,0,0:0:0:0:
192,192,141785,1,0,0:0:0:0:
448,192,141898,1,0,0:0:0:0:
64,192,141898,1,0,0:0:0:0:
192,192,142012,1,0,0:0:0:0:
320,192,142126,1,0,0:0:0:0:
448,192,142239,1,0,0:0:0:0:
64,192,142353,1,0,0:0:0:0:
192,192,142467,1,0,0:0:0:0:
448,192,142580,1,0,0:0:0:0:
320,192,142694,1,0,0:0:0:0:
64,192,142807,1,0,0:0:0:0:
192,192,142921,1,0,0:0:0:0:
448,192,143035,1,0,0:0:0:0:
64,192,143148,1,0,0:0:0:0:
192,192,143262,1,0,0:0:0:0:
320,192,143376,1,0,0:0:0:0:
448,192,143489,1,0,0:0:0:0:
64,192,143603,1,0,0:0:0:0:
320,192,143717,1,0,0:0:0:0:
192,192,143717,1,0,0:0:0:0:
448,192,143830,1,0,0:0:0:0:
320,192,143944,1,0,0:0:0:0:
192,192,144057,1,0,0:0:0:0:
64,192,144171,1,0,0:0:0:0:
448,192,144285,1,0,0:0:0:0:
320,192,144398,1,0,0:0:0:0:
64,192,144512,1,0,0:0:0:0:
192,192,144626,1,0,0:0:0:0:
320,192,144739,1,0,0:0:0:0:
448,192,144853,1,0,0:0:0:0:
64,192,144967,1,0,0:0:0:0:
192,192,145080,1,0,0:0:0:0:
448,192,145194,1,0,0:0:0:0:
320,192,145307,1,0,0:0:0:0:
192,192,145421,1,0,0:0:0:0:
64,192,145535,1,0,0:0:0:0:
448,192,145535,1,0,0:0:0:0:
320,192,145648,1,0,0:0:0:0:
192,192,145648,1,0,0:0:0:0:
64,192,145762,1,0,0:0:0:0:
448,192,145762,1,0,0:0:0:0:
192,192,145876,1,0,0:0:0:0:
320,192,145989,1,0,0:0:0:0:
448,192,145989,1,0,0:0:0:0:
192,192,146103,1,0,0:0:0:0:
64,192,146103,1,0,0:0:0:0:
320,192,146217,1,0,0:0:0:0:
448,192,146217,1,0,0:0:0:0:
64,192,146330,1,0,0:0:0:0:
448,192,146444,1,0,0:0:0:0:
192,192,146444,1,0,0:0:0:0:
320,192,146557,1,0,0:0:0:0:
64,192,146557,1,0,0:0:0:0:
192,192,146671,1,0,0:0:0:0:
448,192,146671,1,0,0:0:0:0:
64,192,146785,1,0,0:0:0:0:
320,192,146898,1,0,0:0:0:0:
448,192,146898,1,0,0:0:0:0:
192,192,147012,1,0,0:0:0:0:
64,192,147012,1,0,0:0:0:0:
320,192,147126,1,0,0:0:0:0:
448,192,147126,1,0,0:0:0:0:
192,192,147239,1,0,0:0:0:0:
64,192,147353,1,0,0:0:0:0:
320,192,147353,1,0,0:0:0:0:
448,192,147353,1,0,0:0:0:0:
192,192,148262,128,0,150535:0:0:0:0:
320,192,150535,1,0,0:0:0:0:
64,192,150535,1,0,0:0:0:0:
64,192,150989,128,0,154626:0:0:0:0:
448,192,150989,1,0,0:0:0:0:
192,192,150989,1,0,0:0:0:0:
192,192,151330,1,0,0:0:0:0:
448,192,151444,1,0,0:0:0:0:
320,192,151444,1,0,0:0:0:0:
320,192,151671,1,0,0:0:0:0:
448,192,152012,1,0,0:0:0:0:
192,192,152126,1,0,0:0:0:0:
320,192,152353,1,0,0:0:0:0:
448,192,152353,1,0,0:0:0:0:
320,192,152580,1,0,0:0:0:0:
192,192,152807,1,0,0:0:0:0:
448,192,153148,1,0,0:0:0:0:
192,192,153262,1,0,0:0:0:0:
320,192,153262,1,0,0:0:0:0:
320,192,153489,1,0,0:0:0:0:
192,192,153830,1,0,0:0:0:0:
448,192,153944,1,0,0:0:0:0:
320,192,154171,1,0,0:0:0:0:
192,192,154171,1,0,0:0:0:0:
320,192,154398,1,0,0:0:0:0:
448,192,154626,1,0,0:0:0:0:
192,192,154626,1,0,0:0:0:0:
320,192,154853,1,0,0:0:0:0:
64,192,154967,1,0,0:0:0:0:
192,192,154967,1,0,0:0:0:0:
320,192,155080,1,0,0:0:0:0:
448,192,155080,1,0,0:0:0:0:
192,192,155307,1,0,0:0:0:0:
64,192,155307,1,0,0:0:0:0:
448,192,155421,1,0,0:0:0:0:
192,192,155535,1,0,0:0:0:0:
320,192,155648,1,0,0:0:0:0:
448,192,155648,1,0,0:0:0:0:
64,192,155762,1,0,0:0:0:0:
192,192,155989,1,0,0:0:0:0:
320,192,155989,1,0,0:0:0:0:
64,192,156217,1,0,0:0:0:0:
192,192,156330,1,0,0:0:0:0:
448,192,156444,1,0,0:0:0:0:
320,192,156444,1,0,0:0:0:0:
320,192,156671,1,0,0:0:0:0:
64,192,156785,1,0,0:0:0:0:
192,192,156785,1,0,0:0:0:0:
320,192,156898,1,0,0:0:0:0:
448,192,156898,1,0,0:0:0:0:
192,192,157126,1,0,0:0:0:0:
64,192,157126,1,0,0:0:0:0:
448,192,157239,1,0,0:0:0:0:
192,192,157353,1,0,0:0:0:0:
320,192,157467,1,0,0:0:0:0:
448,192,157467,1,0,0:0:0:0:
64,192,157580,1,0,0:0:0:0:
192,192,157807,1,0,0:0:0:0:
320,192,157807,1,0,0:0:0:0:
448,192,158035,1,0,0:0:0:0:
320,192,158148,1,0,0:0:0:0:
192,192,158262,1,0,0:0:0:0:
64,192,158262,1,0,0:0:0:0:
448,192,158489,1,0,0:0:0:0:
192,192,158603,1,0,0:0:0:0:
64,192,158603,1,0,0:0:0:0:
448,192,158717,1,0,0:0:0:0:
320,192,158717,1,0,0:0:0:0:
64,192,158944,1,0,0:0:0:0:
192,192,158944,1,0,0:0:0:0:
320,192,159057,1,0,0:0:0:0:
64,192,159171,1,0,0:0:0:0:
448,192,159285,1,0,0:0:0:0:
320,192,159285,1,0,0:0:0:0:
192,192,159398,1,0,0:0:0:0:
448,192,159626,1,0,0:0:0:0:
64,192,159626,1,0,0:0:0:0:
192,192,159853,1,0,0:0:0:0:
320,192,159967,1,0,0:0:0:0:
64,192,160080,1,0,0:0:0:0:
448,192,160080,1,0,0:0:0:0:
320,192,160307,1,0,0:0:0:0:
192,192,160421,1,0,0:0:0:0:
64,192,160421,1,0,0:0:0:0:
448,192,160535,1,0,0:0:0:0:
320,192,160535,1,0,0:0:0:0:
64,192,160762,1,0,0:0:0:0:
192,192,160762,1,0,0:0:0:0:
448,192,160876,1,0,0:0:0:0:
64,192,160989,1,0,0:0:0:0:
448,192,161103,1,0,0:0:0:0:
320,192,161103,1,0,0:0:0:0:
192,192,161217,1,0,0:0:0:0:
448,192,161444,1,0,0:0:0:0:
64,192,161444,1,0,0:0:0:0:
192,192,161671,1,0,0:0:0:0:
448,192,161671,1,0,0:0:0:0:
64,192,162126,1,0,0:0:0:0:
320,192,162126,1,0,0:0:0:0:
448,192,162353,1,0,0:0:0:0:
64,192,162353,1,0,0:0:0:0:
192,192,162580,1,0,0:0:0:0:
448,192,162580,1,0,0:0:0:0:
448,192,163035,1,0,0:0:0:0:
192,192,163035,1,0,0:0:0:0:
64,192,163262,1,0,0:0:0:0:
448,192,163262,1,0,0:0:0:0:
64,192,163489,1,0,0:0:0:0:
192,192,163546,1,0,0:0:0:0:
448,192,163603,1,0,0:0:0:0:
320,192,163660,1,0,0:0:0:0:
192,192,163717,1,0,0:0:0:0:
64,192,163773,1,0,0:0:0:0:
320,192,163830,1,0,0:0:0:0:
448,192,163830,1,0,0:0:0:0:
64,192,163944,1,0,0:0:0:0:
192,192,164001,1,0,0:0:0:0:
320,192,164057,1,0,0:0:0:0:
448,192,164114,1,0,0:0:0:0:
192,192,164171,1,0,0:0:0:0:
64,192,164171,1,0,0:0:0:0:
320,192,164398,1,0,0:0:0:0:
448,192,164455,1,0,0:0:0:0:
192,192,164512,1,0,0:0:0:0:
64,192,164569,1,0,0:0:0:0:
320,192,164626,1,0,0:0:0:0:
448,192,164626,1,0,0:0:0:0:
64,192,164739,1,0,0:0:0:0:
448,192,164739,1,0,0:0:0:0:
192,192,164853,1,0,0:0:0:0:
320,192,164853,1,0,0:0:0:0:
64,192,164967,1,0,0:0:0:0:
192,192,164967,1,0,0:0:0:0:
320,192,165080,1,0,0:0:0:0:
448,192,165080,1,0,0:0:0:0:
192,192,165194,1,0,0:0:0:0:
64,192,165194,1,0,0:0:0:0:
192,192,165307,1,0,0:0:0:0:
64,192,165307,1,0,0:0:0:0:
320,192,165421,1,0,0:0:0:0:
448,192,165421,1,0,0:0:0:0:
448,192,165535,1,0,0:0:0:0:
320,192,165535,1,0,0:0:0:0:
64,192,165535,128,0,165762:0:0:0:0:
320,192,165876,128,0,166103:0:0:0:0:
448,192,165989,1,0,0:0:0:0:
64,192,165989,1,0,0:0:0:0:
192,192,166217,128,0,166444:0:0:0:0:
320,192,166444,1,0,0:0:0:0:
448,192,166557,128,0,166785:0:0:0:0:
64,192,166898,128,0,167126:0:0:0:0:
192,192,166898,1,0,0:0:0:0:
448,192,167126,1,0,0:0:0:0:
320,192,167239,1,0,0:0:0:0:
192,192,167353,1,0,0:0:0:0:
64,192,167353,128,0,167580:0:0:0:0:
448,192,167694,128,0,167921:0:0:0:0:
320,192,167807,1,0,0:0:0:0:
64,192,167807,1,0,0:0:0:0:
192,192,168035,128,0,168262:0:0:0:0:
448,192,168262,1,0,0:0:0:0:
64,192,168376,128,0,168603:0:0:0:0:
448,192,168717,128,0,168944:0:0:0:0:
320,192,168717,1,0,0:0:0:0:
64,192,168944,1,0,0:0:0:0:
192,192,169057,1,0,0:0:0:0:
320,192,169171,1,0,0:0:0:0:
448,192,169171,128,0,169398:0:0:0:0:
192,192,169512,128,0,169739:0:0:0:0:
64,192,169626,1,0,0:0:0:0:
448,192,169626,1,0,0:0:0:0:
320,192,169853,128,0,170080:0:0:0:0:
192,192,170080,1,0,0:0:0:0:
64,192,170194,128,0,170421:0:0:0:0:
448,192,170535,128,0,170762:0:0:0:0:
320,192,170535,1,0,0:0:0:0:
64,192,170762,1,0,0:0:0:0:
192,192,170876,1,0,0:0:0:0:
448,192,170989,128,0,171217:0:0:0:0:
320,192,170989,1,0,0:0:0:0:
64,192,171330,128,0,171557:0:0:0:0:
448,192,171444,1,0,0:0:0:0:
192,192,171444,1,0,0:0:0:0:
320,192,171671,128,0,171898:0:0:0:0:
64,192,171898,1,0,0:0:0:0:
448,192,172012,128,0,172239:0:0:0:0:
192,192,172353,1,0,0:0:0:0:
64,192,172353,128,0,172580:0:0:0:0:
448,192,172580,1,0,0:0:0:0:
320,192,172694,1,0,0:0:0:0:
192,192,172807,1,0,0:0:0:0:
64,192,172807,1,0,0:0:0:0:
448,192,172807,1,0,0:0:0:0:
64,192,173035,1,0,0:0:0:0:
192,192,173035,1,0,0:0:0:0:
320,192,173262,1,0,0:0:0:0:
448,192,173262,1,0,0:0:0:0:
64,192,173262,1,0,0:0:0:0:
320,192,173489,1,0,0:0:0:0:
448,192,173489,1,0,0:0:0:0:
192,192,173717,1,0,0:0:0:0:
64,192,173717,1,0,0:0:0:0:
448,192,173717,1,0,0:0:0:0:
64,192,173944,1,0,0:0:0:0:
192,192,173944,1,0,0:0:0:0:
320,192,174171,1,0,0:0:0:0:
448,192,174171,1,0,0:0:0:0:
64,192,174171,1,0,0:0:0:0:
448,192,174398,1,0,0:0:0:0:
320,192,174398,1,0,0:0:0:0:
192,192,174626,1,0,0:0:0:0:
64,192,174626,1,0,0:0:0:0:
320,192,174626,1,0,0:0:0:0:
192,192,174853,1,0,0:0:0:0:
64,192,174853,1,0,0:0:0:0:
320,192,175080,1,0,0:0:0:0:
448,192,175080,1,0,0:0:0:0:
192,192,175080,1,0,0:0:0:0:
448,192,175307,1,0,0:0:0:0:
320,192,175307,1,0,0:0:0:0:
320,192,175535,1,0,0:0:0:0:
64,192,175535,1,0,0:0:0:0:
192,192,175535,1,0,0:0:0:0:
64,192,175762,1,0,0:0:0:0:
192,192,175762,1,0,0:0:0:0:
192,192,175989,1,0,0:0:0:0:
320,192,175989,1,0,0:0:0:0:
448,192,175989,1,0,0:0:0:0:
448,192,176217,1,0,0:0:0:0:
320,192,176217,1,0,0:0:0:0:
64,192,176444,1,0,0:0:0:0:
192,192,176444,1,0,0:0:0:0:
320,192,176557,1,0,0:0:0:0:
448,192,176557,1,0,0:0:0:0:
192,192,176671,1,0,0:0:0:0:
64,192,176671,1,0,0:0:0:0:
448,192,176785,1,0,0:0:0:0:
320,192,176898,1,0,0:0:0:0:
192,192,176898,1,0,0:0:0:0:
64,192,177012,1,0,0:0:0:0:
448,192,177012,1,0,0:0:0:0:
192,192,177126,1,0,0:0:0:0:
320,192,177126,1,0,0:0:0:0:
448,192,177239,1,0,0:0:0:0:
64,192,177353,1,0,0:0:0:0:
320,192,177353,1,0,0:0:0:0:
192,192,177467,1,0,0:0:0:0:
448,192,177467,1,0,0:0:0:0:
320,192,177580,1,0,0:0:0:0:
64,192,177580,1,0,0:0:0:0:
192,192,177694,1,0,0:0:0:0:
448,192,177807,1,0,0:0:0:0:
320,192,177807,1,0,0:0:0:0:
192,192,177921,1,0,0:0:0:0:
64,192,177921,1,0,0:0:0:0:
320,192,178035,1,0,0:0:0:0:
448,192,178035,1,0,0:0:0:0:
192,192,178148,1,0,0:0:0:0:
64,192,178148,1,0,0:0:0:0:
320,192,178262,1,0,0:0:0:0:
448,192,178262,1,0,0:0:0:0:
448,192,178376,1,0,0:0:0:0:
320,192,178376,1,0,0:0:0:0:
192,192,178489,1,0,0:0:0:0:
64,192,178489,1,0,0:0:0:0:
64,192,178603,1,0,0:0:0:0:
192,192,178603,1,0,0:0:0:0:
320,192,178717,1,0,0:0:0:0:
448,192,178717,1,0,0:0:0:0:
448,192,178830,1,0,0:0:0:0:
320,192,178830,1,0,0:0:0:0:
192,192,178944,1,0,0:0:0:0:
64,192,178944,1,0,0:0:0:0:
64,192,179057,1,0,0:0:0:0:
192,192,179057,1,0,0:0:0:0:
320,192,179171,1,0,0:0:0:0:
448,192,179171,1,0,0:0:0:0:
448,192,179285,1,0,0:0:0:0:
320,192,179285,1,0,0:0:0:0:
192,192,179398,1,0,0:0:0:0:
64,192,179398,1,0,0:0:0:0:
64,192,179512,1,0,0:0:0:0:
192,192,179512,1,0,0:0:0:0:
320,192,179626,1,0,0:0:0:0:
448,192,179626,1,0,0:0:0:0:
192,192,180080,1,0,0:0:0:0:
64,192,180080,1,0,0:0:0:0:
448,192,180080,1,0,0:0:0:0:
320,192,180307,1,0,0:0:0:0:
192,192,180421,1,0,0:0:0:0:
64,192,180421,1,0,0:0:0:0:
448,192,180535,1,0,0:0:0:0:
320,192,180535,1,0,0:0:0:0:
64,192,180762,1,0,0:0:0:0:
192,192,180762,1,0,0:0:0:0:
448,192,180876,1,0,0:0:0:0:
192,192,180989,1,0,0:0:0:0:
448,192,181103,1,0,0:0:0:0:
320,192,181103,1,0,0:0:0:0:
64,192,181217,1,0,0:0:0:0:
320,192,181444,1,0,0:0:0:0:
192,192,181444,1,0,0:0:0:0:
64,192,181671,1,0,0:0:0:0:
192,192,181785,1,0,0:0:0:0:
320,192,181898,1,0,0:0:0:0:
448,192,181898,1,0,0:0:0:0:
320,192,182126,1,0,0:0:0:0:
192,192,182239,1,0,0:0:0:0:
64,192,182239,1,0,0:0:0:0:
448,192,182353,1,0,0:0:0:0:
320,192,182353,1,0,0:0:0:0:
64,192,182580,1,0,0:0:0:0:
192,192,182580,1,0,0:0:0:0:
448,192,182694,1,0,0:0:0:0:
192,192,182807,1,0,0:0:0:0:
448,192,182921,1,0,0:0:0:0:
320,192,182921,1,0,0:0:0:0:
64,192,183035,1,0,0:0:0:0:
320,192,183262,1,0,0:0:0:0:
192,192,183262,1,0,0:0:0:0:
64,192,183489,1,0,0:0:0:0:
192,192,183603,1,0,0:0:0:0:
320,192,183717,1,0,0:0:0:0:
448,192,183717,128,0,185307:0:0:0:0:
192,192,184057,1,0,0:0:0:0:
320,192,184171,1,0,0:0:0:0:
64,192,184171,1,0,0:0:0:0:
192,192,184398,1,0,0:0:0:0:
64,192,184626,1,0,0:0:0:0:
320,192,184626,1,0,0:0:0:0:
192,192,184739,1,0,0:0:0:0:
64,192,185080,1,0,0:0:0:0:
192,192,185080,1,0,0:0:0:0:
320,192,185307,128,0,185421:0:0:0:0:
192,192,185421,128,0,185535:0:0:0:0:
64,192,185535,128,0,187353:0:0:0:0:
448,192,185535,1,0,0:0:0:0:
320,192,185876,1,0,0:0:0:0:
448,192,185989,1,0,0:0:0:0:
192,192,185989,1,0,0:0:0:0:
320,192,186217,1,0,0:0:0:0:
192,192,186444,1,0,0:0:0:0:
448,192,186444,1,0,0:0:0:0:
320,192,186557,1,0,0:0:0:0:
320,192,186898,1,0,0:0:0:0:
448,192,186898,1,0,0:0:0:0:
320,192,187126,1,0,0:0:0:0:
192,192,187353,128,0,189171:0:0:0:0:
448,192,187353,1,0,0:0:0:0:
320,192,187694,1,0,0:0:0:0:
448,192,187807,1,0,0:0:0:0:
64,192,187807,1,0,0:0:0:0:
320,192,188035,1,0,0:0:0:0:
448,192,188262,1,0,0:0:0:0:
64,192,188262,1,0,0:0:0:0:
320,192,188376,1,0,0:0:0:0:
64,192,188717,1,0,0:0:0:0:
320,192,188717,1,0,0:0:0:0:
64,192,188944,1,0,0:0:0:0:
320,192,189171,128,0,190989:0:0:0:0:
448,192,189171,1,0,0:0:0:0:
192,192,189512,1,0,0:0:0:0:
448,192,189626,1,0,0:0:0:0:
64,192,189626,1,0,0:0:0:0:
192,192,189853,1,0,0:0:0:0:
64,192,190080,1,0,0:0:0:0:
448,192,190080,1,0,0:0:0:0:
192,192,190194,1,0,0:0:0:0:
192,192,190535,1,0,0:0:0:0:
448,192,190535,1,0,0:0:0:0:
192,192,190762,1,0,0:0:0:0:
448,192,190989,128,0,192807:0:0:0:0:
64,192,190989,1,0,0:0:0:0:
192,192,191330,1,0,0:0:0:0:
320,192,191444,1,0,0:0:0:0:
64,192,191444,1,0,0:0:0:0:
192,192,191671,1,0,0:0:0:0:
64,192,191898,1,0,0:0:0:0:
320,192,191898,1,0,0:0:0:0:
192,192,192012,1,0,0:0:0:0:
192,192,192353,1,0,0:0:0:0:
64,192,192353,1,0,0:0:0:0:
64,192,192580,1,0,0:0:0:0:
320,192,192580,1,0,0:0:0:0:
192,192,192807,1,0,0:0:0:0:
320,192,192807,1,0,0:0:0:0:
448,192,192921,1,0,0:0:0:0:
64,192,192921,1,0,0:0:0:0:
192,192,193035,1,0,0:0:0:0:
320,192,193035,1,0,0:0:0:0:
448,192,193148,1,0,0:0:0:0:
64,192,193262,1,0,0:0:0:0:
320,192,193262,1,0,0:0:0:0:
448,192,193376,1,0,0:0:0:0:
192,192,193376,1,0,0:0:0:0:
64,192,193489,1,0,0:0:0:0:
320,192,193489,1,0,0:0:0:0:
192,192,193603,1,0,0:0:0:0:
448,192,193717,1,0,0:0:0:0:
320,192,193717,1,0,0:0:0:0:
192,192,193830,1,0,0:0:0:0:
64,192,193830,1,0,0:0:0:0:
448,192,193944,1,0,0:0:0:0:
320,192,193944,1,0,0:0:0:0:
64,192,194057,1,0,0:0:0:0:
192,192,194171,1,0,0:0:0:0:
320,192,194171,1,0,0:0:0:0:
448,192,194171,1,0,0:0:0:0:
448,192,194626,1,0,0:0:0:0:
64,192,194626,1,0,0:0:0:0:
192,192,194739,1,0,0:0:0:0:
320,192,194853,1,0,0:0:0:0:
448,192,194967,1,0,0:0:0:0:
64,192,195080,1,0,0:0:0:0:
320,192,195194,1,0,0:0:0:0:
448,192,195307,1,0,0:0:0:0:
64,192,195421,1,0,0:0:0:0:
192,192,195535,1,0,0:0:0:0:
448,192,195648,1,0,0:0:0:0:
320,192,195762,1,0,0:0:0:0:
64,192,195876,1,0,0:0:0:0:
192,192,195989,1,0,0:0:0:0:
320,192,196103,1,0,0:0:0:0:
448,192,196217,1,0,0:0:0:0:
64,192,196330,1,0,0:0:0:0:
448,192,196444,1,0,0:0:0:0:
320,192,196557,1,0,0:0:0:0:
64,192,196671,1,0,0:0:0:0:
192,192,196785,1,0,0:0:0:0:
448,192,196898,1,0,0:0:0:0:
320,192,197012,1,0,0:0:0:0:
64,192,197126,1,0,0:0:0:0:
448,192,197239,1,0,0:0:0:0:
320,192,197353,1,0,0:0:0:0:
192,192,197467,1,0,0:0:0:0:
64,192,197580,1,0,0:0:0:0:
320,192,197694,1,0,0:0:0:0:
448,192,197807,1,0,0:0:0:0:
64,192,197807,1,0,0:0:0:0:
192,192,197807,1,0,0:0:0:0:
320,192,198262,128,0,200080:0:0:0:0:
192,192,198262,1,0,0:0:0:0:
64,192,200080,128,0,201898:0:0:0:0:
192,192,201898,128,0,203717:0:0:0:0:
64,192,203717,128,0,205535:0:0:0:0:
320,192,205535,128,0,207353:0:0:0:0:
64,192,207353,128,0,209171:0:0:0:0:
448,192,209171,128,0,210989:0:0:0:0:
192,192,210989,128,0,212807:0:0:0:0:
320,192,212807,128,0,216444:0:0:0:0:
