osu file format v14

[General]
AudioFilename: audio.mp3
AudioLeadIn: 0
PreviewTime: 75989
Countdown: 0
SampleSet: None
StackLeniency: 0.7
Mode: 3
LetterboxInBreaks: 0
SpecialStyle: 0
WidescreenStoryboard: 1

[Editor]
DistanceSpacing: 0.9
BeatDivisor: 4
GridSize: 4
TimelineZoom: 1.2

[Metadata]
Title:Blue Star
TitleUnicode:Blue Star
Artist:Hachioji-P feat. Hatsune Miku
ArtistUnicode:八王子P feat. 初音ミク
Creator:PnX
Version:Easy
Source:
Tags:
BeatmapID:1319695
BeatmapSetID:625976

[Difficulty]
HPDrainRate:7
CircleSize:4
OverallDifficulty:7
ApproachRate:5
SliderMultiplier:1.4
SliderTickRate:1

[Events]
//Background and Video events
0,0,"bgmiku.jpg",0,0
//Break Periods
//Storyboard Layer 0 (Background)
//Storyboard Layer 1 (Fail)
//Storyboard Layer 2 (Pass)
//Storyboard Layer 3 (Foreground)
//Storyboard Sound Samples

[TimingPoints]
3717,454.545454545455,4,1,0,100,1,0

[HitObjects]
64,192,3717,5,0,0:0:0:0:
64,192,4171,1,0,0:0:0:0:
64,192,4626,1,0,0:0:0:0:
64,192,5080,1,0,0:0:0:0:
448,192,5535,1,0,0:0:0:0:
448,192,5989,1,0,0:0:0:0:
448,192,6444,1,0,0:0:0:0:
448,192,6898,1,0,0:0:0:0:
192,192,7353,1,0,0:0:0:0:
192,192,7807,1,0,0:0:0:0:
192,192,8262,1,0,0:0:0:0:
192,192,8717,1,0,0:0:0:0:
320,192,9171,1,0,0:0:0:0:
320,192,9626,1,0,0:0:0:0:
320,192,10080,1,0,0:0:0:0:
320,192,10535,1,0,0:0:0:0:
64,192,10989,1,0,0:0:0:0:
64,192,11444,1,0,0:0:0:0:
448,192,11898,1,0,0:0:0:0:
448,192,12353,1,0,0:0:0:0:
192,192,12807,1,0,0:0:0:0:
192,192,13262,1,0,0:0:0:0:
320,192,13717,1,0,0:0:0:0:
320,192,14171,1,0,0:0:0:0:
64,192,14626,1,0,0:0:0:0:
64,192,15080,1,0,0:0:0:0:
448,192,15535,1,0,0:0:0:0:
320,192,15876,1,0,0:0:0:0:
192,192,16217,1,0,0:0:0:0:
320,192,17807,1,0,0:0:0:0:
64,192,18262,128,0,25535:0:0:0:0:
448,192,25535,1,0,0:0:0:0:
448,192,25989,1,0,0:0:0:0:
448,192,26444,1,0,0:0:0:0:
448,192,26898,1,0,0:0:0:0:
192,192,27353,1,0,0:0:0:0:
192,192,27807,1,0,0:0:0:0:
192,192,28262,1,0,0:0:0:0:
192,192,28717,1,0,0:0:0:0:
320,192,29171,128,0,30989:0:0:0:0:
448,192,30989,1,0,0:0:0:0:
64,192,32353,1,0,0:0:0:0:
448,192,32807,1,0,0:0:0:0:
192,192,33148,1,0,0:0:0:0:
320,192,33489,1,0,0:0:0:0:
64,192,33830,1,0,0:0:0:0:
448,192,34171,1,0,0:0:0:0:
64,192,34626,1,0,0:0:0:0:
320,192,34967,1,0,0:0:0:0:
192,192,35307,1,0,0:0:0:0:
448,192,35648,1,0,0:0:0:0:
64,192,35989,1,0,0:0:0:0:
448,192,36444,128,0,38262:0:0:0:0:
64,192,38262,128,0,40080:0:0:0:0:
192,192,40080,128,0,41898:0:0:0:0:
320,192,41898,128,0,43717:0:0:0:0:
448,192,43717,128,0,45535:0:0:0:0:
64,192,45535,128,0,46898:0:0:0:0:
448,192,46898,1,0,0:0:0:0:
192,192,47353,1,0,0:0:0:0:
448,192,49171,1,0,0:0:0:0:
448,192,50535,1,0,0:0:0:0:
192,192,50989,1,0,0:0:0:0:
64,192,52807,1,0,0:0:0:0:
320,192,54626,1,0,0:0:0:0:
192,192,56444,1,0,0:0:0:0:
448,192,58262,1,0,0:0:0:0:
64,192,59853,1,0,0:0:0:0:
448,192,60989,128,0,61444:0:0:0:0:
64,192,61444,128,0,61898:0:0:0:0:
448,192,61898,1,0,0:0:0:0:
64,192,62353,1,0,0:0:0:0:
320,192,63262,1,0,0:0:0:0:
192,192,63717,1,0,0:0:0:0:
64,192,64171,1,0,0:0:0:0:
448,192,64626,1,0,0:0:0:0:
320,192,65080,1,0,0:0:0:0:
64,192,65535,1,0,0:0:0:0:
448,192,65989,1,0,0:0:0:0:
192,192,66898,1,0,0:0:0:0:
320,192,67353,1,0,0:0:0:0:
64,192,67807,1,0,0:0:0:0:
448,192,68262,1,0,0:0:0:0:
192,192,68717,1,0,0:0:0:0:
64,192,69171,1,0,0:0:0:0:
448,192,69626,1,0,0:0:0:0:
192,192,70535,1,0,0:0:0:0:
320,192,70989,1,0,0:0:0:0:
64,192,71444,1,0,0:0:0:0:
192,192,71898,1,0,0:0:0:0:
448,192,72353,1,0,0:0:0:0:
64,192,72807,1,0,0:0:0:0:
320,192,73262,1,0,0:0:0:0:
192,192,73717,1,0,0:0:0:0:
192,192,74057,1,0,0:0:0:0:
448,192,74398,128,0,75989:0:0:0:0:
64,192,75989,1,0,0:0:0:0:
320,192,76444,1,0,0:0:0:0:
192,192,76785,1,0,0:0:0:0:
448,192,77126,1,0,0:0:0:0:
64,192,77467,1,0,0:0:0:0:
320,192,77807,1,0,0:0:0:0:
192,192,78262,1,0,0:0:0:0:
320,192,78603,1,0,0:0:0:0:
64,192,78944,1,0,0:0:0:0:
448,192,79285,1,0,0:0:0:0:
192,192,79626,1,0,0:0:0:0:
320,192,80080,1,0,0:0:0:0:
192,192,80421,1,0,0:0:0:0:
448,192,80762,1,0,0:0:0:0:
64,192,81103,1,0,0:0:0:0:
320,192,81444,1,0,0:0:0:0:
64,192,81898,1,0,0:0:0:0:
192,192,82239,1,0,0:0:0:0:
448,192,82580,1,0,0:0:0:0:
320,192,82921,1,0,0:0:0:0:
192,192,83262,1,0,0:0:0:0:
320,192,83717,1,0,0:0:0:0:
192,192,84057,1,0,0:0:0:0:
448,192,84398,1,0,0:0:0:0:
64,192,84739,1,0,0:0:0:0:
320,192,85080,1,0,0:0:0:0:
192,192,85535,1,0,0:0:0:0:
320,192,85876,1,0,0:0:0:0:
64,192,86217,1,0,0:0:0:0:
448,192,86557,1,0,0:0:0:0:
192,192,86898,1,0,0:0:0:0:
320,192,87126,1,0,0:0:0:0:
64,192,87580,1,0,0:0:0:0:
448,192,87807,1,0,0:0:0:0:
192,192,88035,1,0,0:0:0:0:
448,192,88489,1,0,0:0:0:0:
64,192,88717,1,0,0:0:0:0:
320,192,88944,128,0,89398:0:0:0:0:
192,192,89398,128,0,89853:0:0:0:0:
448,192,90080,128,0,90535:0:0:0:0:
64,192,90535,1,0,0:0:0:0:
320,192,90989,1,0,0:0:0:0:
320,192,91444,1,0,0:0:0:0:
320,192,91898,1,0,0:0:0:0:
320,192,92353,1,0,0:0:0:0:
192,192,92807,1,0,0:0:0:0:
192,192,93262,1,0,0:0:0:0:
192,192,93717,1,0,0:0:0:0:
192,192,94171,1,0,0:0:0:0:
448,192,94626,1,0,0:0:0:0:
448,192,95080,1,0,0:0:0:0:
448,192,95535,1,0,0:0:0:0:
448,192,95989,1,0,0:0:0:0:
64,192,96444,1,0,0:0:0:0:
64,192,96898,1,0,0:0:0:0:
64,192,97353,1,0,0:0:0:0:
64,192,97807,1,0,0:0:0:0:
320,192,98262,1,0,0:0:0:0:
320,192,98717,1,0,0:0:0:0:
192,192,99171,1,0,0:0:0:0:
192,192,99626,1,0,0:0:0:0:
448,192,100080,1,0,0:0:0:0:
448,192,100535,1,0,0:0:0:0:
64,192,100989,1,0,0:0:0:0:
64,192,101444,1,0,0:0:0:0:
320,192,101898,128,0,105080:0:0:0:0:
64,192,105080,1,0,0:0:0:0:
448,192,105535,128,0,105989:0:0:0:0:
64,192,106444,1,0,0:0:0:0:
192,192,106785,1,0,0:0:0:0:
320,192,107126,1,0,0:0:0:0:
448,192,108717,1,0,0:0:0:0:
64,192,109171,128,0,109626:0:0:0:0:
448,192,110080,1,0,0:0:0:0:
320,192,110421,1,0,0:0:0:0:
192,192,110762,1,0,0:0:0:0:
64,192,112353,1,0,0:0:0:0:
448,192,112807,128,0,113262:0:0:0:0:
64,192,113717,1,0,0:0:0:0:
192,192,114057,1,0,0:0:0:0:
320,192,114398,1,0,0:0:0:0:
448,192,115989,1,0,0:0:0:0:
64,192,116444,128,0,116898:0:0:0:0:
448,192,117353,1,0,0:0:0:0:
320,192,117694,1,0,0:0:0:0:
192,192,118035,128,0,118944:0:0:0:0:
64,192,118944,128,0,119626:0:0:0:0:
448,192,119626,1,0,0:0:0:0:
192,192,120080,1,0,0:0:0:0:
448,192,120421,1,0,0:0:0:0:
64,192,120762,1,0,0:0:0:0:
320,192,121103,1,0,0:0:0:0:
64,192,121444,1,0,0:0:0:0:
320,192,121898,1,0,0:0:0:0:
192,192,122239,1,0,0:0:0:0:
448,192,122580,1,0,0:0:0:0:
64,192,122921,1,0,0:0:0:0:
320,192,123262,1,0,0:0:0:0:
192,192,123717,1,0,0:0:0:0:
320,192,124057,1,0,0:0:0:0:
64,192,124398,1,0,0:0:0:0:
448,192,124739,1,0,0:0:0:0:
192,192,125080,1,0,0:0:0:0:
448,192,125535,1,0,0:0:0:0:
320,192,125876,1,0,0:0:0:0:
64,192,126217,1,0,0:0:0:0:
448,192,126557,1,0,0:0:0:0:
320,192,126898,1,0,0:0:0:0:
192,192,127353,1,0,0:0:0:0:
192,192,127807,1,0,0:0:0:0:
448,192,128262,1,0,0:0:0:0:
448,192,128717,1,0,0:0:0:0:
64,192,129171,1,0,0:0:0:0:
64,192,129626,1,0,0:0:0:0:
320,192,130080,1,0,0:0:0:0:
320,192,130535,1,0,0:0:0:0:
192,192,130989,128,0,134626:0:0:0:0:
448,192,136444,1,0,0:0:0:0:
320,192,138262,1,0,0:0:0:0:
192,192,140080,1,0,0:0:0:0:
64,192,141898,1,0,0:0:0:0:
448,192,143717,1,0,0:0:0:0:
320,192,145535,1,0,0:0:0:0:
192,192,147353,1,0,0:0:0:0:
448,192,150535,1,0,0:0:0:0:
64,192,150989,1,0,0:0:0:0:
448,192,151330,1,0,0:0:0:0:
192,192,151671,1,0,0:0:0:0:
320,192,152012,1,0,0:0:0:0:
64,192,152353,1,0,0:0:0:0:
448,192,152807,1,0,0:0:0:0:
192,192,153148,1,0,0:0:0:0:
320,192,153489,1,0,0:0:0:0:
64,192,153830,1,0,0:0:0:0:
448,192,154171,1,0,0:0:0:0:
192,192,154626,1,0,0:0:0:0:
320,192,154967,1,0,0:0:0:0:
64,192,155307,1,0,0:0:0:0:
448,192,155648,1,0,0:0:0:0:
192,192,155989,1,0,0:0:0:0:
320,192,156444,1,0,0:0:0:0:
64,192,156785,1,0,0:0:0:0:
448,192,157126,1,0,0:0:0:0:
320,192,157467,1,0,0:0:0:0:
192,192,157807,1,0,0:0:0:0:
64,192,158262,1,0,0:0:0:0:
448,192,158603,1,0,0:0:0:0:
192,192,158944,1,0,0:0:0:0:
320,192,159285,1,0,0:0:0:0:
64,192,159626,1,0,0:0:0:0:
448,192,160080,1,0,0:0:0:0:
64,192,160421,1,0,0:0:0:0:
320,192,160762,1,0,0:0:0:0:
192,192,161103,1,0,0:0:0:0:
448,192,161444,1,0,0:0:0:0:
64,192,161671,1,0,0:0:0:0:
320,192,162126,1,0,0:0:0:0:
192,192,162353,1,0,0:0:0:0:
448,192,162580,1,0,0:0:0:0:
192,192,163035,1,0,0:0:0:0:
320,192,163262,1,0,0:0:0:0:
64,192,163489,128,0,163944:0:0:0:0:
448,192,163944,128,0,164398:0:0:0:0:
192,192,164626,128,0,165080:0:0:0:0:
320,192,165080,1,0,0:0:0:0:
64,192,165535,1,0,0:0:0:0:
64,192,165989,1,0,0:0:0:0:
64,192,166444,1,0,0:0:0:0:
64,192,166898,1,0,0:0:0:0:
448,192,167353,1,0,0:0:0:0:
448,192,167807,1,0,0:0:0:0:
448,192,168262,1,0,0:0:0:0:
448,192,168717,1,0,0:0:0:0:
192,192,169171,1,0,0:0:0:0:
192,192,169626,1,0,0:0:0:0:
192,192,170080,1,0,0:0:0:0:
192,192,170535,1,0,0:0:0:0:
320,192,170989,1,0,0:0:0:0:
320,192,171444,1,0,0:0:0:0:
320,192,171898,1,0,0:0:0:0:
320,192,172353,1,0,0:0:0:0:
64,192,172807,1,0,0:0:0:0:
64,192,173262,1,0,0:0:0:0:
448,192,173717,1,0,0:0:0:0:
448,192,174171,1,0,0:0:0:0:
192,192,174626,1,0,0:0:0:0:
192,192,175080,1,0,0:0:0:0:
320,192,175535,1,0,0:0:0:0:
320,192,175989,1,0,0:0:0:0:
64,192,176444,128,0,179626:0:0:0:0:
448,192,179626,1,0,0:0:0:0:
192,192,180080,1,0,0:0:0:0:
320,192,180421,1,0,0:0:0:0:
64,192,180762,1,0,0:0:0:0:
448,192,181103,1,0,0:0:0:0:
192,192,181444,1,0,0:0:0:0:
320,192,181898,1,0,0:0:0:0:
64,192,182239,1,0,0:0:0:0:
448,192,182580,1,0,0:0:0:0:
192,192,182921,1,0,0:0:0:0:
320,192,183262,1,0,0:0:0:0:
64,192,183717,128,0,185535:0:0:0:0:
448,192,185535,128,0,190989:0:0:0:0:
64,192,190989,128,0,192807:0:0:0:0:
448,192,192807,128,0,194171:0:0:0:0:
192,192,194171,1,0,0:0:0:0:
320,192,194626,1,0,0:0:0:0:
64,192,197807,1,0,0:0:0:0:
320,192,198262,1,0,0:0:0:0:
64,192,200080,1,0,0:0:0:0:
192,192,201898,1,0,0:0:0:0:
64,192,203717,1,0,0:0:0:0:
320,192,205535,1,0,0:0:0:0:
64,192,207353,1,0,0:0:0:0:
448,192,209171,1,0,0:0:0:0:
192,192,210989,1,0,0:0:0:0:
320,192,212807,1,0,0:0:0:0:
